osu file format v14

[General]
AudioFilename: audio.mp3
AudioLeadIn: 0
PreviewTime: -1
Countdown: 1
SampleSet: Soft
StackLeniency: 0.7
Mode: 0
LetterboxInBreaks: 0
WidescreenStoryboard: 0

[Editor]
Bookmarks: 13308,26549,39791,46411,53032,72894,92756,105998,119239,132480,145722,178825,192067,205308,218549,231791,245032,258273,268204,281446,294687,307929,334411,360894,374135,384067,397308,410549,423791,435377,438687,451929,465170,478411,491653,504894,531377
DistanceSpacing: 0.4
BeatDivisor: 4
GridSize: 4
TimelineZoom: 1.9

[Metadata]
Title:Deeply Disturbed (Infected Remix) - remix
TitleUnicode:Deeply Disturbed (Infected Remix) - remix
Artist:Infected Mushroom
ArtistUnicode:Infected Mushroom
Creator:[Mahua]
Version:Unhappy
Source:
Tags:
BeatmapID:1761044
BeatmapSetID:841525

[Difficulty]
HPDrainRate:7
CircleSize:4
OverallDifficulty:8
ApproachRate:9
SliderMultiplier:1.4
SliderTickRate:1

[Events]
//Background and Video events
//Break Periods
2,59853,72144
2,100404,305523
2,327785,376282
2,384060,451179
2,464025,530627
//Storyboard Layer 0 (Background)
//Storyboard Layer 1 (Fail)
//Storyboard Layer 2 (Pass)
//Storyboard Layer 3 (Foreground)
//Storyboard Sound Samples

[TimingPoints]
67,413.793103448276,4,2,0,28,1,0
67,-133.333333333333,4,2,0,28,0,0
26549,-100,4,2,0,28,0,0
39791,-100,4,2,0,10,0,0
53032,-133.333333333333,4,2,0,61,0,0
92756,-80,4,2,0,61,0,0
307101,-156.25,4,2,0,61,0,0
307929,-117.647058823529,4,2,0,61,0,0
537998,-100,4,2,0,5,0,0

[HitObjects]
71,333,67,5,0,0:0:0:0:
100,336,273,1,0,0:0:0:0:
71,333,687,1,0,0:0:0:0:
56,360,893,1,0,0:0:0:0:
71,333,1308,1,0,0:0:0:0:
60,304,1514,1,0,0:0:0:0:
71,333,1929,1,0,0:0:0:0:
100,336,2135,1,0,0:0:0:0:
100,336,2549,1,0,0:0:0:0:
71,333,2755,1,0,0:0:0:0:
71,333,3377,5,0,0:0:0:0:
100,336,3583,1,0,0:0:0:0:
120,308,3998,1,0,0:0:0:0:
100,336,4204,1,0,0:0:0:0:
71,333,4618,1,0,0:0:0:0:
100,336,4824,1,0,0:0:0:0:
116,360,5239,1,0,0:0:0:0:
100,336,5445,1,0,0:0:0:0:
120,308,5860,1,0,0:0:0:0:
100,336,6067,2,0,P|160:328|225:315,1,105
272,248,6687,5,0,0:0:0:0:
288,340,6893,1,0,0:0:0:0:
368,352,7308,1,0,0:0:0:0:
280,328,7514,1,0,0:0:0:0:
224,380,7929,1,0,0:0:0:0:
296,324,8135,1,0,0:0:0:0:
272,248,8549,1,0,0:0:0:0:
288,340,8755,1,0,0:0:0:0:
288,340,9170,1,0,0:0:0:0:
272,248,9376,1,0,0:0:0:0:
272,248,9998,5,0,0:0:0:0:
352,260,10204,1,0,0:0:0:0:
272,248,10618,1,0,0:0:0:0:
360,248,10825,2,0,L|424:236,1,52.5000020027161
280,240,11239,1,0,0:0:0:0:
368,232,11445,1,0,0:0:0:0:
288,224,11860,1,0,0:0:0:0:
376,220,12066,1,0,0:0:0:0:
292,212,12273,1,0,0:0:0:0:
328,360,12480,5,0,0:0:0:0:
428,296,12687,2,0,P|460:224|456:176,1,105
432,100,13308,5,0,0:0:0:0:
356,64,13514,1,0,0:0:0:0:
432,80,13929,1,0,0:0:0:0:
488,24,14135,1,0,0:0:0:0:
356,36,14549,1,0,0:0:0:0:
300,96,14755,1,0,0:0:0:0:
220,124,15170,1,0,0:0:0:0:
292,88,15376,1,0,0:0:0:0:
156,76,15584,1,0,0:0:0:0:
76,36,15791,5,0,0:0:0:0:
40,108,15997,1,0,0:0:0:0:
32,100,16618,5,0,0:0:0:0:
84,176,16824,1,0,0:0:0:0:
28,240,17239,1,0,0:0:0:0:
84,164,17445,1,0,0:0:0:0:
160,212,17860,1,0,0:0:0:0:
76,160,18066,1,0,0:0:0:0:
4,216,18480,1,0,0:0:0:0:
80,168,18686,1,0,0:0:0:0:
112,84,19101,1,0,0:0:0:0:
88,176,19307,1,0,0:0:0:0:
96,180,19929,5,0,0:0:0:0:
180,152,20135,1,0,0:0:0:0:
176,144,20549,1,0,0:0:0:0:
256,180,20755,1,0,0:0:0:0:
252,196,21170,1,0,0:0:0:0:
336,164,21376,1,0,0:0:0:0:
336,164,21791,1,0,0:0:0:0:
252,196,21997,1,0,0:0:0:0:
48,276,22411,1,0,0:0:0:0:
128,312,22618,2,0,P|199:305|256:292,1,105.000004005432
64,352,23239,5,0,0:0:0:0:
128,296,23445,1,0,0:0:0:0:
88,364,23860,1,0,0:0:0:0:
128,280,24066,1,0,0:0:0:0:
120,360,24480,1,0,0:0:0:0:
120,268,24686,1,0,0:0:0:0:
140,356,25101,1,0,0:0:0:0:
112,260,25307,1,0,0:0:0:0:
44,184,25515,1,0,0:0:0:0:
64,360,25722,5,0,0:0:0:0:
116,244,25929,2,0,P|164:188|208:168,1,105.000004005432
280,192,26549,5,0,0:0:0:0:
364,212,26756,1,0,0:0:0:0:
420,140,27170,5,0,0:0:0:0:
364,220,27377,1,0,0:0:0:0:
360,232,27480,1,0,0:0:0:0:
356,244,27584,1,0,0:0:0:0:
352,260,27687,1,0,0:0:0:0:
352,276,27791,2,0,P|392:252|436:240,1,70
432,244,28101,1,0,0:0:0:0:
432,244,28411,5,0,0:0:0:0:
380,360,28618,1,0,0:0:0:0:
400,360,29032,5,0,0:0:0:0:
472,316,29239,1,0,0:0:0:0:
472,316,29860,5,0,0:0:0:0:
380,348,30067,1,0,0:0:0:0:
460,324,30480,5,0,0:0:0:0:
344,320,30687,1,0,0:0:0:0:
456,336,31101,5,0,0:0:0:0:
320,280,31308,1,0,0:0:0:0:
448,344,31722,5,0,0:0:0:0:
312,240,31929,1,0,0:0:0:0:
372,372,32342,5,0,0:0:0:0:
384,200,32549,2,0,P|424:168|452:248,1,140
408,276,33170,5,0,0:0:0:0:
328,324,33377,1,0,0:0:0:0:
340,336,33791,5,0,0:0:0:0:
248,296,33998,2,0,L|264:336,1,35
160,268,34204,2,0,L|176:312,1,35
108,344,34411,6,0,P|72:372|24:368,1,70
36,364,34722,1,0,0:0:0:0:
24,352,35032,5,0,0:0:0:0:
64,236,35239,1,0,0:0:0:0:
80,244,35653,5,0,0:0:0:0:
104,332,35860,1,0,0:0:0:0:
116,336,36480,5,0,0:0:0:0:
200,304,36687,1,0,0:0:0:0:
200,288,37101,5,0,0:0:0:0:
296,316,37308,2,0,P|344:328|380:328,1,70
360,240,37722,5,0,0:0:0:0:
336,152,37929,1,0,0:0:0:0:
344,140,38342,5,0,0:0:0:0:
348,240,38549,1,0,0:0:0:0:
416,312,38756,1,0,0:0:0:0:
436,160,38963,5,0,0:0:0:0:
308,156,39170,2,0,P|256:156|164:196,1,140
96,208,39791,5,0,0:0:0:0:
84,220,39894,1,0,0:0:0:0:
68,228,39998,2,0,P|40:192|56:156,1,70
156,300,40411,2,0,L|152:260,1,35
168,316,40618,2,0,L|132:344,1,35
176,296,40825,1,0,0:0:0:0:
256,336,40929,5,0,0:0:0:0:
272,352,41032,2,0,P|322:360|368:352,1,70
352,348,41446,6,0,L|340:384,1,35
380,252,41653,2,0,L|392:296,1,35
364,232,41860,2,0,P|420:256|456:252,1,70
360,136,42273,1,0,0:0:0:0:
268,168,42480,1,0,0:0:0:0:
192,224,42687,2,0,P|148:248|80:264,1,105
24,184,43101,6,0,L|12:136,1,35
52,72,43308,2,0,P|88:100|92:160,1,105
148,232,43722,1,0,0:0:0:0:
144,244,43825,1,0,0:0:0:0:
140,256,43929,1,0,0:0:0:0:
136,268,44032,1,0,0:0:0:0:
132,280,44135,2,0,L|140:328,1,35
208,360,44342,2,0,P|204:308|240:276,1,70
344,192,44756,5,0,0:0:0:0:
344,192,44860,1,0,0:0:0:0:
344,192,44963,2,0,P|360:240|332:296,1,105
276,332,45377,1,0,0:0:0:0:
276,332,45480,1,0,0:0:0:0:
244,256,45584,6,0,L|196:240,1,35
276,332,45791,1,0,0:0:0:0:
340,288,45998,2,0,P|388:280|480:320,1,140
256,192,48067,12,0,52825,0:0:0:0:
142,185,53032,6,0,L|245:180,1,90.0000034332277
142,185,53653,1,0,0:0:0:0:
142,185,53963,1,0,0:0:0:0:
142,185,54273,1,0,0:0:0:0:
142,185,54687,2,0,L|234:184,1,90.0000034332277
142,185,55308,1,0,0:0:0:0:
142,185,55515,1,0,0:0:0:0:
168,163,55825,1,0,0:0:0:0:
168,163,56342,1,0,0:0:0:0:
168,163,56549,2,0,L|228:153,1,45.0000017166138
168,163,56963,1,0,0:0:0:0:
168,163,57273,1,0,0:0:0:0:
168,163,57584,1,0,0:0:0:0:
168,163,57998,1,0,0:0:0:0:
168,163,58204,1,0,0:0:0:0:
168,163,58411,2,0,L|168:224,1,45.0000017166138
168,163,58825,1,0,0:0:0:0:
168,163,59135,1,0,0:0:0:0:
168,163,59653,5,0,0:0:0:0:
79,217,72894,5,0,0:0:0:0:
32,153,73101,2,0,P|75:142|129:140,1,90.0000034332277
79,217,73722,5,0,0:0:0:0:
32,153,73929,2,0,P|75:142|129:140,1,90.0000034332277
79,217,74549,5,0,0:0:0:0:
32,153,74756,2,0,P|75:142|129:140,1,90.0000034332277
79,217,75377,5,0,0:0:0:0:
32,153,75584,2,0,P|75:142|129:140,1,90.0000034332277
79,217,76204,5,0,0:0:0:0:
32,153,76411,2,0,P|75:142|129:140,1,90.0000034332277
79,217,77032,5,0,0:0:0:0:
32,153,77239,2,0,P|75:142|129:140,1,90.0000034332277
79,217,77860,5,0,0:0:0:0:
32,153,78067,2,0,P|75:142|129:140,1,90.0000034332277
79,217,78687,5,0,0:0:0:0:
168,218,78894,2,0,L|179:215,11,11.2500004291535
79,217,79515,5,0,0:0:0:0:
119,296,79722,1,0,0:0:0:0:
119,296,79825,2,0,P|180:306|191:318,1,67.5000025749207
79,217,80342,5,0,0:0:0:0:
119,296,80549,1,0,0:0:0:0:
119,296,80652,2,0,P|180:306|191:318,1,67.5000025749207
79,217,81170,5,0,0:0:0:0:
119,296,81377,1,0,0:0:0:0:
119,296,81480,2,0,P|180:306|191:318,1,67.5000025749207
79,217,81998,5,0,0:0:0:0:
119,296,82205,1,0,0:0:0:0:
119,296,82308,2,0,P|180:306|191:318,1,67.5000025749207
79,217,82825,5,0,0:0:0:0:
119,296,83032,1,0,0:0:0:0:
119,296,83135,2,0,P|180:306|191:318,1,67.5000025749207
79,217,83653,5,0,0:0:0:0:
119,296,83860,1,0,0:0:0:0:
119,296,83963,2,0,P|180:306|191:318,1,67.5000025749207
79,217,84480,5,0,0:0:0:0:
119,296,84687,1,0,0:0:0:0:
119,296,84790,2,0,P|180:306|191:318,1,67.5000025749207
79,217,85308,5,0,0:0:0:0:
119,296,85515,1,0,0:0:0:0:
119,296,85618,2,0,P|180:306|191:318,1,67.5000025749207
64,314,86135,5,0,0:0:0:0:
64,314,86239,1,0,0:0:0:0:
64,314,86342,1,0,0:0:0:0:
64,314,86446,1,0,0:0:0:0:
64,314,86549,5,0,0:0:0:0:
64,314,86653,1,0,0:0:0:0:
64,314,86756,1,0,0:0:0:0:
64,314,86860,1,0,0:0:0:0:
64,314,86963,5,0,0:0:0:0:
64,314,87067,1,0,0:0:0:0:
64,314,87170,1,0,0:0:0:0:
64,314,87274,1,0,0:0:0:0:
64,314,87377,5,0,0:0:0:0:
64,314,87481,1,0,0:0:0:0:
64,314,87584,1,0,0:0:0:0:
64,314,87688,1,0,0:0:0:0:
64,314,87791,5,0,0:0:0:0:
64,314,87895,1,0,0:0:0:0:
64,314,87998,1,0,0:0:0:0:
64,314,88102,1,0,0:0:0:0:
64,314,88204,5,0,0:0:0:0:
64,314,88308,1,0,0:0:0:0:
64,314,88411,1,0,0:0:0:0:
64,314,88515,1,0,0:0:0:0:
64,314,88618,5,0,0:0:0:0:
64,314,88722,1,0,0:0:0:0:
64,314,88825,1,0,0:0:0:0:
64,314,88929,1,0,0:0:0:0:
64,314,89032,5,0,0:0:0:0:
64,314,89136,1,0,0:0:0:0:
64,314,89239,1,0,0:0:0:0:
64,314,89343,1,0,0:0:0:0:
27,231,89446,6,0,L|23:212,4,11.2500004291535
64,314,89756,1,0,0:0:0:0:
64,314,89860,1,0,0:0:0:0:
64,314,89963,1,0,0:0:0:0:
64,314,90067,1,0,0:0:0:0:
64,314,90170,1,0,0:0:0:0:
27,231,90273,6,0,L|23:212,4,11.2500004291535
64,314,90583,1,0,0:0:0:0:
64,314,90687,1,0,0:0:0:0:
64,314,90790,1,0,0:0:0:0:
64,314,90894,1,0,0:0:0:0:
64,314,90997,1,0,0:0:0:0:
27,231,91101,6,0,L|23:212,4,11.2500004291535
64,314,91411,1,0,0:0:0:0:
64,314,91515,1,0,0:0:0:0:
64,314,91618,1,0,0:0:0:0:
64,314,91722,1,0,0:0:0:0:
64,314,91825,1,0,0:0:0:0:
27,231,91929,6,0,L|23:212,4,11.2500004291535
64,314,92239,1,0,0:0:0:0:
27,231,92342,6,0,L|23:212,7,11.2500004291535
77,306,92756,6,0,L|23:297,2,37.5
166,361,93170,1,0,0:0:0:0:
175,317,93273,1,0,0:0:0:0:
200,279,93377,1,0,0:0:0:0:
241,261,93480,1,0,0:0:0:0:
286,257,93584,2,0,P|327:262|363:286,1,75
359,357,93894,1,0,0:0:0:0:
359,357,93998,2,0,L|400:354,1,37.5
472,233,94204,1,0,0:0:0:0:
445,297,94411,5,0,0:0:0:0:
445,297,94618,1,0,0:0:0:0:
476,138,94825,1,0,0:0:0:0:
417,69,95032,2,0,L|374:64,1,37.5
348,28,95239,1,0,0:0:0:0:
269,71,95446,2,0,P|252:119|251:151,1,75
261,157,95756,1,0,0:0:0:0:
259,175,95860,1,0,0:0:0:0:
267,191,95963,1,0,0:0:0:0:
320,262,96067,5,0,0:0:0:0:
227,347,96273,2,0,P|188:320|138:309,1,75
150,296,96584,1,0,0:0:0:0:
138,281,96687,1,0,0:0:0:0:
126,266,96791,1,0,0:0:0:0:
113,252,96894,1,0,0:0:0:0:
38,194,97101,1,0,0:0:0:0:
41,175,97204,1,0,0:0:0:0:
44,156,97308,2,0,L|61:69,1,75
21,20,97722,5,0,0:0:0:0:
21,20,97929,1,0,0:0:0:0:
141,141,98135,1,0,0:0:0:0:
168,17,98342,2,0,L|152:62,1,37.5
168,17,98549,1,0,0:0:0:0:
268,32,98756,2,0,P|286:86|273:126,1,75
272,117,99067,1,0,0:0:0:0:
261,132,99170,1,0,0:0:0:0:
250,147,99273,1,0,0:0:0:0:
256,230,99377,6,0,L|172:224,1,75
96,284,99791,1,0,0:1:0:0:
90,301,99894,1,0,0:1:0:0:
95,319,99998,1,0,0:1:0:0:
105,334,100101,1,0,0:1:0:0:
122,341,100204,1,0,0:1:0:0:
256,192,306273,12,0,306998,0:0:0:0:
124,343,307101,6,0,P|149:329|197:328,1,67.5000025749207
208,333,307515,2,0,P|183:347|135:348,1,67.5000025749207
8,258,307929,5,0,0:0:0:0:
8,258,308342,1,0,0:0:0:0:
29,176,308549,2,0,P|99:155|143:182,1,120
274,311,309170,2,0,L|339:318,1,60
361,306,309584,6,0,P|308:296|282:334,1,90
361,306,309998,6,0,P|308:296|282:334,1,90
337,359,310411,6,0,L|446:343,1,90
468,360,310825,1,0,0:0:0:0:
486,219,311032,1,0,0:0:0:0:
499,72,311239,5,0,0:0:0:0:
499,72,311653,1,0,0:0:0:0:
421,27,311860,2,0,P|381:22|298:51,1,120
254,129,312480,2,0,P|211:155|177:162,1,60
49,209,312894,2,0,L|35:337,1,120
114,360,313515,1,0,0:0:0:0:
183,299,313722,5,0,0:0:0:0:
183,299,313929,1,0,0:0:0:0:
272,319,314135,1,0,0:0:0:0:
272,319,314342,1,0,0:0:0:0:
427,358,314549,5,0,0:1:0:0:
427,358,314963,1,0,0:1:0:0:
489,299,315170,2,0,P|493:253|446:193,1,120
414,131,315791,2,0,L|326:142,1,60
273,35,316204,5,0,0:1:0:0:
273,35,316618,2,0,P|231:28|172:57,1,90
157,93,317032,6,0,P|111:124|46:102,1,120
29,35,317653,2,0,L|23:8,3,15
28,188,317860,5,0,0:0:0:0:
28,188,318273,1,0,0:0:0:0:
8,264,318480,2,0,L|12:286,1,15
205,332,319101,1,0,0:0:0:0:
99,323,319515,6,0,P|128:252|177:235,1,120
277,276,320135,2,0,L|301:278,3,15
232,211,320342,6,0,P|226:166|249:121,1,90
322,88,320756,2,0,P|328:133|305:178,1,90
240,28,321170,5,0,0:0:0:0:
240,28,321584,1,0,0:0:0:0:
240,28,321791,2,0,P|285:42|314:37,1,60
377,83,322204,1,0,0:0:0:0:
442,37,322411,2,0,L|463:33,6,15
450,129,322825,6,0,L|458:151,1,15
371,231,323239,2,0,L|366:251,1,15
238,243,323653,6,0,L|137:278,1,90
46,233,324067,1,0,0:0:0:0:
20,124,324273,1,0,0:0:0:0:
99,42,324480,6,0,B|146:41|146:41|204:107,1,120
239,257,325101,2,0,B|192:258|192:258|134:192,1,120
292,169,325722,2,0,L|346:120,1,60
469,29,326135,5,0,0:0:0:0:
469,29,326549,1,0,0:0:0:0:
469,29,326756,1,0,0:0:0:0:
403,106,326963,2,0,P|394:128|413:172,1,60
479,223,327377,2,0,P|488:201|469:157,1,60
256,192,377032,12,0,383860,0:0:0:0:
460,320,451929,5,0,0:0:0:0:
448,300,452032,1,0,0:0:0:0:
448,276,452135,1,0,0:0:0:0:
456,256,452239,1,0,0:0:0:0:
448,68,452756,5,0,0:0:0:0:
452,92,452860,1,0,0:0:0:0:
452,116,452963,1,0,0:0:0:0:
444,136,453067,1,0,0:0:0:0:
432,156,453170,1,0,0:0:0:0:
416,172,453273,1,0,0:0:0:0:
392,176,453377,1,0,0:0:0:0:
368,180,453480,1,0,0:0:0:0:
264,216,453584,5,0,0:0:0:0:
284,224,453687,1,0,0:0:0:0:
304,236,453791,1,0,0:0:0:0:
320,252,453894,1,0,0:0:0:0:
460,320,455239,5,0,0:0:0:0:
448,300,455342,1,0,0:0:0:0:
448,276,455445,1,0,0:0:0:0:
456,256,455549,1,0,0:0:0:0:
448,68,456066,5,0,0:0:0:0:
452,92,456170,1,0,0:0:0:0:
452,116,456273,1,0,0:0:0:0:
444,136,456377,1,0,0:0:0:0:
432,156,456480,1,0,0:0:0:0:
416,172,456583,1,0,0:0:0:0:
392,176,456687,1,0,0:0:0:0:
368,180,456790,1,0,0:0:0:0:
264,216,456894,5,0,0:0:0:0:
284,224,456997,1,0,0:0:0:0:
304,236,457101,1,0,0:0:0:0:
320,252,457204,1,0,0:0:0:0:
460,320,458549,5,0,0:0:0:0:
448,300,458652,1,0,0:0:0:0:
448,276,458755,1,0,0:0:0:0:
456,256,458859,1,0,0:0:0:0:
448,68,459376,5,0,0:0:0:0:
452,92,459480,1,0,0:0:0:0:
452,116,459583,1,0,0:0:0:0:
444,136,459687,1,0,0:0:0:0:
432,156,459790,1,0,0:0:0:0:
416,172,459893,1,0,0:0:0:0:
392,176,459997,1,0,0:0:0:0:
368,180,460100,1,0,0:0:0:0:
264,216,460204,5,0,0:0:0:0:
284,224,460307,1,0,0:0:0:0:
304,236,460411,1,0,0:0:0:0:
320,252,460514,1,0,0:0:0:0:
460,320,461860,5,0,0:0:0:0:
448,300,461963,1,0,0:0:0:0:
448,276,462066,1,0,0:0:0:0:
456,256,462170,1,0,0:0:0:0:
448,68,462687,5,0,0:0:0:0:
452,92,462791,1,0,0:0:0:0:
452,116,462894,1,0,0:0:0:0:
444,136,462998,1,0,0:0:0:0:
432,156,463101,1,0,0:0:0:0:
416,172,463204,1,0,0:0:0:0:
392,176,463308,1,0,0:0:0:0:
368,180,463411,1,0,0:0:0:0:
264,216,463515,5,0,0:0:0:0:
284,224,463618,1,0,0:0:0:0:
304,236,463722,1,0,0:0:0:0:
320,252,463825,1,0,0:0:0:0:
56,320,531377,5,0,0:0:0:0:
256,192,531480,12,0,537998,0:0:0:0:
