osu file format v14

[General]
AudioFilename: Kadafi.mp3
AudioLeadIn: 0
PreviewTime: 407532
Countdown: 0
SampleSet: Soft
StackLeniency: 0.7
Mode: 0
LetterboxInBreaks: 0
WidescreenStoryboard: 0

[Editor]
DistanceSpacing: 0.5
BeatDivisor: 8
GridSize: 32
TimelineZoom: 2.899999

[Metadata]
Title:Dancing With Kadafi
TitleUnicode:Dancing With Kadafi
Artist:Infected Mushroom
ArtistUnicode:Infected Mushroom
Creator:CircleChu
Version:Infecting Dance
Source:
Tags:
BeatmapID:1641423
BeatmapSetID:781566

[Difficulty]
HPDrainRate:5.4
CircleSize:3.5
OverallDifficulty:8.4
ApproachRate:9.5
SliderMultiplier:2.5
SliderTickRate:1

[Events]
//Background and Video events
0,0,"Kadafi.jpg",0,0
//Break Periods
2,112232,127007
2,192232,207007
2,312232,315007
2,504232,511507
2,552232,559507
//Storyboard Layer 0 (Background)
//Storyboard Layer 1 (Fail)
//Storyboard Layer 2 (Pass)
//Storyboard Layer 3 (Foreground)
//Storyboard Sound Samples

[TimingPoints]
32,500,4,2,0,40,1,0
48032,-166.666666666667,4,2,0,40,0,0
55282,-142.857142857143,4,2,0,40,0,0
55532,-125,4,2,0,40,0,0
55782,-111.111111111111,4,2,0,30,0,0
56032,-166.666666666667,4,2,0,40,0,0
64032,-166.666666666667,4,2,0,20,0,0
76532,-153.846153846154,4,2,0,25,0,0
77032,-142.857142857143,4,2,0,30,0,0
77532,-133.333333333333,4,2,0,35,0,0
78032,-125,4,2,0,40,0,0
78532,-117.647058823529,4,2,0,45,0,0
79032,-111.111111111111,4,2,0,50,0,0
80032,-100,4,2,0,55,0,0
127532,-200,4,2,0,30,0,0
128032,-133.333333333333,4,2,0,40,0,0
144032,-117.647058823529,4,2,0,45,0,0
160032,-117.647058823529,4,2,0,65,0,1
192032,-117.647058823529,4,2,0,65,0,0
207532,-142.857142857143,4,2,0,40,0,0
208032,-142.857142857143,4,2,0,45,0,0
224032,-125,4,2,0,55,0,0
312032,-166.666666666667,4,2,0,25,0,0
337907,-166.666666666667,4,2,0,5,0,0
338032,-166.666666666667,4,2,0,25,0,0
352032,-166.666666666667,4,2,0,40,0,0
368032,-166.666666666667,4,2,0,35,0,0
392032,-125,4,2,0,50,0,0
408032,-100,4,2,0,70,0,1
470032,-100,4,2,0,55,0,1
472032,-125,4,2,0,45,0,0
512032,-200,4,2,0,35,0,0
512282,-166.666666666667,4,2,0,35,0,0
512532,-125,4,2,0,35,0,0
512782,-142.857142857143,4,2,0,35,0,0
513032,-100,4,2,0,35,0,0
513282,-125,4,2,0,35,0,0
513532,-111.111111111111,4,2,0,35,0,0
513782,-142.857142857143,4,2,0,35,0,0
514032,-200,4,2,0,35,0,0
514282,-166.666666666667,4,2,0,35,0,0
514532,-125,4,2,0,35,0,0
514782,-142.857142857143,4,2,0,35,0,0
515032,-100,4,2,0,35,0,0
515282,-125,4,2,0,35,0,0
515532,-111.111111111111,4,2,0,35,0,0
515782,-142.857142857143,4,2,0,35,0,0
516032,-125,4,2,0,35,0,0
516282,-111.111111111111,4,2,0,35,0,0
516532,-90.9090909090909,4,2,0,35,0,0
516782,-100,4,2,0,35,0,0
517032,-76.9230769230769,4,2,0,35,0,0
517282,-90.9090909090909,4,2,0,35,0,0
517532,-83.3333333333333,4,2,0,35,0,0
517782,-100,4,2,0,35,0,0
518032,-142.857142857143,4,2,0,35,0,0
518282,-125,4,2,0,35,0,0
518532,-142.857142857143,4,2,0,35,0,0
518782,-125,4,2,0,35,0,0
519032,-100,4,2,0,35,0,0
519282,-111.111111111111,4,2,0,35,0,0
519532,-125,4,2,0,35,0,0
519782,-111.111111111111,4,2,0,35,0,0
520032,-200,4,2,0,35,0,0
520282,-166.666666666667,4,2,0,35,0,0
520532,-125,4,2,0,35,0,0
520782,-142.857142857143,4,2,0,35,0,0
521032,-100,4,2,0,35,0,0
521282,-125,4,2,0,35,0,0
521532,-111.111111111111,4,2,0,35,0,0
521782,-142.857142857143,4,2,0,35,0,0
522032,-200,4,2,0,35,0,0
522282,-166.666666666667,4,2,0,35,0,0
522532,-125,4,2,0,35,0,0
522782,-142.857142857143,4,2,0,35,0,0
523032,-100,4,2,0,35,0,0
523282,-125,4,2,0,35,0,0
523532,-111.111111111111,4,2,0,35,0,0
523782,-142.857142857143,4,2,0,35,0,0
524032,-125,4,2,0,35,0,0
524282,-111.111111111111,4,2,0,35,0,0
524532,-90.9090909090909,4,2,0,35,0,0
524782,-100,4,2,0,35,0,0
525032,-76.9230769230769,4,2,0,35,0,0
525282,-90.9090909090909,4,2,0,35,0,0
525532,-83.3333333333333,4,2,0,35,0,0
525782,-100,4,2,0,35,0,0
526032,-142.857142857143,4,2,0,35,0,0
526282,-125,4,2,0,35,0,0
526532,-111.111111111111,4,2,0,35,0,0
526782,-142.857142857143,4,2,0,35,0,0
527032,-125,4,2,0,35,0,0
527282,-111.111111111111,4,2,0,35,0,0
527532,-90.9090909090909,4,2,0,35,0,0
527782,-100,4,2,0,35,0,0
528032,-142.857142857143,4,2,0,35,0,0
536032,-117.647058823529,4,2,0,50,0,0
560032,-142.857142857143,4,2,0,35,0,0
568032,-100,4,2,0,70,0,1
600032,-166.666666666667,4,2,0,30,0,0

[HitObjects]
112,72,48032,6,0,P|104:109|108:146,1,74.9999977111817,4|0,0:0|0:0,0:0:0:0:
127,164,48407,1,0,0:0:0:0:
145,182,48532,2,0,L|135:274,1,74.9999977111817,8|0,0:0|0:0,0:0:0:0:
39,330,49032,1,0,0:0:0:0:
233,277,49282,1,0,0:0:0:0:
315,126,49532,1,8,0:0:0:0:
306,151,49657,1,0,0:0:0:0:
310,176,49782,1,0,0:0:0:0:
326,196,49907,1,0,0:0:0:0:
383,72,50032,6,0,P|420:64|454:48,1,74.9999977111817
361,63,50407,1,0,0:0:0:0:
339,49,50532,2,0,L|277:55,1,37.4999988555909,10|0,0:0|0:0,0:0:0:0:
180,81,50782,2,0,L|143:78,1,37.4999988555909,2|0,0:0|0:0,0:0:0:0:
340,227,51032,6,0,P|344:245|346:264,1,37.4999988555909,2|0,0:0|0:0,0:0:0:0:
270,125,51282,2,0,P|286:134|300:146,1,37.4999988555909,2|0,0:0|0:0,0:0:0:0:
324,351,51532,1,8,0:0:0:0:
103,308,51782,1,0,0:0:0:0:
128,312,51907,1,0,0:0:0:0:
154,306,52032,6,0,P|183:282|201:250,1,74.9999977111817,0|0,0:0|0:0,0:0:0:0:
110,222,52407,1,0,0:0:0:0:
26,336,52532,2,0,P|36:353|52:371,1,37.4999988555909,10|0,0:0|0:0,0:0:0:0:
201,250,52782,2,0,L|186:158,1,74.9999977111817,2|0,0:0|0:0,0:0:0:0:
245,326,53282,1,0,0:0:0:0:
43,160,53532,1,8,0:0:0:0:
22,176,53657,2,0,L|27:213,2,37.4999988555909,0|0|0,0:0|0:0|0:0,0:0:0:0:
122,76,54032,6,0,P|133:111|135:149,1,74.9999977111817,0|0,0:0|0:0,0:0:0:0:
125,173,54407,1,0,0:0:0:0:
117,198,54532,2,0,P|151:183|187:175,1,74.9999977111817,8|0,0:0|0:0,0:0:0:0:
214,176,54907,1,0,0:0:0:0:
238,184,55032,2,0,L|255:228,1,37.4999988555909,0|0,0:0|0:0,0:0:0:0:
398,327,55282,6,0,P|376:321|355:319,1,43.749998664856,2|0,0:0|0:0,0:0:0:0:
354,207,55532,2,0,P|375:194|400:189,1,50,10|0,0:0|0:0,0:0:0:0:
341,51,55782,2,0,P|320:70|308:95,1,56.2499982833863,2|0,0:0|0:0,0:0:0:0:
250,373,56032,6,0,P|239:337|237:299,1,74.9999977111817,6|0,0:0|0:0,0:0:0:0:
253,278,56407,1,0,0:0:0:0:
237,299,56532,2,0,P|235:261|225:226,1,74.9999977111817,8|0,0:0|0:0,0:0:0:0:
125,118,57032,1,0,0:0:0:0:
76,275,57282,1,0,0:0:0:0:
211,43,57532,1,8,0:0:0:0:
220,67,57657,1,0,0:0:0:0:
240,83,57782,1,0,0:0:0:0:
266,84,57907,1,0,0:0:0:0:
125,118,58032,6,0,P|97:142|62:154,1,74.9999977111817,2|0,0:0|0:0,0:0:0:0:
135,93,58407,1,0,0:0:0:0:
193,165,58532,2,0,P|194:203|185:239,1,74.9999977111817,8|0,0:0|0:0,0:0:0:0:
29,293,59032,1,2,0:0:0:0:
49,59,59282,1,2,0:0:0:0:
143,318,59532,2,0,P|178:328|216:326,1,74.9999977111817,8|0,0:0|0:0,0:0:0:0:
241,318,59907,1,0,0:0:0:0:
263,305,60032,5,0,0:0:0:0:
178,202,60282,2,0,P|178:220|185:238,1,37.4999988555909,2|0,0:0|0:0,0:0:0:0:
285,197,60532,2,0,P|298:209|315:217,1,37.4999988555909,10|0,0:0|0:0,0:0:0:0:
359,122,60782,2,0,P|397:123|432:111,1,74.9999977111817,2|0,0:0|0:0,0:0:0:0:
460,11,61282,1,0,0:0:0:0:
496,229,61532,5,10,0:0:0:0:
477,209,61657,1,2,0:0:0:0:
444,199,61782,1,2,0:0:0:0:
416,210,61907,1,2,0:0:0:0:
398,229,62032,6,0,L|392:273,1,37.4999988555909,4|0,0:0|0:0,0:0:0:0:
318,299,62282,2,0,L|324:343,1,37.4999988555909,2|0,0:0|0:0,0:0:0:0:
431,276,62532,2,0,L|426:314,1,37.4999988555909,8|0,0:0|0:0,0:0:0:0:
277,259,62782,2,0,L|283:303,1,37.4999988555909,2|0,0:0|0:0,0:0:0:0:
338,134,63032,6,0,P|355:125|373:119,1,37.4999988555909,4|0,0:0|0:0,0:0:0:0:
242,174,63282,2,0,P|224:168|207:159,1,37.4999988555909,2|0,0:0|0:0,0:0:0:0:
264,35,63532,2,0,P|280:26|298:20,1,37.4999988555909,8|0,0:0|0:0,0:0:0:0:
167,74,63782,2,0,P|149:68|132:59,1,37.4999988555909,2|0,0:0|0:0,0:0:0:0:
45,138,64032,5,4,0:0:0:0:
124,322,64282,1,0,0:0:0:0:
130,285,64407,1,0,0:0:0:0:
242,174,64657,1,0,0:0:0:0:
248,211,64782,1,0,0:0:0:0:
463,231,65032,5,8,0:0:0:0:
376,146,65282,1,0,0:0:0:0:
352,175,65407,1,0,0:0:0:0:
339,210,65532,1,0,0:0:0:0:
341,248,65657,1,0,0:0:0:0:
355,282,65782,1,0,0:0:0:0:
242,174,66032,5,8,0:0:0:0:
110,328,66282,1,0,0:0:0:0:
150,347,66407,1,0,0:0:0:0:
109,148,66657,1,0,0:0:0:0:
123,189,66782,1,0,0:0:0:0:
205,24,67032,5,8,0:0:0:0:
369,93,67282,1,0,0:0:0:0:
413,58,67407,1,0,0:0:0:0:
246,135,67657,1,0,0:0:0:0:
238,192,67782,1,0,0:0:0:0:
315,345,68032,5,8,0:0:0:0:
435,200,68282,1,0,0:0:0:0:
365,175,68407,1,0,0:0:0:0:
180,305,68657,1,0,0:0:0:0:
250,280,68782,1,0,0:0:0:0:
439,348,69032,5,8,0:0:0:0:
182,217,69282,1,0,0:0:0:0:
149,141,69407,1,0,0:0:0:0:
48,20,69657,1,0,0:0:0:0:
17,97,69782,1,0,0:0:0:0:
180,305,70032,5,8,0:0:0:0:
337,115,70282,1,0,0:0:0:0:
246,135,70407,1,0,0:0:0:0:
383,22,70657,1,0,0:0:0:0:
474,42,70782,1,0,0:0:0:0:
260,51,71032,5,8,0:0:0:0:
250,330,71282,1,0,0:0:0:0:
180,305,71407,1,0,0:0:0:0:
280,215,71657,1,0,0:0:0:0:
332,268,71782,1,0,0:0:0:0:
406,277,71907,1,0,0:0:0:0:
475,248,72032,2,0,L|489:185,1,37.4999988555909,8|0,0:0|0:0,0:0:0:0:
358,348,72282,1,0,0:0:0:0:
419,158,72407,6,0,L|418:120,1,37.4999988555909,0|0,0:0|0:0,0:0:0:0:
361,44,72657,1,0,0:0:0:0:
274,15,72782,1,0,0:0:0:0:
280,214,72907,6,0,P|269:230|255:243,1,37.4999988555909,0|8,0:0|0:0,0:0:0:0:
51,205,73282,1,0,0:0:0:0:
94,251,73407,1,0,0:0:0:0:
152,66,73657,1,0,0:0:0:0:
149,128,73782,1,0,0:0:0:0:
250,330,74032,5,8,0:0:0:0:
440,233,74282,1,0,0:0:0:0:
481,250,74407,1,0,0:0:0:0:
275,120,74657,1,0,0:0:0:0:
234,137,74782,1,0,0:0:0:0:
394,149,75032,5,8,0:0:0:0:
189,223,75282,1,0,0:0:0:0:
190,249,75407,1,0,0:0:0:0:
343,75,75657,1,0,0:0:0:0:
344,49,75782,1,0,0:0:0:0:
45,90,76032,5,8,0:0:0:0:
40,108,76157,1,0,0:0:0:0:
34,126,76282,2,0,L|30:162,1,37.4999988555909,0|0,0:0|0:0,0:0:0:0:
76,305,76532,5,8,0:0:0:0:
80,285,76657,1,0,0:0:0:0:
85,264,76782,2,0,P|92:245|101:227,1,40.6249981403352,0|0,0:0|0:0,0:0:0:0:
151,65,77032,5,8,0:0:0:0:
160,84,77157,1,0,0:0:0:0:
171,104,77282,2,0,P|183:122|198:138,1,43.749998664856,0|0,0:0|0:0,0:0:0:0:
203,286,77532,5,8,0:0:0:0:
218,268,77657,1,0,0:0:0:0:
237,251,77782,2,0,P|256:236|277:225,1,46.8750017881394,0|0,0:0|0:0,0:0:0:0:
298,48,78032,5,8,0:0:0:0:
318,62,78157,1,0,0:0:0:0:
343,75,78282,2,0,P|367:84|393:89,1,50,0|0,0:0|0:0,0:0:0:0:
346,316,78532,5,8,0:0:0:0:
368,307,78657,1,0,0:0:0:0:
396,301,78782,2,0,P|422:298|448:299,1,53.125001013279
488,74,79032,5,8,3:0:0:0:
438,142,79157,1,0,3:0:0:0:
363,181,79282,1,0,3:0:0:0:
278,181,79407,1,0,3:0:0:0:
198,149,79532,2,0,P|173:138|150:121,1,56.2499982833863,2|2,3:0|3:0,3:0:0:0:
185,312,79782,2,0,P|162:328|136:340,1,56.2499982833863,2|0,0:0|0:0,0:0:0:0:
39,75,80032,5,4,0:0:0:0:
37,74,80157,2,0,P|49:102|57:132,1,62.5,2|2,0:0|0:0,0:0:0:0:
49,288,80407,2,0,L|60:163,1,125,10|0,0:0|0:0,0:0:0:0:
212,64,80782,1,0,0:0:0:0:
212,64,80907,2,0,P|183:51|152:49,1,62.5,0|0,0:0|0:0,0:0:0:0:
299,92,81157,2,0,L|438:87,1,125,0|0,0:0|0:0,0:0:0:0:
400,9,81532,1,8,0:0:0:0:
487,143,81657,1,0,0:0:0:0:
365,235,81782,2,0,P|354:205|350:175,1,62.5,0|0,0:0|0:0,0:0:0:0:
454,345,82032,5,2,3:0:0:0:
454,345,82157,2,0,P|426:330|395:325,1,62.5,2|0,3:0|0:0,0:0:0:0:
297,354,82407,1,8,0:0:0:0:
111,269,82532,2,0,P|173:261|232:280,1,125,0|0,0:0|0:0,0:0:0:0:
297,354,82907,1,0,0:0:0:0:
225,249,83032,2,0,P|256:241|283:226,1,62.5,0|0,0:0|0:0,0:0:0:0:
349,137,83282,2,0,P|358:107|358:76,1,62.5,0|0,0:0|0:0,0:0:0:0:
251,98,83532,1,8,0:0:0:0:
456,183,83657,2,0,L|461:58,1,125,0|0,0:0|0:0,0:0:0:0:
326,266,84032,5,2,0:0:0:0:
326,266,84157,2,0,P|300:250|282:225,1,62.5,2|2,0:0|0:0,0:0:0:0:
410,318,84407,2,0,P|358:352|297:354,1,125,10|0,0:0|0:0,0:0:0:0:
173,330,84782,1,0,0:0:0:0:
173,330,84907,2,0,P|142:323|111:326,1,62.5,0|0,0:0|0:0,0:0:0:0:
112,220,85157,2,0,P|53:240|9:284,1,125,0|0,0:0|0:0,0:0:0:0:
195,245,85532,1,8,0:0:0:0:
36,365,85657,1,0,0:0:0:0:
73,137,85782,2,0,P|44:125|21:104,1,62.5,2|0,3:0|0:0,0:0:0:0:
252,53,86032,5,2,3:0:0:0:
252,53,86157,2,0,P|243:82|223:107,1,62.5,0|0,0:0|0:0,0:0:0:0:
136,47,86407,1,8,0:0:0:0:
291,240,86532,2,0,P|282:178|249:126,1,125
73,137,86907,1,0,0:0:0:0:
175,303,87032,2,0,P|182:273|195:244,1,62.5,0|0,0:0|0:0,0:0:0:0:
382,245,87282,2,0,P|394:273|401:303,1,62.5,0|0,0:0|0:0,0:0:0:0:
289,355,87532,1,8,0:0:0:0:
385,154,87657,2,0,P|391:123|404:95,2,62.5,0|0|0,0:0|0:0|0:0,0:0:0:0:
175,303,88032,5,2,0:0:0:0:
175,303,88157,2,0,P|148:286|117:278,1,62.5,2|2,0:0|0:0,0:0:0:0:
73,137,88407,2,0,P|57:199|71:261,1,125,10|0,0:0|0:0,0:0:0:0:
142,66,88782,1,0,0:0:0:0:
141,65,88907,2,0,P|163:86|179:113,1,62.5,0|0,0:0|0:0,0:0:0:0:
375,34,89157,2,0,P|322:66|261:75,1,125,0|0,0:0|0:0,0:0:0:0:
108,51,89532,1,8,0:0:0:0:
210,197,89657,1,0,0:0:0:0:
399,182,89782,2,0,P|374:162|345:151,1,62.5,0|0,0:0|0:0,0:0:0:0:
460,301,90032,5,2,3:0:0:0:
460,301,90157,2,0,P|433:317|414:348,1,62.5,2|0,3:0|0:0,0:0:0:0:
250,344,90407,2,0,L|391:361,1,125,8|0,0:0|0:0,0:0:0:0:
318,244,90782,1,0,0:0:0:0:
148,254,90907,2,0,P|133:227|127:197,1,62.5,0|0,0:0|0:0,0:0:0:0:
156,342,91157,1,0,0:0:0:0:
59,136,91282,2,0,P|43:163|37:193,1,62.5,0|0,0:0|0:0,0:0:0:0:
65,288,91532,1,8,0:0:0:0:
137,111,91657,2,0,P|197:97|245:57,1,125,0|0,0:0|0:0,0:0:0:0:
396,113,92032,5,2,0:0:0:0:
396,113,92157,2,0,P|366:104|334:102,1,62.5,2|2,0:0|0:0,0:0:0:0:
456,181,92407,2,0,P|482:236|482:298,1,125,10|0,0:0|0:0,0:0:0:0:
240,168,92782,1,0,0:0:0:0:
240,168,92907,2,0,P|262:189|278:216,1,62.5
80,216,93157,2,0,P|141:224|194:256,1,125,0|0,0:0|0:0,0:0:0:0:
24,296,93532,1,10,0:0:0:0:
216,344,93657,1,0,0:0:0:0:
60,134,93782,2,0,P|30:145|6:164,1,62.5,2|0,3:0|0:0,0:0:0:0:
194,256,94032,5,2,3:0:0:0:
194,256,94157,2,0,P|230:268|274:266,1,62.5,2|0,3:0|0:0,0:0:0:0:
458,285,94407,2,0,P|397:294|341:321,1,125,8|0,0:0|0:0,0:0:0:0:
424,133,94782,2,0,P|411:162|406:193,1,62.5,0|0,0:0|0:0,0:0:0:0:
314,17,95032,5,0,3:0:0:0:
316,104,95157,1,0,3:0:0:0:
287,186,95282,1,0,3:0:0:0:
217,239,95407,1,0,3:0:0:0:
131,255,95532,2,0,P|99:254|69:245,1,62.5,2|2,3:0|3:0,3:0:0:0:
179,100,95782,2,0,P|158:76|142:49,1,62.5,2|0,0:0|0:0,0:0:0:0:
424,133,96032,5,4,0:0:0:0:
424,133,96157,2,0,P|444:109|460:82,1,62.5,2|2,0:0|0:0,0:0:0:0:
371,224,96407,2,0,P|430:238|489:217,1,125,10|0,0:0|0:0,0:0:0:0:
287,186,96782,1,0,0:0:0:0:
287,185,96907,2,0,P|265:208|251:236,1,62.5,0|0,0:0|0:0,0:0:0:0:
124,246,97157,2,0,P|145:268|159:296,1,62.5,0|0,0:0|0:0,0:0:0:0:
37,219,97407,1,0,0:0:0:0:
184,374,97532,1,8,0:0:0:0:
171,161,97657,2,0,L|180:91,2,62.5,0|2|0,0:0|3:0|0:0,0:0:0:0:
410,299,98032,5,2,3:0:0:0:
410,299,98157,2,0,P|378:296|348:301,1,62.5,2|0,3:0|0:0,0:0:0:0:
271,353,98407,1,8,0:0:0:0:
491,353,98532,2,0,L|494:213,1,125,0|0,0:0|0:0,0:0:0:0:
352,141,98907,1,0,0:0:0:0:
492,137,99032,2,0,P|487:106|475:77,1,62.5,0|0,0:0|0:0,0:0:0:0:
364,242,99282,2,0,P|359:272|347:301,1,62.5,0|0,0:0|0:0,0:0:0:0:
194,290,99532,1,8,0:0:0:0:
255,126,99657,2,0,P|276:184|275:247,1,125,2|0,3:0|0:0,0:0:0:0:
162,45,100032,5,2,0:0:0:0:
162,45,100157,2,0,P|132:34|101:30,1,62.5,2|2,0:0|0:0,0:0:0:0:
8,182,100407,2,0,P|58:145|118:131,1,125,10|0,0:0|0:0,0:0:0:0:
107,318,100782,1,0,0:0:0:0:
107,318,100907,2,0,P|106:286|111:255,1,62.5,0|0,0:0|0:0,0:0:0:0:
273,367,101157,2,0,P|287:306|274:245,1,125,0|0,0:0|0:0,0:0:0:0:
118,130,101532,1,0,0:0:0:0:
194,290,101657,1,0,0:0:0:0:
341,184,101782,2,0,P|349:214|363:241,1,62.5,2|0,3:0|0:0,0:0:0:0:
260,49,102032,5,2,3:0:0:0:
259,49,102157,2,0,P|287:34|318:28,1,62.5,2|0,3:0|0:0,0:0:0:0:
329,215,102407,2,0,P|355:158|396:111,1,125,8|0,0:0|0:0,0:0:0:0:
496,281,102782,1,0,0:0:0:0:
496,281,102907,2,0,P|491:250|478:221,1,62.5,0|0,0:0|0:0,0:0:0:0:
296,300,103157,2,0,P|266:310|241:328,1,62.5,0|0,0:0|0:0,0:0:0:0:
385,338,103407,1,0,0:0:0:0:
163,381,103532,1,8,0:0:0:0:
27,291,103657,2,0,P|20:260|19:229,2,62.5,0|2|0,0:0|3:0|0:0,0:0:0:0:
155,56,104032,5,2,0:0:0:0:
155,55,104157,2,0,P|130:74|110:98,1,62.5,2|2,0:0|0:0,0:0:0:0:
142,251,104407,2,0,L|123:127,1,125,10|0,0:0|0:0,0:0:0:0:
245,32,104782,1,0,0:0:0:0:
302,177,104907,2,0,P|307:146|304:115,1,62.5,0|0,0:0|0:0,0:0:0:0:
265,270,105158,1,0,0:0:0:0:
424,270,105282,2,0,P|394:259|363:256,1,62.5,0|0,0:0|0:0,0:0:0:0:
490,350,105532,1,8,0:0:0:0:
264,269,105657,2,0,P|235:281|212:302,2,62.5,0|0|0,0:0|0:0|0:0,0:0:0:0:
40,143,106032,5,2,3:0:0:0:
39,142,106157,2,0,P|66:166|82:194,1,62.5,2|0,3:0|0:0,0:0:0:0:
83,311,106407,1,8,0:0:0:0:
146,97,106532,2,0,P|167:159|170:220,1,125
83,311,106907,1,0,0:0:0:0:
264,269,107032,2,0,P|246:295|237:325,1,62.5
354,197,107282,2,0,P|363:226|380:252,1,62.5,0|0,0:0|0:0,0:0:0:0:
390,89,107532,1,8,0:0:0:0:
477,327,107657,2,0,L|486:201,1,125,2|0,3:0|0:0,0:0:0:0:
205,176,108032,5,2,0:0:0:0:
204,176,108157,2,0,P|234:167|260:151,1,62.5,2|2,0:0|0:0,0:0:0:0:
67,38,108407,2,0,P|117:74|177:90,1,125,10|0,0:0|0:0,0:0:0:0:
390,89,108782,1,0,0:0:0:0:
390,88,108907,2,0,P|393:57|390:26,1,62.5,0|0,0:0|0:0,0:0:0:0:
354,259,109157,2,0,P|350:227|353:196,1,62.5,0|0,0:0|0:0,0:0:0:0:
403,354,109407,1,0,0:0:0:0:
260,151,109532,1,8,0:0:0:0:
187,303,109657,2,0,P|160:319|130:328,2,62.5,0|2|0,0:0|3:0|0:0,0:0:0:0:
68,123,110032,5,2,3:0:0:0:
68,123,110157,2,0,P|90:144|105:171,1,62.5,2|0,3:0|0:0,0:0:0:0:
149,26,110407,2,0,L|134:150,1,125,8|0,0:0|0:0,0:0:0:0:
10,194,110782,1,0,0:0:0:0:
187,303,110907,2,0,P|179:272|163:246,1,62.5,0|0,0:0|0:0,0:0:0:0:
317,174,111157,2,0,P|290:158|259:150,1,62.5,0|0,0:0|0:0,0:0:0:0:
103,312,111407,1,0,0:0:0:0:
304,272,111532,1,10,0:0:0:0:
303,271,111657,2,0,P|357:303|395:352,1,125,2|0,0:0|0:0,0:0:0:0:
395,352,112032,5,4,0:0:0:0:
113,263,127532,6,0,L|107:157,1,93.75,0|0,0:0|0:0,0:0:0:0:
107,169,128032,5,4,0:0:0:0:
214,66,128532,2,0,P|256:144|345:139,1,187.500007152558,8|0,0:0|0:0,0:0:0:0:
472,59,129532,1,2,0:0:0:0:
468,96,129657,1,2,0:0:0:0:
464,133,129782,1,2,0:0:0:0:
460,170,129907,1,2,0:0:0:0:
457,207,130032,1,2,0:0:0:0:
457,356,130532,2,0,P|416:279|332:300,1,187.500007152558,8|0,0:0|0:0,0:0:0:0:
272,345,131282,2,0,L|179:336,1,93.7500035762788,0|0,0:0|0:0,0:0:0:0:
56,249,132032,5,0,0:0:0:0:
191,187,132532,2,0,P|213:97|168:17,1,187.500007152558,8|0,0:0|0:0,0:0:0:0:
26,64,133532,2,0,L|44:165,2,93.7500035762788,2|2|2,0:0|0:0|0:0,0:0:0:0:
167,16,134532,2,0,P|242:70|333:59,1,187.500007152558,8|0,0:0|0:0,0:0:0:0:
481,33,135532,2,0,L|468:153,1,93.7500035762788,0|0,0:0|0:0,0:0:0:0:
417,179,136032,5,0,0:0:0:0:
275,128,136532,2,0,P|315:176|323:296,1,187.500007152558,8|0,0:0|0:0,0:0:0:0:
208,199,137532,1,2,0:0:0:0:
236,223,137657,1,2,0:0:0:0:
258,252,137782,1,2,0:0:0:0:
276,284,137907,1,2,0:0:0:0:
284,320,138032,1,2,0:0:0:0:
134,318,138532,2,0,P|87:321|43:336,1,93.7500035762788,8|0,0:0|0:0,0:0:0:0:
12,268,139032,2,0,L|29:62,1,187.500007152558,0|0,0:0|0:0,0:0:0:0:
77,25,139782,1,0,0:0:0:0:
136,70,140032,6,0,P|220:94|277:26,1,187.500007152558,8|0,0:0|0:0,0:0:0:0:
242,173,141032,1,0,0:0:0:0:
376,235,141532,2,0,P|417:259|448:293,2,93.7500035762788,2|2|2,0:0|0:0|0:0,0:0:0:0:
256,192,142157,12,0,143907,0:0:0:0:
32,24,144032,5,4,0:0:0:0:
133,84,144157,2,0,L|125:193,1,106.250002026558,2|0,0:0|0:0,0:0:0:0:
133,230,144532,2,0,P|153:249|175:263,1,53.125001013279,8|0,0:0|0:0,0:0:0:0:
353,232,144782,1,0,0:0:0:0:
313,248,144907,1,0,0:0:0:0:
286,281,145032,2,0,L|276:338,1,53.125001013279,2|0,0:0|0:0,0:0:0:0:
222,144,145282,2,0,L|232:201,1,53.125001013279,2|0,0:0|0:0,0:0:0:0:
133,84,145532,1,8,0:0:0:0:
320,116,145657,2,0,P|325:89|327:63,1,53.125001013279,0|0,0:0|0:0,0:0:0:0:
425,166,145907,1,2,3:0:0:0:
425,166,145969,1,2,3:0:0:0:
425,166,146032,6,0,L|492:174,1,53.125001013279,2|0,3:0|0:0,0:0:0:0:
464,282,146282,2,0,L|397:290,1,53.125001013279
170,326,146532,2,0,L|295:334,1,106.250002026558,8|0,0:0|0:0,0:0:0:0:
378,374,146907,1,0,0:0:0:0:
246,253,147032,2,0,P|237:228|232:201,1,53.125001013279,2|0,0:0|0:0,0:0:0:0:
262,103,147282,1,2,0:0:0:0:
124,207,147407,2,0,P|128:180|137:155,1,53.125001013279,0|8,0:0|0:0,0:0:0:0:
62,358,147657,2,0,L|52:237,1,106.250002026558,2|0,3:0|0:0,0:0:0:0:
183,51,148032,5,0,0:0:0:0:
147,73,148157,1,0,0:0:0:0:
104,76,148282,1,0,0:0:0:0:
66,55,148407,1,0,0:0:0:0:
278,152,148532,2,0,P|273:126|261:102,1,53.125001013279,8|0,0:0|0:0,0:0:0:0:
246,253,148782,1,0,0:0:0:0:
384,314,148907,2,0,P|370:292|350:275,1,53.125001013279,0|2,0:0|0:0,0:0:0:0:
278,152,149157,1,0,0:0:0:0:
160,309,149282,1,2,0:0:0:0:
122,328,149407,1,0,0:0:0:0:
80,320,149532,2,0,P|66:296|59:271,1,53.125001013279,8|0,0:0|0:0,0:0:0:0:
138,102,149782,2,0,L|128:207,1,106.250002026558,2|0,3:0|0:0,0:0:0:0:
21,52,150157,6,0,P|35:74|47:98,1,53.125001013279
17,198,150407,1,0,0:0:0:0:
221,67,150532,2,0,L|341:58,1,106.250002026558,8|0,0:0|0:0,0:0:0:0:
458,138,150907,1,0,0:0:0:0:
292,153,151032,2,0,P|284:178|280:204,1,53.125001013279,2|0,0:0|0:0,0:0:0:0:
413,283,151282,2,0,P|409:256|400:231,1,53.125001013279,2|0,0:0|0:0,0:0:0:0:
306,361,151532,1,8,0:0:0:0:
151,203,151657,2,0,P|177:209|200:222,2,53.125001013279
49,348,152032,5,0,0:0:0:0:
49,348,152157,2,0,P|74:337|100:332,1,53.125001013279
199,349,152407,1,0,0:0:0:0:
25,236,152532,2,0,P|28:183|46:133,1,106.250002026558,8|0,0:0|0:0,0:0:0:0:
164,43,152907,1,0,0:0:0:0:
151,203,153032,2,0,P|139:179|135:151,1,53.125001013279,2|0,0:0|0:0,0:0:0:0:
286,133,153282,2,0,P|297:109|302:83,1,53.125001013279,2|0,0:0|0:0,0:0:0:0:
443,194,153532,2,0,P|441:142|422:92,1,106.250002026558,8|0,0:0|0:0,0:0:0:0:
306,228,153907,1,2,3:0:0:0:
306,228,153969,1,2,3:0:0:0:
306,228,154032,6,0,L|371:244,1,53.125001013279,2|0,3:0|0:0,0:0:0:0:
467,336,154282,2,0,L|402:352,1,53.125001013279
229,356,154532,2,0,P|275:330|327:322,1,106.250002026558,8|0,0:0|0:0,0:0:0:0:
221,265,154907,1,0,0:0:0:0:
415,348,155032,2,0,L|419:281,1,53.125001013279,2|0,0:0|0:0,0:0:0:0:
386,184,155282,2,0,L|382:117,1,53.125001013279,2|0,0:0|0:0,0:0:0:0:
166,78,155532,1,8,0:0:0:0:
191,112,155657,1,0,0:0:0:0:
226,135,155782,2,0,P|252:145|289:146,1,53.125001013279
84,45,156032,6,0,P|68:99|69:155,1,106.250002026558
114,243,156407,1,0,0:0:0:0:
21,362,156532,2,0,P|25:336|33:311,1,53.125001013279,8|0,0:0|0:0,0:0:0:0:
194,311,156782,2,0,P|202:336|207:363,1,53.125001013279
349,327,157032,1,2,0:0:0:0:
390,327,157157,1,0,0:0:0:0:
424,302,157282,1,2,0:0:0:0:
438,261,157407,1,0,0:0:0:0:
427,136,157532,2,0,P|417:111|403:88,1,53.125001013279,8|0,0:0|0:0,0:0:0:0:
301,218,157782,2,0,P|291:242|277:265,1,53.125001013279
139,61,158032,5,0,0:0:0:0:
138,60,158157,2,0,P|165:66|189:76,1,53.125001013279
253,144,158407,1,0,0:0:0:0:
46,72,158532,2,0,P|17:115|6:167,1,106.250002026558,8|0,0:0|0:0,0:0:0:0:
43,249,158907,1,0,0:0:0:0:
246,363,159032,5,0,3:0:0:0:
249,279,159157,1,0,3:0:0:0:
301,218,159282,1,0,3:0:0:0:
372,182,159407,1,0,3:0:0:0:
451,189,159532,2,0,P|479:195|513:215,1,53.125001013279,2|2,3:0|3:0,3:0:0:0:
383,319,159782,2,0,P|398:343|408:381,1,53.125001013279,2|0,0:0|0:0,0:0:0:0:
146,306,160032,5,4,0:0:0:0:
146,306,160157,2,0,P|144:279|146:253,1,53.125001013279,2|2,0:0|0:0,0:0:0:0:
253,144,160407,1,2,0:0:0:0:
42,249,160532,2,0,L|34:132,1,106.250002026558,10|0,0:0|0:0,0:0:0:0:
60,335,160907,1,0,0:0:0:0:
160,136,161032,2,0,P|139:154|125:176,1,53.125001013279
249,279,161282,2,0,P|246:305|252:331,1,53.125001013279
449,366,161532,1,8,0:0:0:0:
373,172,161657,1,0,0:0:0:0:
363,286,161782,1,0,0:0:0:0:
471,125,161907,1,2,3:0:0:0:
471,125,161969,1,2,3:0:0:0:
471,125,162032,6,0,L|465:65,1,53.125001013279,2|0,3:0|0:0,0:0:0:0:
277,184,162282,2,0,L|282:131,1,53.125001013279
465,270,162532,2,0,P|412:268|362:286,1,106.250002026558,8|0,0:0|0:0,0:0:0:0:
261,363,162907,1,0,0:0:0:0:
122,278,163032,2,0,P|149:277|175:283,1,53.125001013279
4,213,163282,2,0,P|17:190|36:171,1,53.125001013279
22,363,163532,1,8,0:0:0:0:
143,176,163657,2,0,L|133:57,1,106.250002026558,2|0,3:0|0:0,0:0:0:0:
261,363,164032,5,2,0:0:0:0:
261,363,164157,2,0,L|316:367,1,53.125001013279,2|2,0:0|0:0,0:0:0:0:
122,278,164407,1,2,0:0:0:0:
404,337,164532,2,0,P|427:289|428:236,1,106.250002026558,10|0,0:0|0:0,0:0:0:0:
328,149,164907,1,0,0:0:0:0:
512,201,165032,2,0,P|498:178|480:158,1,53.125001013279
295,285,165282,2,0,P|313:265|326:242,1,53.125001013279
143,176,165532,1,8,0:0:0:0:
214,346,165657,1,0,0:0:0:0:
12,273,165782,2,0,L|20:201,1,53.125001013279,2|0,3:0|0:0,0:0:0:0:
251,36,166032,5,0,0:0:0:0:
251,35,166157,2,0,P|228:49|203:58,1,53.125001013279
56,29,166407,1,0,0:0:0:0:
244,141,166532,2,0,P|224:191|219:243,1,106.250002026558,8|0,0:0|0:0,0:0:0:0:
313,353,166907,1,0,0:0:0:0:
393,157,167032,2,0,P|373:173|357:194,1,53.125001013279
114,262,167282,2,0,P|134:278|150:299,1,53.125001013279
398,356,167532,1,8,0:0:0:0:
435,236,167657,1,0,0:0:0:0:
328,105,167782,2,0,P|321:79|321:52,1,53.125001013279
109,128,168032,5,2,0:0:0:0:
108,128,168157,2,0,P|131:113|156:103,1,53.125001013279,2|2,0:0|0:0,0:0:0:0:
42,193,168407,1,2,0:0:0:0:
303,261,168532,2,0,P|256:235|204:226,1,106.250002026558,10|0,0:0|0:0,0:0:0:0:
92,343,168907,1,0,0:0:0:0:
231,202,169032,2,0,P|242:177|247:151,1,53.125001013279
232,358,169282,2,0,P|221:333|216:307,1,53.125001013279
225,47,169532,1,8,0:0:0:0:
6,24,169657,1,0,0:0:0:0:
108,128,169782,1,0,0:0:0:0:
225,47,169907,1,2,3:0:0:0:
225,47,169969,1,2,3:0:0:0:
225,47,170032,6,0,L|296:36,1,53.125001013279,2|0,3:0|0:0,0:0:0:0:
458,109,170282,2,0,L|405:100,1,53.125001013279
231,202,170532,2,0,P|282:214|325:245,1,106.250002026558,8|0,0:0|0:0,0:0:0:0:
232,322,170907,1,0,0:0:0:0:
412,200,171032,2,0,P|420:224|423:251,1,53.125001013279
266,90,171282,2,0,P|268:63|277:38,1,53.125001013279
376,332,171532,1,8,0:0:0:0:
130,247,171657,1,0,0:0:0:0:
232,322,171782,1,2,0:0:0:0:
325,245,171907,1,0,0:0:0:0:
33,335,172032,5,2,0:0:0:0:
33,335,172157,2,0,L|25:264,1,53.125001013279,2|2,0:0|0:0,0:0:0:0:
131,365,172407,1,2,0:0:0:0:
49,137,172532,2,0,L|35:253,1,106.250002026558,10|0,0:0|0:0,0:0:0:0:
212,235,172907,1,0,0:0:0:0:
134,37,173032,2,0,P|109:45|86:60,1,53.125001013279
266,90,173282,2,0,P|290:98|313:113,1,53.125001013279
36,242,173532,1,8,0:0:0:0:
131,365,173657,1,0,0:0:0:0:
211,234,173782,2,0,P|222:259|229:285,1,53.125001013279,2|0,3:0|0:0,0:0:0:0:
313,113,174032,5,2,3:0:0:0:
313,112,174157,2,0,P|303:137|297:163,1,53.125001013279
387,52,174407,1,0,0:0:0:0:
384,312,174532,2,0,P|387:259|370:209,1,106.250002026558,8|0,0:0|0:0,0:0:0:0:
302,362,174907,1,0,0:0:0:0:
125,254,175032,2,0,L|118:307,1,53.125001013279
55,107,175282,2,0,L|62:159,1,53.125001013279,0|2,0:0|3:0,0:0:0:0:
62,159,175469,1,2,3:0:0:0:
62,159,175532,1,10,3:0:0:0:
6,15,175657,2,0,L|116:23,1,106.250002026558,2|0,3:0|0:0,0:0:0:0:
300,88,176032,5,6,0:0:0:0:
300,87,176157,2,0,P|277:101|251:107,1,53.125001013279,2|2,0:0|0:0,0:0:0:0:
158,99,176407,1,2,0:0:0:0:
387,52,176532,2,0,L|379:158,1,106.250002026558,10|0,0:0|0:0,0:0:0:0:
468,10,176907,1,0,0:0:0:0:
397,238,177032,2,0,P|405:263|419:285,1,53.125001013279
225,352,177282,2,0,P|239:329|247:304,1,53.125001013279
89,231,177532,1,8,0:0:0:0:
158,99,177657,1,0,0:0:0:0:
191,221,177782,1,0,0:0:0:0:
225,352,177907,1,2,3:0:0:0:
225,352,177969,1,2,3:0:0:0:
225,352,178032,6,0,L|161:344,1,53.125001013279,2|0,3:0|0:0,0:0:0:0:
334,198,178282,2,0,L|281:204,1,53.125001013279
480,330,178532,2,0,L|484:223,1,106.250002026558,8|0,0:0|0:0,0:0:0:0:
358,351,178907,1,0,0:0:0:0:
191,221,179032,2,0,L|193:167,1,53.125001013279
136,303,179282,1,0,0:0:0:0:
65,104,179407,2,0,L|67:157,1,53.125001013279,0|8,0:0|0:0,0:0:0:0:
339,91,179657,2,0,L|333:197,1,106.250002026558,2|0,3:0|0:0,0:0:0:0:
116,30,180032,5,2,0:0:0:0:
115,29,180157,2,0,P|141:37|167:41,1,53.125001013279,2|2,0:0|0:0,0:0:0:0:
263,22,180407,1,2,0:0:0:0:
432,162,180532,2,0,P|380:172|333:196,1,106.250002026558,10|0,0:0|0:0,0:0:0:0:
274,332,180907,1,0,0:0:0:0:
459,244,181032,2,0,P|451:269|449:296,1,53.125001013279
253,169,181282,2,0,P|250:142|242:117,1,53.125001013279
56,84,181532,1,8,0:0:0:0:
169,198,181657,1,0,0:0:0:0:
18,166,181782,2,0,P|10:191|8:217,1,53.125001013279,2|0,3:0|0:0,0:0:0:0:
274,332,182032,5,2,3:0:0:0:
273,332,182157,2,0,P|295:317|320:307,1,53.125001013279
427,342,182407,1,0,0:0:0:0:
192,369,182532,2,0,P|141:351|89:345,1,106.250002026558,8|0,0:0|0:0,0:0:0:0:
196,280,182907,1,0,0:0:0:0:
6,251,183032,2,0,P|9:277|18:302,1,53.125001013279
181,146,183282,2,0,P|177:172|168:197,1,53.125001013279
11,24,183532,1,8,0:0:0:0:
220,63,183657,2,0,P|241:47|266:37,2,53.125001013279,0|2|0,0:0|3:0|0:0,0:0:0:0:
493,153,184032,5,2,0:0:0:0:
493,153,184157,2,0,P|484:127|470:105,1,53.125001013279,2|2,0:0|0:0,0:0:0:0:
381,28,184407,1,2,0:0:0:0:
416,216,184532,2,0,P|384:258|337:282,1,106.250002026558,10|0,0:0|0:0,0:0:0:0:
194,251,184907,1,0,0:0:0:0:
333,126,185032,2,0,P|329:152|317:176,1,53.125001013279
239,336,185282,2,0,P|214:344|187:346,1,53.125001013279
16,213,185532,1,8,0:0:0:0:
81,345,185657,1,0,0:0:0:0:
118,207,185782,1,0,0:0:0:0:
60,45,185907,1,2,3:0:0:0:
60,45,185969,1,2,3:0:0:0:
60,45,186032,6,0,L|47:107,1,53.125001013279,2|0,3:0|0:0,0:0:0:0:
205,168,186282,2,0,L|194:116,1,53.125001013279
347,20,186532,2,0,L|331:139,1,106.250002026558
477,74,186907,1,0,0:0:0:0:
433,265,187032,2,0,P|420:241|415:215,1,53.125001013279
239,336,187282,2,0,P|251:312|256:286,1,53.125001013279
63,349,187532,1,8,0:0:0:0:
205,168,187657,2,0,P|199:142|187:118,1,53.125001013279,0|2,0:0|3:0,0:0:0:0:
60,45,187907,1,0,0:0:0:0:
239,336,188032,5,2,0:0:0:0:
239,336,188157,2,0,P|213:329|186:326,1,53.125001013279,2|2,0:0|0:0,0:0:0:0:
332,376,188407,1,2,0:0:0:0:
316,155,188532,2,0,P|289:197|272:255,1,106.250002026558,10|0,0:0|0:0,0:0:0:0:
385,249,188907,1,0,0:0:0:0:
205,168,189032,2,0,L|193:96,1,53.125001013279
427,72,189282,2,0,L|418:124,1,53.125001013279
225,21,189532,1,8,0:0:0:0:
147,264,189657,2,0,P|124:277|98:282,2,53.125001013279,0|2|0,0:0|3:0|0:0,0:0:0:0:
39,51,190032,5,2,3:0:0:0:
39,50,190157,2,0,P|38:77|45:103,1,53.125001013279
100,190,190407,1,0,0:0:0:0:
259,129,190532,2,0,P|208:111|156:109,1,106.250002026558,8|0,0:0|0:0,0:0:0:0:
225,21,190907,1,0,0:0:0:0:
334,197,191032,2,0,P|360:203|387:205,1,53.125001013279
227,274,191282,2,0,P|241:296|258:316,1,53.125001013279
74,267,191532,1,2,3:0:0:0:
74,267,191594,1,2,3:0:0:0:
74,267,191657,2,0,P|65:315|76:372,1,106.250002026558,2|0,3:0|0:0,0:0:0:0:
75,370,192032,5,4,0:0:0:0:
112,72,207532,5,2,0:0:0:0:
112,72,207594,1,2,0:0:0:0:
112,72,207657,2,0,L|110:123,1,43.749998664856,2|0,0:0|0:0,0:0:0:0:
167,187,207907,1,2,0:0:0:0:
45,335,208032,6,0,L|46:291,1,43.749998664856,4|0,0:0|0:0,0:0:0:0:
144,267,208282,1,2,0:0:0:0:
155,285,208407,1,0,0:0:0:0:
237,147,208532,1,0,0:0:0:0:
283,226,208657,2,0,P|277:247|278:269,2,43.749998664856,0|2|0,0:0|0:0|0:0,0:0:0:0:
363,59,209032,2,0,L|354:12,1,43.749998664856,2|2,0:0|0:0,0:0:0:0:
272,71,209282,1,0,0:0:0:0:
417,143,209407,1,2,0:0:0:0:
381,220,209532,2,0,P|389:239|403:256,1,43.749998664856,2|0,0:0|0:0,0:0:0:0:
483,297,209782,1,2,0:0:0:0:
489,318,209907,1,2,0:0:0:0:
288,343,210032,6,0,P|295:322|306:303,1,43.749998664856
167,328,210282,1,2,0:0:0:0:
160,348,210407,1,2,0:0:0:0:
215,232,210532,1,0,0:0:0:0:
137,136,210657,1,2,0:0:0:0:
123,118,210782,2,0,L|64:115,1,43.749998664856,2|2,0:0|0:0,0:0:0:0:
289,50,211032,1,0,0:0:0:0:
304,63,211157,2,0,P|326:64|347:56,1,43.749998664856,2|0,0:0|0:0,0:0:0:0:
231,133,211407,2,0,P|246:148|265:157,1,43.749998664856,2|0,0:0|0:0,0:0:0:0:
79,115,211657,1,2,0:0:0:0:
73,136,211782,1,2,0:0:0:0:
67,157,211907,1,2,0:0:0:0:
167,328,212032,5,0,0:0:0:0:
10,272,212157,1,0,0:0:0:0:
30,264,212282,2,0,L|91:272,1,43.749998664856,2|0,0:0|0:0,0:0:0:0:
167,328,212532,2,0,L|210:322,1,43.749998664856,2|0,0:0|0:0,0:0:0:0:
303,245,212782,1,0,0:0:0:0:
292,264,212907,1,0,0:0:0:0:
402,214,213032,1,2,0:0:0:0:
497,305,213157,2,0,L|486:262,1,43.749998664856
393,305,213407,1,2,0:0:0:0:
390,326,213532,2,0,L|335:347,1,43.749998664856,2|0,0:0|0:0,0:0:0:0:
262,229,213782,2,0,L|317:250,1,43.749998664856,2|0,0:0|0:0,0:0:0:0:
341,101,214032,5,0,0:0:0:0:
207,161,214157,1,2,0:0:0:0:
198,140,214282,2,0,L|204:93,1,43.749998664856,2|0,0:0|0:0,0:0:0:0:
117,248,214532,1,0,0:0:0:0:
106,229,214657,1,0,0:0:0:0:
97,208,214782,2,0,L|103:161,1,43.749998664856,2|0,0:0|0:0,0:0:0:0:
34,294,215032,1,2,0:0:0:0:
28,272,215157,1,2,0:0:0:0:
171,320,215282,2,0,L|127:328,1,43.749998664856
230,256,215532,1,2,0:0:0:0:
357,282,215657,1,0,0:0:0:0:
440,203,215782,1,2,0:0:0:0:
461,198,215907,1,2,0:0:0:0:
357,282,216032,6,0,L|343:223,1,43.749998664856
240,157,216282,2,0,L|250:114,1,43.749998664856,2|0,0:0|0:0,0:0:0:0:
336,28,216532,1,0,0:0:0:0:
338,49,216657,1,0,0:0:0:0:
182,42,216782,2,0,P|161:42|139:45,1,43.749998664856,2|0,0:0|0:0,0:0:0:0:
89,150,217032,2,0,P|73:165|60:182,1,43.749998664856,2|0,0:0|0:0,0:0:0:0:
197,251,217282,1,0,0:0:0:0:
203,230,217407,1,2,0:0:0:0:
313,277,217532,2,0,L|357:282,1,43.749998664856,2|0,0:0|0:0,0:0:0:0:
184,347,217782,2,0,L|141:352,1,43.749998664856,2|2,0:0|0:0,0:0:0:0:
405,355,218032,5,0,0:0:0:0:
426,357,218157,1,0,0:0:0:0:
447,359,218282,2,0,L|466:301,1,43.749998664856,2|0,0:0|0:0,0:0:0:0:
387,160,218532,2,0,L|400:201,1,43.749998664856,2|0,0:0|0:0,0:0:0:0:
312,112,218782,1,2,0:0:0:0:
321,92,218907,1,0,0:0:0:0:
472,148,219032,1,0,0:0:0:0:
478,172,219157,2,0,L|491:213,2,43.749998664856,2|2|2,0:0|0:0|0:0,0:0:0:0:
400,201,219532,1,0,0:0:0:0:
287,289,219657,1,0,0:0:0:0:
293,268,219782,1,2,0:0:0:0:
299,246,219907,1,2,0:0:0:0:
191,149,220032,5,2,0:0:0:0:
167,302,220157,1,0,0:0:0:0:
177,282,220282,2,0,L|164:228,1,43.749998664856,2|0,0:0|0:0,0:0:0:0:
60,347,220532,2,0,L|73:293,1,43.749998664856,2|0,0:0|0:0,0:0:0:0:
32,195,220782,1,2,0:0:0:0:
40,174,220907,1,0,0:0:0:0:
127,78,221032,2,0,L|83:72,1,43.749998664856,2|0,0:0|0:0,0:0:0:0:
191,149,221282,1,2,0:0:0:0:
212,145,221407,1,2,0:0:0:0:
232,140,221532,2,0,P|249:155|262:173,1,43.749998664856,2|0,0:0|0:0,0:0:0:0:
392,184,221782,2,0,P|387:205|378:225,1,43.749998664856,2|2,0:0|0:0,0:0:0:0:
457,311,222032,5,2,0:0:0:0:
318,365,222157,1,2,0:0:0:0:
326,344,222282,2,0,L|320:281,1,43.749998664856
162,293,222532,2,0,P|179:306|198:315,1,43.749998664856,2|0,0:0|0:0,0:0:0:0:
50,244,222782,2,0,P|69:235|86:221,1,43.749998664856,2|2,0:0|0:0,0:0:0:0:
47,88,223032,1,2,0:0:0:0:
191,149,223157,2,0,L|193:90,1,43.749998664856,2|0,0:0|0:0,0:0:0:0:
312,36,223407,1,2,0:0:0:0:
312,36,223469,1,2,0:0:0:0:
312,36,223532,2,0,L|372:45,1,43.749998664856,2|0,0:0|0:0,0:0:0:0:
464,59,223782,1,2,0:0:0:0:
407,254,223907,1,2,0:0:0:0:
385,148,224032,5,4,0:0:0:0:
384,148,224157,2,0,P|360:153|337:163,1,50
287,278,224407,1,0,0:0:0:0:
454,269,224532,2,0,P|431:258|406:253,1,50,8|0,0:0|0:0,0:0:0:0:
284,364,224782,2,0,P|259:358|236:348,1,50
145,284,225032,1,2,0:0:0:0:
39,320,225157,2,0,P|29:343|26:367,1,50
145,284,225407,1,2,0:0:0:0:
233,208,225532,2,0,P|230:183|220:160,1,50,10|0,0:0|0:0,0:0:0:0:
145,284,225782,1,0,0:0:0:0:
36,170,225907,1,2,3:0:0:0:
36,170,225969,1,2,3:0:0:0:
36,170,226032,6,0,L|43:112,1,50,2|0,3:0|0:0,0:0:0:0:
170,22,226282,2,0,L|175:71,1,50
315,178,226532,1,8,0:0:0:0:
371,45,226657,1,0,0:0:0:0:
387,61,226782,2,0,P|412:66|437:61,1,50
275,74,227032,1,2,0:0:0:0:
275,74,227157,1,2,0:0:0:0:
196,171,227282,1,0,0:0:0:0:
275,74,227407,1,2,0:0:0:0:
315,178,227532,2,0,L|324:233,1,50,10|0,0:0|0:0,0:0:0:0:
426,338,227782,1,2,3:0:0:0:
420,313,227907,1,2,3:0:0:0:
191,320,228032,5,2,3:0:0:0:
191,320,228157,2,0,P|220:328|251:333,1,50
336,305,228407,1,0,0:0:0:0:
479,208,228532,2,0,P|455:215|430:220,1,50,10|0,0:0|0:0,0:0:0:0:
369,71,228782,2,0,P|389:85|412:96,1,50,2|2,0:0|0:0,0:0:0:0:
234,23,229032,1,2,0:0:0:0:
224,46,229157,1,0,0:0:0:0:
214,68,229282,2,0,P|218:92|226:116,1,50,2|0,0:0|0:0,0:0:0:0:
49,70,229532,2,0,P|72:61|96:57,1,50,8|0,0:0|0:0,0:0:0:0:
135,212,229782,1,2,3:0:0:0:
126,188,229907,1,2,3:0:0:0:
204,333,230032,5,0,0:0:0:0:
204,333,230157,2,0,P|180:342|156:346,1,50
60,312,230407,1,0,0:0:0:0:
227,239,230532,2,0,P|250:248|274:252,1,50,8|0,0:0|0:0,0:0:0:0:
356,344,230782,2,0,P|378:334|399:319,1,50
364,147,231032,1,0,0:0:0:0:
363,147,231157,2,0,P|363:171|367:196,2,50
432,31,231532,2,0,L|482:23,1,50,8|0,0:0|0:0,0:0:0:0:
272,90,231782,2,0,L|222:82,1,50
53,34,232032,5,0,0:0:0:0:
52,33,232157,2,0,P|51:57|46:82,1,50
2,174,232407,1,0,0:0:0:0:
110,287,232532,1,10,0:0:0:0:
103,262,232657,1,0,0:0:0:0:
165,188,232782,1,2,0:0:0:0:
172,213,232907,1,0,0:0:0:0:
221,333,233032,1,2,0:0:0:0:
221,333,233157,2,0,P|244:342|268:348,1,50
360,303,233407,1,2,0:0:0:0:
289,166,233532,2,0,P|283:190|282:215,1,50,10|0,0:0|0:0,0:0:0:0:
391,49,233782,1,2,3:0:0:0:
388,73,233907,1,2,3:0:0:0:
493,253,234032,5,0,0:0:0:0:
492,252,234157,2,0,P|468:246|447:234,1,50
419,148,234407,1,0,0:0:0:0:
360,303,234532,2,0,P|350:280|346:255,1,50,8|0,0:0|0:0,0:0:0:0:
266,368,234782,1,2,0:0:0:0:
241,364,234907,1,2,0:0:0:0:
107,313,235032,2,0,L|164:309,1,50,2|2,0:0|3:0,0:0:0:0:
156,309,235219,1,2,3:0:0:0:
156,309,235282,1,2,3:0:0:0:
51,247,235407,1,0,0:0:0:0:
156,150,235532,2,0,P|154:174|148:199,1,50,10|0,0:0|0:0,0:0:0:0:
31,65,235782,2,0,P|32:89|38:114,1,50,2|0,0:0|0:0,0:0:0:0:
239,43,236032,5,0,0:0:0:0:
238,43,236157,2,0,P|214:33|190:30,1,50
280,131,236407,1,0,0:0:0:0:
393,97,236532,1,10,0:0:0:0:
394,72,236657,1,0,0:0:0:0:
475,125,236782,1,2,0:0:0:0:
474,150,236907,1,0,0:0:0:0:
351,236,237032,2,0,P|335:255|326:278,1,50,2|0,0:0|0:0,0:0:0:0:
322,368,237282,1,0,0:0:0:0:
356,202,237407,2,0,P|331:205|308:214,1,50,2|8,0:0|0:0,0:0:0:0:
242,274,237657,1,0,0:0:0:0:
72,266,237782,1,2,3:0:0:0:
91,281,237907,1,2,3:0:0:0:
86,87,238032,5,0,0:0:0:0:
86,87,238157,2,0,L|100:144,1,50
13,28,238407,1,0,0:0:0:0:
164,220,238532,2,0,L|175:171,1,50,8|0,0:0|0:0,0:0:0:0:
211,23,238782,1,0,0:0:0:0:
217,47,238907,1,0,0:0:0:0:
359,85,239032,2,0,P|334:85|310:93,2,50
403,209,239407,1,2,3:0:0:0:
403,209,239469,1,2,3:0:0:0:
403,209,239532,2,0,P|412:238|416:278,1,50,10|0,3:0|0:0,0:0:0:0:
267,292,239782,2,0,P|257:321|254:361,1,50
11,222,240032,5,0,0:0:0:0:
10,221,240157,2,0,P|32:234|56:241,1,50
164,220,240407,1,0,0:0:0:0:
73,146,240532,1,8,0:0:0:0:
187,61,240657,1,2,0:0:0:0:
183,85,240782,1,2,0:0:0:0:
179,109,240907,1,2,0:0:0:0:
314,67,241032,2,0,P|291:78|275:96,1,50,2|0,0:0|0:0,0:0:0:0:
269,194,241282,1,0,0:0:0:0:
397,131,241407,2,0,P|419:142|435:160,1,50,2|8,0:0|0:0,0:0:0:0:
462,302,241657,1,0,0:0:0:0:
363,223,241782,1,0,0:0:0:0:
345,344,241907,1,2,3:0:0:0:
345,344,241969,1,2,3:0:0:0:
345,344,242032,6,0,L|289:336,1,50,2|0,3:0|0:0,0:0:0:0:
157,314,242282,1,2,0:0:0:0:
181,310,242407,1,2,0:0:0:0:
63,260,242532,2,0,P|56:284|46:306,1,50,10|0,0:0|0:0,0:0:0:0:
11,130,242782,2,0,P|17:154|28:176,1,50,2|0,0:0|0:0,0:0:0:0:
112,40,243032,1,2,0:0:0:0:
262,74,243157,2,0,P|286:73|311:67,1,50,2|0,0:0|0:0,0:0:0:0:
121,71,243407,1,2,0:0:0:0:
269,194,243532,2,0,P|293:199|318:201,1,50,10|0,0:0|0:0,0:0:0:0:
460,94,243782,1,2,0:0:0:0:
436,102,243907,1,2,0:0:0:0:
437,238,244032,6,0,P|451:258|461:281,2,50
372,348,244407,1,0,0:0:0:0:
244,364,244532,1,10,0:0:0:0:
250,339,244657,1,2,0:0:0:0:
191,256,244782,1,2,0:0:0:0:
185,281,244907,1,2,0:0:0:0:
42,232,245032,2,0,P|67:235|92:241,1,50,2|0,0:0|0:0,0:0:0:0:
8,313,245282,1,0,0:0:0:0:
205,158,245407,2,0,P|180:160|155:166,1,50,0|8,0:0|0:0,0:0:0:0:
16,73,245657,1,0,0:0:0:0:
122,96,245782,1,2,0:0:0:0:
133,73,245907,1,2,0:0:0:0:
281,218,246032,5,0,0:0:0:0:
281,217,246157,2,0,P|291:195|299:171,1,50
273,41,246407,1,0,0:0:0:0:
158,177,246532,2,0,P|181:168|204:157,1,50,8|0,0:0|0:0,0:0:0:0:
54,109,246782,1,2,0:0:0:0:
78,103,246907,1,2,0:0:0:0:
203,157,247032,1,0,0:0:0:0:
81,237,247157,2,0,P|72:261|70:286,2,50
174,365,247532,1,8,0:0:0:0:
314,312,247657,2,0,L|258:303,1,50,2|0,0:0|0:0,0:0:0:0:
174,365,247907,1,2,0:0:0:0:
411,264,248032,5,0,0:0:0:0:
410,263,248157,2,0,P|427:282|439:304,1,50
301,221,248407,1,0,0:0:0:0:
459,163,248532,1,10,0:0:0:0:
435,172,248657,1,2,0:0:0:0:
336,111,248782,1,2,0:0:0:0:
360,120,248907,1,2,0:0:0:0:
495,18,249032,2,0,P|470:33|434:40,1,50,2|0,0:0|0:0,0:0:0:0:
341,20,249282,1,0,0:0:0:0:
197,117,249407,2,0,P|221:115|244:105,1,50,2|8,0:0|0:0,0:0:0:0:
109,75,249657,1,0,0:0:0:0:
273,179,249782,2,0,P|291:197|300:220,1,50,2|0,0:0|0:0,0:0:0:0:
86,336,250032,6,0,L|96:278,1,50
41,151,250282,1,2,0:0:0:0:
35,175,250407,1,2,0:0:0:0:
180,272,250532,2,0,L|190:214,1,50,8|0,0:0|0:0,0:0:0:0:
203,93,250782,1,2,0:0:0:0:
197,117,250907,1,2,0:0:0:0:
109,75,251032,1,2,0:0:0:0:
276,179,251157,1,2,3:0:0:0:
276,179,251219,1,2,3:0:0:0:
276,179,251282,2,0,L|331:171,1,50,2|0,3:0|0:0,0:0:0:0:
393,38,251532,1,8,0:0:0:0:
422,194,251657,2,0,P|435:215|453:231,2,50,2|2|2,0:0|0:0|0:0,0:0:0:0:
225,289,252032,6,0,P|204:276|180:272,1,50,2|0,0:0|0:0,0:0:0:0:
336,328,252282,2,0,P|311:332|290:345,1,50,2|0,0:0|0:0,0:0:0:0:
101,297,252532,1,10,0:0:0:0:
93,320,252657,1,2,0:0:0:0:
21,238,252782,1,2,0:0:0:0:
29,261,252907,1,2,0:0:0:0:
101,121,253032,2,0,L|99:183,1,50,2|0,0:0|0:0,0:0:0:0:
29,67,253282,1,0,0:0:0:0:
226,93,253407,2,0,P|201:118|180:129,1,50,2|8,0:0|0:0,0:0:0:0:
225,289,253657,2,0,P|204:275|187:256,1,50,2|2,0:0|0:0,0:0:0:0:
93,320,253907,1,2,0:0:0:0:
298,192,254032,5,2,0:0:0:0:
274,201,254157,1,2,0:0:0:0:
376,225,254282,2,0,L|383:153,1,50,2|0,0:0|0:0,0:0:0:0:
319,343,254532,2,0,L|312:271,1,50,10|0,0:0|0:0,0:0:0:0:
479,196,254782,1,2,0:0:0:0:
472,171,254907,1,2,0:0:0:0:
316,50,255032,2,0,P|336:63|360:70,1,50,2|0,0:0|0:0,0:0:0:0:
453,43,255282,1,0,0:0:0:0:
221,79,255407,1,2,3:0:0:0:
221,79,255469,1,2,3:0:0:0:
221,79,255532,2,0,L|212:140,1,50,10|0,3:0|0:0,0:0:0:0:
54,79,255782,2,0,L|46:29,1,50
225,289,256032,5,6,0:0:0:0:
224,289,256157,2,0,P|200:294|177:304,1,50,0|2,0:0|0:0,0:0:0:0:
306,340,256407,1,0,0:0:0:0:
65,342,256532,2,0,P|89:347|111:357,1,50,10|0,0:0|0:0,0:0:0:0:
0,270,256782,1,2,0:0:0:0:
168,215,256907,2,0,P|162:190|151:168,1,50,2|0,0:0|0:0,0:0:0:0:
323,207,257157,2,0,P|313:230|310:254,1,50,2|0,0:0|0:0,0:0:0:0:
81,217,257407,1,2,0:0:0:0:
272,128,257532,2,0,P|269:103|259:80,1,50,8|0,0:0|0:0,0:0:0:0:
224,289,257782,1,0,0:0:0:0:
3,191,257907,1,2,3:0:0:0:
3,191,257969,1,2,3:0:0:0:
3,191,258032,6,0,L|10:133,1,50,0|0,3:0|0:0,0:0:0:0:
135,32,258282,2,0,L|140:81,1,50,2|0,0:0|0:0,0:0:0:0:
272,128,258532,1,10,0:0:0:0:
279,105,258657,1,0,0:0:0:0:
323,207,258782,1,2,0:0:0:0:
418,108,258907,2,0,P|395:117|375:133,1,50,2|0,0:0|0:0,0:0:0:0:
435,236,259157,2,0,P|459:237|482:247,1,50,2|0,0:0|0:0,0:0:0:0:
505,344,259407,1,2,0:0:0:0:
303,314,259532,2,0,P|323:298|346:289,1,50,8|2,0:0|0:0,0:0:0:0:
230,359,259782,1,0,0:0:0:0:
226,334,259907,1,0,0:0:0:0:
45,314,260032,5,2,0:0:0:0:
45,314,260157,2,0,P|71:327|103:334,1,50,0|2,0:0|0:0,0:0:0:0:
179,261,260407,1,0,0:0:0:0:
20,158,260532,1,10,0:0:0:0:
11,181,260657,1,0,0:0:0:0:
109,168,260782,1,2,0:0:0:0:
118,145,260907,1,2,0:0:0:0:
253,217,261032,2,0,P|239:180|240:148,1,50,0|2,0:0|0:0,0:0:0:0:
255,55,261282,1,0,0:0:0:0:
385,166,261407,2,0,L|335:168,1,50,2|8,0:0|0:0,0:0:0:0:
484,110,261657,1,2,0:0:0:0:
445,258,261782,2,0,L|411:294,1,50
205,204,262032,5,2,0:0:0:0:
205,204,262157,2,0,P|229:213|253:217,1,50,2|0,0:0|0:0,0:0:0:0:
118,145,262407,1,2,0:0:0:0:
28,259,262532,2,0,P|52:255|75:245,1,50,10|0,0:0|0:0,0:0:0:0:
201,298,262782,1,2,0:0:0:0:
195,322,262907,1,2,0:0:0:0:
390,296,263032,2,0,P|366:290|341:289,1,50,0|2,0:0|0:0,0:0:0:0:
475,353,263282,1,0,0:0:0:0:
474,328,263407,1,0,0:0:0:0:
412,121,263532,2,0,P|436:115|456:101,1,50,8|0,0:0|0:0,0:0:0:0:
289,86,263782,2,0,P|264:79|244:65,1,50
340,289,264032,5,2,0:0:0:0:
340,289,264157,2,0,P|345:264|346:239,1,50
237,160,264407,1,0,0:0:0:0:
195,322,264532,2,0,P|200:297|201:272,1,50,10|0,0:0|0:0,0:0:0:0:
86,359,264782,1,2,0:0:0:0:
95,132,264907,2,0,P|115:145|134:162,1,50,2|0,0:0|0:0,0:0:0:0:
289,86,265157,2,0,P|307:69|328:55,1,50,2|0,0:0|0:0,0:0:0:0:
237,160,265407,1,2,0:0:0:0:
493,101,265532,2,0,P|474:84|453:70,1,50,8|2,0:0|0:0,0:0:0:0:
374,216,265782,1,0,0:0:0:0:
377,192,265907,1,0,0:0:0:0:
485,345,266032,5,2,0:0:0:0:
484,344,266157,2,0,P|460:338|439:326,1,50,0|2,0:0|0:0,0:0:0:0:
469,219,266407,1,0,0:0:0:0:
341,338,266532,2,0,P|331:315|327:290,1,50,10|0,0:0|0:0,0:0:0:0:
219,356,266782,1,2,0:0:0:0:
244,360,266907,1,2,0:0:0:0:
81,296,267032,2,0,L|86:345,1,50
158,231,267282,1,0,0:0:0:0:
15,87,267407,2,0,L|20:37,1,50,0|8,0:0|0:0,0:0:0:0:
43,198,267657,1,2,0:0:0:0:
132,113,267782,1,2,0:0:0:0:
158,231,267907,1,2,0:0:0:0:
239,43,268032,5,2,0:0:0:0:
238,43,268157,2,0,P|214:33|190:30,1,50,0|2,0:0|0:0,0:0:0:0:
280,131,268407,1,0,0:0:0:0:
393,103,268532,2,0,P|401:73|404:52,1,50,10|0,0:0|0:0,0:0:0:0:
280,131,268782,1,2,0:0:0:0:
473,172,268907,2,0,P|489:191|498:214,1,50,2|0,0:0|0:0,0:0:0:0:
254,173,269157,2,0,P|263:149|279:130,1,50,2|0,0:0|0:0,0:0:0:0:
396,347,269408,2,0,P|371:352|346:348,1,50,2|8,0:0|0:0,0:0:0:0:
265,280,269657,1,2,0:0:0:0:
145,356,269782,1,2,0:0:0:0:
168,347,269907,1,2,0:0:0:0:
41,135,270032,5,2,0:0:0:0:
41,135,270157,2,0,P|50:158|54:182,1,50,0|2,0:0|0:0,0:0:0:0:
38,272,270407,1,0,0:0:0:0:
93,64,270532,2,0,L|152:56,1,50,10|0,0:0|0:0,0:0:0:0:
269,85,270782,1,2,0:0:0:0:
245,75,270907,1,2,0:0:0:0:
360,119,271032,2,0,L|419:111,1,50,0|2,0:0|0:0,0:0:0:0:
254,173,271282,1,0,0:0:0:0:
482,208,271407,1,2,3:0:0:0:
482,208,271469,1,2,3:0:0:0:
482,208,271532,2,0,P|491:237|495:277,1,50,10|0,3:0|0:0,0:0:0:0:
269,351,271782,2,0,P|273:326|281:302,1,50,2|0,0:0|0:0,0:0:0:0:
477,55,272032,5,6,0:0:0:0:
478,56,272157,2,0,P|456:43|432:36,1,50,0|2,0:0|0:0,0:0:0:0:
360,119,272407,1,0,0:0:0:0:
199,94,272532,2,0,P|221:81|245:74,1,50,10|0,0:0|0:0,0:0:0:0:
161,183,272782,1,2,0:0:0:0:
360,118,272907,2,0,P|366:94|363:70,1,50,2|0,0:0|0:0,0:0:0:0:
298,260,273157,2,0,P|291:235|294:211,1,50,2|0,0:0|0:0,0:0:0:0:
360,356,273407,1,2,0:0:0:0:
161,183,273532,2,0,L|101:191,1,50,8|0,0:0|0:0,0:0:0:0:
199,94,273782,1,0,0:0:0:0:
298,260,273907,1,2,3:0:0:0:
298,260,273969,1,2,3:0:0:0:
298,260,274032,6,0,L|242:252,1,50,2|0,3:0|0:0,0:0:0:0:
433,341,274282,2,0,L|384:349,1,50,2|0,0:0|0:0,0:0:0:0:
481,173,274532,1,10,0:0:0:0:
479,197,274657,1,0,0:0:0:0:
383,269,274782,1,2,0:0:0:0:
324,165,274907,2,0,P|300:157|280:142,1,50,2|0,0:0|0:0,0:0:0:0:
178,292,275157,2,0,P|166:269|162:245,1,50,2|0,0:0|0:0,0:0:0:0:
199,94,275407,1,2,0:0:0:0:
7,213,275532,1,8,0:0:0:0:
7,213,275657,2,0,P|29:223|54:228,2,50
272,40,276032,6,0,P|283:67|287:96,1,50,2|0,0:0|0:0,0:0:0:0:
56,146,276282,2,0,P|60:121|71:99,1,50,2|0,0:0|0:0,0:0:0:0:
139,191,276532,1,10,0:0:0:0:
145,215,276657,1,0,0:0:0:0:
22,303,276782,1,2,0:0:0:0:
178,292,276907,2,0,L|228:301,1,50,2|0,0:0|0:0,0:0:0:0:
467,228,277157,2,0,L|417:237,1,50,2|0,0:0|0:0,0:0:0:0:
199,330,277407,2,0,L|249:339,1,50,2|8,0:0|0:0,0:0:0:0:
110,360,277657,1,0,0:0:0:0:
337,292,277782,2,0,P|342:316|344:341,1,50,2|0,3:0|0:0,0:0:0:0:
246,177,278032,5,2,0:0:0:0:
337,102,278157,1,2,0:0:0:0:
246,177,278282,1,2,0:0:0:0:
263,56,278407,1,2,0:0:0:0:
332,188,278532,2,0,P|351:200|376:210,1,50,10|0,0:0|0:0,0:0:0:0:
478,130,278782,1,2,0:0:0:0:
454,136,278907,1,2,0:0:0:0:
402,31,279032,1,0,0:0:0:0:
263,56,279157,2,0,L|198:47,1,50,2|0,0:0|0:0,0:0:0:0:
168,140,279407,1,0,0:0:0:0:
44,16,279532,1,8,0:0:0:0:
10,113,279657,2,0,L|75:104,2,50
110,360,280032,5,2,0:0:0:0:
111,361,280157,2,0,P|94:342|82:320,1,50
87,186,280407,1,0,0:0:0:0:
259,325,280532,2,0,P|246:346|230:365,1,50,10|0,0:0|0:0,0:0:0:0:
237,215,280782,1,2,0:0:0:0:
261,219,280907,1,2,0:0:0:0:
382,125,281032,2,0,P|365:143|353:165,1,50
491,149,281282,1,0,0:0:0:0:
382,316,281407,2,0,P|374:292|361:270,1,50,2|8,0:0|0:0,0:0:0:0:
279,116,281657,1,2,0:0:0:0:
211,215,281782,2,0,P|235:220|260:219,1,50
38,50,282032,6,0,L|30:100,1,50,2|0,0:0|0:0,0:0:0:0:
147,310,282282,2,0,L|138:260,1,50,2|0,0:0|0:0,0:0:0:0:
213,34,282532,2,0,L|204:83,1,50,10|0,0:0|0:0,0:0:0:0:
127,20,282782,1,2,0:0:0:0:
279,116,282907,2,0,P|303:113|326:104,1,50,2|0,0:0|0:0,0:0:0:0:
302,243,283157,2,0,P|279:233|260:218,1,50,2|0,0:0|0:0,0:0:0:0:
188,312,283407,2,0,P|190:336|199:359,1,50,2|8,0:0|0:0,0:0:0:0:
53,332,283657,1,2,0:0:0:0:
74,198,283782,1,2,0:0:0:0:
82,222,283907,1,2,0:0:0:0:
188,312,284032,6,0,L|121:323,1,50,2|0,0:0|0:0,0:0:0:0:
341,359,284282,2,0,L|291:350,1,50,2|0,0:0|0:0,0:0:0:0:
438,301,284532,1,10,0:0:0:0:
430,324,284657,1,0,0:0:0:0:
398,216,284782,1,2,0:0:0:0:
475,137,284907,2,0,P|475:103|469:72,1,50,2|0,0:0|0:0,0:0:0:0:
302,243,285157,2,0,P|302:209|308:178,1,50,2|0,0:0|0:0,0:0:0:0:
448,121,285407,2,0,P|448:87|442:56,1,50,2|8,0:0|0:0,0:0:0:0:
327,30,285657,1,2,0:0:0:0:
212,97,285782,1,2,0:0:0:0:
236,102,285907,1,2,0:0:0:0:
96,194,286032,6,0,P|74:183|54:169,1,50,2|0,0:0|0:0,0:0:0:0:
192,294,286282,2,0,P|171:308|149:319,1,50,2|0,0:0|0:0,0:0:0:0:
334,322,286532,2,0,P|342:298|347:274,1,50,10|0,0:0|0:0,0:0:0:0:
446,198,286782,1,2,0:0:0:0:
439,173,286907,1,2,0:0:0:0:
293,74,287032,2,0,L|358:80,1,50,0|2,0:0|0:0,0:0:0:0:
448,27,287282,1,0,0:0:0:0:
301,179,287407,1,2,3:0:0:0:
301,179,287469,1,2,3:0:0:0:
301,179,287532,2,0,L|251:183,1,50,10|0,3:0|0:0,0:0:0:0:
132,92,287782,2,0,L|83:88,1,50
26,247,288032,5,2,0:0:0:0:
26,247,288157,2,0,L|31:319,1,50,0|2,0:0|0:0,0:0:0:0:
113,349,288407,1,0,0:0:0:0:
239,307,288532,2,0,P|216:297|192:294,1,50,10|0,0:0|0:0,0:0:0:0:
308,370,288782,1,0,0:0:0:0:
117,262,288907,2,0,P|117:229|120:204,1,50,2|0,0:0|0:0,0:0:0:0:
368,299,289157,2,0,P|368:266|365:241,1,50,2|0,0:0|0:0,0:0:0:0:
142,233,289407,2,0,P|142:200|145:175,1,50,2|8,0:0|0:0,0:0:0:0:
217,147,289657,1,0,0:0:0:0:
35,124,289782,1,2,3:0:0:0:
32,100,289907,1,2,3:0:0:0:
207,53,290032,5,2,0:0:0:0:
207,53,290157,2,0,P|175:55|146:62,1,50,0|2,0:0|0:0,0:0:0:0:
35,124,290407,1,0,0:0:0:0:
225,195,290532,2,0,P|219:171|217:147,1,50,10|0,0:0|0:0,0:0:0:0:
305,73,290782,1,2,0:0:0:0:
496,193,290907,2,0,P|494:217|487:241,1,50,2|0,0:0|0:0,0:0:0:0:
325,277,291157,2,0,P|347:265|366:249,1,50,2|0,0:0|0:0,0:0:0:0:
225,195,291407,2,0,P|200:193|176:186,1,50,2|8,0:0|0:0,0:0:0:0:
59,243,291657,1,2,0:0:0:0:
190,344,291782,1,2,3:0:0:0:
189,319,291907,1,2,3:0:0:0:
314,121,292032,6,0,L|304:72,1,50,2|0,0:0|0:0,0:0:0:0:
102,154,292282,2,0,L|111:105,1,50,2|0,0:0|0:0,0:0:0:0:
225,195,292532,1,10,0:0:0:0:
221,170,292657,1,0,0:0:0:0:
202,72,292782,1,2,0:0:0:0:
316,209,292907,2,0,P|349:215|372:226,1,50,2|0,0:0|0:0,0:0:0:0:
148,242,293157,2,0,P|117:256|98:272,1,50,2|0,0:0|0:0,0:0:0:0:
253,344,293407,2,0,L|243:293,1,50,2|8,0:0|0:0,0:0:0:0:
221,170,293657,1,2,0:0:0:0:
45,355,293782,2,0,P|66:366|93:370,1,50,2|0,3:0|0:0,0:0:0:0:
339,301,294032,5,2,0:0:0:0:
450,344,294157,1,2,0:0:0:0:
339,301,294282,1,2,0:0:0:0:
448,251,294407,1,2,0:0:0:0:
316,209,294532,2,0,L|325:149,1,50,10|0,0:0|0:0,0:0:0:0:
339,301,294782,1,2,0:0:0:0:
413,159,294907,2,0,L|404:99,1,50,2|0,0:0|0:0,0:0:0:0:
213,219,295157,2,0,L|222:159,1,50,2|0,0:0|0:0,0:0:0:0:
439,123,295407,2,0,L|430:63,1,50,2|8,0:0|0:0,0:0:0:0:
316,209,295657,1,2,0:0:0:0:
448,251,295782,2,0,L|455:300,1,50,2|0,3:0|0:0,0:0:0:0:
250,59,296032,5,2,0:0:0:0:
250,59,296157,2,0,P|275:62|301:72,1,50,0|2,0:0|0:0,0:0:0:0:
370,18,296407,1,0,0:0:0:0:
152,101,296532,2,0,P|147:76|147:51,1,50,10|0,0:0|0:0,0:0:0:0:
213,182,296782,1,0,0:0:0:0:
108,187,296907,2,0,P|90:204|76:225,1,50,2|0,0:0|0:0,0:0:0:0:
240,340,297157,2,0,P|226:319|208:301,1,50,2|0,0:0|0:0,0:0:0:0:
26,225,297407,2,0,P|39:204|57:186,1,50,2|8,0:0|0:0,0:0:0:0:
114,301,297657,1,2,0:0:0:0:
276,259,297782,1,2,3:0:0:0:
281,234,297907,1,2,3:0:0:0:
481,147,298032,6,0,L|431:138,1,50,2|0,0:0|0:0,0:0:0:0:
250,59,298282,2,0,L|300:50,1,50,2|0,0:0|0:0,0:0:0:0:
106,117,298532,2,0,L|56:108,1,50,10|0,0:0|0:0,0:0:0:0:
24,24,298782,1,2,0:0:0:0:
172,210,298907,2,0,P|194:199|212:181,1,50,2|0,0:0|0:0,0:0:0:0:
74,271,299157,2,0,P|91:288|113:300,1,50,2|0,0:0|0:0,0:0:0:0:
326,220,299407,2,0,P|333:196|333:171,1,50,2|8,0:0|0:0,0:0:0:0:
183,359,299657,1,2,0:0:0:0:
258,272,299782,1,2,2:0:0:0:
266,295,299907,1,2,2:0:0:0:
250,59,300032,6,0,P|273:67|297:73,1,50,2|0,0:0|0:0,0:0:0:0:
491,115,300282,2,0,P|467:123|443:129,1,50,2|0,0:0|0:0,0:0:0:0:
197,163,300532,2,0,P|220:171|244:177,1,50,10|0,0:0|0:0,0:0:0:0:
118,78,300782,1,2,0:0:0:0:
357,184,300907,2,0,P|367:206|371:231,1,50,2|0,0:0|0:0,0:0:0:0:
266,295,301157,2,0,P|257:318|243:338,1,50,2|0,0:0|0:0,0:0:0:0:
124,272,301407,2,0,P|101:282|76:286,1,50,2|8,0:0|0:0,0:0:0:0:
50,141,301657,1,2,0:0:0:0:
193,188,301782,1,2,3:0:0:0:
197,163,301907,1,2,3:0:0:0:
365,35,302032,6,0,P|344:57|334:88,1,50,2|0,0:0|0:0,0:0:0:0:
495,171,302282,2,0,P|484:149|467:132,1,50,2|0,0:0|0:0,0:0:0:0:
357,184,302532,2,0,P|336:206|326:237,1,50,10|0,0:0|0:0,0:0:0:0:
339,330,302782,1,2,0:0:0:0:
193,188,302907,2,0,L|204:118,1,50,2|0,0:0|0:0,0:0:0:0:
23,36,303157,2,0,L|30:85,1,50,2|0,0:0|0:0,0:0:0:0:
55,249,303407,1,2,3:0:0:0:
55,249,303469,1,2,3:0:0:0:
55,249,303532,2,0,P|80:226|102:218,1,50,10|0,3:0|0:0,0:0:0:0:
273,245,303782,2,0,P|295:256|312:274,1,50,2|0,0:0|0:0,0:0:0:0:
175,347,304032,5,4,0:0:0:0:
256,192,304157,12,0,312032,0:0:0:0:
151,149,315532,5,4,0:0:0:0:
151,149,316032,2,0,L|161:57,1,74.9999977111817,4|2,0:0|0:0,0:0:0:0:
55,47,316532,1,0,0:0:0:0:
99,230,316782,2,0,P|141:300|204:318,2,149.999995422363,2|2|2,0:0|0:0|0:0,0:0:0:0:
151,149,318032,2,0,L|236:154,1,74.9999977111817,2|0,0:0|0:0,0:0:0:0:
299,223,318532,1,0,0:0:0:0:
363,299,318782,2,0,L|437:294,1,74.9999977111817,2|0,0:0|0:0,0:0:0:0:
499,201,319282,2,0,L|424:196,2,74.9999977111817,2|0|2,0:0|0:0|0:0,0:0:0:0:
346,49,320032,6,0,P|264:61|207:24,1,149.999995422363,4|2,0:0|0:0,0:0:0:0:
449,28,320782,2,0,P|464:63|470:100,1,74.9999977111817,2|0,0:0|0:0,0:0:0:0:
354,153,321282,2,0,P|339:187|333:224,1,74.9999977111817,2|0,0:0|0:0,0:0:0:0:
435,328,321782,1,2,0:0:0:0:
224,180,322032,6,0,L|141:197,1,74.9999977111817,4|2,0:0|0:0,0:0:0:0:
166,99,322532,1,2,0:0:0:0:
108,301,322782,2,0,P|49:258|36:187,2,149.999995422363,4|0|0,0:0|0:0|0:0,0:0:0:0:
316,370,324282,6,0,L|243:355,1,74.9999977111817,2|0,0:0|0:0,0:0:0:0:
400,321,324782,2,0,L|327:337,1,74.9999977111817
395,239,325282,2,0,L|468:254,1,74.9999977111817,2|0,0:0|0:0,0:0:0:0:
387,191,325782,2,0,L|460:206,1,74.9999977111817
379,153,326282,2,0,P|379:81|318:43,1,149.999995422363,2|0,0:0|0:0,0:0:0:0:
256,144,327032,1,0,0:0:0:0:
193,43,327282,2,0,P|132:81|132:153,1,149.999995422363,2|0,0:0|0:0,0:0:0:0:
256,267,328032,6,0,B|202:301|138:282|110:225|110:225|43:207|8:272|12:333|60:366|116:378|173:357|173:357|202:361|202:361|232:357,1,524.999983978272,4|0,0:0|0:0,0:0:0:0:
331,303,330032,2,0,B|323:257|356:204|356:204|334:148|334:148|346:118|346:118|346:86,1,224.999993133545,4|0,0:0|0:0,0:0:0:0:
493,190,331032,2,0,P|426:175|438:107,1,149.999995422363,4|0,0:0|0:0,0:0:0:0:
229,76,332032,5,6,0:0:0:0:
156,165,332282,1,0,0:0:0:0:
56,108,332532,1,2,0:0:0:0:
229,76,332782,1,4,0:0:0:0:
0,294,333032,5,6,0:0:0:0:
73,205,333282,1,0,0:0:0:0:
173,262,333532,1,2,0:0:0:0:
0,294,333782,1,4,0:0:0:0:
173,262,334032,6,0,L|183:176,1,74.9999977111817,6|0,0:0|0:0,0:0:0:0:
218,308,334532,2,2,L|208:222,1,74.9999977111817
183,342,335032,1,0,0:0:0:0:
328,296,335282,2,0,P|365:299|398:317,2,74.9999977111817,2|0|2,0:0|0:0|0:0,0:0:0:0:
321,167,336032,6,0,B|352:238|433:250|515:221|536:157|540:92|496:5|421:13|355:11|319:90|319:90|269:79,1,562.499982833863,4|0,0:0|0:0,0:0:0:0:
215,146,338032,6,0,B|244:234|181:294|40:253|95:140|95:140|55:126|31:97|31:97|11:172|11:172|19:251,1,524.999983978272,4|0,0:0|0:0,0:0:0:0:
90,364,340032,6,0,B|77:385|42:378|27:349|38:321|67:308|67:308|129:341|197:324|197:324|269:301|320:335,1,374.999988555909,4|0,0:0|0:0,0:0:0:0:
404,365,341532,1,0,0:0:0:0:
441,201,341782,6,0,L|456:282,1,74.9999977111817,2|0,0:0|0:0,0:0:0:0:
299,159,342282,2,0,L|284:240,1,74.9999977111817,2|0,0:0|0:0,0:0:0:0:
426,212,342782,2,0,L|441:293,1,74.9999977111817,2|0,0:0|0:0,0:0:0:0:
320,174,343282,2,0,L|305:255,1,74.9999977111817,2|0,0:0|0:0,0:0:0:0:
365,305,343782,1,2,0:0:0:0:
295,83,344032,6,0,P|156:51|229:188,1,374.999988555909,4|2,0:0|0:0,0:0:0:0:
228,188,345782,1,0,0:0:0:0:
18,349,346032,6,0,L|97:366,1,74.9999977111817,4|2,0:0|0:0,0:0:0:0:
223,287,346532,1,0,0:0:0:0:
148,305,346782,1,0,0:0:0:0:
336,336,347032,1,2,0:0:0:0:
343,216,347282,1,2,0:0:0:0:
403,280,347532,1,0,0:0:0:0:
336,336,347782,2,0,L|293:344,1,37.4999988555909
223,287,348032,6,0,L|229:128,1,149.999995422363,4|0,0:0|0:0,0:0:0:0:
297,58,348782,1,0,0:0:0:0:
135,163,349032,2,0,P|98:157|63:142,2,74.9999977111817,2|0|0,0:0|0:0|0:0,0:0:0:0:
223,287,349782,2,0,L|301:272,1,74.9999977111817,2|0,0:0|0:0,0:0:0:0:
243,216,350282,2,0,L|316:230,1,74.9999977111817,2|0,0:0|0:0,0:0:0:0:
357,340,350782,1,2,0:0:0:0:
331,152,351282,1,0,0:0:0:0:
398,235,351532,1,0,0:0:0:0:
436,134,351782,1,0,0:0:0:0:
67,42,352032,5,6,0:0:0:0:
47,114,352157,1,2,0:0:0:0:
105,160,352282,1,2,0:0:0:0:
89,233,352407,1,2,0:0:0:0:
164,312,352532,6,0,P|148:312|126:316,1,37.4999988555909,4|0,0:0|0:0,0:0:0:0:
208,218,352782,2,0,P|192:217|170:213,1,37.4999988555909,2|0,0:0|0:0,0:0:0:0:
188,331,353032,2,0,P|173:327|150:325,1,37.4999988555909,4|0,0:0|0:0,0:0:0:0:
232,199,353282,2,0,P|217:203|194:204,1,37.4999988555909,2|0,0:0|0:0,0:0:0:0:
203,356,353532,2,0,P|189:348|168:341,1,37.4999988555909,4|0,0:0|0:0,0:0:0:0:
247,174,353782,2,0,P|233:181|212:188,1,37.4999988555909,2|0,0:0|0:0,0:0:0:0:
322,331,354032,6,0,L|333:181,1,149.999995422363,4|0,0:0|0:0,0:0:0:0:
291,80,354782,1,0,0:0:0:0:
472,226,355032,2,0,P|474:191|498:150,1,74.9999977111817,4|0,0:0|0:0,0:0:0:0:
247,174,355532,2,0,P|243:211|226:243,1,74.9999977111817,2|0,0:0|0:0,0:0:0:0:
80,344,356032,6,0,P|24:251|138:292,1,299.999990844727,4|0,0:0|0:0,0:0:0:0:
138,289,357282,1,0,0:0:0:0:
51,82,357532,2,0,P|30:117|24:157,1,74.9999977111817,2|0,0:0|0:0,0:0:0:0:
161,138,358032,2,0,P|170:177|194:210,1,74.9999977111817,2|0,0:0|0:0,0:0:0:0:
223,39,358532,1,0,0:0:0:0:
255,256,358782,2,0,L|343:268,1,74.9999977111817,2|0,0:0|0:0,0:0:0:0:
461,186,359282,2,0,L|373:198,1,74.9999977111817,0|2,0:0|0:0,0:0:0:0:
455,85,359782,1,2,0:0:0:0:
247,355,360032,5,6,0:0:0:0:
183,314,360157,1,2,0:0:0:0:
109,326,360282,1,2,0:0:0:0:
45,285,360407,1,2,0:0:0:0:
97,131,360532,6,0,L|95:167,1,37.4999988555909,4|0,0:0|0:0,0:0:0:0:
224,75,360782,2,0,L|222:38,1,37.4999988555909,2|0,0:0|0:0,0:0:0:0:
255,257,361032,2,0,L|301:261,1,37.4999988555909,4|0,0:0|0:0,0:0:0:0:
132,165,361282,2,0,L|86:169,1,37.4999988555909,2|0,0:0|0:0,0:0:0:0:
241,228,361532,2,0,L|287:232,1,37.4999988555909,4|0,0:0|0:0,0:0:0:0:
149,184,361782,2,0,L|103:188,1,37.4999988555909,2|0,0:0|0:0,0:0:0:0:
350,184,362032,6,0,P|336:118|351:24,1,149.999995422363,4|0,0:0|0:0,0:0:0:0:
468,61,362782,1,0,0:0:0:0:
499,225,363032,2,0,P|464:206|441:175,1,74.9999977111817,2|0,0:0|0:0,0:0:0:0:
318,359,363532,2,0,P|353:340|376:309,1,74.9999977111817,2|0,0:0|0:0,0:0:0:0:
204,197,364032,6,0,P|133:221|250:269,1,299.999990844727,4|0,0:0|0:0,0:0:0:0:
289,205,365282,2,0,L|285:176,2,24.9999992370606
204,197,365532,2,0,P|173:130|193:59,1,149.999995422363,4|0,0:0|0:0,0:0:0:0:
269,22,366282,1,0,0:0:0:0:
362,72,366532,2,0,L|435:59,1,74.9999977111817,2|0,0:0|0:0,0:0:0:0:
494,174,367032,2,0,L|421:161,1,74.9999977111817,2|0,0:0|0:0,0:0:0:0:
356,282,367532,2,0,L|429:269,1,74.9999977111817,2|0,0:0|0:0,0:0:0:0:
429,268,367907,1,0,0:0:0:0:
429,268,368032,6,0,P|377:320|211:287,1,224.999993133545,2|0,0:0|0:0,0:0:0:0:
234,309,368907,1,0,0:0:0:0:
234,309,369032,2,0,L|77:301,1,149.999995422363,2|0,0:0|0:0,0:0:0:0:
84,301,369657,2,0,P|89:264|82:227,1,74.9999977111817,2|0,0:0|0:0,0:0:0:0:
19,100,370032,1,0,0:0:0:0:
19,100,370198,6,0,P|12:136|16:173,1,74.9999977111817,4|0,0:0|0:0,0:0:0:0:
109,141,370657,6,0,P|130:171|155:192,1,56.2499982833863,4|0,0:0|0:0,0:0:0:0:
193,110,371032,6,0,P|216:115|244:118,1,49.9999984741211,4|0,0:0|0:0,0:0:0:0:
262,40,371282,6,0,L|293:30,1,24.9999992370606,4|0,0:0|0:0,0:0:0:0:
340,106,371469,6,0,L|340:125,6,18.7499994277954,4|0|0|0|0|0|0,0:0|0:0|0:0|0:0|0:0|0:0|0:0,0:0:0:0:
339,124,372032,6,0,P|381:130|421:118,1,84.3749974250794,4|0,0:0|0:0,0:0:0:0:
470,206,372532,2,0,L|470:281,2,74.9999977111817,2|0|2,0:0|0:0|0:0,0:0:0:0:
218,284,373782,1,2,0:0:0:0:
272,349,374032,2,0,P|295:243|206:195,1,224.999993133545,4|0,0:0|0:0,0:0:0:0:
54,171,375219,6,0,L|58:247,1,74.9999977111817,2|0,0:0|0:0,0:0:0:0:
57,245,375532,2,0,L|47:294,1,37.4999988555909,8|0,0:0|0:0,0:0:0:0:
197,196,375782,2,0,L|187:245,1,37.4999988555909,8|0,0:0|0:0,0:0:0:0:
331,158,376032,5,4,0:0:0:0:
331,158,376407,1,8,0:0:0:0:
465,214,376532,2,0,L|457:130,1,74.9999977111817
373,258,377032,2,0,L|367:295,2,37.4999988555909
448,296,377407,1,0,0:0:0:0:
298,346,377532,2,0,L|254:341,1,37.4999988555909,8|0,0:0|0:0,0:0:0:0:
228,258,377782,2,0,L|191:263,1,37.4999988555909
87,359,378032,5,0,0:0:0:0:
83,340,378157,1,0,0:0:0:0:
79,321,378282,1,0,0:0:0:0:
23,257,378407,2,0,L|41:173,1,74.9999977111817,8|0,0:0|0:0,0:0:0:0:
183,133,378782,2,0,L|174:95,1,37.4999988555909
207,215,379032,2,0,L|257:222,2,37.4999988555909
131,253,379407,1,0,0:0:0:0:
286,295,379532,2,0,L|248:300,1,37.4999988555909,8|0,0:0|0:0,0:0:0:0:
349,230,379782,2,0,L|386:235,1,37.4999988555909
493,293,380032,5,0,0:0:0:0:
490,274,380157,1,0,0:0:0:0:
487,255,380282,1,0,0:0:0:0:
420,159,380407,2,0,L|428:78,1,74.9999977111817,8|0,0:0|0:0,0:0:0:0:
311,132,380782,2,0,L|335:100,1,37.4999988555909
232,47,381032,2,0,L|270:34,2,37.4999988555909
220,129,381407,1,0,0:0:0:0:
102,69,381532,2,0,L|111:33,1,37.4999988555909,8|0,0:0|0:0,0:0:0:0:
37,154,381782,2,0,L|28:117,1,37.4999988555909
120,190,382032,5,0,0:0:0:0:
117,208,382157,1,0,0:0:0:0:
114,226,382282,1,0,0:0:0:0:
56,341,382407,2,0,L|41:262,1,74.9999977111817,8|0,0:0|0:0,0:0:0:0:
146,318,382782,2,0,L|186:326,1,37.4999988555909
269,250,383032,2,0,L|229:258,2,37.4999988555909
318,169,383407,1,0,0:0:0:0:
368,248,383532,2,0,L|404:255,2,37.4999988555909,8|0|0,0:0|0:0|0:0,0:0:0:0:
321,323,383907,1,0,0:0:0:0:
318,169,384032,6,0,L|328:93,1,74.9999977111817,4|0,0:0|0:0,0:0:0:0:
197,94,384407,2,0,L|206:168,1,74.9999977111817,8|0,0:0|0:0,0:0:0:0:
79,178,384782,2,0,L|87:134,1,37.4999988555909
35,34,385032,2,0,L|42:78,2,37.4999988555909
112,19,385407,1,0,0:0:0:0:
197,94,385532,2,0,L|240:88,1,37.4999988555909,8|0,0:0|0:0,0:0:0:0:
318,169,385782,2,0,L|355:174,1,37.4999988555909
455,96,386032,5,0,0:0:0:0:
462,113,386157,1,0,0:0:0:0:
469,130,386282,1,0,0:0:0:0:
430,283,386407,2,0,L|433:206,1,74.9999977111817,8|0,0:0|0:0,0:0:0:0:
336,298,386782,2,0,L|345:340,1,37.4999988555909
243,326,387032,2,0,L|212:306,2,37.4999988555909
265,240,387407,1,0,0:0:0:0:
111,271,387532,2,0,L|101:317,1,37.4999988555909,8|0,0:0|0:0,0:0:0:0:
174,160,387782,2,0,L|184:206,1,37.4999988555909
76,122,388032,5,0,0:0:0:0:
71,140,388157,1,0,0:0:0:0:
66,158,388282,1,0,0:0:0:0:
60,21,388407,2,0,L|3:71,1,74.9999977111817,8|0,0:0|0:0,0:0:0:0:
165,52,388782,2,0,L|123:65,1,37.4999988555909
245,99,389032,2,0,L|251:50,2,37.4999988555909
300,170,389407,1,0,0:0:0:0:
229,273,389532,2,0,L|235:224,1,37.4999988555909,8|0,0:0|0:0,0:0:0:0:
327,307,389782,2,0,L|333:356,1,37.4999988555909
421,282,390032,5,0,0:0:0:0:
424,263,390157,1,0,0:0:0:0:
427,244,390282,1,0,0:0:0:0:
500,172,390407,2,0,L|490:89,1,74.9999977111817,8|0,0:0|0:0,0:0:0:0:
424,28,390782,2,0,L|416:78,1,37.4999988555909
344,109,391032,2,0,L|352:159,2,37.4999988555909
282,40,391407,1,0,0:0:0:0:
222,109,391532,2,0,L|214:159,2,37.4999988555909,8|0|0,0:0|0:0|0:0,0:0:0:0:
282,40,391907,1,0,0:0:0:0:
293,239,392032,5,6,0:0:0:0:
293,239,392157,2,0,L|281:303,1,50
362,340,392407,1,8,0:0:0:0:
200,253,392532,2,0,L|142:265,1,50
26,313,392782,2,0,L|84:325,1,50
32,211,393032,1,2,0:0:0:0:
37,186,393157,1,2,0:0:0:0:
43,161,393282,1,2,0:0:0:0:
49,136,393407,1,2,0:0:0:0:
171,63,393532,2,0,P|161:85|147:106,1,50,2|0,0:0|0:0,0:0:0:0:
340,63,393782,2,0,P|350:85|364:106,1,50,2|0,0:0|0:0,0:0:0:0:
256,272,394032,5,2,0:0:0:0:
256,272,394157,2,0,L|256:208,1,50
256,112,394407,1,8,0:0:0:0:
137,275,394532,2,0,L|151:329,1,50
362,323,394782,2,0,L|375:275,1,50
480,211,395032,1,2,0:0:0:0:
475,186,395157,1,2,0:0:0:0:
469,161,395282,1,2,0:0:0:0:
463,136,395407,1,2,0:0:0:0:
311,31,395532,2,0,P|336:44|371:51,1,50,2|0,0:0|0:0,0:0:0:0:
155,49,395782,2,0,P|179:42|201:31,1,50,2|0,0:0|0:0,0:0:0:0:
49,136,396032,5,2,0:0:0:0:
48,136,396157,2,0,P|41:159|40:184,1,50
137,275,396407,1,8,0:0:0:0:
254,184,396532,2,0,L|198:194,1,50
313,314,396782,2,0,L|369:324,1,50
489,223,397032,1,2,0:0:0:0:
465,232,397157,1,2,0:0:0:0:
441,241,397282,1,2,0:0:0:0:
417,250,397407,1,2,0:0:0:0:
364,153,397532,2,0,P|362:128|354:105,1,50,2|0,0:0|0:0,0:0:0:0:
147,153,397782,2,0,P|149:128|158:105,1,50,2|0,0:0|0:0,0:0:0:0:
416,32,398032,5,2,0:0:0:0:
416,32,398157,2,0,L|353:23,1,50
256,96,398407,1,8,0:0:0:0:
96,32,398532,2,0,L|145:24,1,50
69,202,398782,2,0,L|19:194,1,50
137,353,399032,1,2,0:0:0:0:
137,328,399157,1,2,0:0:0:0:
139,303,399282,2,0,L|227:315,1,75,2|0,0:0|0:0,0:0:0:0:
213,313,399532,2,0,P|230:288|237:268,1,50,2|0,0:0|0:0,0:0:0:0:
374,291,399782,2,0,P|368:261|358:242,1,50,2|0,0:0|0:0,0:0:0:0:
147,153,400032,5,6,0:0:0:0:
147,153,400157,2,0,P|168:169|195:176,1,50
256,96,400407,1,8,0:0:0:0:
365,153,400532,2,0,P|344:169|317:176,1,50
79,97,400782,2,0,L|93:28,1,50
424,47,401032,1,2,0:0:0:0:
430,71,401157,1,2,0:0:0:0:
436,96,401282,1,2,0:0:0:0:
443,121,401407,1,2,0:0:0:0:
374,291,401532,2,0,P|390:315|409:334,1,50,2|0,0:0|0:0,0:0:0:0:
138,291,401782,2,0,P|122:315|103:334,1,50,2|0,0:0|0:0,0:0:0:0:
183,73,402032,5,2,0:0:0:0:
183,73,402157,2,0,P|189:117|186:142,1,50
256,272,402407,1,8,0:0:0:0:
323,122,402532,2,0,P|323:97|329:73,1,50
256,272,402782,2,0,L|264:336,1,50
49,276,403032,1,2,0:0:0:0:
52,252,403157,1,2,0:0:0:0:
55,228,403282,1,2,0:0:0:0:
58,204,403407,1,2,0:0:0:0:
346,231,403532,2,0,P|354:273|350:300,1,50,2|0,0:0|0:0,0:0:0:0:
166,153,403782,2,0,P|158:111|162:84,1,50,2|0,0:0|0:0,0:0:0:0:
446,54,404032,5,2,0:0:0:0:
446,54,404157,2,0,P|416:71|383:71,1,50
256,192,404407,1,8,0:0:0:0:
401,310,404532,2,0,P|425:315|445:329,1,50
256,192,404782,2,0,P|226:209|193:209,1,50
75,28,405032,1,2,0:0:0:0:
72,52,405157,1,2,0:0:0:0:
70,76,405282,1,2,0:0:0:0:
68,100,405407,1,2,0:0:0:0:
135,282,405532,2,0,P|146:307|167:332,1,50,2|0,0:0|0:0,0:0:0:0:
377,282,405782,2,0,P|366:307|345:332,1,50,2|0,0:0|0:0,0:0:0:0:
256,192,406032,5,2,0:0:0:0:
261,167,406157,1,0,0:0:0:0:
240,73,406282,1,0,0:0:0:0:
331,58,406407,2,0,P|366:44|381:34,1,50,2|8,0:0|0:0,0:0:0:0:
240,73,406657,1,0,0:0:0:0:
355,143,406782,2,0,P|389:157|407:161,1,50,2|0,0:0|0:0,0:0:0:0:
157,241,407032,2,0,P|122:226|104:222,1,50,2|0,0:0|0:0,0:0:0:0:
12,261,407282,1,2,0:0:0:0:
75,151,407407,1,2,0:0:0:0:
200,319,407532,5,2,0:0:0:0:
211,324,407594,1,2,0:0:0:0:
222,328,407657,1,2,0:0:0:0:
234,330,407719,1,2,0:0:0:0:
246,330,407782,1,2,0:0:0:0:
258,329,407844,1,2,0:0:0:0:
270,325,407907,1,2,0:0:0:0:
281,320,407969,1,2,0:0:0:0:
296,313,408032,5,6,0:0:0:0:
376,227,408157,1,2,0:0:0:0:
272,172,408282,1,2,0:0:0:0:
421,339,408407,2,0,L|500:328,1,62.5,2|8,0:0|0:0,0:0:0:0:
295,315,408657,1,0,0:0:0:0:
462,251,408782,2,0,L|510:187,1,62.5,2|0,0:0|0:0,0:0:0:0:
366,63,409032,1,2,0:0:0:0:
230,97,409157,1,2,0:0:0:0:
127,16,409282,1,2,0:0:0:0:
272,172,409407,2,0,P|275:205|266:243,1,62.5,2|8,0:0|0:0,0:0:0:0:
130,122,409657,1,0,0:0:0:0:
39,317,409782,2,0,P|33:286|36:255,1,62.5,2|0,0:0|0:0,0:0:0:0:
295,315,410032,6,0,P|349:349|417:332,1,125,2|2,0:0|0:0,0:0:0:0:
459,167,410407,2,0,P|449:196|450:227,1,62.5,2|8,0:0|0:0,0:0:0:0:
213,357,410657,2,0,P|213:325|204:296,1,62.5,2|0,0:0|0:0,0:0:0:0:
65,127,410907,1,2,3:0:0:0:
65,127,410969,1,2,3:0:0:0:
67,127,411032,2,0,L|138:121,1,62.5,2|0,3:0|0:0,0:0:0:0:
334,177,411282,2,0,L|263:171,1,62.5,2|0,0:0|0:0,0:0:0:0:
359,44,411532,1,10,0:0:0:0:
355,75,411657,1,2,3:0:0:0:
462,56,411782,1,2,3:0:0:0:
466,25,411907,1,2,3:0:0:0:
369,250,412032,5,6,0:0:0:0:
419,130,412157,1,2,0:0:0:0:
506,231,412282,1,2,0:0:0:0:
253,127,412407,2,0,L|261:53,1,62.5,2|8,0:0|0:0,0:0:0:0:
297,284,412657,2,0,L|303:346,1,62.5,2|0,0:0|0:0,0:0:0:0:
204,220,412907,1,2,0:0:0:0:
63,302,413032,1,2,0:0:0:0:
213,357,413157,1,2,0:0:0:0:
72,178,413282,2,0,P|49:147|38:102,1,62.5,2|0,0:0|0:0,0:0:0:0:
283,73,413532,2,0,P|260:103|249:148,1,62.5,10|2,0:0|3:0,0:0:0:0:
253,126,413719,1,2,3:0:0:0:
253,126,413782,1,2,3:0:0:0:
152,41,413907,1,0,0:0:0:0:
375,187,414032,6,0,L|368:249,1,62.5,2|0,0:0|0:0,0:0:0:0:
219,316,414282,1,2,0:0:0:0:
293,371,414407,1,2,0:0:0:0:
372,339,414532,1,10,0:0:0:0:
297,284,414657,1,2,0:0:0:0:
219,316,414782,1,2,0:0:0:0:
51,322,414907,1,2,3:0:0:0:
51,322,414969,1,2,3:0:0:0:
51,322,415032,2,0,P|85:317|113:302,1,62.5,2|0,3:0|0:0,0:0:0:0:
194,108,415282,2,0,P|224:112|252:126,1,62.5,2|0,0:0|0:0,0:0:0:0:
375,187,415532,1,10,0:0:0:0:
382,156,415657,1,2,3:0:0:0:
471,94,415782,1,2,3:0:0:0:
464,63,415907,1,2,3:0:0:0:
464,248,416032,5,6,0:0:0:0:
374,363,416157,1,2,0:0:0:0:
300,238,416282,1,2,0:0:0:0:
147,311,416407,2,0,P|161:351|178:376,1,62.5,2|8,0:0|0:0,0:0:0:0:
187,198,416657,1,0,0:0:0:0:
58,68,416782,2,0,P|42:95|33:124,1,62.5,2|0,0:0|0:0,0:0:0:0:
169,22,417032,1,2,0:0:0:0:
285,103,417157,1,2,0:0:0:0:
187,198,417282,1,2,0:0:0:0:
374,363,417407,2,0,L|360:284,1,62.5,2|8,0:0|0:0,0:0:0:0:
249,355,417657,1,0,0:0:0:0:
463,247,417782,2,0,L|474:186,1,62.5,2|0,0:0|0:0,0:0:0:0:
215,279,418032,6,0,P|274:258|322:211,1,125,2|2,0:0|0:0,0:0:0:0:
133,168,418407,2,0,P|157:188|187:198,1,62.5,2|8,0:0|0:0,0:0:0:0:
363,301,418657,2,0,P|387:281|416:271,1,62.5,2|0,0:0|0:0,0:0:0:0:
345,106,418907,1,2,3:0:0:0:
345,106,418969,1,2,3:0:0:0:
345,106,419032,2,0,L|326:30,1,62.5,2|0,3:0|0:0,0:0:0:0:
44,160,419282,2,0,L|63:84,1,62.5
156,307,419532,1,10,0:0:0:0:
148,337,419657,1,2,3:0:0:0:
66,241,419782,1,2,3:0:0:0:
74,271,419907,1,2,3:0:0:0:
239,357,420032,5,6,0:0:0:0:
194,212,420157,1,2,0:0:0:0:
326,279,420282,1,2,0:0:0:0:
256,64,420407,2,0,P|245:94|243:125,1,62.5,2|8,0:0|0:0,0:0:0:0:
421,291,420657,2,0,P|419:259|408:230,1,62.5,2|0,0:0|0:0,0:0:0:0:
239,357,420907,1,2,0:0:0:0:
119,265,421032,1,2,0:0:0:0:
272,218,421157,1,2,0:0:0:0:
101,137,421282,2,0,P|71:144|43:160,1,62.5,2|0,0:0|0:0,0:0:0:0:
323,150,421532,2,0,P|353:142|380:127,1,62.5,10|2,0:0|3:0,0:0:0:0:
380,127,421719,1,2,3:0:0:0:
380,127,421782,1,2,3:0:0:0:
441,28,421907,1,0,0:0:0:0:
371,236,422032,6,0,L|356:297,1,62.5,2|0,0:0|0:0,0:0:0:0:
171,173,422282,1,2,0:0:0:0:
272,218,422407,1,2,0:0:0:0:
221,310,422532,1,10,0:0:0:0:
119,265,422657,1,2,0:0:0:0:
171,173,422782,1,2,0:0:0:0:
16,237,422907,1,2,3:0:0:0:
16,237,422969,1,2,3:0:0:0:
16,237,423032,2,0,L|31:297,1,62.5,2|0,3:0|0:0,0:0:0:0:
85,48,423282,2,0,L|69:108,1,62.5,2|0,0:0|0:0,0:0:0:0:
119,265,423532,1,10,3:0:0:0:
131,293,423657,1,2,3:0:0:0:
217,364,423782,1,2,3:0:0:0:
229,336,423907,1,2,3:0:0:0:
350,185,424032,6,0,L|418:193,1,62.5,4|0,0:0|0:0,0:0:0:0:
381,45,424282,1,2,0:0:0:0:
284,110,424407,1,2,0:0:0:0:
363,278,424532,2,0,L|390:340,1,62.5,10|0,0:0|0:0,0:0:0:0:
126,308,424782,1,2,0:0:0:0:
223,243,424907,1,2,0:0:0:0:
59,173,425032,2,0,L|69:243,1,62.5,2|0,0:0|0:0,0:0:0:0:
152,80,425282,2,0,L|162:150,1,62.5,2|0,0:0|0:0,0:0:0:0:
42,41,425532,1,10,0:0:0:0:
160,141,425657,1,0,0:0:0:0:
246,23,425782,1,2,0:0:0:0:
165,144,425907,1,0,0:0:0:0:
388,68,426032,6,0,P|358:60|326:59,1,62.5,2|0,0:0|0:0,0:0:0:0:
456,159,426282,1,2,0:0:0:0:
488,35,426407,1,2,0:0:0:0:
361,215,426532,2,0,P|352:251|352:280,1,62.5,10|0,0:0|0:0,0:0:0:0:
165,144,426782,2,0,P|174:180|174:209,1,62.5,2|2,0:0|3:0,0:0:0:0:
174,205,426969,1,2,3:0:0:0:
174,205,427032,2,0,P|132:248|61:259,1,125,2|0,3:0|0:0,0:0:0:0:
83,154,427407,1,0,0:0:0:0:
236,307,427532,1,10,3:0:0:0:
239,312,427594,1,2,3:0:0:0:
242,317,427657,1,2,3:0:0:0:
245,322,427719,1,2,3:0:0:0:
248,327,427782,2,0,L|322:330,1,62.5,2|0,3:0|0:0,0:0:0:0:
498,219,428032,5,4,0:0:0:0:
388,130,428157,2,0,P|383:99|387:68,1,62.5,2|0,0:0|0:0,0:0:0:0:
498,219,428407,1,0,0:0:0:0:
357,233,428532,2,0,P|331:214|312:189,1,62.5,10|0,0:0|0:0,0:0:0:0:
181,56,428782,1,2,0:0:0:0:
308,37,428907,1,2,0:0:0:0:
237,142,429032,2,0,L|158:136,2,62.5,2|0|2,0:0|0:0|0:0,0:0:0:0:
209,239,429407,1,0,0:0:0:0:
58,159,429532,1,10,0:0:0:0:
38,284,429657,1,0,0:0:0:0:
58,159,429782,1,2,0:0:0:0:
127,263,429907,1,0,0:0:0:0:
24,80,430032,6,0,P|23:48|33:19,1,62.5,2|0,0:0|0:0,0:0:0:0:
233,36,430282,1,2,0:0:0:0:
141,107,430407,1,2,0:0:0:0:
327,180,430532,2,0,P|327:148|317:119,1,62.5,10|0,0:0|0:0,0:0:0:0:
430,284,430782,2,0,P|452:262|466:234,1,62.5,2|2,0:0|3:0,0:0:0:0:
466,234,430969,1,2,3:0:0:0:
466,234,431032,2,0,L|452:110,1,125,2|0,3:0|0:0,0:0:0:0:
498,18,431407,1,0,0:0:0:0:
298,65,431532,1,10,0:0:0:0:
374,174,431657,1,0,0:0:0:0:
313,337,431782,2,0,L|319:271,1,62.5,2|0,0:0|0:0,0:0:0:0:
107,202,432032,6,0,P|137:207|165:221,1,62.5,6|0,0:0|0:0,0:0:0:0:
31,265,432282,1,2,0:0:0:0:
186,312,432407,1,2,0:0:0:0:
211,82,432532,2,0,P|201:118|201:161,1,62.5,10|0,0:0|0:0,0:0:0:0:
298,65,432782,1,2,0:0:0:0:
136,34,432907,1,2,0:0:0:0:
225,231,433032,2,0,P|251:257|288:279,1,62.5,2|0,0:0|0:0,0:0:0:0:
421,133,433282,2,0,P|394:159|357:181,1,62.5,2|0,0:0|0:0,0:0:0:0:
435,45,433532,1,10,0:0:0:0:
373,173,433657,1,0,0:0:0:0:
490,267,433782,1,2,0:0:0:0:
373,173,433907,1,0,0:0:0:0:
225,230,434032,6,0,P|211:265|208:294,1,62.5,2|0,0:0|0:0,0:0:0:0:
287,172,434282,1,2,0:0:0:0:
259,356,434407,1,2,0:0:0:0:
100,251,434532,2,0,L|91:165,1,62.5,10|0,0:0|0:0,0:0:0:0:
217,19,434782,2,0,L|210:81,1,62.5,2|2,0:0|3:0,0:0:0:0:
210,81,434969,1,2,3:0:0:0:
210,81,435032,2,0,P|151:97|94:74,1,125,2|0,3:0|0:0,0:0:0:0:
17,160,435407,1,0,0:0:0:0:
222,301,435532,1,10,3:0:0:0:
227,298,435594,1,2,3:0:0:0:
232,295,435657,1,2,3:0:0:0:
237,292,435719,1,2,3:0:0:0:
241,289,435782,2,0,P|237:258|224:229,1,62.5,2|0,3:0|0:0,0:0:0:0:
100,251,436032,5,4,0:0:0:0:
326,236,436157,2,0,L|346:165,1,62.5,2|0,0:0|0:0,0:0:0:0:
136,332,436407,1,0,0:0:0:0:
240,135,436532,2,0,L|203:70,1,62.5,10|0,0:0|0:0,0:0:0:0:
432,149,436782,1,2,0:0:0:0:
407,284,436907,1,2,0:0:0:0:
345,84,437032,2,0,P|371:65|400:54,1,62.5,2|0,0:0|0:0,0:0:0:0:
163,200,437282,2,0,P|192:211|218:230,1,62.5,2|0,0:0|0:0,0:0:0:0:
136,332,437532,1,10,0:0:0:0:
218,230,437657,1,0,0:0:0:0:
164,117,437782,1,2,0:0:0:0:
222,234,437907,1,0,0:0:0:0:
26,118,438032,6,0,L|47:53,1,62.5,2|0,0:0|0:0,0:0:0:0:
222,234,438282,2,0,L|241:293,1,62.5,2|0,0:0|0:0,0:0:0:0:
345,84,438532,2,0,L|366:19,1,62.5,10|0,0:0|0:0,0:0:0:0:
386,342,438782,2,0,L|407:277,1,62.5,2|2,0:0|3:0,0:0:0:0:
405,282,438969,1,2,3:0:0:0:
405,282,439032,2,0,P|366:258|335:176,1,125,2|0,3:0|0:0,0:0:0:0:
443,182,439407,1,2,0:0:0:0:
287,305,439532,1,10,3:0:0:0:
258,317,439657,1,2,3:0:0:0:
193,222,439782,1,2,3:0:0:0:
222,234,439907,1,2,3:0:0:0:
60,273,440032,6,0,L|66:186,1,62.5,6|0,0:0|0:0,0:0:0:0:
201,139,440282,1,0,0:0:0:0:
36,44,440407,1,2,3:0:0:0:
36,44,440469,1,2,3:0:0:0:
36,44,440532,2,0,P|62:63|102:73,1,62.5,10|0,3:0|0:0,0:0:0:0:
280,176,440782,2,0,P|306:157|346:147,1,62.5,2|0,0:0|0:0,0:0:0:0:
442,324,441032,2,0,P|471:333|496:352,1,62.5,2|0,0:0|0:0,0:0:0:0:
347,333,441282,1,2,0:0:0:0:
432,232,441407,1,2,0:0:0:0:
183,309,441532,2,0,P|191:339|206:366,1,62.5,10|0,0:0|0:0,0:0:0:0:
17,202,441782,2,0,P|31:174|40:144,1,62.5,2|0,0:0|0:0,0:0:0:0:
260,269,442032,6,0,P|206:225|134:230,1,125,2|0,0:0|0:0,0:0:0:0:
78,300,442407,1,0,0:0:0:0:
268,365,442532,1,10,3:0:0:0:
273,363,442594,1,2,3:0:0:0:
279,361,442657,1,2,3:0:0:0:
284,359,442719,1,2,3:0:0:0:
299,366,442782,2,0,L|374:374,1,62.5,2|2,3:0|3:0,0:0:0:0:
361,373,442969,1,2,3:0:0:0:
360,373,443032,2,0,P|410:348|491:351,1,125,2|2,3:0|0:0,0:0:0:0:
389,232,443407,1,2,0:0:0:0:
474,68,443532,1,10,3:0:0:0:
473,74,443594,1,2,3:0:0:0:
471,80,443657,1,2,3:0:0:0:
469,86,443719,1,2,3:0:0:0:
467,92,443782,2,0,P|439:103|395:107,1,62.5,2|0,3:0|0:0,0:0:0:0:
189,40,444032,5,6,0:0:0:0:
49,148,444157,1,2,3:0:0:0:
51,154,444219,1,2,3:0:0:0:
54,160,444282,2,0,P|84:156|113:145,1,62.5,2|0,3:0|0:0,0:0:0:0:
6,268,444532,2,0,P|38:276|67:278,1,62.5,10|0,0:0|0:0,0:0:0:0:
59,62,444782,1,2,0:0:0:0:
142,219,444907,1,2,0:0:0:0:
277,33,445032,2,0,P|263:90|262:169,1,125,2|0,0:0|0:0,0:0:0:0:
319,278,445407,1,2,0:0:0:0:
421,63,445532,2,0,P|434:92|440:123,1,62.5,10|0,0:0|0:0,0:0:0:0:
215,287,445782,2,0,P|220:256|233:227,1,62.5,2|0,0:0|0:0,0:0:0:0:
59,340,446032,6,0,P|111:371|172:363,1,125,2|0,0:0|0:0,0:0:0:0:
386,338,446407,1,2,3:0:0:0:
386,338,446469,1,2,3:0:0:0:
386,338,446532,2,0,P|351:355|316:360,1,62.5,10|0,3:0|0:0,0:0:0:0:
438,220,446782,1,0,0:0:0:0:
315,109,446907,1,2,3:0:0:0:
315,109,446969,1,2,3:0:0:0:
315,109,447032,2,0,P|376:104|421:63,1,125,2|0,3:0|0:0,0:0:0:0:
252,30,447407,1,2,0:0:0:0:
300,207,447532,2,0,P|306:242|305:269,1,62.5,10|0,0:0|0:0,0:0:0:0:
426,125,447782,2,0,P|420:94|420:63,1,62.5,2|0,0:0|0:0,0:0:0:0:
255,351,448032,5,4,0:0:0:0:
155,122,448157,2,0,P|185:128|211:145,1,62.5,2|0,0:0|0:0,0:0:0:0:
59,184,448407,1,2,0:0:0:0:
112,40,448532,1,10,0:0:0:0:
85,290,448657,1,2,3:0:0:0:
85,290,448719,1,2,3:0:0:0:
85,290,448782,2,0,L|95:363,1,62.5,2|0,3:0|0:0,0:0:0:0:
299,206,449032,2,0,L|308:145,1,62.5,2|0,0:0|0:0,0:0:0:0:
59,184,449282,2,0,L|50:122,1,62.5,2|0,0:0|0:0,0:0:0:0:
339,201,449532,2,0,L|331:263,1,62.5,10|0,0:0|0:0,0:0:0:0:
24,231,449782,2,0,L|15:169,1,62.5,2|0,0:0|0:0,0:0:0:0:
295,47,450032,6,0,P|337:79|429:82,1,125,2|0,0:0|0:0,0:0:0:0:
207,25,450407,1,2,3:0:0:0:
207,25,450469,1,2,3:0:0:0:
207,25,450532,2,0,P|197:73|211:108,1,62.5,10|0,3:0|0:0,0:0:0:0:
464,171,450782,2,0,P|474:200|471:231,1,62.5,2|2,0:0|3:0,0:0:0:0:
471,231,450969,1,2,3:0:0:0:
471,230,451032,2,0,P|425:272|406:331,1,125,2|0,3:0|0:0,0:0:0:0:
322,188,451407,1,2,0:0:0:0:
221,343,451532,1,10,3:0:0:0:
222,336,451594,1,2,3:0:0:0:
223,329,451657,1,2,3:0:0:0:
224,322,451719,1,2,3:0:0:0:
224,315,451782,2,0,P|254:303|284:298,1,62.5,2|0,3:0|0:0,0:0:0:0:
129,250,452032,5,4,0:0:0:0:
372,321,452157,2,0,L|366:244,1,62.5,2|0,0:0|0:0,0:0:0:0:
125,350,452407,1,2,0:0:0:0:
322,188,452532,2,0,L|316:111,1,62.5,10|2,0:0|3:0,0:0:0:0:
317,125,452719,1,2,3:0:0:0:
317,125,452782,1,2,3:0:0:0:
471,230,452907,1,2,0:0:0:0:
414,16,453032,2,0,P|386:31|366:54,1,62.5,2|0,0:0|0:0,0:0:0:0:
367,258,453282,2,0,P|346:281|319:296,1,62.5,2|0,0:0|0:0,0:0:0:0:
129,250,453532,1,10,0:0:0:0:
189,44,453657,1,2,3:0:0:0:
189,44,453719,1,2,3:0:0:0:
189,44,453782,1,2,3:0:0:0:
211,154,453907,1,2,0:0:0:0:
129,250,454032,6,0,P|133:286|149:321,1,62.5,2|0,0:0|0:0,0:0:0:0:
309,345,454282,2,0,P|280:331|257:312,1,62.5,2|0,0:0|0:0,0:0:0:0:
367,258,454532,2,0,P|402:254|437:238,1,62.5,10|0,0:0|0:0,0:0:0:0:
466,157,454782,1,2,0:0:0:0:
414,16,454907,1,2,3:0:0:0:
413,22,454969,1,2,3:0:0:0:
412,28,455032,5,2,3:0:0:0:
335,82,455157,1,0,0:0:0:0:
243,59,455282,1,2,0:0:0:0:
166,113,455407,1,0,0:0:0:0:
33,72,455532,5,10,0:0:0:0:
166,113,455657,1,0,0:0:0:0:
92,236,455782,1,2,0:0:0:0:
166,113,455907,1,0,0:0:0:0:
168,289,456032,6,0,L|180:363,1,62.5,4|0,0:0|0:0,0:0:0:0:
92,236,456282,1,2,0:0:0:0:
243,188,456407,1,2,3:0:0:0:
243,188,456469,1,2,3:0:0:0:
243,188,456532,2,0,L|286:240,1,62.5,10|0,3:0|0:0,0:0:0:0:
166,113,456782,1,2,0:0:0:0:
285,82,456907,1,2,3:0:0:0:
285,82,456969,1,2,3:0:0:0:
285,82,457032,2,0,L|352:88,1,62.5,2|0,3:0|0:0,0:0:0:0:
430,44,457282,1,2,0:0:0:0:
485,119,457407,1,0,0:0:0:0:
366,231,457532,2,0,P|379:203|400:180,1,62.5,10|0,0:0|0:0,0:0:0:0:
504,312,457782,2,0,P|490:283|470:260,1,62.5,2|0,0:0|0:0,0:0:0:0:
247,289,458032,6,0,L|240:352,1,62.5,2|0,0:0|0:0,0:0:0:0:
129,375,458282,1,2,0:0:0:0:
286,207,458407,1,2,3:0:0:0:
286,207,458469,1,2,3:0:0:0:
286,207,458532,2,0,L|278:144,1,62.5,10|0,3:0|0:0,0:0:0:0:
185,85,458782,1,2,0:0:0:0:
366,137,458907,1,2,3:0:0:0:
366,137,458969,1,2,3:0:0:0:
366,137,459032,2,0,L|374:74,1,62.5,2|0,3:0|0:0,0:0:0:0:
169,180,459282,1,2,0:0:0:0:
247,289,459407,1,0,0:0:0:0:
44,246,459532,2,0,P|34:216|31:181,1,62.5,10|0,0:0|0:0,0:0:0:0:
247,289,459782,2,0,L|246:361,1,62.5,2|0,0:0|0:0,0:0:0:0:
468,246,460032,6,2,P|478:216|481:181,1,62.5,4|0,0:0|0:0,0:0:0:0:
372,301,460282,1,2,0:0:0:0:
366,137,460407,1,2,3:0:0:0:
364,130,460469,1,2,3:0:0:0:
362,123,460532,1,10,3:0:0:0:
360,116,460594,1,2,3:0:0:0:
358,109,460657,1,2,3:0:0:0:
307,209,460782,1,2,0:0:0:0:
372,301,460907,1,0,0:0:0:0:
203,265,461032,2,0,P|173:270|146:286,1,62.5,2|0,0:0|0:0,0:0:0:0:
72,356,461282,1,2,0:0:0:0:
106,194,461407,1,0,0:0:0:0:
211,350,461532,2,0,P|238:366|269:372,1,62.5,10|0,0:0|0:0,0:0:0:0:
372,301,461782,1,2,0:0:0:0:
265,169,461907,1,0,0:0:0:0:
460,332,462032,6,0,L|463:251,1,62.5,2|0,0:0|0:0,0:0:0:0:
506,109,462282,1,2,0:0:0:0:
296,27,462407,1,2,3:0:0:0:
296,27,462469,1,2,3:0:0:0:
296,27,462532,1,10,3:0:0:0:
296,27,462594,1,2,3:0:0:0:
296,27,462657,2,0,P|331:39|377:34,1,62.5,2|0,3:0|0:0,0:0:0:0:
162,112,462907,1,2,3:0:0:0:
162,112,462969,1,2,3:0:0:0:
162,112,463032,2,0,P|197:100|243:105,1,62.5,2|0,3:0|0:0,0:0:0:0:
106,194,463282,1,2,0:0:0:0:
311,134,463407,1,0,0:0:0:0:
54,112,463532,2,0,P|45:82|49:51,1,62.5,10|0,0:0|0:0,0:0:0:0:
173,269,463782,2,0,P|177:299|168:329,1,62.5,2|0,0:0|0:0,0:0:0:0:
311,134,464032,6,0,P|348:121|381:88,1,62.5,6|0,0:0|0:0,0:0:0:0:
296,27,464282,1,2,0:0:0:0:
267,224,464407,1,2,3:0:0:0:
267,224,464469,1,2,3:0:0:0:
267,224,464532,2,0,L|332:230,1,62.5,10|0,3:0|0:0,0:0:0:0:
491,185,464782,1,2,0:0:0:0:
427,281,464907,1,0,0:0:0:0:
218,293,465032,2,0,L|283:299,1,62.5,2|0,0:0|0:0,0:0:0:0:
427,111,465282,2,0,P|425:79|411:37,1,62.5,2|0,0:0|0:0,0:0:0:0:
181,18,465532,2,0,P|154:35|124:68,1,62.5,10|0,0:0|0:0,0:0:0:0:
223,277,465782,2,0,P|251:291|295:300,1,62.5,2|0,0:0|0:0,0:0:0:0:
416,49,466032,6,0,P|425:79|427:111,1,62.5,2|0,0:0|0:0,0:0:0:0:
309,22,466282,1,2,0:0:0:0:
397,207,466407,1,2,3:0:0:0:
397,207,466469,1,2,3:0:0:0:
397,207,466532,2,0,P|381:234|360:257,1,62.5,10|0,3:0|0:0,0:0:0:0:
340,111,466782,1,0,0:0:0:0:
280,298,466907,1,0,0:0:0:0:
280,298,466969,1,0,0:0:0:0:
280,298,467032,2,0,P|249:306|218:308,1,62.5
291,194,467282,1,2,0:0:0:0:
132,278,467407,1,0,0:0:0:0:
49,104,467532,2,0,P|41:136|39:174,1,62.5,10|0,0:0|0:0,0:0:0:0:
242,91,467782,2,0,P|239:59|231:29,1,62.5,2|0,0:0|0:0,0:0:0:0:
279,297,468032,6,0,P|309:307|340:312,1,62.5,6|0,0:0|0:0,0:0:0:0:
442,267,468282,1,2,0:0:0:0:
291,194,468407,1,2,3:0:0:0:
291,194,468469,1,2,3:0:0:0:
291,194,468532,2,0,P|261:203|230:208,1,62.5,10|0,3:0|0:0,0:0:0:0:
126,170,468782,1,2,0:0:0:0:
62,277,468907,1,0,0:0:0:0:
242,91,469032,2,0,L|232:18,1,62.5,2|0,0:0|0:0,0:0:0:0:
404,193,469282,2,0,P|415:159|433:134,1,62.5
200,126,469532,2,0,L|190:53,1,62.5,8|0,0:0|0:0,0:0:0:0:
435,216,469782,2,0,P|446:182|464:157,1,62.5
143,91,470032,6,0,L|151:152,1,62.5,2|0,0:0|0:0,0:0:0:0:
349,351,470407,1,0,0:0:0:0:
286,225,470532,2,0,L|277:286,1,62.5,10|0,0:0|0:0,0:0:0:0:
361,169,470782,1,0,0:0:0:0:
349,351,470907,1,2,3:0:0:0:
349,351,470969,1,2,3:0:0:0:
349,351,471032,2,0,P|380:368|419:372,1,62.5,2|0,3:0|0:0,0:0:0:0:
185,301,471282,2,0,P|154:306|127:322,1,62.5,2|0,0:0|0:0,0:0:0:0:
74,213,471532,1,10,0:0:0:0:
54,367,471657,1,0,0:0:0:0:
169,196,471782,2,0,L|165:176,4,20.8333333333333,2|0|0|0|0,0:0|0:0|0:0|0:0|0:0,0:0:0:0:
169,196,472032,5,6,0:0:0:0:
64,113,472157,2,0,P|111:143|167:147,1,100
36,24,472532,1,8,0:0:0:0:
283,123,472782,2,0,L|287:57,1,50,2|0,0:0|0:0,0:0:0:0:
216,25,473032,1,2,0:0:0:0:
356,158,473157,2,0,P|369:109|402:57,1,100,2|2,0:0|0:0,0:0:0:0:
483,43,473532,1,8,0:0:0:0:
463,218,473657,2,0,P|459:183|462:147,1,50,2|0,0:0|0:0,0:0:0:0:
317,263,473907,1,0,0:0:0:0:
317,263,473969,1,0,0:0:0:0:
317,263,474032,5,2,0:0:0:0:
426,318,474157,2,0,P|380:327|330:367,1,100,2|0,0:0|0:0,0:0:0:0:
497,363,474532,1,8,0:0:0:0:
188,298,474782,2,0,P|213:320|236:332,1,50,2|0,0:0|0:0,0:0:0:0:
141,223,475032,1,2,0:0:0:0:
29,357,475157,2,0,P|54:328|69:259,1,100,2|0,0:0|0:0,0:0:0:0:
50,170,475532,1,8,0:0:0:0:
74,72,475657,1,2,0:0:0:0:
187,207,475782,2,0,P|163:212|141:222,1,50,2|0,0:0|0:0,0:0:0:0:
188,298,476032,5,2,0:0:0:0:
362,277,476157,2,0,P|319:253|270:253,1,100,2|0,0:0|0:0,0:0:0:0:
398,358,476532,1,8,0:0:0:0:
473,178,476782,2,0,P|454:201|446:219,1,50,2|0,0:0|0:0,0:0:0:0:
477,298,477032,1,2,0:0:0:0:
364,182,477157,2,0,L|372:65,1,100,2|0,0:0|0:0,0:0:0:0:
448,38,477532,1,8,0:0:0:0:
280,103,477657,2,0,P|257:92|241:74,1,50,2|0,0:0|0:0,0:0:0:0:
280,209,477907,1,2,0:0:0:0:
280,209,477969,1,2,0:0:0:0:
279,207,478032,6,0,P|233:223|187:207,1,100,2|2,0:0|0:0,0:0:0:0:
129,126,478407,1,0,0:0:0:0:
107,223,478532,2,0,P|94:245|77:263,1,50,8|0,0:0|0:0,0:0:0:0:
218,300,478782,2,0,P|230:321|248:339,1,50,2|0,0:0|0:0,0:0:0:0:
334,342,479032,1,2,0:0:0:0:
186,206,479157,2,0,P|215:158|226:94,1,100,2|2,0:0|0:0,0:0:0:0:
184,34,479532,1,8,0:0:0:0:
79,132,479657,2,0,P|104:133|128:125,1,50,2|0,0:0|0:0,0:0:0:0:
32,38,479907,1,2,0:0:0:0:
32,38,479969,1,2,0:0:0:0:
32,38,480032,5,2,0:0:0:0:
107,223,480282,1,2,0:0:0:0:
255,89,480532,1,8,0:0:0:0:
411,191,480782,2,0,P|417:167|427:144,1,50,2|0,0:0|0:0,0:0:0:0:
512,117,481032,1,2,0:0:0:0:
508,298,481157,2,0,P|494:248|504:194,1,100,2|0,0:0|0:0,0:0:0:0:
408,283,481532,1,8,0:0:0:0:
277,223,481657,1,2,0:0:0:0:
313,319,481782,1,2,0:0:0:0:
373,188,481907,1,2,0:0:0:0:
190,178,482032,5,2,0:0:0:0:
255,89,482157,2,0,P|200:89|150:62,1,100,2|0,0:0|0:0,0:0:0:0:
226,3,482532,1,8,0:0:0:0:
41,155,482782,2,0,P|36:184|41:213,1,50,2|0,0:0|0:0,0:0:0:0:
121,255,483032,1,2,0:0:0:0:
231,363,483157,2,0,P|190:367|136:338,1,100,2|2,0:0|0:0,0:0:0:0:
313,319,483532,1,8,0:0:0:0:
391,271,483657,2,0,P|425:275|450:290,2,50,2|2|2,0:0|0:0|0:0,0:0:0:0:
201,277,484032,6,0,L|189:173,1,100,0|2,0:0|0:0,0:0:0:0:
54,68,484532,1,8,0:0:0:0:
306,130,484782,2,0,P|283:148|269:168,1,50,2|0,0:0|0:0,0:0:0:0:
391,123,485032,1,2,0:0:0:0:
266,63,485157,2,0,P|233:57|181:5,1,100,2|0,0:0|0:0,0:0:0:0:
346,28,485532,1,8,0:0:0:0:
391,123,485657,1,0,0:0:0:0:
182,196,485782,2,0,P|179:171|183:147,1,50,2|0,0:0|0:0,0:0:0:0:
221,308,486032,5,0,0:0:0:0:
391,290,486157,2,0,P|349:316|324:359,1,100,2|0,0:0|0:0,0:0:0:0:
484,322,486532,1,8,0:0:0:0:
415,369,486657,1,0,0:0:0:0:
462,234,486782,2,0,P|473:207|476:164,1,50,2|0,0:0|0:0,0:0:0:0:
391,123,487032,1,2,0:0:0:0:
485,18,487157,2,0,P|446:41|393:37,1,100,2|2,0:0|0:0,0:0:0:0:
296,103,487532,2,0,P|278:120|268:143,1,50,10|0,0:0|0:0,0:0:0:0:
274,242,487782,1,0,0:0:0:0:
182,196,487907,1,0,0:0:0:0:
296,103,488032,5,0,0:0:0:0:
182,196,488157,2,0,P|132:197|85:180,1,100
157,40,488532,1,8,0:0:0:0:
16,307,488782,2,0,P|41:288|71:276,1,50,2|0,0:0|0:0,0:0:0:0:
152,315,489032,1,2,0:0:0:0:
331,332,489157,2,0,P|271:334|229:365,1,100,2|2,0:0|0:0,0:0:0:0:
414,363,489532,1,10,0:0:0:0:
274,242,489657,2,0,L|284:188,1,50,2|0,0:0|0:0,0:0:0:0:
435,266,489907,1,2,0:0:0:0:
435,266,489969,1,2,0:0:0:0:
435,266,490032,6,0,P|403:223|400:158,1,100,2|2,0:0|0:0,0:0:0:0:
457,96,490407,1,0,0:0:0:0:
494,189,490532,1,8,0:0:0:0:
205,72,490782,2,0,P|236:96|305:100,1,100,2|0,0:0|0:0,0:0:0:0:
118,57,491157,2,0,P|122:90|133:123,1,50,2|0,0:0|0:0,0:0:0:0:
42,12,491407,2,0,P|21:38|5:69,1,50,2|8,0:0|0:0,0:0:0:0:
47,145,491657,1,2,0:0:0:0:
131,196,491782,2,0,P|146:215|159:236,1,50,2|0,0:0|0:0,0:0:0:0:
38,291,492032,6,0,B|104:280|104:280|171:294|171:294|238:278,1,200,2|8,0:0|0:0,0:0:0:0:
410,292,492782,2,0,P|427:310|435:334,1,50,2|0,0:0|0:0,0:0:0:0:
325,255,493032,1,2,0:0:0:0:
233,278,493157,2,0,P|223:234|231:168,1,100,2|0,0:0|0:0,0:0:0:0:
131,196,493532,1,8,0:0:0:0:
178,103,493657,1,0,0:0:0:0:
309,174,493782,2,0,L|319:149,4,16.6666666666667,2|0|0|0|0,0:0|0:0|0:0|0:0|0:0,0:0:0:0:
309,174,494032,6,0,L|427:165,2,100,2|0|8,0:0|0:0|0:0,0:0:0:0:
396,89,494698,6,0,P|421:66|434:36,1,66.6666666666667,2|2,3:0|3:0,3:0:0:0:
150,45,495032,1,2,3:0:0:0:
249,29,495199,1,2,3:0:0:0:
348,14,495365,1,2,3:0:0:0:
101,132,495532,1,10,3:0:0:0:
200,116,495699,1,2,3:0:0:0:
299,101,495865,1,2,3:0:0:0:
57,62,496032,5,0,0:0:0:0:
64,218,496157,2,0,P|69:169|101:132,1,100
118,297,496532,1,8,0:0:0:0:
299,101,496782,2,0,P|311:122|320:145,1,50,2|0,0:0|0:0,0:0:0:0:
281,232,497032,1,2,0:0:0:0:
429,162,497157,2,0,P|435:107|456:55,1,100,2|2,0:0|0:0,0:0:0:0:
365,43,497532,1,8,0:0:0:0:
387,237,497657,1,2,0:0:0:0:
387,237,497719,1,2,0:0:0:0:
387,237,497782,2,0,L|446:248,1,50,2|0,0:0|0:0,0:0:0:0:
281,232,498032,5,0,0:0:0:0:
412,336,498157,2,0,P|373:359|311:354,1,100
436,246,498532,1,8,0:0:0:0:
180,198,498782,2,0,P|181:233|189:261,1,50,2|0,0:0|0:0,0:0:0:0:
237,319,499032,1,2,0:0:0:0:
131,115,499157,2,0,P|96:157|77:219,1,100,2|2,0:0|0:0,0:0:0:0:
106,294,499532,1,8,0:0:0:0:
257,146,499657,2,0,L|253:92,2,50,2|2|2,0:0|0:0|0:0,0:0:0:0:
459,69,500032,6,0,P|412:76|357:51,1,100
296,9,500407,1,0,0:0:0:0:
342,141,500532,1,8,0:0:0:0:
131,115,500782,2,0,P|151:101|175:93,1,50,2|0,0:0|0:0,0:0:0:0:
38,107,501032,1,2,0:0:0:0:
148,279,501157,2,0,P|176:244|183:187,1,100,2|0,0:0|0:0,0:0:0:0:
90,202,501532,1,8,0:0:0:0:
185,361,501657,2,0,P|229:353|247:353,1,50
316,369,501907,1,0,0:0:0:0:
342,141,502032,5,0,0:0:0:0:
413,296,502157,2,0,L|422:236,1,50,2|0,0:0|0:0,0:0:0:0:
254,186,502407,1,2,0:0:0:0:
316,369,502532,2,0,L|325:309,1,50,10|0,0:0|0:0,0:0:0:0:
166,225,502782,1,0,0:0:0:0:
75,262,502907,1,0,0:0:0:0:
254,186,503032,1,2,0:0:0:0:
342,141,503157,2,0,P|338:116|326:94,1,50,2|0,0:0|0:0,0:0:0:0:
333,234,503407,1,0,0:0:0:0:
217,101,503532,2,0,P|197:86|173:79,1,50,10|0,0:0|0:0,0:0:0:0:
97,140,503782,2,0,P|77:155|54:162,1,50,2|0,0:0|0:0,0:0:0:0:
24,22,504032,5,4,0:0:0:0:
416,352,512032,6,0,L|422:311,1,31.25,2|0,0:0|0:0,0:0:0:0:
320,320,512282,2,0,P|321:294|319:276,1,37.4999988555909,2|0,0:0|0:0,0:0:0:0:
217,271,512532,2,0,P|207:242|197:221,1,50,10|0,0:0|0:0,0:0:0:0:
105,317,512782,2,0,P|84:294|66:280,1,43.749998664856,2|0,0:0|0:0,0:0:0:0:
257,75,513032,6,0,L|332:81,1,62.5,4|0,0:0|0:0,0:0:0:0:
100,177,513282,2,0,P|114:156|133:140,1,50,2|0,0:0|0:0,0:0:0:0:
279,109,513532,2,0,L|354:115,1,56.2499982833863,12|0,0:0|0:0,0:0:0:0:
128,200,513782,2,0,P|141:183|158:169,1,43.749998664856,2|0,0:0|0:0,0:0:0:0:
75,325,514032,6,0,P|96:318|118:316,1,31.25,2|0,0:0|0:0,0:0:0:0:
217,271,514282,2,0,P|246:283|268:287,1,37.4999988555909,2|0,0:0|0:0,0:0:0:0:
344,235,514532,2,0,P|373:220|398:212,1,50,10|0,0:0|0:0,0:0:0:0:
457,296,514782,2,0,P|487:302|517:305,1,43.749998664856,2|0,0:0|0:0,0:0:0:0:
441,51,515032,6,0,P|428:80|422:111,1,62.5,4|0,0:0|0:0,0:0:0:0:
175,179,515282,2,0,L|159:121,1,50,2|0,0:0|0:0,0:0:0:0:
476,89,515532,2,0,P|463:118|457:149,1,56.2499982833863,12|0,0:0|0:0,0:0:0:0:
216,193,515782,2,0,L|200:135,1,43.749998664856,2|0,0:0|0:0,0:0:0:0:
469,248,516032,6,0,P|465:279|457:295,1,50,2|0,0:0|0:0,0:0:0:0:
344,235,516282,2,0,P|314:257|293:264,1,56.2499982833863,2|0,0:0|0:0,0:0:0:0:
216,193,516532,2,0,P|171:187|148:175,1,68.7500020980836,10|0,0:0|0:0,0:0:0:0:
50,221,516782,2,0,P|22:185|14:160,1,62.5,2|0,0:0|0:0,0:0:0:0:
301,24,517032,6,0,P|256:26|206:51,1,81.2499962806703,4|0,0:0|0:0,0:0:0:0:
25,71,517282,2,0,P|61:86|89:111,1,68.7500020980836,2|0,0:0|0:0,0:0:0:0:
259,133,517532,2,0,P|228:166|210:219,1,74.9999977111817,12|0,0:0|0:0,0:0:0:0:
50,221,517782,2,0,P|64:257|66:294,1,62.5,2|0,0:0|0:0,0:0:0:0:
147,361,518032,6,0,L|207:347,1,43.749998664856,2|0,0:0|0:0,0:0:0:0:
290,291,518282,2,0,L|240:287,1,50,2|0,0:0|0:0,0:0:0:0:
336,357,518532,2,0,L|396:343,1,43.749998664856,10|0,0:0|0:0,0:0:0:0:
478,287,518782,2,0,L|428:283,1,50,2|0,0:0|0:0,0:0:0:0:
398,152,519032,6,0,P|370:167|344:190,1,62.5,4|0,0:0|0:0,0:0:0:0:
271,210,519282,2,0,P|241:224|202:230,1,56.2499982833863,2|0,0:0|0:0,0:0:0:0:
151,271,519532,2,0,P|124:264|97:250,1,50,12|0,0:0|0:0,0:0:0:0:
9,204,519782,2,0,P|14:235|24:261,1,56.2499982833863,2|0,0:0|0:0,0:0:0:0:
144,353,520032,6,0,L|104:359,1,31.25,2|0,0:0|0:0,0:0:0:0:
260,328,520282,2,0,L|219:320,1,37.4999988555909,2|0,0:0|0:0,0:0:0:0:
368,287,520532,2,0,L|324:246,1,50,10|0,0:0|0:0,0:0:0:0:
480,339,520782,2,0,L|472:293,1,43.749998664856,2|0,0:0|0:0,0:0:0:0:
363,98,521032,6,0,P|391:113|424:121,1,62.5,4|0,0:0|0:0,0:0:0:0:
230,170,521282,2,0,P|195:180|163:183,1,50,2|0,0:0|0:0,0:0:0:0:
362,143,521532,2,0,P|387:156|416:163,1,56.2499982833863,12|0,0:0|0:0,0:0:0:0:
243,209,521782,2,0,P|211:218|182:220,1,43.749998664856,2|0,0:0|0:0,0:0:0:0:
28,336,522032,6,0,L|37:376,1,31.25,2|0,0:0|0:0,0:0:0:0:
128,347,522282,2,0,L|134:300,1,37.4999988555909,2|0,0:0|0:0,0:0:0:0:
13,209,522532,2,0,L|51:260,1,50,10|0,0:0|0:0,0:0:0:0:
122,216,522782,2,0,L|163:239,1,43.749998664856,2|0,0:0|0:0,0:0:0:0:
98,97,523032,6,0,P|137:72|156:45,1,62.5,4|0,0:0|0:0,0:0:0:0:
362,143,523282,2,0,L|352:73,1,50,2|0,0:0|0:0,0:0:0:0:
146,95,523532,2,0,P|185:69|204:42,1,56.2499982833863,12|0,0:0|0:0,0:0:0:0:
410,153,523782,2,0,L|401:90,1,43.749998664856,2|0,0:0|0:0,0:0:0:0:
483,280,524032,6,0,P|466:298|452:323,1,50,2|0,0:0|0:0,0:0:0:0:
361,222,524282,2,0,P|355:251|353:282,1,56.2499982833863,2|0,0:0|0:0,0:0:0:0:
247,148,524532,2,0,P|248:186|258:223,1,68.7500020980836,10|0,0:0|0:0,0:0:0:0:
152,232,524782,2,0,P|164:263|181:290,1,62.5,2|0,0:0|0:0,0:0:0:0:
114,48,525032,6,0,P|73:45|35:34,1,81.2499962806703,4|0,0:0|0:0,0:0:0:0:
326,98,525282,2,0,L|406:90,1,68.7500020980836,2|0,0:0|0:0,0:0:0:0:
167,113,525532,2,0,P|136:139|100:158,1,74.9999977111817,12|0,0:0|0:0,0:0:0:0:
365,180,525782,2,0,L|445:172,1,62.5,2|0,0:0|0:0,0:0:0:0:
401,361,526032,6,0,L|411:315,1,43.749998664856,2|0,0:0|0:0,0:0:0:0:
303,265,526282,2,0,L|316:317,1,50,2|0,0:0|0:0,0:0:0:0:
195,281,526532,2,0,L|207:221,1,56.2499982833863,10|0,0:0|0:0,0:0:0:0:
81,288,526782,2,0,L|89:336,1,43.749998664856,2|0,0:0|0:0,0:0:0:0:
17,203,527032,6,0,L|8:255,1,50,4|0,0:0|0:0,0:0:0:0:
149,152,527282,2,0,L|101:186,1,56.2499982833863,2|0,0:0|0:0,0:0:0:0:
264,70,527532,2,0,L|194:58,1,68.7500020980836,12|0,0:0|0:0,0:0:0:0:
303,190,527782,2,0,L|365:179,1,62.5,2|0,0:0|0:0,0:0:0:0:
460,333,528032,6,0,L|478:293,2,43.749998664856,6|0|2,0:0|0:0|0:0,0:0:0:0:
356,358,528407,1,0,0:0:0:0:
266,307,528532,2,0,P|226:305|172:323,1,87.499997329712,8|0,0:0|0:0,0:0:0:0:
86,348,528907,2,0,L|97:304,1,43.749998664856,2|0,0:0|0:0,0:0:0:0:
89,218,529157,1,0,0:0:0:0:
12,312,529282,2,0,L|23:268,1,43.749998664856,2|0,0:0|0:0,0:0:0:0:
75,132,529532,2,0,L|25:113,2,43.749998664856,10|0|0,0:0|0:0|0:0,0:0:0:0:
107,40,529907,1,2,3:0:0:0:
107,40,529969,1,2,3:0:0:0:
107,40,530032,6,0,L|151:43,1,43.749998664856,2|0,3:0|0:0,0:0:0:0:
215,127,530282,2,0,L|259:124,1,43.749998664856,2|0,0:0|0:0,0:0:0:0:
318,47,530532,1,10,0:0:0:0:
392,121,530657,2,0,P|391:142|386:165,2,43.749998664856,0|2|0,0:0|0:0|0:0,0:0:0:0:
322,236,531032,2,0,P|341:253|360:263,1,43.749998664856,2|0,0:0|0:0,0:0:0:0:
453,254,531282,2,0,P|477:246|495:234,1,43.749998664856
246,204,531532,2,0,P|221:211|203:223,1,43.749998664856,10|0,0:0|0:0,0:0:0:0:
164,307,531782,2,0,P|158:331|159:353,1,43.749998664856
2,247,532032,5,2,0:0:0:0:
46,322,532157,1,2,0:0:0:0:
99,252,532282,2,0,L|94:198,1,43.749998664856,2|0,0:0|0:0,0:0:0:0:
15,115,532532,2,0,P|56:115|105:90,1,87.499997329712,8|0,0:0|0:0,0:0:0:0:
154,30,532907,1,2,0:0:0:0:
223,86,533032,2,0,B|223:119|213:138,1,43.749998664856,0|2,0:0|0:0,0:0:0:0:
308,91,533282,2,0,B|306:65|314:47,1,43.749998664856,2|0,0:0|0:0,0:0:0:0:
394,17,533532,1,8,0:0:0:0:
405,176,533657,2,0,L|363:165,1,43.749998664856,2|0,0:0|0:0,0:0:0:0:
481,123,533907,1,2,0:0:0:0:
436,266,534032,6,0,L|394:276,1,43.749998664856
264,333,534282,2,0,L|305:343,1,43.749998664856,2|2,0:0|0:0,0:0:0:0:
173,354,534532,2,0,P|155:322|156:255,1,87.499997329712,10|0,0:0|0:0,0:0:0:0:
184,186,534907,1,2,0:0:0:0:
87,163,535032,2,0,P|70:149|60:131,1,43.749998664856
169,91,535282,2,0,P|166:69|172:48,1,43.749998664856,2|2,0:0|3:0,0:0:0:0:
172,48,535469,1,2,3:0:0:0:
172,48,535532,2,0,L|230:40,1,43.749998664856,10|0,3:0|0:0,0:0:0:0:
316,130,535782,2,0,L|258:121,1,43.749998664856,2|0,0:0|0:0,0:0:0:0:
418,65,536032,6,0,P|435:103|426:178,1,106.250002026558,4|0,0:0|0:0,0:0:0:0:
364,251,536407,1,2,0:0:0:0:
429,334,536532,2,0,P|460:342|482:358,2,53.125001013279,10|2|2,0:0|0:0|0:0,0:0:0:0:
323,347,536907,2,0,L|207:333,1,106.250002026558,2|0,0:0|0:0,0:0:0:0:
79,313,537282,2,0,L|152:323,1,53.125001013279,2|0,0:0|0:0,0:0:0:0:
21,249,537532,1,10,0:0:0:0:
79,313,537657,1,2,0:0:0:0:
9,359,537782,1,2,0:0:0:0:
187,255,537907,1,2,3:0:0:0:
187,255,537969,1,2,3:0:0:0:
187,255,538032,6,0,L|245:243,1,53.125001013279,2|0,3:0|0:0,0:0:0:0:
108,199,538282,2,0,P|148:177|186:124,1,106.250002026558,2|8,0:0|0:0,0:0:0:0:
189,38,538657,1,2,0:0:0:0:
34,90,538782,2,0,P|31:116|35:142,1,53.125001013279,2|0,0:0|0:0,0:0:0:0:
99,24,539032,1,0,0:0:0:0:
183,129,539157,2,0,L|246:129,1,53.125001013279,2|0,0:0|0:0,0:0:0:0:
108,199,539407,1,0,0:0:0:0:
290,190,539532,2,0,P|320:200|345:221,1,53.125001013279,10|0,0:0|0:0,0:0:0:0:
435,274,539782,2,0,P|465:264|490:243,1,53.125001013279,2|0,0:0|0:0,0:0:0:0:
452,72,540032,5,2,0:0:0:0:
412,170,540157,1,2,0:0:0:0:
482,251,540282,2,0,L|481:359,1,106.250002026558,2|8,0:0|0:0,0:0:0:0:
316,317,540657,2,0,P|341:296|366:288,1,53.125001013279,2|0,0:0|0:0,0:0:0:0:
379,366,540907,1,2,0:0:0:0:
227,328,541032,2,0,P|229:295|241:272,1,53.125001013279,2|0,0:0|0:0,0:0:0:0:
149,352,541282,2,0,P|133:293|144:233,1,106.250002026558,2|8,0:0|0:0,0:0:0:0:
74,122,541657,2,0,P|61:151|56:173,1,53.125001013279,2|0,0:0|0:0,0:0:0:0:
142,63,541907,1,2,0:0:0:0:
227,171,542032,6,0,P|221:145|210:122,1,53.125001013279
142,63,542282,1,2,0:0:0:0:
140,169,542407,1,2,0:0:0:0:
307,108,542532,2,0,P|285:78|226:34,1,106.250002026558,10|0,0:0|0:0,0:0:0:0:
400,34,542907,2,0,P|365:32|340:26,1,53.125001013279
489,13,543157,1,2,0:0:0:0:
399,128,543282,2,0,P|389:148|385:180,1,53.125001013279,2|0,0:0|0:0,0:0:0:0:
499,162,543532,1,10,0:0:0:0:
315,242,543657,2,0,P|320:269|329:294,2,53.125001013279,2|2|2,0:0|0:0|0:0,0:0:0:0:
94,319,544032,6,0,P|77:281|86:206,1,106.250002026558,4|0,0:0|0:0,0:0:0:0:
148,133,544407,1,2,0:0:0:0:
83,50,544532,2,0,P|52:42|30:26,2,53.125001013279,10|2|2,0:0|0:0|0:0,0:0:0:0:
189,37,544907,2,0,L|305:51,1,106.250002026558,2|0,0:0|0:0,0:0:0:0:
433,71,545282,2,0,L|360:61,1,53.125001013279,2|0,0:0|0:0,0:0:0:0:
491,135,545532,1,10,0:0:0:0:
433,71,545657,1,2,0:0:0:0:
503,25,545782,1,2,0:0:0:0:
325,129,545907,1,2,3:0:0:0:
325,129,545969,1,2,3:0:0:0:
325,129,546032,6,0,L|267:141,1,53.125001013279,2|0,3:0|0:0,0:0:0:0:
404,185,546282,2,0,P|364:207|326:260,1,106.250002026558,2|8,0:0|0:0,0:0:0:0:
323,346,546657,1,2,0:0:0:0:
478,294,546782,2,0,P|481:268|477:242,1,53.125001013279,2|0,0:0|0:0,0:0:0:0:
413,360,547032,1,0,0:0:0:0:
329,255,547157,2,0,L|266:255,1,53.125001013279,2|0,0:0|0:0,0:0:0:0:
404,185,547407,1,0,0:0:0:0:
222,194,547532,2,0,P|192:184|167:163,1,53.125001013279,10|0,0:0|0:0,0:0:0:0:
77,110,547782,2,0,P|47:120|22:141,1,53.125001013279,2|0,0:0|0:0,0:0:0:0:
60,312,548032,5,2,0:0:0:0:
100,214,548157,1,2,0:0:0:0:
30,133,548282,2,0,L|31:25,1,106.250002026558,2|8,0:0|0:0,0:0:0:0:
196,67,548657,2,0,P|171:88|146:96,1,53.125001013279,2|0,0:0|0:0,0:0:0:0:
133,18,548907,1,2,0:0:0:0:
285,56,549032,2,0,P|283:89|271:112,1,53.125001013279,2|0,0:0|0:0,0:0:0:0:
363,32,549282,2,0,P|379:91|368:151,1,106.250002026558,2|8,0:0|0:0,0:0:0:0:
438,262,549657,2,0,P|451:233|456:211,1,53.125001013279,2|0,0:0|0:0,0:0:0:0:
370,321,549907,1,2,0:0:0:0:
285,213,550032,6,0,P|291:239|302:262,1,53.125001013279
370,321,550282,1,2,0:0:0:0:
372,215,550407,1,2,0:0:0:0:
205,276,550532,2,0,P|227:306|286:350,1,106.250002026558,10|0,0:0|0:0,0:0:0:0:
112,350,550907,2,0,P|147:352|172:358,1,53.125001013279
23,371,551157,1,2,0:0:0:0:
113,256,551282,2,0,P|123:236|127:204,1,53.125001013279,2|0,0:0|0:0,0:0:0:0:
13,222,551532,1,10,0:0:0:0:
197,142,551657,2,0,P|192:115|183:90,2,53.125001013279,2|2|2,0:0|0:0|0:0,0:0:0:0:
205,276,552032,5,4,0:0:0:0:
369,102,560032,6,0,P|391:98|416:93,2,43.749998664856,2|0|0,0:0|0:0|0:0,0:0:0:0:
277,48,560407,2,0,L|269:110,1,43.749998664856,2|8,0:0|0:0,0:0:0:0:
175,72,560657,1,2,0:0:0:0:
314,163,560782,2,0,L|322:225,1,43.749998664856,2|0,0:0|0:0,0:0:0:0:
248,323,561032,1,2,3:0:0:0:
250,317,561094,1,2,3:0:0:0:
253,311,561157,1,2,3:0:0:0:
128,341,561282,2,0,L|188:350,1,43.749998664856
52,268,561532,1,10,0:0:0:0:
132,232,561657,1,2,0:0:0:0:
179,158,561782,1,2,0:0:0:0:
55,130,561907,6,0,L|62:175,1,43.749998664856,2|0,0:0|0:0,0:0:0:0:
175,72,562157,2,0,L|168:28,1,43.749998664856,2|0,0:0|0:0,0:0:0:0:
220,230,562407,1,2,0:0:0:0:
298,191,562532,1,10,0:0:0:0:
341,266,562657,1,2,0:0:0:0:
419,227,562782,1,2,0:0:0:0:
366,109,562907,2,0,L|370:151,1,43.749998664856,2|0,0:0|0:0,0:0:0:0:
488,306,563157,2,0,L|492:263,1,43.749998664856,2|0,0:0|0:0,0:0:0:0:
341,266,563407,1,2,0:0:0:0:
243,365,563532,2,0,L|237:313,1,43.749998664856,10|0,0:0|0:0,0:0:0:0:
331,357,563782,1,2,0:0:0:0:
142,321,563907,6,0,L|148:269,1,43.749998664856,2|0,0:0|0:0,0:0:0:0:
220,230,564157,1,2,0:0:0:0:
135,131,564282,2,0,L|92:122,1,43.749998664856,2|0,0:0|0:0,0:0:0:0:
218,69,564532,1,10,0:0:0:0:
315,165,564657,2,0,L|272:156,1,43.749998664856,2|0,0:0|0:0,0:0:0:0:
218,69,564907,1,2,0:0:0:0:
408,128,565032,1,2,3:0:0:0:
409,121,565094,1,2,3:0:0:0:
410,114,565157,1,2,3:0:0:0:
411,107,565219,1,2,3:0:0:0:
412,100,565282,1,2,3:0:0:0:
512,120,565407,1,2,0:0:0:0:
500,228,565532,1,10,0:0:0:0:
413,293,565657,1,2,0:0:0:0:
299,319,565782,2,0,L|306:262,1,43.749998664856
105,222,566032,5,2,0:0:0:0:
208,350,566157,1,2,3:0:0:0:
208,350,566219,1,2,3:0:0:0:
208,350,566282,2,0,L|147:355,1,43.749998664856,2|0,3:0|0:0,0:0:0:0:
55,313,566532,1,8,0:0:0:0:
189,261,566657,2,0,P|199:242|206:222,1,43.749998664856
200,113,566907,2,0,P|192:92|182:73,1,43.749998664856,2|0,0:0|0:0,0:0:0:0:
85,30,567157,1,2,0:0:0:0:
282,144,567282,2,0,L|279:200,1,43.749998664856,2|0,0:0|0:0,0:0:0:0:
335,298,567532,1,10,0:0:0:0:
417,227,567657,1,0,0:0:0:0:
512,280,567782,1,2,0:0:0:0:
417,227,567907,1,0,0:0:0:0:
256,368,568032,6,0,L|176:361,1,62.5,6|0,0:0|0:0,0:0:0:0:
54,280,568282,1,0,0:0:0:0:
256,238,568407,2,0,P|229:268|194:287,1,62.5,2|8,0:0|0:0,0:0:0:0:
281,143,568657,1,2,0:0:0:0:
251,40,568782,1,2,0:0:0:0:
119,177,568907,1,2,3:0:0:0:
121,186,568969,1,2,3:0:0:0:
123,195,569032,1,2,3:0:0:0:
125,203,569094,1,2,3:0:0:0:
127,212,569157,1,2,3:0:0:0:
26,118,569282,2,0,L|35:55,1,62.5,2|0,0:0|0:0,0:0:0:0:
201,171,569532,1,10,0:0:0:0:
335,67,569657,1,2,0:0:0:0:
362,236,569782,1,2,0:0:0:0:
156,87,569907,6,0,P|156:53|169:18,1,62.5,2|0,0:0|0:0,0:0:0:0:
399,139,570157,2,0,P|428:122|465:115,1,62.5,2|0,0:0|0:0,0:0:0:0:
281,143,570407,1,0,0:0:0:0:
466,285,570532,2,0,L|458:213,1,62.5,10|0,0:0|0:0,0:0:0:0:
416,48,570782,1,2,0:0:0:0:
392,308,570907,2,0,P|379:345|350:373,1,62.5,2|0,0:0|0:0,0:0:0:0:
127,218,571157,2,0,P|140:255|169:283,1,62.5,2|0,0:0|0:0,0:0:0:0:
164,113,571407,1,0,0:0:0:0:
96,353,571532,2,0,P|131:369|171:369,1,62.5,10|0,0:0|0:0,0:0:0:0:
306,288,571782,1,2,0:0:0:0:
31,265,571907,6,0,L|36:193,1,62.5,2|0,0:0|0:0,0:0:0:0:
230,330,572157,1,2,0:0:0:0:
40,125,572282,2,0,L|94:77,1,62.5,2|0,0:0|0:0,0:0:0:0:
154,371,572532,1,8,0:0:0:0:
375,343,572657,2,0,P|410:323|436:318,1,62.5,2|0,0:0|0:0,0:0:0:0:
300,199,572907,1,2,0:0:0:0:
468,95,573032,1,0,0:0:0:0:
469,85,573094,1,0,0:0:0:0:
470,75,573157,1,0,0:0:0:0:
470,65,573219,1,0,0:0:0:0:
470,55,573282,1,0,0:0:0:0:
401,162,573407,1,2,0:0:0:0:
300,199,573532,1,10,0:0:0:0:
191,137,573657,1,2,0:0:0:0:
286,90,573782,2,0,P|297:57|297:11,1,62.5,2|0,0:0|0:0,0:0:0:0:
300,199,574032,5,0,0:0:0:0:
164,296,574157,1,2,3:0:0:0:
166,306,574219,1,2,3:0:0:0:
169,315,574282,2,0,P|204:325|257:331,1,62.5,2|0,3:0|0:0,0:0:0:0:
61,198,574532,1,10,0:0:0:0:
247,231,574657,2,0,P|278:213|320:180,1,62.5,2|0,0:0|0:0,0:0:0:0:
51,320,574907,2,0,P|68:351|101:393,1,62.5,2|0,0:0|0:0,0:0:0:0:
229,329,575157,1,2,0:0:0:0:
152,179,575282,2,0,P|169:153|184:126,1,62.5,2|0,0:0|0:0,0:0:0:0:
330,295,575532,2,0,P|344:322|362:347,1,62.5,10|0,0:0|0:0,0:0:0:0:
345,186,575782,1,2,0:0:0:0:
432,265,575907,1,2,0:0:0:0:
285,89,576032,6,0,L|291:27,1,62.5,6|0,0:0|0:0,0:0:0:0:
401,126,576282,1,0,0:0:0:0:
152,179,576407,2,0,L|146:116,1,62.5,2|8,0:0|0:0,0:0:0:0:
20,104,576657,1,2,0:0:0:0:
247,231,576782,2,0,L|241:293,1,62.5,2|0,0:0|0:0,0:0:0:0:
113,340,577032,1,2,3:0:0:0:
105,337,577095,1,2,3:0:0:0:
96,335,577157,1,2,3:0:0:0:
331,336,577282,2,0,P|299:356|267:368,1,62.5,2|0,0:0|0:0,0:0:0:0:
398,236,577532,1,10,3:0:0:0:
401,126,577657,1,2,3:0:0:0:
492,181,577782,1,2,3:0:0:0:
308,172,577907,6,0,P|289:133|286:105,1,62.5,2|0,0:0|0:0,0:0:0:0:
71,204,578157,2,0,P|64:234|49:261,1,62.5,2|0,0:0|0:0,0:0:0:0:
56,103,578407,1,0,0:0:0:0:
113,340,578532,2,0,P|86:356|56:365,1,62.5,10|0,0:0|0:0,0:0:0:0:
177,243,578782,1,2,0:0:0:0:
294,360,578907,2,2,P|264:351|237:334,1,62.5,0|0,0:0|0:0,0:0:0:0:
155,126,579157,2,0,P|161:95|176:68,1,62.5,2|0,0:0|0:0,0:0:0:0:
282,30,579407,1,2,0:0:0:0:
463,124,579532,6,0,P|428:139|407:157,1,62.5,10|0,0:0|0:0,0:0:0:0:
396,47,579782,1,2,0:0:0:0:
495,279,579907,2,0,P|491:248|478:219,1,62.5,2|0,0:0|0:0,0:0:0:0:
414,368,580157,1,2,0:0:0:0:
290,234,580282,2,0,P|293:203|306:174,1,62.5,2|0,0:0|0:0,0:0:0:0:
409,154,580532,1,8,0:0:0:0:
279,323,580657,2,0,P|241:340|221:355,1,62.5,2|0,0:0|0:0,0:0:0:0:
52,215,580907,2,0,P|90:232|110:247,1,62.5,2|2,0:0|3:0,0:0:0:0:
108,253,581094,1,2,3:0:0:0:
109,262,581157,1,2,3:0:0:0:
110,271,581219,1,2,3:0:0:0:
111,280,581282,1,2,3:0:0:0:
185,188,581407,1,2,0:0:0:0:
82,102,581532,1,10,0:0:0:0:
178,20,581657,1,2,0:0:0:0:
185,188,581782,2,0,L|191:253,1,62.5,2|0,0:0|0:0,0:0:0:0:
414,368,582032,5,2,0:0:0:0:
347,218,582157,1,0,3:0:0:0:
342,226,582219,1,0,3:0:0:0:
337,233,582282,2,0,P|326:263|322:294,1,62.5,2|0,3:0|0:0,0:0:0:0:
468,222,582532,1,10,0:0:0:0:
321,133,582657,2,0,P|292:146|268:165,1,62.5,2|0,0:0|0:0,0:0:0:0:
224,352,582907,2,0,P|199:332|171:319,1,62.5,2|0,0:0|0:0,0:0:0:0:
31,295,583157,1,0,0:0:0:0:
185,188,583282,2,0,P|181:157|167:129,1,62.5,2|0,0:0|0:0,0:0:0:0:
322,294,583532,2,0,P|341:269|351:240,1,62.5,10|0,0:0|0:0,0:0:0:0:
86,183,583782,1,2,0:0:0:0:
225,270,583907,1,2,0:0:0:0:
371,115,584032,6,0,L|451:122,1,62.5,6|0,0:0|0:0,0:0:0:0:
468,222,584282,1,0,0:0:0:0:
271,67,584407,2,0,P|298:37|333:18,1,62.5,2|8,0:0|0:0,0:0:0:0:
425,37,584657,1,2,0:0:0:0:
322,294,584782,2,0,P|295:324|260:343,1,62.5,2|0,0:0|0:0,0:0:0:0:
288,195,585032,1,2,3:0:0:0:
286,187,585094,1,2,3:0:0:0:
284,178,585157,1,2,3:0:0:0:
468,222,585282,2,0,L|459:285,1,62.5,2|0,0:0|0:0,0:0:0:0:
225,270,585532,1,10,3:0:0:0:
116,169,585657,1,2,3:0:0:0:
56,308,585782,1,2,3:0:0:0:
196,160,585907,6,0,P|205:131|205:100,1,62.5,2|0,0:0|0:0,0:0:0:0:
56,308,586157,2,0,P|86:315|112:331,1,62.5,2|0,0:0|0:0,0:0:0:0:
210,378,586407,1,0,0:0:0:0:
17,158,586532,2,0,L|25:230,1,62.5,10|0,0:0|0:0,0:0:0:0:
74,60,586782,1,2,0:0:0:0:
225,270,586907,2,0,L|293:248,1,62.5,2|0,0:0|0:0,0:0:0:0:
472,127,587157,2,0,L|412:107,1,62.5,2|0,0:0|0:0,0:0:0:0:
468,222,587407,1,2,0:0:0:0:
327,21,587532,2,0,P|302:50|292:89,1,62.5,10|0,0:0|0:0,0:0:0:0:
439,8,587782,1,2,0:0:0:0:
468,222,587907,6,0,L|463:294,1,62.5,2|0,0:0|0:0,0:0:0:0:
283,170,588157,1,2,0:0:0:0:
129,301,588282,2,0,L|134:373,1,62.5,2|0,0:0|0:0,0:0:0:0:
41,216,588532,1,8,0:0:0:0:
278,277,588657,2,0,P|243:297|217:302,1,62.5,2|0,0:0|0:0,0:0:0:0:
369,181,588907,1,2,0:0:0:0:
178,223,589032,1,2,3:0:0:0:
174,213,589094,1,2,3:0:0:0:
170,204,589157,1,2,3:0:0:0:
168,194,589219,1,2,3:0:0:0:
165,184,589282,1,2,3:0:0:0:
32,54,589407,1,2,0:0:0:0:
160,105,589532,1,10,0:0:0:0:
292,66,589657,1,2,0:0:0:0:
369,181,589782,2,0,P|404:169|443:169,1,62.5,2|0,0:0|0:0,0:0:0:0:
278,277,590032,5,0,0:0:0:0:
485,350,590157,1,2,3:0:0:0:
483,340,590219,1,2,3:0:0:0:
480,331,590282,2,0,P|445:321|392:315,1,62.5,2|0,3:0|0:0,0:0:0:0:
315,358,590532,1,10,0:0:0:0:
129,301,590657,2,0,P|164:311|217:317,1,62.5,2|0,0:0|0:0,0:0:0:0:
17,327,590907,2,0,P|34:358|67:400,1,62.5,2|0,0:0|0:0,0:0:0:0:
41,216,591157,1,0,0:0:0:0:
245,127,591282,2,0,L|254:191,1,62.5,2|0,0:0|0:0,0:0:0:0:
26,114,591532,2,0,L|34:52,1,62.5,10|0,0:0|0:0,0:0:0:0:
230,43,591782,1,2,0:0:0:0:
107,18,591907,1,2,0:0:0:0:
278,277,592032,6,0,P|311:286|345:284,1,62.5,6|0,0:0|0:0,0:0:0:0:
174,199,592282,1,0,0:0:0:0:
379,365,592407,2,0,P|409:347|431:322,1,62.5,2|8,0:0|0:0,0:0:0:0:
430,196,592657,1,2,0:0:0:0:
192,285,592782,2,0,L|186:347,1,62.5,2|0,0:0|0:0,0:0:0:0:
283,190,593032,1,2,3:0:0:0:
280,182,593095,1,2,3:0:0:0:
278,173,593157,1,2,3:0:0:0:
450,75,593282,2,0,P|420:83|389:84,1,62.5,2|0,0:0|0:0,0:0:0:0:
196,3,593532,1,10,0:0:0:0:
199,113,593657,1,2,0:0:0:0:
290,58,593782,1,2,0:0:0:0:
106,67,593907,6,0,P|87:106|84:134,1,62.5,2|0,0:0|0:0,0:0:0:0:
283,190,594157,2,0,P|291:219|307:246,1,62.5,2|0,0:0|0:0,0:0:0:0:
431,265,594407,1,0,0:0:0:0:
217,316,594532,2,0,P|187:325|160:340,1,62.5,10|0,0:0|0:0,0:0:0:0:
119,234,594782,1,2,0:0:0:0:
302,325,594907,2,0,P|329:339|353:360,1,62.5,2|0,0:0|0:0,0:0:0:0:
495,222,595157,2,0,P|504:251|506:283,1,62.5,2|0,0:0|0:0,0:0:0:0:
435,96,595407,1,2,0:0:0:0:
236,27,595532,2,0,P|260:46|289:57,1,62.5,10|0,0:0|0:0,0:0:0:0:
140,57,595782,1,2,0:0:0:0:
310,156,595907,6,0,P|339:144|363:125,1,62.5,2|0,0:0|0:0,0:0:0:0:
140,57,596157,1,2,0:0:0:0:
301,240,596282,2,0,P|298:271|285:300,1,62.5,2|0,0:0|0:0,0:0:0:0:
119,234,596532,1,10,0:0:0:0:
310,156,596657,2,0,P|339:167|363:186,1,62.5,2|0,0:0|0:0,0:0:0:0:
201,155,596907,1,0,0:0:0:0:
421,320,597032,1,2,3:0:0:0:
419,311,597094,1,2,3:0:0:0:
418,302,597157,1,2,3:0:0:0:
417,293,597219,1,2,3:0:0:0:
416,284,597282,1,2,3:0:0:0:
327,368,597407,1,2,0:0:0:0:
211,321,597532,1,10,0:0:0:0:
92,359,597657,1,2,0:0:0:0:
113,172,597782,2,0,P|119:205|118:234,1,62.5,2|0,0:0|0:0,0:0:0:0:
22,68,598032,5,2,0:0:0:0:
201,155,598157,1,2,3:0:0:0:
210,152,598219,1,2,3:0:0:0:
218,151,598282,2,0,P|246:137|271:118,1,62.5,2|0,3:0|0:0,0:0:0:0:
148,66,598532,1,10,0:0:0:0:
198,237,598657,2,0,P|227:248|258:251,1,62.5,2|0,0:0|0:0,0:0:0:0:
370,54,598907,2,0,P|380:93|397:121,1,62.5,2|0,0:0|0:0,0:0:0:0:
506,194,599157,1,2,0:0:0:0:
370,330,599282,2,0,P|380:290|397:262,1,62.5,2|0,0:0|0:0,0:0:0:0:
146,308,599532,2,0,P|135:347|118:375,1,62.5,10|0,0:0|0:0,0:0:0:0:
90,197,599782,1,2,0:0:0:0:
232,332,599907,1,2,0:0:0:0:
218,151,600032,5,4,0:0:0:0:
256,192,600157,12,2,608032,3:0:0:0:
197,61,608282,5,2,3:0:0:0:
299,114,608532,2,0,L|316:35,1,74.9999977111817,2|0,0:0|0:0,0:0:0:0:
217,205,609032,2,0,L|232:278,1,74.9999977111817,2|0,0:0|0:0,0:0:0:0:
331,370,609532,2,0,L|348:291,1,74.9999977111817,2|0,0:0|0:0,0:0:0:0:
125,249,610032,5,2,3:0:0:0:
125,249,610282,1,2,3:0:0:0:
69,141,610532,2,0,P|71:102|91:65,1,74.9999977111817,2|0,0:0|0:0,0:0:0:0:
256,160,611032,2,0,L|256:235,1,74.9999977111817,2|0,0:0|0:0,0:0:0:0:
425,313,611532,2,0,P|441:280|443:243,1,74.9999977111817,2|0,0:0|0:0,0:0:0:0:
256,336,612032,5,2,3:0:0:0:
256,336,612282,1,2,3:0:0:0:
148,257,612532,2,0,L|166:179,1,74.9999977111817,2|0,0:0|0:0,0:0:0:0:
347,183,613032,2,0,L|364:257,1,74.9999977111817,2|0,0:0|0:0,0:0:0:0:
256,128,613532,2,0,L|256:48,1,74.9999977111817,2|0,0:0|0:0,0:0:0:0:
134,12,614032,5,2,3:0:0:0:
134,12,614282,1,2,3:0:0:0:
34,90,614532,2,0,P|29:130|46:170,1,74.9999977111817,2|0,0:0|0:0,0:0:0:0:
148,257,615032,2,0,P|180:281|223:286,1,74.9999977111817,2|0,0:0|0:0,0:0:0:0:
349,241,615532,2,0,P|386:225|412:190,1,74.9999977111817,2|0,0:0|0:0,0:0:0:0:
