osu file format v14

[General]
AudioFilename: audio.mp3
AudioLeadIn: 0
PreviewTime: 28697
Countdown: 0
SampleSet: Soft
StackLeniency: 0.7
Mode: 0
LetterboxInBreaks: 0
WidescreenStoryboard: 0

[Editor]
Bookmarks: 9647,28847,38447,48047,57647,76847,95897,105647,115247,124847,134297,153647,163247,172847,182447,192047,201347,211247,220847,230447,240047,249647,259247
DistanceSpacing: 0.7
BeatDivisor: 4
GridSize: 8
TimelineZoom: 2.1

[Metadata]
Title:Artillery
TitleUnicode:Artillery
Artist:Infected Mushroom
ArtistUnicode:Infected Mushroom
Creator:PandaHero
Version:Collab Another
Source:
Tags:gibune mirash infectedmushroom 2007 vicious delicious electronic english psychedelic trance rap industrial world club music hiphop hip-hop hip hop israel track 2 #2
BeatmapID:1775325
BeatmapSetID:848984

[Difficulty]
HPDrainRate:7
CircleSize:4
OverallDifficulty:8.5
ApproachRate:9
SliderMultiplier:2
SliderTickRate:1

[Events]
//Background and Video events
0,0,"bg.jpg",0,0
//Break Periods
//Storyboard Layer 0 (Background)
//Storyboard Layer 1 (Fail)
//Storyboard Layer 2 (Pass)
//Storyboard Layer 3 (Foreground)
//Storyboard Layer 4 (Overlay)
//Storyboard Sound Samples

[TimingPoints]
47,600,4,2,1,50,1,0
9047,-100,4,2,1,30,0,0
9647,-100,4,2,1,50,0,0
19247,-100,4,2,1,25,0,0
19397,-100,4,2,1,10,0,0
21647,-100,4,2,1,15,0,0
24047,-100,4,2,1,20,0,0
26447,-100,4,2,1,25,0,0
27647,-100,4,2,1,30,0,0
27947,-100,4,2,1,35,0,0
28247,-100,4,2,1,40,0,0
28547,-100,4,2,1,25,0,0
29147,-100,4,2,2,45,0,0
33347,-50,4,2,2,45,0,0
33647,-100,4,2,2,45,0,0
36047,-100,4,2,1,45,0,0
36497,-100,4,2,2,45,0,0
36647,-66.6666666666667,4,2,1,50,0,0
37097,-66.6666666666667,4,2,2,50,0,0
37247,-50,4,2,1,55,0,0
38447,-100,4,2,1,50,0,0
39797,-66.6666666666667,4,2,1,50,0,0
40997,-66.6666666666667,4,2,1,50,0,0
41447,-100,4,2,1,50,0,0
45647,-66.6666666666667,4,2,1,50,0,0
46247,-100,4,2,1,50,0,0
47597,-200,4,2,1,35,0,0
48347,-100,4,2,1,50,0,0
62147,-66.6666666666667,4,2,1,50,0,0
62747,-100,4,2,1,50,0,0
63347,-100,4,2,1,45,0,0
64847,-100,4,2,1,50,0,0
65447,-66.6666666666667,4,2,1,55,0,0
66047,-50,4,2,1,60,0,0
67247,-50,4,2,1,30,0,0
69647,-200,4,2,1,30,0,0
76847,-200,4,2,2,35,0,0
81647,-200,4,2,2,40,0,0
84047,-500,4,2,1,45,0,0
84347,-500,4,2,1,5,0,0
85397,-100,4,2,1,40,0,0
86447,-100,4,2,1,55,0,0
103847,-100,4,2,1,35,0,0
105647,-76.9230769230769,4,2,1,65,0,0
134447,-76.9230769230769,4,2,1,70,0,0
144047,-76.9230769230769,4,2,1,50,0,0
144197,-76.9230769230769,4,2,1,30,0,0
146447,-76.9230769230769,4,2,1,25,0,0
148847,-76.9230769230769,4,2,1,20,0,0
150047,-76.9230769230769,4,2,1,15,0,0
150647,-76.9230769230769,4,2,1,5,0,0
151247,-76.9230769230769,4,2,2,15,0,0
153647,-100,4,2,1,55,0,0
168047,-100,4,2,1,40,0,0
169247,-80,4,2,1,45,0,0
170447,-66.6666666666667,4,2,1,50,0,0
171647,-66.6666666666667,4,2,1,35,0,0
172247,-66.6666666666667,4,2,1,50,0,0
172847,-100,4,2,1,55,0,0
182447,-66.6666666666667,4,2,1,60,0,0
183047,-100,4,2,1,60,0,0
185447,-66.6666666666667,4,2,1,60,0,0
186047,-100,4,2,1,60,0,0
194447,-100,4,2,1,30,0,0
196847,-100,4,2,2,35,0,0
199247,-100,4,2,2,40,0,0
199847,-100,4,2,2,20,0,0
200447,-100,4,2,2,25,0,0
200597,-100,4,2,2,30,0,0
200747,-100,4,2,2,40,0,0
200897,-100,4,2,2,50,0,0
201047,-76.9230769230769,4,1,1,60,0,0
210047,-76.9230769230769,4,1,1,40,0,0
211247,-76.9230769230769,4,1,1,60,0,0
220847,-76.9230769230769,4,2,1,65,0,0
240047,-76.9230769230769,4,2,1,70,0,0
259247,-76.9230769230769,4,2,1,45,0,0

[Colours]
Combo1 : 68,129,155
Combo2 : 233,233,233
Combo3 : 124,124,124
Combo4 : 122,174,197

[HitObjects]
413,80,47,5,4,1:2:0:0:
413,80,647,1,8,1:0:0:0:
123,210,947,1,4,0:3:0:0:
123,210,1097,2,0,P|143:249|191:298,1,100,4|0,0:3|1:0,0:0:0:0:
314,232,1547,2,0,P|294:193|246:144,1,100,4|8,0:3|1:0,0:0:0:0:
5,193,2447,5,4,1:3:0:0:
5,193,3047,1,8,1:0:0:0:
257,52,3347,1,4,0:3:0:0:
306,108,3497,2,0,L|411:101,1,100,4|0,0:3|1:0,0:0:0:0:
243,151,3947,1,4,0:3:0:0:
505,195,4247,1,8,1:0:0:0:
505,195,4547,2,0,L|502:234,2,25,2|2|0,3:0|3:0|3:0,3:3:0:0:
463,283,4847,6,0,P|375:278|313:174,1,200,4|8,1:3|1:0,0:0:0:0:
258,303,5747,1,4,0:3:0:0:
258,303,5897,2,0,L|265:378,1,50,4|0,0:3|0:0,0:0:0:0:
198,249,6197,1,0,1:0:0:0:
198,249,6347,2,0,L|205:174,1,50,4|0,0:3|0:0,0:0:0:0:
122,299,6647,1,8,1:0:0:0:
122,299,6947,2,0,L|115:224,1,50,2|0,3:2|0:0,0:0:0:0:
140,47,7247,6,0,P|228:52|290:156,1,200,4|8,1:3|1:0,0:0:0:0:
235,299,8147,1,4,0:3:0:0:
235,299,8297,2,0,L|239:242,1,50,4|0,0:3|0:0,0:0:0:0:
307,211,8597,1,0,1:0:0:0:
512,277,8747,1,4,0:3:0:0:
512,277,9047,2,0,L|308:291,1,200,2|4,3:0|1:3,1:1:0:0:
31,304,9947,5,4,1:3:0:0:
168,35,10247,1,8,1:0:0:0:
168,35,10547,1,4,1:3:0:0:
277,91,10697,2,0,B|312:104|312:104|398:93,1,100,4|0,0:3|1:0,0:0:0:0:
466,129,11147,1,4,1:3:0:0:
137,173,11447,1,8,1:0:0:0:
59,104,11597,2,0,L|64:43,1,50,0|2,1:0|3:0,0:0:0:0:
229,262,12047,6,0,L|217:404,1,100,4|4,1:3|1:3,0:0:0:0:
327,343,12647,1,8,1:0:0:0:
115,232,12947,1,4,1:3:0:0:
115,232,13097,2,0,B|110:273|110:273|70:344,1,100,4|0,0:3|1:0,0:0:0:0:
30,182,13547,1,4,1:3:0:0:
243,119,13847,1,8,1:0:0:0:
30,182,14147,1,2,3:2:0:0:
380,339,14447,5,4,1:3:0:0:
380,339,14747,1,4,1:3:0:0:
260,160,15047,1,8,1:0:0:0:
260,160,15347,1,0,1:0:0:0:
260,160,15497,2,0,L|340:148,1,50,4|0,1:3|0:0,0:0:0:0:
360,56,15797,1,0,1:0:0:0:
360,56,15947,2,0,L|290:69,1,50,4|0,1:3|0:0,0:0:0:0:
32,76,16247,2,0,L|180:41,1,150,8|0,1:0|0:0,0:0:0:0:
198,81,16847,6,0,L|185:208,1,100,4|4,1:3|1:3,0:0:0:0:
86,185,17447,1,8,1:0:0:0:
269,332,17747,1,4,1:3:0:0:
269,332,17897,2,0,P|321:317|379:308,1,100,4|0,0:3|1:0,0:0:0:0:
436,357,18347,2,0,L|520:342,1,50,4|0,1:3|0:0,0:0:0:0:
249,46,18647,1,8,1:0:0:0:
249,46,18797,2,0,L|238:228,1,150,4|0,1:3|1:0,0:0:0:0:
256,192,19397,12,0,21647,3:0:0:0:
256,192,21797,12,0,24047,3:0:0:0:
256,192,24197,12,0,26447,3:0:0:0:
256,192,26597,12,0,28697,0:0:0:0:
448,262,28847,5,4,1:0:0:0:
274,340,29147,2,0,P|242:331|198:328,1,50,0|0,1:0|0:0,0:0:0:0:
121,273,29447,2,0,P|146:272|196:262,2,50,8|4|0,1:2|1:3|0:0,0:0:0:0:
222,139,29897,1,4,0:3:0:0:
298,113,30047,2,0,P|305:174|305:195,1,50,4|0,1:3|0:0,0:0:0:0:
150,183,30347,2,0,P|143:122|143:101,1,50,4|0,1:3|0:0,0:0:0:0:
212,33,30647,5,8,0:0:0:0:
304,162,30797,1,0,0:0:0:0:
242,312,30947,1,0,1:0:0:0:
150,183,31097,1,2,1:3:0:0:
150,183,31397,5,0,1:0:0:0:
211,233,31547,2,0,P|265:233|279:236,1,50,2|0,1:3|0:0,0:0:0:0:
260,232,31997,5,0,1:0:0:0:
321,297,32147,2,0,P|375:297|389:300,1,50,0|4,1:0|0:3,0:0:0:0:
267,355,32447,2,0,P|213:355|199:358,1,50,4|0,1:3|0:0,0:0:0:0:
334,133,32747,1,4,1:3:0:0:
415,181,32897,1,0,1:0:0:0:
336,215,33047,2,0,P|342:166|351:140,1,50,8|0,1:2|0:0,0:0:0:0:
251,36,33347,6,0,P|259:124|254:176,1,100,0|0,1:0|0:0,0:0:0:0:
93,296,33647,6,0,P|100:237|96:177,1,100,4|2,1:3|3:0,0:0:0:0:
98,196,34097,1,4,0:3:0:0:
249,235,34247,2,0,P|223:233|179:235,1,50,8|0,1:2|0:0,0:0:0:0:
163,106,34547,1,0,1:0:0:0:
276,143,34697,1,4,0:3:0:0:
163,106,34847,2,0,P|160:69|157:37,1,50,4|0,1:3|0:0,0:0:0:0:
287,153,35147,5,4,1:3:0:0:
287,153,35222,1,0,3:0:0:0:
287,153,35297,1,0,3:0:0:0:
421,140,35447,1,8,1:2:0:0:
408,6,35597,1,4,0:3:0:0:
274,19,35747,1,0,0:0:0:0:
287,153,35897,1,0,1:0:0:0:
344,76,36047,6,0,L|226:64,1,100,4|0,0:3|0:0,0:0:0:0:
416,48,36497,1,8,0:0:0:0:
187,163,36647,6,0,L|344:149,1,150.000005722046,4|0,0:3|0:0,0:0:0:0:
99,127,37097,1,8,0:0:0:0:
332,262,37247,6,0,L|122:240,1,200,4|0,0:3|0:0,0:0:0:0:
398,222,37697,1,0,3:0:0:0:
461,273,37847,1,0,1:0:0:0:
391,313,37997,1,2,3:0:0:0:
332,262,38147,1,0,1:0:0:0:
398,222,38297,1,0,3:0:0:0:
256,370,38447,5,4,1:2:0:0:
256,370,38747,2,0,P|217:340|199:327,1,50,4|0,0:3|0:0,0:0:0:0:
48,228,39047,1,8,1:2:0:0:
41,310,39197,1,4,0:3:0:0:
112,275,39347,1,0,3:0:0:0:
314,131,39497,1,0,1:0:0:0:
321,213,39647,1,4,1:3:0:0:
250,178,39797,6,0,L|110:102,1,150.000005722046,0|0,1:0|0:0,0:0:0:0:
118,106,40247,1,8,1:2:0:0:
170,27,40397,1,0,3:0:0:0:
66,20,40547,1,0,3:0:0:0:
18,112,40697,1,0,3:0:0:0:
118,106,40847,1,4,1:3:0:0:
231,207,40997,6,0,P|224:286|221:373,1,150.000005722046,0|0,1:0|3:0,0:0:0:0:
342,212,41447,2,0,L|415:226,2,50,8|4|0,1:2|0:3|3:0,0:0:0:0:
128,172,41897,2,0,L|-6:191,1,100,4|0,0:3|3:0,0:0:0:0:
185,82,42347,2,0,L|110:88,1,50,4|0,0:3|3:0,0:0:0:0:
31,350,42647,5,8,1:2:0:0:
276,189,42947,1,0,3:0:0:0:
190,356,43247,6,0,P|200:284|212:239,1,100,4|0,1:3|3:0,0:0:0:0:
206,257,43697,1,0,1:0:0:0:
357,172,43847,2,0,P|347:100|335:55,1,100,8|4,1:2|0:3,0:0:0:0:
340,73,44297,1,0,1:0:0:0:
272,40,44447,1,0,1:0:0:0:
272,40,44747,1,4,0:3:0:0:
340,73,44897,1,0,3:0:0:0:
414,39,45047,2,0,L|485:15,1,50,8|0,1:2|3:0,0:0:0:0:
302,146,45347,2,0,L|215:164,1,50,0|0,1:0|3:0,0:0:0:0:
39,361,45647,5,4,1:3:0:0:
134,231,45797,2,0,L|116:384,1,150.000005722046,0|0,1:0|0:0,0:0:0:0:
127,141,46247,5,4,1:3:0:0:
31,37,46397,2,0,L|49:155,1,100,0|0,1:0|0:0,0:0:0:0:
271,364,46847,5,0,3:0:0:0:
271,364,47597,2,0,L|360:368,1,75,4|4,0:3|1:2,0:0:0:0:
205,279,48347,6,0,P|211:238|211:215,1,50,2|0,1:0|0:0,0:0:0:0:
161,172,48647,2,0,P|161:117|167:62,1,100,2|0,1:0|3:0,0:0:0:0:
340,25,49097,1,4,0:3:0:0:
340,25,49247,2,0,P|285:25|230:31,1,100,0|0,1:0|1:0,0:0:0:0:
399,192,49697,1,0,3:0:0:0:
399,192,49847,1,8,1:2:0:0:
399,192,50147,5,2,3:0:0:0:
294,144,50297,1,0,3:0:0:0:
246,249,50447,1,4,1:3:0:0:
351,297,50597,1,0,3:0:0:0:
399,192,50747,1,2,3:0:0:0:
318,219,50897,5,0,1:0:0:0:
210,176,51047,2,0,P|154:183|127:190,1,50,8|0,1:2|0:0,0:0:0:0:
371,106,51347,2,0,P|392:54|400:27,1,50,2|4,1:3|0:3,0:0:0:0:
288,286,51647,2,0,P|295:342|302:369,2,50,0|0|0,1:0|3:0|3:0,0:0:0:0:
499,192,52097,1,0,1:0:0:0:
454,249,52247,2,0,P|429:245|393:243,1,50,8|0,1:2|0:0,0:0:0:0:
103,313,52697,5,0,1:0:0:0:
103,313,52847,2,0,P|156:311|180:302,1,50,4|0,1:3|0:0,0:0:0:0:
211,364,53147,1,2,1:0:0:0:
374,292,53297,5,0,3:0:0:0:
259,272,53447,2,0,P|266:236|269:197,1,50,2|0,1:0|0:0,0:0:0:0:
106,241,53747,5,2,1:0:0:0:
268,186,53897,2,0,P|261:150|258:111,1,50,4|0,0:3|0:0,0:0:0:0:
448,188,54197,5,2,1:0:0:0:
265,101,54347,2,0,P|272:65|275:26,1,50,4|0,0:3|0:0,0:0:0:0:
165,184,54647,5,8,1:2:0:0:
358,202,54797,1,2,3:0:0:0:
379,25,54947,1,0,3:0:0:0:
186,7,55097,1,2,1:3:0:0:
261,155,55247,6,0,P|266:179|269:204,1,50,4|0,1:3|0:0,0:0:0:0:
256,285,55547,1,0,3:0:0:0:
273,365,55697,1,2,3:0:0:0:
261,155,55847,2,0,P|263:98|273:27,1,100,8|2,1:2|3:0,0:0:0:0:
256,285,56297,5,4,0:3:0:0:
273,365,56447,1,0,3:0:0:0:
331,312,56597,1,2,3:0:0:0:
196,338,56747,5,0,3:0:0:0:
196,338,56897,1,2,3:0:0:0:
196,338,57647,5,4,1:2:0:0:
38,230,57947,2,0,P|34:195|32:145,1,50,2|0,1:0|0:0,0:0:0:0:
124,147,58247,2,0,P|126:91|122:23,1,100,2|0,1:0|3:0,0:0:0:0:
124,47,58697,1,4,3:0:0:0:
33,31,58847,1,0,1:0:0:0:
274,183,59147,1,0,3:0:0:0:
357,228,59297,1,2,3:0:0:0:
440,175,59447,2,0,L|430:85,1,50,8|0,1:2|0:0,0:0:0:0:
279,266,59747,2,0,L|285:364,1,50,0|0,1:0|0:0,0:0:0:0:
194,113,60047,5,4,1:3:0:0:
174,188,60197,1,2,3:0:0:0:
102,219,60347,1,0,3:0:0:0:
29,192,60497,1,0,3:0:0:0:
274,41,60647,5,8,1:2:0:0:
294,116,60797,1,2,1:0:0:0:
366,147,60947,1,2,3:0:0:0:
439,120,61097,1,4,0:3:0:0:
312,295,61247,6,0,L|311:380,2,50,2|0|0,1:0|3:0|3:0,0:0:0:0:
128,197,61697,1,2,1:0:0:0:
93,280,61847,2,0,L|94:348,1,50,8|0,1:2|0:0,0:0:0:0:
222,170,62147,2,0,B|200:86|254:102|230:-10,1,150.000005722046,2|4,1:0|1:3,0:0:0:0:
235,23,62747,5,2,1:0:0:0:
199,95,62897,1,0,3:0:0:0:
222,170,63047,1,8,1:2:0:0:
318,345,63347,6,0,L|315:277,1,50,2|0,1:0|0:0,0:0:0:0:
228,271,63647,1,4,0:3:0:0:
217,363,63797,1,0,1:0:0:0:
406,193,63947,6,0,L|403:125,1,50,2|0,1:0|0:0,0:0:0:0:
316,119,64247,1,8,1:2:0:0:
305,211,64397,1,0,1:0:0:0:
478,98,64547,6,0,L|475:26,1,50,2|0,1:0|0:0,0:0:0:0:
230,167,64847,1,4,1:3:0:0:
230,167,65147,6,0,L|146:175,1,50,2|0,1:0|0:0,0:0:0:0:
46,260,65447,1,4,1:3:0:0:
46,260,65747,6,0,L|148:268,1,75.0000028610231,2|0,1:0|0:0,0:0:0:0:
235,67,66047,1,4,1:3:0:0:
235,67,66347,6,0,L|104:50,1,100,2|0,1:0|0:0,0:0:0:0:
274,360,66647,1,4,1:3:0:0:
274,360,66947,6,0,L|485:347,1,200,2|0,1:0|1:0,0:0:0:0:
473,347,69647,6,0,L|479:301,1,25
433,257,69947,2,0,L|439:211,1,25
393,164,70247,2,0,B|350:176|350:176|293:150,2,100,0|0|0,3:0|0:0|3:0,0:0:0:0:
393,164,72047,6,0,L|384:123,1,25
348,70,72347,2,0,L|320:76,1,25
254,113,72647,2,0,B|231:144|231:144|241:222,2,100,0|0|0,3:0|0:0|3:0,0:0:0:0:
254,113,74447,6,0,L|209:109,1,25
169,54,74747,2,0,L|144:53,1,25
68,85,75047,1,0,3:0:0:0:
68,85,75347,2,0,L|65:123,1,25,0|0,0:0|3:0,0:0:0:0:
66,189,75647,1,0,3:0:0:0:
143,203,75947,1,0,0:0:0:0:
69,224,76247,1,0,3:0:0:0:
57,322,76847,6,0,P|72:321|86:322,3,25,0|0|0|0,1:0|0:0|0:0|0:0,0:0:0:0:
136,266,77447,2,0,P|163:267|204:278,1,50,8|0,0:0|0:0,0:0:0:0:
249,227,77897,2,0,P|279:245|297:270,1,50,0|0,3:0|0:0,0:0:0:0:
382,291,78347,2,0,P|372:256|362:235,2,50,0|8|0,3:0|0:0|0:0,0:0:0:0:
430,189,79247,6,0,P|437:158|438:143,3,25,0|0|0|0,1:0|0:0|0:0|0:0,0:0:0:0:
363,131,79847,2,0,P|335:133|309:140,1,50,8|0,0:0|0:0,0:0:0:0:
253,82,80297,2,0,P|221:91|193:108,1,50,0|0,3:0|0:0,0:0:0:0:
94,100,80747,2,0,P|113:81|151:61,2,50,0|8|0,3:0|0:0|0:0,0:0:0:0:
6,162,81647,6,0,P|9:182|10:202,3,25,0|0|0|0,1:0|0:0|0:0|0:0,0:0:0:0:
85,200,82247,1,8,0:0:0:0:
176,215,82547,1,0,3:0:0:0:
248,189,82697,1,2,3:0:0:0:
341,213,82997,1,0,3:0:0:0:
416,189,83147,1,2,3:0:0:0:
512,207,83447,1,8,0:0:0:0:
512,207,83747,1,0,3:0:0:0:
254,270,84047,6,0,L|259:296,1,20,4|0,0:3|2:0,0:0:0:0:
254,270,85397,5,0,3:0:0:0:
259,189,85547,2,0,P|259:152|261:129,1,50,8|4,0:0|0:3,0:0:0:0:
260,65,85847,1,8,0:0:0:0:
259,263,85997,2,0,P|256:309|260:372,1,100,4|0,0:3|0:0,0:0:0:0:
169,208,86447,6,0,P|139:194|111:166,1,50,4|0,1:0|0:0,0:0:0:0:
53,186,86747,1,4,0:3:0:0:
254,45,86897,1,0,3:0:0:0:
254,45,87047,2,0,P|251:101|251:122,1,50,8|4,1:0|0:3,0:0:0:0:
374,269,87347,1,0,3:0:0:0:
453,200,87497,1,0,1:0:0:0:
354,173,87647,2,0,P|306:177|287:182,1,50,4|0,1:3|0:0,0:0:0:0:
452,378,87947,2,0,P|447:326|450:267,1,100,4|8,0:3|1:0,0:0:0:0:
206,314,88397,5,4,0:3:0:0:
315,299,88547,1,0,3:0:0:0:
206,314,88697,1,0,3:0:0:0:
315,299,88847,2,0,P|315:226|317:197,1,100,4|4,1:3|0:3,0:0:0:0:
139,36,89297,5,0,1:0:0:0:
216,72,89447,1,8,1:0:0:0:
172,148,89597,1,0,3:0:0:0:
172,148,89672,1,0,3:0:0:0:
172,148,89747,1,0,3:0:0:0:
139,36,89897,5,0,1:0:0:0:
139,36,90047,2,0,P|210:35|256:37,1,100,4|4,1:3|0:3,0:0:0:0:
453,120,90497,5,0,3:0:0:0:
381,99,90647,2,0,P|345:98|322:99,1,50,8|4,1:0|0:3,0:0:0:0:
417,282,90947,1,0,3:0:0:0:
472,231,91097,1,0,1:0:0:0:
321,251,91247,2,0,P|326:312|329:363,1,100,4|4,1:3|0:3,0:0:0:0:
250,202,91697,1,0,3:0:0:0:
250,202,91847,2,0,P|253:146|251:126,1,50,8|4,1:0|0:3,0:0:0:0:
185,114,92147,5,0,3:0:0:0:
75,65,92297,1,0,1:0:0:0:
0,149,92447,1,4,1:3:0:0:
106,202,92597,1,0,3:0:0:0:
82,127,92747,6,0,P|90:69|91:46,1,50,4|0,0:3|0:0,0:0:0:0:
309,27,93047,1,8,1:0:0:0:
349,92,93197,2,0,P|351:116|356:141,1,50,4|0,0:3|0:0,0:0:0:0:
165,295,93497,1,0,1:0:0:0:
203,226,93647,2,0,P|255:222|322:224,1,100,4|4,1:3|0:3,0:0:0:0:
366,276,94097,5,0,3:0:0:0:
366,276,94247,2,0,P|369:317|369:341,1,50,8|0,1:0|0:0,0:0:0:0:
124,227,94547,2,0,P|121:186|121:162,1,50,0|4,1:0|0:3,0:0:0:0:
384,5,94847,6,0,P|391:55|398:105,1,100,4|4,1:3|0:3,0:0:0:0:
257,284,95297,1,0,3:0:0:0:
114,105,95447,2,0,P|120:55|127:5,1,100,8|0,1:0|0:0,0:0:0:0:
202,35,95897,1,0,1:0:0:0:
285,135,96047,6,0,L|282:198,1,50,4|0,1:2|0:0,0:0:0:0:
458,253,96347,2,0,L|462:174,1,50,4|0,0:3|0:0,0:0:0:0:
356,267,96647,2,0,L|357:401,1,100,8|0,1:0|0:0,0:0:0:0:
356,366,97097,1,0,1:0:0:0:
135,368,97247,6,0,L|255:334,1,100,4|4,1:3|0:3,0:0:0:0:
265,125,97697,1,2,3:2:0:0:
178,138,97847,2,0,L|57:175,1,100,8|0,1:0|3:0,0:0:0:0:
39,85,98297,1,0,1:0:0:0:
39,85,98447,6,0,L|70:21,1,50,4|0,1:3|0:0,0:0:0:0:
82,167,98747,2,0,L|62:246,1,50,4|0,0:3|0:0,0:0:0:0:
191,304,99047,1,8,1:0:0:0:
248,250,99197,1,4,0:3:0:0:
323,275,99347,1,0,3:0:0:0:
461,288,99497,1,0,1:0:0:0:
413,136,99647,2,0,L|394:246,1,100,4|4,1:3|0:3,0:0:0:0:
475,86,100097,1,2,3:2:0:0:
278,110,100247,2,0,P|203:87|141:81,2,100,8|0|4,1:0|1:0|1:3,0:0:0:0:
281,192,100997,5,0,3:0:0:0:
241,265,101147,1,4,0:3:0:0:
157,255,101297,1,0,3:0:0:0:
284,354,101447,1,8,1:0:0:0:
284,354,101597,6,0,P|328:354|399:359,1,100,4|0,0:3|1:0,0:0:0:0:
504,200,102047,2,0,P|460:200|389:195,1,100,4|4,1:3|0:3,0:0:0:0:
159,88,102647,1,8,1:0:0:0:
159,88,102797,2,0,P|203:88|274:93,1,100,4|0,1:3|3:0,0:0:0:0:
348,116,103247,5,2,1:2:0:0:
345,123,103847,1,2,1:2:0:0:
340,130,104447,1,2,1:2:0:0:
193,282,104897,1,2,1:2:0:0:
340,130,105047,1,8,1:0:0:0:
193,282,105197,1,4,0:3:0:0:
38,335,105647,6,0,P|140:325|334:317,1,259.999988098145,4|8,1:0|1:0,0:0:0:0:
354,364,106397,1,2,3:0:0:0:
306,286,106547,1,2,3:0:0:0:
395,261,106697,1,0,1:0:0:0:
439,340,106847,2,0,P|368:338|236:343,1,194.999991073609,0|0,1:0|3:0,0:0:0:0:
24,267,107447,6,0,P|121:263|219:265,1,194.999991073609,8|0,1:0|0:0,0:0:0:0:
279,210,108047,6,0,P|275:132|111:88,1,259.999988098145,4|8,1:2|1:0,0:0:0:0:
30,161,108797,1,2,3:0:0:0:
31,313,108947,1,2,3:0:0:0:
161,244,109097,1,0,1:0:0:0:
30,238,109247,2,0,P|112:230|236:229,1,194.999991073609,0|0,1:0|3:0,0:0:0:0:
444,230,109847,6,0,P|401:193|372:53,1,194.999991073609,8|0,1:0|3:0,3:3:0:0:
390,38,110447,6,0,P|369:105|188:129,1,259.999988098145,4|8,1:2|1:0,0:0:0:0:
116,58,111197,1,2,3:0:0:0:
21,127,111347,1,2,3:0:0:0:
93,219,111497,1,0,1:0:0:0:
189,152,111647,2,0,P|196:227|200:358,1,194.999991073609,0|0,1:0|3:0,0:0:0:0:
273,373,112247,2,0,P|303:368|343:364,1,64.9999970245363,8|0,1:0|0:0,0:0:0:0:
453,308,112547,2,0,P|418:304|388:299,1,64.9999970245363,0|0,1:0|0:0,0:0:0:0:
497,248,112847,6,0,P|493:172|341:93,1,259.999988098145,4|8,1:2|1:0,0:0:0:0:
257,146,113597,1,2,3:0:0:0:
184,257,113747,1,2,3:0:0:0:
271,360,113897,1,0,1:0:0:0:
340,250,114047,1,0,1:0:0:0:
261,255,114347,5,0,3:0:0:0:
261,255,114647,5,8,1:0:0:0:
171,126,114797,1,2,3:0:0:0:
258,9,114947,1,2,3:0:0:0:
346,127,115097,1,0,1:0:0:0:
259,126,115247,6,0,P|178:114|-11:119,1,259.999988098145,4|8,1:0|1:0,0:0:0:0:
48,237,115997,1,2,3:0:0:0:
166,193,116147,1,2,3:0:0:0:
126,66,116297,1,0,1:0:0:0:
166,193,116447,2,0,P|180:275|190:386,1,194.999991073609,0|0,1:0|3:0,0:0:0:0:
330,193,117047,2,0,P|327:111|332:35,1,129.999994049073,8|0,1:0|3:0,0:0:0:0:
498,183,117497,1,2,3:0:0:0:
498,183,117647,6,0,P|409:222|376:378,1,259.999988098145,4|8,1:2|1:0,0:0:0:0:
498,322,118397,1,2,3:0:0:0:
372,369,118547,1,2,3:0:0:0:
264,323,118697,1,0,1:0:0:0:
135,369,118847,2,0,P|100:283|31:196,1,194.999991073609,0|0,1:0|3:0,0:0:0:0:
192,129,119447,2,0,L|286:138,1,64.9999970245363,8|0,1:0|0:0,0:0:0:0:
377,199,119747,2,0,L|478:208,1,64.9999970245363,0|0,1:0|0:0,0:0:0:0:
297,27,120047,6,0,L|287:345,1,259.999988098145,4|8,1:2|1:0,0:0:0:0:
400,354,120797,1,2,3:0:0:0:
481,259,120947,1,2,3:0:0:0:
378,176,121097,1,0,1:0:0:0:
290,288,121247,2,0,P|189:260|68:264,1,194.999991073609,0|0,1:0|3:0,0:0:0:0:
90,152,121847,2,0,P|126:157|166:160,1,64.9999970245363,8|0,1:0|0:0,0:0:0:0:
82,349,122147,2,0,P|46:344|6:341,1,64.9999970245363,0|0,1:0|0:0,0:0:0:0:
41,46,122447,6,0,P|106:51|240:69,1,194.999991073609,4|0,1:2|3:0,0:0:0:0:
400,106,123047,1,8,1:0:0:0:
311,153,123197,1,2,3:0:0:0:
319,253,123347,1,2,3:0:0:0:
411,294,123497,1,0,1:0:0:0:
491,229,123647,6,0,P|425:223|292:206,1,194.999991073609,0|0,1:0|3:0,0:0:0:0:
179,259,124247,1,8,1:0:0:0:
77,238,124397,1,2,3:0:0:0:
51,148,124547,1,2,3:0:0:0:
120,79,124697,1,0,1:0:0:0:
280,29,124847,6,0,P|277:68|281:244,1,194.999991073609,4|2,1:0|0:0,0:0:0:0:
326,291,125447,2,0,P|372:284|461:263,1,129.999994049073,8|2,1:0|0:0,0:0:0:0:
248,296,125897,1,0,1:0:0:0:
131,358,126047,2,0,P|195:349|216:348,1,64.9999970245363,0|0,1:0|3:0,0:0:0:0:
0,312,126347,2,0,P|32:308|64:302,1,64.9999970245363,2|0,1:2|3:0,0:0:0:0:
282,201,126647,5,0,0:0:0:0:
360,189,126797,1,2,3:0:0:0:
436,178,126947,1,2,1:2:0:0:
509,165,127097,1,0,1:0:0:0:
282,201,127247,5,4,1:2:0:0:
282,201,127847,1,8,1:0:0:0:
262,130,127997,1,2,1:3:0:0:
262,130,128072,1,0,3:0:0:0:
262,130,128147,1,2,1:2:0:0:
186,155,128297,1,0,1:0:0:0:
286,55,128447,2,0,P|365:62|448:80,1,129.999994049073,0|2,1:0|0:0,0:0:0:0:
475,250,128897,5,0,1:0:0:0:
419,306,129047,2,0,P|352:300|318:295,1,64.9999970245363,8|0,1:0|3:0,0:0:0:0:
138,362,129347,2,0,P|205:356|239:351,1,64.9999970245363,2|0,1:2|1:0,0:0:0:0:
186,187,129647,6,0,P|80:205|6:255,1,194.999991073609,4|2,1:2|0:0,0:0:0:0:
18,151,130247,2,0,P|24:115|26:81,1,64.9999970245363,8|0,1:0|0:0,0:0:0:0:
25,86,130547,1,2,1:2:0:0:
116,76,130697,1,0,1:0:0:0:
261,39,130847,1,0,1:0:0:0:
175,10,130997,1,2,3:0:0:0:
204,99,131147,1,2,1:2:0:0:
351,49,131297,1,2,3:0:0:0:
504,194,131447,5,8,1:0:0:0:
504,194,131597,1,2,3:0:0:0:
504,194,131747,1,2,1:2:0:0:
504,194,131897,1,0,1:0:0:0:
257,367,132047,5,4,1:2:0:0:
257,367,132647,6,0,P|263:292|275:227,1,129.999994049073,8|2,1:0|0:0,0:0:0:0:
213,190,133097,1,0,1:0:0:0:
398,152,133247,2,0,P|334:140|270:135,2,129.999994049073,0|2|8,1:0|0:0|1:0,0:0:0:0:
41,73,134297,1,0,1:0:0:0:
41,73,134447,6,0,P|127:134|112:239,1,194.999991073609,4|4,1:0|0:3,0:0:0:0:
284,304,135047,2,0,P|254:260|207:182,1,129.999994049073,8|2,1:0|3:0,0:0:0:0:
43,245,135497,1,4,0:3:0:0:
43,245,135647,2,0,P|45:308|43:400,1,129.999994049073,0|4,1:0|0:3,0:0:0:0:
161,309,136097,1,0,1:0:0:0:
161,309,136247,1,8,1:0:0:0:
375,367,136547,1,2,3:0:0:0:
375,367,136697,1,0,1:0:0:0:
375,367,136847,6,0,P|397:275|485:242,1,194.999991073609,4|4,1:2|0:3,0:0:0:0:
282,274,137447,2,0,P|301:222|322:121,1,129.999994049073,8|2,1:0|3:0,0:0:0:0:
251,40,137897,1,4,0:3:0:0:
147,79,138047,1,0,1:0:0:0:
147,79,138347,1,4,0:3:0:0:
147,79,138497,1,0,1:0:0:0:
318,149,138647,2,0,P|373:141|473:86,1,129.999994049073,8|2,1:0|3:0,0:0:0:0:
206,183,139097,1,0,1:0:0:0:
206,183,139247,6,0,L|194:274,1,64.9999970245363,4|0,1:2|0:0,0:0:0:0:
181,351,139547,1,2,1:3:0:0:
326,275,139697,1,4,0:3:0:0:
326,275,139847,2,0,L|304:142,1,129.999994049073,8|2,1:0|3:0,0:0:0:0:
462,352,140297,1,4,0:3:0:0:
462,352,140447,1,0,1:0:0:0:
114,218,140747,1,4,0:3:0:0:
114,218,140897,1,0,1:0:0:0:
184,35,141047,2,0,L|206:168,1,129.999994049073,8|2,1:0|3:0,0:0:0:0:
159,301,141497,1,0,1:0:0:0:
19,240,141647,5,4,1:2:0:0:
19,240,141797,1,0,0:0:0:0:
19,240,141947,1,2,1:2:0:0:
19,240,142097,1,0,1:0:0:0:
211,359,142247,5,8,1:0:0:0:
301,314,142397,1,0,0:3:0:0:
300,213,142547,1,2,1:2:0:0:
205,179,142697,1,4,1:3:0:0:
415,246,142847,5,0,0:0:0:0:
495,177,142997,1,0,0:0:0:0:
281,110,143147,1,4,0:3:0:0:
300,213,143297,1,0,1:0:0:0:
464,68,143447,1,8,1:0:0:0:
365,32,143597,1,0,0:0:0:0:
415,246,143747,1,2,0:0:0:0:
495,177,143897,1,0,1:0:0:0:
281,110,144047,1,4,1:2:0:0:
256,192,144197,12,8,151247,0:0:0:0:
253,192,151847,5,8,0:0:0:0:
258,195,152447,1,8,0:0:0:0:
252,198,153047,1,8,0:0:0:0:
498,189,153647,5,4,1:2:0:0:
498,189,153947,2,0,L|383:209,1,100,4|8,0:3|1:0,0:0:0:0:
14,193,154547,5,4,1:3:0:0:
80,157,154697,2,0,L|195:177,1,100,4|0,0:3|1:0,0:0:0:0:
130,242,155147,2,0,L|80:233,1,50,4|0,0:3|0:0,0:0:0:0:
256,131,155447,1,8,1:0:0:0:
256,131,156047,6,0,L|252:196,1,50,4|0,1:3|0:0,0:0:0:0:
302,322,156347,2,0,P|308:265|330:215,2,100,4|8|4,0:3|1:0|0:3,0:0:0:0:
396,187,157097,2,0,P|376:132|362:111,1,50,4|0,1:3|0:0,0:0:0:0:
473,224,157397,1,0,1:0:0:0:
412,340,157547,2,0,P|432:285|446:264,1,50,4|0,1:3|0:0,0:0:0:0:
206,351,157847,2,0,P|186:304|183:222,1,100,8|0,1:0|0:0,0:0:0:0:
179,255,158447,6,0,L|194:207,1,50,4|0,1:3|0:0,0:0:0:0:
170,136,158747,2,0,L|155:17,1,100,4|8,0:3|1:0,0:0:0:0:
419,196,159347,5,4,1:3:0:0:
419,196,159497,2,0,L|428:130,1,50,4|0,0:3|0:0,0:0:0:0:
306,189,159797,1,0,1:0:0:0:
340,119,159947,2,0,L|331:53,1,50,4|0,1:3|0:0,0:0:0:0:
208,215,160247,1,8,1:0:0:0:
208,215,160547,6,0,L|215:267,1,50,0|0,1:0|0:0,0:0:0:0:
145,311,160847,6,0,P|91:294|76:230,1,100,4|4,1:3|0:3,0:0:0:0:
218,345,161297,1,0,3:0:0:0:
218,345,161447,2,0,L|289:337,1,50,8|0,1:0|0:0,0:0:0:0:
182,141,161747,5,4,1:3:0:0:
108,113,161897,2,0,L|58:118,1,50,4|0,0:3|0:0,0:0:0:0:
317,246,162197,1,0,1:0:0:0:
380,196,162347,2,0,L|429:201,1,50,4|0,1:3|0:0,0:0:0:0:
245,212,162647,5,8,1:0:0:0:
252,112,162797,1,4,0:3:0:0:
259,12,162947,2,0,L|209:17,1,50,0|0,1:0|0:0,0:0:0:0:
21,125,163247,6,0,L|152:113,1,100,4|4,1:2|0:3,0:0:0:0:
377,243,163847,2,0,L|508:231,1,100,12|4,1:2|0:3,0:0:0:0:
329,141,164297,1,4,1:3:0:0:
239,169,164447,1,4,1:2:0:0:
91,320,164747,1,4,1:3:0:0:
181,292,164897,1,4,0:3:0:0:
398,369,165047,2,0,L|288:368,1,100,4|4,1:2|0:3,0:0:0:0:
209,29,167447,1,8,1:0:0:0:
209,29,168047,6,0,P|185:109|166:189,1,150,4|0,1:3|0:0,0:0:0:0:
186,36,168647,2,0,P|162:116|143:196,1,150,4|0,1:3|0:0,0:0:0:0:
310,195,169247,6,0,P|334:275|357:385,1,187.5,4|0,1:3|0:0,0:0:0:0:
335,201,169847,2,0,P|359:281|382:391,1,187.5,4|0,1:3|0:0,0:0:0:0:
133,63,170447,6,0,P|109:143|75:287,1,225.000008583069,4|0,1:3|0:0,0:0:0:0:
106,23,171047,2,0,P|82:103|27:326,1,300.000011444092,4|0,1:3|0:0,0:0:0:0:
420,104,172247,1,8,1:0:0:0:
257,378,172847,5,4,1:2:0:0:
257,378,173147,2,0,P|261:328|267:299,1,50,4|0,0:3|0:0,0:0:0:0:
328,233,173447,2,0,P|310:164|282:115,1,100,8|4,1:0|0:3,0:0:0:0:
183,120,173897,1,4,1:3:0:0:
84,178,174047,1,0,1:0:0:0:
27,77,174197,1,0,3:0:0:0:
126,18,174347,1,4,1:3:0:0:
183,120,174497,1,0,3:0:0:0:
27,77,174647,1,8,1:0:0:0:
256,9,175097,5,0,1:0:0:0:
256,9,175247,2,0,P|296:5|327:4,1,50,4|0,1:3|0:0,0:0:0:0:
436,84,175547,1,4,1:3:0:0:
436,84,175697,2,0,P|396:80|365:79,2,50,0|8|4,1:0|1:0|0:3,0:0:0:0:
279,123,176147,5,0,3:0:0:0:
300,220,176297,1,4,1:3:0:0:
317,332,176447,2,0,P|315:356|312:381,2,50,0|0|4,1:0|3:0|1:3,0:0:0:0:
413,270,176897,1,0,3:0:0:0:
198,296,177047,2,0,P|184:238|185:160,1,100,8|0,1:0|3:0,0:0:0:0:
181,197,177647,6,0,L|236:194,1,50,4|0,1:3|0:0,0:0:0:0:
99,66,177947,2,0,L|49:68,1,50,4|0,0:3|0:0,0:0:0:0:
258,16,178247,5,8,1:0:0:0:
371,71,178397,1,4,0:3:0:0:
272,131,178547,1,0,3:0:0:0:
258,16,178697,1,0,1:0:0:0:
486,144,178847,5,4,1:3:0:0:
363,207,178997,1,0,3:0:0:0:
371,71,179147,2,0,P|377:35|380:9,1,50,4|0,1:3|0:0,0:0:0:0:
253,228,179447,2,0,P|258:301|265:346,1,100,8|0,1:0|3:0,0:0:0:0:
261,327,180047,6,0,L|312:321,1,50,4|0,1:3|0:0,0:0:0:0:
154,188,180347,2,0,L|103:182,1,50,4|0,0:3|0:0,0:0:0:0:
331,200,180647,1,8,1:0:0:0:
393,154,180797,2,0,L|444:148,1,50,4|0,1:3|1:0,0:0:0:0:
222,107,181097,1,0,1:3:0:0:
138,94,181247,1,4,1:3:0:0:
270,45,181397,1,0,3:0:0:0:
127,29,181547,2,0,P|130:59|132:85,1,50,4|0,0:3|0:0,0:0:0:0:
326,157,181847,5,8,1:0:0:0:
353,71,181997,1,4,0:3:0:0:
303,143,182147,2,0,P|300:173|298:199,1,50,0|0,1:0|0:0,0:0:0:0:
443,355,182447,6,2,B|492:330|478:268|460:197,1,150.000005722046,2|0,1:0|0:0,0:1:0:0:
236,371,183047,1,8,1:0:0:0:
236,371,183347,6,0,L|154:358,1,50,4|4,0:3|0:3,0:0:0:0:
37,362,183647,1,0,1:0:0:0:
108,277,183797,1,4,0:3:0:0:
21,221,183947,1,4,1:3:0:0:
37,362,184097,1,0,1:0:0:0:
190,254,184247,2,0,L|311:227,1,100,8|0,1:0|0:0,0:0:0:0:
287,232,185447,6,2,B|238:207|252:145|270:74,1,150.000005722046,10|0,1:0|0:0,0:1:0:0:
264,95,185897,1,4,1:3:0:0:
335,39,186047,6,0,L|410:56,1,50,0|0,1:0|0:0,0:0:0:0:
486,150,186347,2,0,L|412:134,1,50,4|0,1:3|0:0,0:0:0:0:
228,183,186647,2,0,L|86:193,1,100,8|0,1:0|3:0,0:0:0:0:
35,379,187247,5,4,1:3:0:0:
35,379,187547,1,4,0:3:0:0:
35,379,187847,1,8,1:0:0:0:
109,306,187997,1,4,1:3:0:0:
227,358,188147,1,0,3:0:0:0:
150,177,188297,2,0,L|107:52,2,100,4|4|0,1:3|0:3|1:0,0:0:0:0:
388,237,189047,1,8,1:0:0:0:
296,181,189197,1,0,1:0:0:0:
196,258,189347,1,0,3:0:0:0:
255,29,189647,5,4,1:3:0:0:
255,355,190247,1,4,0:3:0:0:
255,29,190847,1,4,0:3:0:0:
276,242,191147,5,0,1:0:0:0:
235,141,191297,1,0,3:0:0:0:
276,242,191447,1,0,1:0:0:0:
235,141,191597,1,0,1:0:0:0:
276,242,191747,1,0,1:0:0:0:
255,11,194447,5,0,1:0:0:0:
255,11,194747,1,0,1:0:0:0:
257,373,196847,5,0,1:2:0:0:
257,373,197147,1,0,1:2:0:0:
136,198,199247,5,0,1:0:0:0:
376,186,199547,1,0,1:0:0:0:
260,171,199847,6,0,L|255:228,8,50,8|8|8|8|8|8|8|8|8,1:2|0:0|1:2|0:0|0:0|0:0|0:0|0:0|0:0,0:0:0:0:
422,369,201347,5,0,0:0:0:0:
485,256,201497,1,0,0:0:0:0:
365,191,201647,1,4,0:0:0:0:
309,314,201797,1,0,0:0:0:0:
309,314,201872,1,0,0:0:0:0:
309,314,201947,1,2,0:0:0:0:
393,288,202097,1,0,0:0:0:0:
365,191,202247,2,0,L|344:102,1,64.9999970245363,8|0,0:0|0:0,0:0:0:0:
159,35,202547,5,2,0:2:0:0:
34,66,202697,1,0,0:0:0:0:
65,195,202847,1,0,0:0:0:0:
203,169,202997,1,0,0:0:0:0:
203,169,203072,1,0,0:0:0:0:
203,169,203147,1,2,0:0:0:0:
118,112,203297,1,0,0:0:0:0:
65,195,203447,2,0,L|42:269,1,64.9999970245363,8|0,0:0|0:0,0:0:0:0:
221,359,203747,5,2,0:2:0:0:
336,309,203897,1,0,0:0:0:0:
221,359,204047,1,0,0:0:0:0:
242,229,204197,1,0,0:0:0:0:
242,229,204272,1,0,0:0:0:0:
242,229,204347,1,2,0:0:0:0:
259,105,204497,2,0,L|269:35,2,64.9999970245363,0|8|0,0:0|0:0|0:0,0:0:0:0:
472,96,204947,5,2,0:2:0:0:
376,137,205097,1,0,0:0:0:0:
482,276,205247,1,0,0:0:0:0:
391,245,205397,1,0,0:0:0:0:
391,245,205472,1,0,0:0:0:0:
391,245,205547,1,2,0:0:0:0:
289,276,205697,1,0,0:0:0:0:
266,368,205847,1,8,0:0:0:0:
234,57,206147,6,0,P|183:49|146:48,1,64.9999970245363,2|0,0:2|0:0,0:0:0:0:
45,96,206447,1,0,0:0:0:0:
153,161,206597,1,0,0:0:0:0:
153,161,206672,1,0,0:0:0:0:
153,161,206747,1,2,0:0:0:0:
36,83,206897,1,0,0:0:0:0:
160,39,207047,1,8,0:0:0:0:
278,327,207347,6,0,P|329:335|366:336,1,64.9999970245363,2|0,0:2|0:0,0:0:0:0:
467,288,207647,1,0,0:0:0:0:
359,223,207797,1,0,0:0:0:0:
359,223,207872,1,0,0:0:0:0:
359,223,207947,1,2,0:0:0:0:
476,301,208097,1,0,0:0:0:0:
352,345,208247,1,8,0:0:0:0:
195,134,208547,6,0,L|211:51,1,64.9999970245363,2|0,0:2|0:0,0:0:0:0:
323,30,208847,1,0,0:0:0:0:
305,157,208997,1,0,0:0:0:0:
305,157,209072,1,0,0:0:0:0:
305,157,209147,1,2,0:0:0:0:
267,287,209297,1,0,0:0:0:0:
396,235,209447,1,8,0:0:0:0:
68,194,209747,6,0,L|-8:211,1,64.9999970245363,2|0,0:2|0:0,0:0:0:0:
165,358,210047,5,0,0:0:0:0:
174,355,210197,1,0,0:0:0:0:
184,353,210347,1,0,0:0:0:0:
193,351,210497,1,0,0:0:0:0:
203,349,210647,1,0,0:0:0:0:
293,307,210797,2,0,L|281:257,2,32.4999985122681,0|0|0,0:0|0:0|0:0,0:0:0:0:
374,371,211097,1,0,0:0:0:0:
339,198,211247,6,0,P|340:166|325:114,1,64.9999970245363,4|0,0:0|0:0,0:0:0:0:
114,126,211547,2,0,L|200:117,1,64.9999970245363,2|0,0:2|0:0,0:0:0:0:
313,15,211847,1,8,0:0:0:0:
387,74,211997,5,0,0:0:0:0:
387,74,212072,1,0,0:0:0:0:
387,74,212147,1,2,0:2:0:0:
258,152,212297,1,0,0:0:0:0:
180,23,212447,1,0,0:0:0:0:
258,152,212597,1,0,0:0:0:0:
502,194,212747,6,0,P|453:188|422:194,1,64.9999970245363,2|0,0:2|0:0,0:0:0:0:
208,309,213047,1,8,0:0:0:0:
278,265,213197,5,0,0:0:0:0:
278,265,213272,1,0,0:0:0:0:
278,265,213347,1,2,0:2:0:0:
142,263,213497,1,0,0:0:0:0:
209,382,213647,1,0,0:0:0:0:
278,265,213797,1,0,0:0:0:0:
131,348,213947,5,2,0:2:0:0:
212,199,214097,1,0,0:0:0:0:
291,353,214247,1,8,0:0:0:0:
363,300,214397,5,0,0:0:0:0:
363,300,214472,1,0,0:0:0:0:
363,300,214547,1,2,0:2:0:0:
370,200,214697,1,0,0:0:0:0:
377,100,214847,1,0,0:0:0:0:
387,91,214997,1,0,0:0:0:0:
369,94,215147,1,2,0:2:0:0:
391,203,215297,1,0,0:0:0:0:
340,302,215447,1,8,0:0:0:0:
471,275,215597,5,0,0:0:0:0:
471,275,215672,1,0,0:0:0:0:
471,275,215747,2,0,L|479:200,1,64.9999970245363,2|0,0:2|0:0,0:0:0:0:
207,42,216047,5,0,0:0:0:0:
214,142,216197,1,0,0:0:0:0:
227,242,216347,1,2,0:2:0:0:
227,242,216497,1,0,0:0:0:0:
207,42,216647,1,8,0:0:0:0:
128,105,216797,5,0,0:0:0:0:
128,105,216872,1,0,0:0:0:0:
128,105,216947,1,2,0:2:0:0:
295,175,217097,1,0,0:0:0:0:
150,284,217247,1,0,0:0:0:0:
200,105,217397,5,0,0:0:0:0:
278,228,217547,1,2,0:2:0:0:
133,232,217697,1,0,0:0:0:0:
206,189,217847,1,8,0:0:0:0:
396,147,217997,5,0,0:0:0:0:
396,147,218072,1,0,0:0:0:0:
396,147,218147,1,2,0:2:0:0:
431,228,218297,1,0,0:0:0:0:
509,195,218447,1,0,0:0:0:0:
475,117,218597,1,0,0:0:0:0:
452,171,218747,1,0,0:0:0:0:
117,319,219197,5,0,0:0:0:0:
117,319,219272,1,0,0:0:0:0:
117,319,219347,1,0,0:0:0:0:
124,241,219497,1,0,0:0:0:0:
202,251,219647,1,0,0:0:0:0:
202,251,219797,1,0,0:0:0:0:
195,333,219947,1,0,0:0:0:0:
195,333,220097,1,0,0:0:0:0:
51,272,220247,5,8,0:0:0:0:
271,296,220397,1,0,0:0:0:0:
271,296,220847,6,0,P|265:194|187:37,1,259.999988098145,4|8,1:0|1:0,0:0:0:0:
82,62,221597,1,2,3:0:0:0:
165,163,221747,1,2,3:0:0:0:
282,153,221897,1,0,1:0:0:0:
199,52,222047,1,0,1:0:0:0:
145,366,222347,1,0,1:0:0:0:
145,366,222647,2,0,P|225:344|361:344,1,194.999991073609,8|0,1:0|0:0,0:0:0:0:
502,171,223247,6,0,P|422:193|230:189,1,259.999988098145,4|8,1:2|1:0,0:0:0:0:
153,148,223997,1,2,3:0:0:0:
178,49,224147,1,2,3:0:0:0:
277,57,224297,1,0,1:0:0:0:
246,192,224447,2,0,L|218:342,1,129.999994049073,0|0,1:0|0:0,0:0:0:0:
7,170,225047,2,0,L|35:20,1,129.999994049073,8|0,1:0|0:0,3:3:0:0:
173,153,225497,1,0,1:0:0:0:
100,211,225647,6,0,P|58:287|212:327,1,259.999988098145,4|8,1:2|1:0,0:0:0:0:
258,302,226397,1,2,3:0:0:0:
250,206,226547,1,2,3:0:0:0:
162,264,226697,1,0,1:0:0:0:
349,329,226847,2,0,P|365:251|357:188,1,129.999994049073,0|0,1:0|0:0,0:0:0:0:
158,33,227447,1,8,1:0:0:0:
158,33,227747,1,0,1:0:0:0:
254,117,227897,1,0,0:0:0:0:
352,37,228047,5,4,1:2:0:0:
352,37,228122,1,0,1:0:0:0:
352,37,228197,1,0,1:0:0:0:
396,131,228347,2,0,L|476:106,1,64.9999970245363,0|0,1:0|0:0,0:0:0:0:
254,117,228647,2,0,P|183:131|109:158,1,129.999994049073,8|2,1:0|3:0,0:0:0:0:
15,272,229097,1,0,1:0:0:0:
94,343,229247,2,0,P|157:330|219:310,1,129.999994049073,0|0,1:0|3:0,0:0:0:0:
446,369,229847,1,8,1:0:0:0:
446,369,230147,1,2,3:0:0:0:
367,213,230297,1,0,1:0:0:0:
423,276,230447,6,0,P|428:210|446:128,1,129.999994049073,4|0,1:0|0:0,0:0:0:0:
365,123,230897,1,0,0:0:0:0:
186,188,231047,1,8,1:0:0:0:
186,188,231347,1,2,3:0:0:0:
63,168,231497,1,0,1:0:0:0:
53,290,231647,1,0,1:0:0:0:
53,290,231947,1,0,1:0:0:0:
53,290,232247,1,8,1:0:0:0:
168,310,232397,1,0,0:0:0:0:
186,188,232547,1,0,1:0:0:0:
63,168,232697,1,2,3:0:0:0:
53,290,232847,6,0,P|153:310|326:274,1,259.999988098145,4|8,1:2|1:0,0:0:0:0:
331,208,233597,1,2,3:0:0:0:
450,276,233747,2,0,P|400:268|341:269,1,64.9999970245363,2|0,3:0|1:0,0:0:0:0:
256,223,234047,2,0,P|264:146|254:29,1,194.999991073609,0|0,1:0|3:0,0:0:0:0:
356,189,234647,6,0,L|426:179,1,64.9999970245363,8|0,1:0|0:0,0:0:0:0:
175,201,234947,2,0,L|105:191,1,64.9999970245363,0|0,1:0|0:0,0:0:0:0:
254,29,235247,5,4,1:2:0:0:
258,355,235547,1,0,1:0:0:0:
217,117,235847,5,8,1:0:0:0:
295,267,235997,1,2,3:0:0:0:
295,141,236147,1,2,3:0:0:0:
217,243,236297,1,0,1:0:0:0:
100,202,236447,5,0,1:0:0:0:
412,182,236747,1,0,1:0:0:0:
244,94,237047,5,8,1:0:0:0:
273,294,237197,1,0,3:0:0:0:
299,147,237347,1,0,1:0:0:0:
213,237,237497,1,0,1:0:0:0:
477,240,237647,6,0,P|397:254|365:368,1,194.999991073609,4|0,1:2|3:0,0:0:0:0:
20,182,238247,1,8,1:0:0:0:
100,202,238397,1,2,3:0:0:0:
80,282,238547,1,2,3:0:0:0:
0,262,238697,1,0,1:0:0:0:
185,248,238847,6,0,P|175:158|177:22,1,194.999991073609,4|0,1:2|3:0,0:0:0:0:
358,168,239447,2,0,L|347:259,1,64.9999970245363,8|2,1:0|3:0,0:0:0:0:
350,232,239672,1,0,0:0:0:0:
350,232,239747,1,2,3:0:0:0:
272,223,239897,1,0,1:0:0:0:
361,87,240047,6,0,L|370:7,1,64.9999970245363,4|0,1:0|0:0,0:0:0:0:
477,172,240347,2,0,L|472:41,1,129.999994049073,2|8,1:0|1:0,0:0:0:0:
213,187,240947,1,2,1:2:0:0:
134,239,241097,1,0,1:0:0:0:
134,239,241172,1,0,1:0:0:0:
134,239,241247,2,0,L|125:159,1,64.9999970245363,0|0,1:3|0:0,0:0:0:0:
29,271,241547,2,0,L|34:140,1,129.999994049073,2|8,1:0|1:0,0:0:0:0:
289,34,242147,1,2,1:2:0:0:
190,58,242297,1,0,1:0:0:0:
292,63,242447,6,0,L|290:138,1,64.9999970245363,4|0,1:2|0:0,0:0:0:0:
351,191,242747,2,0,L|343:349,1,129.999994049073,2|8,1:0|1:0,0:0:0:0:
496,88,243347,1,2,1:2:0:0:
410,37,243497,1,0,1:3:0:0:
410,37,243572,1,0,1:0:0:0:
410,37,243647,1,0,1:0:0:0:
410,135,243797,1,0,1:3:0:0:
410,243,243947,1,2,1:0:0:0:
497,201,244097,1,0,1:0:0:0:
410,135,244247,2,0,L|319:148,1,64.9999970245363,8|0,1:0|0:0,0:0:0:0:
122,254,244547,1,2,1:2:0:0:
214,228,244697,1,0,1:0:0:0:
292,285,244847,6,0,L|289:365,1,64.9999970245363,4|0,1:2|0:0,0:0:0:0:
385,254,245147,2,0,L|371:392,1,129.999994049073,2|8,1:0|1:0,0:0:0:0:
301,58,245747,1,2,1:2:0:0:
209,32,245897,1,0,1:3:0:0:
131,89,246047,2,0,L|134:169,1,64.9999970245363,0|0,1:0|0:3,0:0:0:0:
38,58,246347,2,0,L|52:196,1,129.999994049073,2|8,1:0|1:0,0:0:0:0:
285,253,246947,6,0,P|314:243|374:229,1,64.9999970245363,2|0,0:0|1:0,0:0:0:0:
366,236,247172,1,0,1:0:0:0:
383,243,247247,1,4,1:2:0:0:
485,180,247397,1,0,1:0:0:0:
375,120,247547,2,0,L|302:114,1,64.9999970245363,2|0,1:0|0:0,0:0:0:0:
76,101,247847,2,0,P|143:86|216:61,1,129.999994049073,8|2,1:0|0:0,0:0:0:0:
329,23,248297,5,0,1:3:0:0:
329,23,248372,1,0,1:0:0:0:
329,23,248447,1,0,1:0:0:0:
245,206,248597,1,0,1:3:0:0:
202,68,248747,1,2,1:2:0:0:
310,116,248897,1,0,1:3:0:0:
231,321,249047,1,8,1:0:0:0:
150,163,249197,5,0,1:0:0:0:
150,163,249272,1,0,1:0:0:0:
150,163,249347,1,2,1:0:0:0:
330,356,249497,1,0,1:0:0:0:
150,282,249647,6,0,P|151:320|146:357,1,64.9999970245363,4|0,1:0|1:0,0:0:0:0:
358,249,249947,2,0,P|296:243|221:244,1,129.999994049073,2|8,1:0|1:0,0:0:0:70:soft-hitwhistle.wav
423,192,250397,1,4,1:3:0:0:
423,192,250472,1,0,1:0:0:0:
423,192,250547,2,4,P|424:141|426:114,1,64.9999970245363,2|4,1:2|1:3,0:0:0:0:
430,274,250847,2,0,P|481:275|508:277,1,64.9999970245363,0|4,1:0|0:3,0:0:0:0:
218,168,251147,1,2,1:0:0:0:
116,144,251297,1,0,1:0:0:0:
131,246,251447,1,8,1:0:0:0:
222,152,251597,5,0,1:0:0:0:
222,152,251672,1,0,1:0:0:0:
222,152,251747,2,0,P|232:98|233:76,1,64.9999970245363,2|0,1:2|1:0,0:0:0:0:
15,88,252047,2,0,P|18:120|25:151,1,64.9999970245363,4|0,1:2|1:0,0:0:0:0:
109,374,252347,2,0,P|110:308|123:214,1,129.999994049073,2|8,1:0|1:0,0:0:0:70:soft-hitwhistle.wav
351,251,252797,5,4,1:3:0:0:
351,251,252872,1,0,1:0:0:0:
351,251,252947,2,0,P|295:242|262:240,1,64.9999970245363,2|4,1:2|0:3,0:0:0:0:
440,197,253247,1,0,1:0:0:0:
441,317,253397,1,4,1:3:0:0:
351,251,253547,2,0,P|349:171|350:114,1,129.999994049073,2|8,1:0|1:0,0:0:0:70:soft-hitwhistle.wav
310,342,253997,5,0,1:0:0:0:
310,342,254072,1,0,1:0:0:0:
310,342,254147,2,0,P|254:333|236:332,1,64.9999970245363,2|0,1:2|1:0,0:0:0:0:
435,140,254447,2,0,P|491:131|509:130,1,64.9999970245363,4|0,1:2|1:0,0:0:0:0:
198,93,254747,2,0,P|204:157|208:222,1,129.999994049073,2|8,1:0|1:0,0:0:0:70:soft-hitwhistle.wav
326,42,255197,5,4,1:3:0:0:
326,42,255272,1,0,1:0:0:0:
326,42,255347,2,0,P|282:38|253:34,1,64.9999970245363,2|4,1:2|0:3,0:0:0:0:
372,106,255647,1,0,1:0:0:0:
369,182,255797,1,4,1:3:0:0:
64,84,255947,2,0,P|99:80|210:87,1,129.999994049073,2|8,1:0|1:0,0:0:0:70:soft-hitwhistle.wav
6,196,256397,5,0,1:0:0:0:
6,196,256472,1,0,1:0:0:0:
6,196,256547,2,0,P|9:241|11:273,1,64.9999970245363,2|0,1:2|1:0,0:0:0:0:
259,372,256847,1,4,1:2:0:0:
172,263,256997,1,2,3:0:0:0:
333,293,257147,1,2,1:2:0:0:
255,110,257297,5,2,3:0:0:0:
252,282,257447,1,4,1:3:0:0:
258,263,257522,1,0,1:0:0:0:
264,244,257597,1,4,1:3:0:0:
270,225,257672,1,0,1:0:0:0:
277,207,257747,2,0,L|329:212,3,32.4999985122681,2|0|4|0,1:2|0:0|0:3|0:0,0:0:0:0:
375,169,258047,5,0,1:0:0:0:
233,73,258197,1,4,0:3:0:0:
137,215,258347,1,4,1:3:0:0:
279,311,258497,1,0,0:0:0:0:
289,141,258647,5,8,1:0:0:0:
205,158,258797,1,4,1:3:0:0:
222,242,258947,1,2,1:2:0:0:
306,225,259097,1,4,1:3:0:0:
258,189,259247,5,4,1:0:0:0:
