osu file format v14

[General]
AudioFilename: Rise_Up.mp3
AudioLeadIn: 0
PreviewTime: 205039
Countdown: 0
SampleSet: Normal
StackLeniency: 0.2
Mode: 0
LetterboxInBreaks: 0
WidescreenStoryboard: 0

[Editor]
Bookmarks: 13896,27610,41324,55039,68753,75610,82468,96182,109897,123610,135610,151039,157038,157085,157157,157204,157276,157323,157371,157418,163894,163941,164013,164060,164132,164179,164227,164274,164754,178465,192182,199039,219608,233322,247037,260608,260617,260643,260679,260751,260822,260858,260884,260893,263608,265036,268465,271893,274465,288182,301893,315611,327610
DistanceSpacing: 1
BeatDivisor: 6
GridSize: 16
TimelineZoom: 1.899998

[Metadata]
Title:Rise Up
TitleUnicode:Rise Up
Artist:Infected Mushroom & Savant
ArtistUnicode:Infected Mushroom & Savant
Creator:direday
Version:Gamers
Source:
Tags:Friends on Mushroom english electronic
BeatmapID:1546612
BeatmapSetID:733108

[Difficulty]
HPDrainRate:5.5
CircleSize:3.8
OverallDifficulty:8
ApproachRate:9.3
SliderMultiplier:3
SliderTickRate:1

[Events]
//Background and Video events
0,0,"sunrise.jpg",0,0
//Break Periods
//Storyboard Layer 0 (Background)
//Storyboard Layer 1 (Fail)
//Storyboard Layer 2 (Pass)
//Storyboard Layer 3 (Foreground)
//Storyboard Sound Samples

[TimingPoints]
182,428.571428571429,4,1,1,70,1,0
182,-150.001500015,4,1,1,70,0,0
27610,-100,4,1,1,50,0,0
28039,-100,4,1,1,5,0,0
28182,-100,4,1,1,70,0,0
29754,-99.009900990099,4,1,1,70,0,0
30039,-100,4,1,1,70,0,0
38610,-100,4,1,1,5,0,0
38754,-66.6666666666667,4,1,1,70,0,0
39896,-100,4,1,1,70,0,0
40039,-66.6666666666667,4,1,1,70,0,0
41324,-100,4,1,1,70,0,1
41896,-80,4,1,1,70,0,1
45610,-66.6666666666667,4,1,1,70,0,1
45896,-66.6666666666667,4,1,1,5,0,1
46039,-66.6666666666667,4,1,1,70,0,1
46182,-80,4,1,1,5,0,1
46324,-80,4,1,1,70,0,1
47324,-66.6666666666667,4,1,1,70,0,1
48182,-80,4,1,1,70,0,1
52467,-66.6666666666667,4,1,1,70,0,1
52753,-80,4,1,1,70,0,1
55039,-250,4,1,1,70,0,0
55110,-250,4,1,1,45,0,0
56610,-250,4,1,1,5,0,0
56753,-250,4,1,1,45,0,0
63467,-250,4,1,1,5,0,0
63610,-250,4,1,1,45,0,0
70324,-250,4,1,1,5,0,0
70467,-250,4,1,1,45,0,0
75610,-200,4,1,1,45,0,0
78182,-150.01500150015,4,1,1,45,0,0
78753,-200,4,1,1,45,0,0
80753,-139.86013986014,4,1,1,45,0,0
80967,-139.86013986014,4,1,1,5,0,0
81039,-139.86013986014,4,1,1,45,0,0
81253,-139.86013986014,4,1,1,5,0,0
81324,-139.86013986014,4,1,1,45,0,0
81539,-139.86013986014,4,1,1,5,0,0
81610,-125,4,1,1,55,0,0
82396,-125,4,1,1,5,0,0
82467,-133.333333333333,4,1,1,50,0,0
83110,-133.333333333333,4,1,1,5,0,0
83217,-133.333333333333,4,1,1,50,0,0
83432,-133.333333333333,4,1,1,5,0,0
83539,-133.333333333333,4,1,1,50,0,0
83646,-133.333333333333,4,1,1,5,0,0
83753,-128.205128205128,4,1,1,50,0,0
85467,-200,4,1,1,50,0,0
85610,-200,4,1,1,35,0,0
85896,-128.205128205128,4,1,1,50,0,0
86539,-128.205128205128,4,1,1,5,0,0
86646,-128.205128205128,4,1,1,50,0,0
86860,-128.205128205128,4,1,1,5,0,0
86967,-128.205128205128,4,1,1,50,0,0
87074,-128.205128205128,4,1,1,5,0,0
87182,-200,4,1,1,50,0,0
87610,-128.205128205128,4,1,1,50,0,0
89753,-133.333333333333,4,1,1,50,0,0
89967,-133.333333333333,4,1,1,5,0,0
90074,-133.333333333333,4,1,1,50,0,0
90289,-133.333333333333,4,1,1,5,0,0
90396,-133.333333333333,4,1,1,50,0,0
90503,-133.333333333333,4,1,1,5,0,0
90610,-90.9090909090909,4,1,1,50,0,0
91039,-133.333333333333,4,1,1,50,0,0
92324,-100,4,1,1,50,0,0
92753,-133.333333333333,4,1,1,50,0,0
93396,-133.333333333333,4,1,1,5,0,0
93503,-133.333333333333,4,1,1,50,0,0
93717,-133.333333333333,4,1,1,5,0,0
93824,-133.333333333333,4,1,1,50,0,0
93932,-133.333333333333,4,1,1,5,0,0
94039,-100,4,1,1,50,0,0
94467,-92.1658986175115,4,1,1,50,0,0
94896,-100,4,1,1,50,0,0
96824,-100,4,1,1,5,0,0
96932,-100,4,1,1,50,0,0
97146,-100,4,1,1,5,0,0
97253,-100,4,1,1,50,0,0
97360,-100,4,1,1,5,0,0
97467,-100,4,1,1,50,0,0
100253,-100,4,1,1,5,0,0
100360,-100,4,1,1,50,0,0
100574,-100,4,1,1,5,0,0
100682,-100,4,1,1,50,0,0
100789,-100,4,1,1,5,0,0
100896,-100,4,1,1,50,0,0
103682,-100,4,1,1,5,0,0
103789,-100,4,1,1,50,0,0
104003,-100,4,1,1,5,0,0
104110,-100,4,1,1,50,0,0
104217,-100,4,1,1,5,0,0
104324,-80,4,1,1,50,0,0
104610,-100,4,1,1,50,0,0
106039,-80,4,1,1,50,0,0
106324,-100,4,1,1,50,0,0
107110,-100,4,1,1,5,0,0
107217,-100,4,1,1,50,0,0
107432,-100,4,1,1,5,0,0
107539,-100,4,1,1,50,0,0
107646,-100,4,1,1,5,0,0
107753,-100,4,1,1,50,0,0
108182,-80,4,1,1,50,0,0
109896,-150.15015015015,4,1,1,50,0,0
110182,-150.15015015015,4,1,1,5,0,0
110324,-150.15015015015,4,1,1,50,0,0
111753,-150.15015015015,4,1,1,5,0,0
112039,-150.15015015015,4,1,1,50,0,0
112324,-150.15015015015,4,1,1,5,0,0
112467,-150.15015015015,4,1,1,50,0,0
113182,-150.15015015015,4,1,1,5,0,0
113324,-150.15015015015,4,1,1,50,0,0
113467,-150.15015015015,4,1,1,5,0,0
113753,-150.15015015015,4,1,1,50,0,0
114110,-150.15015015015,4,1,1,5,0,0
114182,-150.15015015015,4,1,1,50,0,0
116610,-150.15015015015,4,1,1,5,0,0
116753,-150.15015015015,4,1,1,50,0,0
116896,-150.15015015015,4,1,1,5,0,0
117182,-150.15015015015,4,1,1,50,0,0
118610,-150.15015015015,4,1,1,5,0,0
118896,-150.15015015015,4,1,1,50,0,0
119039,-150.15015015015,4,1,1,5,0,0
119324,-150.15015015015,4,1,1,50,0,0
120324,-150.15015015015,4,1,1,5,0,0
120610,-150.15015015015,4,1,1,50,0,0
120753,-150.15015015015,4,1,1,5,0,0
121039,-150.15015015015,4,1,1,50,0,0
121539,-150.15015015015,4,1,1,30,0,0
121682,-150.15015015015,4,1,1,20,0,0
121824,-150.15015015015,4,1,1,10,0,0
123610,-100,4,1,1,60,0,1
125467,-100,4,1,1,5,0,1
125753,-100,4,1,1,60,0,1
125896,-100,4,1,1,5,0,1
126182,-100,4,1,1,60,0,1
127182,-100,4,1,1,5,0,1
127467,-100,4,1,1,60,0,1
127610,-100,4,1,1,5,0,1
127896,-100,4,1,1,60,0,1
133110,-100,4,1,1,25,0,1
133467,-100,4,1,1,60,0,1
133539,-100,4,1,1,25,0,1
133896,-133.333333333333,4,1,1,60,0,0
134253,-133.333333333333,4,1,1,5,0,0
134324,-133.333333333333,4,1,1,60,0,0
134682,-133.333333333333,4,1,1,5,0,0
134753,-133.333333333333,4,1,1,60,0,0
134896,-133.333333333333,4,1,1,5,0,0
134967,-133.333333333333,4,1,1,60,0,0
135539,-133.333333333333,4,1,1,5,0,0
135610,-150.15015015015,4,1,1,60,0,0
136467,-133.333333333333,4,1,1,60,0,0
136824,-133.333333333333,4,1,1,5,0,0
136896,-133.333333333333,4,1,1,60,0,0
137753,-150.15015015015,4,1,1,60,0,0
138610,-133.333333333333,4,1,1,60,0,0
139467,-150.15015015015,4,1,1,60,0,0
140039,-133.333333333333,4,1,1,60,0,0
146324,-150.15015015015,4,1,1,60,0,0
147039,-133.333333333333,4,1,1,60,0,0
152324,-80,4,1,1,60,0,0
152467,-80,4,1,1,5,0,0
152753,-80,4,1,1,60,0,0
153039,-133.333333333333,4,1,1,60,0,0
155182,285.714285714286,4,1,1,40,1,0
155182,-300.3003003003,4,1,1,40,0,0
155324,428.571428571429,4,1,1,60,1,0
155324,-133.333333333333,4,1,1,60,0,0
156181,428.571428571429,4,1,1,60,1,0
156181,-133.333333333333,4,1,1,60,0,0
157038,285.714285714286,4,1,1,60,1,0
157038,-200,4,1,1,60,0,0
157061,-200,4,1,1,5,0,0
157085,-200,4,1,1,30,0,0
157109,-200,4,1,1,5,0,0
157157,-200,4,1,1,30,0,0
157180,-200,4,1,1,5,0,0
157204,-200,4,1,1,30,0,0
157228,-200,4,1,1,5,0,0
157276,-200,4,1,1,30,0,0
157299,-200,4,1,1,5,0,0
157323,-200,4,1,1,30,0,0
157394,-200,4,1,1,60,0,0
157466,428.571428571429,4,1,1,60,1,0
157466,-133.333333333333,4,1,1,60,0,0
157894,428.571428571429,4,1,1,60,1,0
157894,-133.333333333333,4,1,1,60,0,0
159179,-100,4,1,1,60,0,0
159251,-133.333333333333,4,1,1,5,0,0
159322,-133.333333333333,4,1,1,60,0,0
163894,285.714285714286,4,1,1,60,1,0
163894,-200,4,1,1,60,0,0
163917,-200,4,1,1,5,0,0
163941,-200,4,1,1,30,0,0
163965,-200,4,1,1,5,0,0
164013,-200,4,1,1,30,0,0
164036,-200,4,1,1,5,0,0
164060,-200,4,1,1,30,0,0
164084,-200,4,1,1,5,0,0
164132,-200,4,1,1,30,0,0
164155,-200,4,1,1,5,0,0
164179,-200,4,1,1,30,0,0
164251,-200,4,1,1,60,0,0
164323,428.571428571429,4,1,1,60,1,0
164323,-133.333333333333,4,1,1,60,0,0
164751,428.571428571429,4,1,1,60,1,0
164751,-133.333333333333,4,1,1,60,0,0
165180,-150.15015015015,4,1,1,60,0,0
165894,-133.333333333333,4,1,1,60,0,0
166893,-150.15015015015,4,1,1,60,0,0
167608,-133.333333333333,4,1,1,60,0,0
169893,-150.15015015015,4,1,1,60,0,0
171179,-133.333333333333,4,1,1,60,0,0
172036,-150.15015015015,4,1,1,60,0,0
172893,-133.333333333333,4,1,1,60,0,0
173751,-150.15015015015,4,1,1,60,0,0
174179,-133.333333333333,4,1,1,60,0,0
178465,-300.3003003003,4,1,1,45,0,0
184893,-200,4,1,1,45,0,0
185179,-300.3003003003,4,1,1,45,0,0
191751,-200,4,1,1,45,0,0
205893,-200,4,1,1,60,0,1
219179,-200,4,1,1,60,0,0
219608,-200,4,1,1,60,0,1
229251,-200,4,1,1,5,0,1
229322,-200,4,1,1,60,0,1
231608,-133.333333333333,4,1,1,60,0,1
233322,-300.3003003003,4,1,1,60,0,0
234179,-200,4,1,1,60,0,0
234608,-300.3003003003,4,1,1,60,0,0
235893,-170.940170940171,4,1,1,60,0,0
236322,-300.3003003003,4,1,1,60,0,0
237608,-144.927536231884,4,1,1,60,0,0
238036,-300.3003003003,4,1,1,60,0,0
239322,-123.456790123457,4,1,1,60,0,0
239751,-300.3003003003,4,1,1,60,0,0
241036,-105.263157894737,4,1,1,60,0,0
241465,-300.3003003003,4,1,1,60,0,0
242751,-89.2857142857143,4,1,1,60,0,0
243108,-89.2857142857143,4,1,1,5,0,0
243179,-400,4,1,1,60,0,0
243608,-300.3003003003,4,1,1,60,0,0
244036,-200,4,1,1,60,0,0
244465,-75.0187546886722,4,1,1,60,0,0
244822,-75.0187546886722,4,1,1,5,0,0
244893,-200,4,1,1,60,0,0
245322,-150.15015015015,4,1,1,60,0,0
245751,-133.333333333333,4,1,1,60,0,0
246179,-86.9565217391304,4,1,1,60,0,0
247036,-75.0187546886722,4,1,1,60,0,1
247179,-75.0187546886722,4,1,1,62,0,0
247751,-75.0187546886722,4,1,1,5,0,0
247893,-75.0187546886722,4,1,1,62,0,0
248608,-75.0187546886722,4,1,1,5,0,0
248751,-75.0187546886722,4,1,1,62,0,0
249465,-75.0187546886722,4,1,1,5,0,0
249608,-75.0187546886722,4,1,1,62,0,0
250322,-75.0187546886722,4,1,1,5,0,0
250465,-75.0187546886722,4,1,1,62,0,0
251179,-75.0187546886722,4,1,1,5,0,0
251322,-75.0187546886722,4,1,1,62,0,0
252751,-75.0187546886722,4,1,1,20,0,0
252893,-75.0187546886722,4,1,1,62,0,0
254179,-75.0187546886722,4,1,1,20,0,0
254322,-75.0187546886722,4,1,1,62,0,0
255179,-83.3333333333333,4,1,1,62,0,0
255465,-75.0187546886722,4,1,1,62,0,0
257179,-75.0187546886722,4,1,1,45,0,0
257322,-75.0187546886722,4,1,1,62,0,0
258036,-75.0187546886722,4,1,1,20,0,0
258179,-75.0187546886722,4,1,1,62,0,0
258822,-75.0187546886722,4,1,1,20,0,0
258893,-75.0187546886722,4,1,1,62,0,0
259179,-75.0187546886722,4,1,1,40,0,0
259322,-72.463768115942,4,1,1,62,0,0
259751,-75.0187546886722,4,1,1,30,0,0
259893,-66.6666666666667,4,1,1,70,0,0
260108,-66.6666666666667,4,1,1,5,0,0
260179,-60.6060606060606,4,1,1,70,0,0
260393,-60.6060606060606,4,1,1,5,0,0
260465,-55.0964187327824,4,1,1,70,0,0
260679,-55.0964187327824,4,1,1,5,0,0
260751,-57.1428571428571,4,1,1,75,0,1
261108,-57.1428571428571,4,1,1,75,0,0
261251,-66.6666666666667,4,1,1,5,0,0
261322,-66.6666666666667,4,1,1,70,0,0
261465,-66.6666666666667,4,1,1,30,0,0
261608,-66.6666666666667,4,1,1,70,0,1
261751,-66.6666666666667,4,1,1,30,0,1
261893,-66.6666666666667,4,1,1,70,0,1
262036,-66.6666666666667,4,1,1,30,0,1
262179,-66.6666666666667,4,1,1,70,0,1
262322,-66.6666666666667,4,1,1,30,0,1
262465,-66.6666666666667,4,1,1,70,0,1
262608,-66.6666666666667,4,1,1,30,0,1
262751,-66.6666666666667,4,1,1,70,0,1
262893,-66.6666666666667,4,1,1,30,0,1
263036,-66.6666666666667,4,1,1,70,0,1
263179,-66.6666666666667,4,1,1,30,0,1
263322,-66.6666666666667,4,1,1,70,0,1
263465,-66.6666666666667,4,1,1,30,0,1
263608,-66.6666666666667,4,1,1,70,0,1
263751,-66.6666666666667,4,1,1,30,0,1
263893,-66.6666666666667,4,1,1,70,0,1
264036,-66.6666666666667,4,1,1,30,0,1
264179,-66.6666666666667,4,1,1,70,0,1
264893,-66.6666666666667,4,1,1,70,0,0
265036,-66.6666666666667,4,1,1,70,0,1
265179,-66.6666666666667,4,1,1,30,0,1
265322,-66.6666666666667,4,1,1,70,0,1
265465,-66.6666666666667,4,1,1,30,0,1
265608,-66.6666666666667,4,1,1,70,0,1
265751,-66.6666666666667,4,1,1,30,0,1
265893,-66.6666666666667,4,1,1,70,0,1
266036,-66.6666666666667,4,1,1,30,0,1
266179,-66.6666666666667,4,1,1,70,0,1
266322,-66.6666666666667,4,1,1,30,0,1
266465,-66.6666666666667,4,1,1,70,0,1
266608,-66.6666666666667,4,1,1,30,0,1
266751,-66.6666666666667,4,1,1,70,0,1
266893,-66.6666666666667,4,1,1,30,0,1
267036,-66.6666666666667,4,1,1,70,0,1
267179,-66.6666666666667,4,1,1,30,0,1
267322,-66.6666666666667,4,1,1,70,0,1
267465,-66.6666666666667,4,1,1,30,0,1
267608,-66.6666666666667,4,1,1,70,0,1
268036,-66.6666666666667,4,1,1,5,0,0
268465,-66.6666666666667,4,1,1,70,0,1
268608,-66.6666666666667,4,1,1,30,0,1
268751,-66.6666666666667,4,1,1,70,0,1
268893,-66.6666666666667,4,1,1,30,0,1
269036,-66.6666666666667,4,1,1,70,0,1
269179,-66.6666666666667,4,1,1,30,0,1
269322,-66.6666666666667,4,1,1,70,0,1
269465,-66.6666666666667,4,1,1,30,0,1
269608,-66.6666666666667,4,1,1,70,0,1
269751,-66.6666666666667,4,1,1,30,0,1
269893,-66.6666666666667,4,1,1,70,0,1
269965,-66.6666666666667,4,1,1,5,0,1
270179,-66.6666666666667,4,1,1,70,0,1
270322,-66.6666666666667,4,1,1,30,0,1
270465,-66.6666666666667,4,1,1,70,0,1
270608,-66.6666666666667,4,1,1,30,0,1
270751,-66.6666666666667,4,1,1,70,0,1
270893,-66.6666666666667,4,1,1,30,0,1
271036,-66.6666666666667,4,1,1,70,0,1
271179,-66.6666666666667,4,1,1,30,0,1
271322,-66.6666666666667,4,1,1,70,0,1
271465,-66.6666666666667,4,1,1,30,0,1
271608,-66.6666666666667,4,1,1,70,0,1
271751,-66.6666666666667,4,1,1,70,0,0
271893,-64.5161290322581,4,1,1,70,0,1
272036,-64.5161290322581,4,1,1,30,0,1
272179,-64.5161290322581,4,1,1,70,0,1
272322,-64.5161290322581,4,1,1,30,0,1
272465,-64.5161290322581,4,1,1,70,0,1
272608,-64.5161290322581,4,1,1,30,0,1
272751,-79.7448165869218,4,1,1,70,0,1
273465,-79.7448165869218,4,1,1,5,0,1
273608,-75.0187546886722,4,1,1,70,0,1
273893,-75.0187546886722,4,1,1,5,0,1
274036,-57.1428571428571,4,1,1,70,0,1
274322,-66.6666666666667,4,1,1,5,0,0
274465,-78.4313725490196,4,1,1,70,0,1
275036,-100,4,1,1,50,0,0
276893,-100,4,1,1,30,0,0
277036,-100,4,1,1,50,0,0
278179,-100,4,1,1,30,0,0
278322,-100,4,1,1,50,0,0
285608,-80,4,1,1,50,0,0
287322,-75.0187546886722,4,1,1,50,0,0
287465,-80,4,1,1,50,0,0
289036,-200,4,1,1,30,0,0
294465,-200,4,1,1,5,0,0
294608,-200,4,1,1,30,0,0
295036,-200,4,1,1,30,0,0
301322,-200,4,1,1,5,0,0
301465,-200,4,1,1,30,0,0
301893,-200,4,1,1,30,0,0
303465,-200,4,1,1,5,0,0
303608,-200,4,1,1,30,0,0
305179,-200,4,1,1,5,0,0
305322,-200,4,1,1,30,0,0
306893,-200,4,1,1,5,0,0
307036,-200,4,1,1,30,0,0
307751,-200,4,1,1,5,0,0
307893,-200,4,1,1,30,0,0
308179,-200,4,1,1,5,0,0
308322,-200,4,1,1,30,0,0
308751,-200,4,1,1,30,0,0
309036,-200,4,1,1,5,0,0
309179,-200,4,1,1,30,0,0
310751,-200,4,1,1,5,0,0
310893,-200,4,1,1,30,0,0
312465,-200,4,1,1,5,0,0
312608,-200,4,1,1,30,0,0
314179,-200,4,1,1,5,0,0
314322,-200,4,1,1,30,0,0
315608,-399.999999999997,4,1,1,20,0,0
316465,-399.999999999997,4,1,1,27,0,0
317322,-399.999999999997,4,1,1,23,0,0
318179,-399.999999999997,4,1,1,19,0,0
319036,-399.999999999997,4,1,1,14,0,0
319893,-399.999999999997,4,1,1,10,0,0
320751,-399.999999999997,4,1,1,7,0,0
321608,-399.999999999997,4,1,1,5,0,0
327608,-399.999999999997,4,1,1,5,0,0

[Colours]
Combo1 : 115,168,10
Combo2 : 10,158,158
Combo3 : 164,50,228
Combo4 : 160,168,12

[HitObjects]
312,191,27610,6,0,P|397:291|283:355,1,300,4|0,1:3|1:1,1:1:0:0:
209,293,28182,6,0,P|252:314|282:354,1,100,0|0,1:1|1:1,1:1:0:0:
240,103,28468,2,0,P|243:151|223:197,1,100,8|0,1:1|1:1,1:1:0:0:
42,263,28753,2,0,P|82:235|132:230,1,100,0|0,1:1|1:1,1:1:0:0:
297,259,29039,2,0,P|301:308|282:354,1,100,0|0,1:1|1:1,1:1:0:0:
42,263,29324,6,0,P|82:235|132:230,1,100,4|0,1:3|1:1,1:1:0:0:
282,354,29611,1,0,1:1:0:0:
223,197,29754,2,0,P|297:259|283:354,1,201.999995993042,4|0,1:3|1:1,1:1:0:0:
479,195,30182,6,0,P|439:221|389:226,1,100,8|0,1:1|1:1,1:1:0:0:
332,70,30468,2,0,P|335:117|315:162,1,100,0|0,1:1|1:1,1:1:0:0:
207,293,30754,1,0,1:1:0:0:
200,268,30825,1,0,1:1:0:0:
202,242,30897,2,0,P|210:219|223:198,1,50,0|0,1:1|1:1,1:1:0:0:
388,226,31039,6,0,P|347:253|297:259,1,100,4|0,1:3|1:1,1:1:0:0:
309,158,31325,1,0,1:1:0:0:
315,164,31468,1,0,1:1:0:0:
315,164,31753,5,0,1:1:0:0:
282,354,31896,2,0,P|278:306|297:260,1,100,8|0,1:1|1:1,1:1:0:0:
479,192,32182,2,0,P|438:219|389:226,1,100,0|0,1:1|1:1,1:1:0:0:
241,102,32468,2,0,P|285:124|315:163,1,100,0|0,1:1|1:1,1:1:0:0:
282,354,32754,6,0,P|209:289|206:217,1,150,4|0,1:3|1:1,1:1:0:0:
315,164,33039,2,0,L|306:219,1,50,0|0,1:1|1:1,1:1:0:0:
254,287,33182,6,0,P|261:215|319:162,1,150,4|0,1:3|1:1,1:1:0:0:
452,116,33467,2,0,L|399:135,1,50,0|0,1:1|1:1,1:1:0:0:
421,37,33611,6,0,P|423:85|406:131,1,100,8|0,1:1|1:1,1:1:0:0:
219,146,33897,2,0,P|269:146|315:163,1,100,4|0,1:3|1:1,1:1:0:0:
283,355,34182,1,0,1:1:0:0:
405,133,34325,1,8,1:1:0:0:
297,258,34468,6,0,P|337:232|388:225,1,100,4|0,1:3|1:1,1:1:0:0:
373,321,34754,2,0,P|332:348|283:355,1,100,0|0,1:1|1:1,1:1:0:0:
117,326,35039,2,0,P|158:296|207:291,1,100,0|0,1:1|1:1,1:1:0:0:
242,103,35324,6,0,P|245:149|223:196,1,100,8|0,1:1|1:1,1:1:0:0:
60,168,35611,2,0,P|100:140|150:135,1,100,0|0,1:1|1:1,1:1:0:0:
316,164,35896,2,0,P|315:219|294:262,1,100,0|0,1:1|1:1,1:1:0:0:
60,168,36182,6,0,P|99:141|149:135,1,100,4|0,1:3|1:1,1:1:0:0:
296,259,36468,1,0,1:1:0:0:
206,292,36611,1,4,1:3:0:0:
242,103,36754,2,0,P|286:124|316:164,1,100,0|0,1:1|1:1,1:1:0:0:
495,98,37039,6,0,P|456:128|405:132,1,100,8|0,1:1|1:1,1:1:0:0:
261,9,37325,2,0,P|304:25|333:71,1,100,0|0,1:1|1:1,1:1:0:0:
296,259,37611,1,0,1:1:0:0:
292,235,37682,1,0,1:1:0:0:
294,208,37754,2,0,P|301:185|317:163,1,50,0|0,1:1|1:1,1:1:0:0:
479,194,37896,6,0,P|437:220|388:227,1,100,4|0,1:3|1:1,1:1:0:0:
403,136,38182,1,0,1:1:0:0:
409,130,38325,1,0,1:1:0:0:
371,321,38467,2,0,P|327:297|296:258,1,100,0|0,1:1|1:1,1:1:0:0:
131,230,38754,6,0,B|150:208|187:193|221:196|221:196|254:205|284:230|296:258|296:258|280:280|234:298|204:291,1,300.000011444092,10|0,1:1|1:1,1:1:0:0:
331,69,39182,2,0,B|336:103|333:143|324:163|324:163|305:147|280:133|264:129,1,150.000005722046,2|0,1:1|1:1,1:1:0:0:
252,7,39468,1,2,1:1:0:0:
421,37,39610,1,10,1:1:0:0:
421,37,39896,6,0,P|423:77|409:112,1,50
278,134,40039,2,0,P|232:69|265:-4,1,150.000005722046,10|4,1:1|1:3,1:1:0:0:
407,132,40324,1,2,1:1:0:0:
157,93,40467,2,0,P|183:25|253:7,1,150.000005722046,10|4,1:1|1:3,1:1:0:0:
240,240,40753,1,4,1:3:0:0:
45,112,40896,1,10,1:1:0:0:
252,7,41039,1,2,1:1:0:0:
127,259,41182,1,10,1:1:0:0:
157,93,41324,6,0,P|290:124|237:241,1,300,4|0,1:3|1:1,1:1:0:0:
127,259,41896,6,0,P|180:228|240:240,1,125,0|0,1:1|1:1,1:1:0:0:
318,27,42182,2,0,P|319:88|279:134,1,125,8|0,1:1|1:1,1:1:0:0:
92,67,42468,2,0,P|145:36|205:48,1,125,0|0,1:1|1:1,1:1:0:0:
240,240,42754,5,4,1:3:0:0:
165,154,42896,1,4,1:3:0:0:
392,114,43039,2,0,P|392:173|349:224,1,125,4|0,1:3|1:1,1:1:0:0:
165,154,43325,1,0,1:1:0:0:
279,134,43467,1,4,1:3:0:0:
200,348,43611,6,0,P|147:318|127:259,1,125,0|0,1:1|1:1,1:1:0:0:
205,48,43897,2,0,P|260:77|279:135,1,125,8|0,1:1|1:1,1:1:0:0:
55,174,44182,1,4,1:3:0:0:
52,113,44253,1,4,1:3:0:0:
92,67,44324,1,4,1:3:0:0:
279,134,44467,1,4,1:3:0:0:
165,154,44611,1,4,1:3:0:0:
320,26,44753,6,0,P|320:84|277:135,1,125,4|0,1:3|1:1,1:1:0:0:
202,45,45039,1,0,1:1:0:0:
208,51,45182,1,0,1:1:0:0:
208,51,45467,5,0,0:0:0:0:
396,130,45610,2,0,B|362:160|309:158|279:134|279:134|265:90|284:46|318:25|318:25|337:32|347:36|361:50,1,300.000011444092,10|0,1:1|1:1,1:1:0:0:
493,123,46039,2,0,P|439:195|370:228,1,150.000005722046,2|0,1:1|1:1,1:1:0:0:
171,328,46468,6,0,P|100:268|92:161,1,187.5,4|0,1:3|1:1,1:1:0:0:
168,94,46754,2,0,L|182:165,1,62.5,0|0,1:1|1:1,1:1:0:0:
139,263,46896,6,0,P|121:173|182:84,1,187.5,4|0,1:3|1:1,1:1:0:0:
323,130,47182,2,0,L|262:140,1,62.5,0|0,1:1|1:1,1:1:0:0:
93,47,47324,6,0,P|233:19|323:130,1,300.000011444092,10|4,1:1|0:3,0:0:0:0:
240,252,47753,1,2,0:0:0:0:
180,155,47896,1,0,1:1:0:0:
217,364,48039,1,8,1:1:0:0:
240,252,48182,6,0,P|297:270|325:325,1,125,4|0,1:3|1:1,1:1:0:0:
217,364,48468,2,0,P|160:342|131:288,1,125,0|0,1:1|1:1,1:1:0:0:
261,140,48754,2,0,P|272:200|240:252,1,125,0|0,1:1|1:1,1:1:0:0:
434,290,49039,6,0,P|387:328|326:326,1,125,8|0,1:1|1:1,1:1:0:0:
261,140,49325,1,0,1:1:0:0:
347,216,49467,1,4,1:3:0:0:
131,288,49611,1,4,1:3:0:0:
153,176,49753,1,4,1:3:0:0:
347,216,49896,6,0,P|300:256|237:251,1,125,4|0,1:3|1:1,1:1:0:0:
175,64,50182,1,0,1:1:0:0:
261,140,50324,1,4,1:3:0:0:
45,215,50468,2,0,P|32:153|65:101,1,125,4|0,1:3|1:1,1:1:0:0:
240,252,50754,6,0,P|182:229|153:175,1,125,8|0,1:1|1:1,1:1:0:0:
284,27,51040,1,4,1:3:0:0:
341,49,51111,1,4,1:3:0:0:
370,103,51182,1,4,1:3:0:0:
153,176,51325,1,4,1:3:0:0:
175,64,51467,1,4,1:3:0:0:
349,214,51610,6,0,P|300:253|237:250,1,125,4|0,1:3|1:1,1:1:0:0:
254,137,51897,1,0,1:1:0:0:
260,143,52039,2,0,P|201:237|119:264,1,187.5,0|4,1:1|1:3,1:1:0:0:
45,215,52324,2,0,P|23:193|7:166,1,62.5,4|4,1:3|1:3,1:1:0:0:
175,64,52467,6,0,B|193:100|190:152|154:175|154:175|102:193|51:113|55:47,1,300.000011444092,10|0,1:1|1:1,1:1:0:0:
260,143,52896,2,0,P|201:237|119:264,1,187.5,2|4,1:1|1:3,1:1:0:0:
45,215,53182,2,0,P|23:193|7:166,1,62.5,4|4,1:3|1:3,1:1:0:0:
175,64,53324,6,0,B|233:87|233:87|268:160,1,125,12|8,1:1|1:1,1:1:0:0:
133,263,53610,1,8,1:1:0:0:
55,55,53753,1,8,1:1:0:0:
260,143,53896,1,8,0:0:0:0:
45,215,54039,1,8,1:1:0:0:
175,64,54182,6,0,P|290:33|373:118,1,250,10|0,1:1|1:1,1:1:0:0:
300,354,54610,1,2,1:1:0:0:
247,218,54753,1,2,1:1:0:0:
373,118,54896,1,2,1:1:0:0:
300,354,55039,6,0,B|146:387|104:169|260:143|260:143|270:168|266:199|246:219,1,440,4|0,1:3|2:1,2:1:0:0:
83,322,56753,2,0,P|81:190|151:93,1,240,2|0,2:1|2:1,2:1:0:0:
138,103,57896,5,0,2:2:0:0:
240,68,58039,2,0,P|278:81|308:107,1,80,0|0,2:1|2:1,2:1:0:0:
230,261,58467,2,0,P|241:223|268:192,1,80,2|0,2:1|2:1,2:1:0:0:
373,183,58896,2,0,P|361:280|291:349,1,200,0|0,2:1|2:1,2:1:0:0:
230,261,59753,2,0,P|241:223|268:192,1,80,0|0,2:1|2:1,2:1:0:0:
451,268,60182,2,0,P|372:183|476:41,1,320,2|0,2:1|2:1,2:1:0:0:
463,152,61467,2,0,P|430:175|392:185,1,80,0|0,2:1|2:1,2:1:0:0:
315,43,61896,6,0,B|360:94|354:192|246:239|154:174|161:94|161:94|191:76|237:78|255:107,1,440,2|0,2:1|2:1,1:1:0:0:
133,232,63610,2,0,P|74:135|103:9,1,240,2|0,2:1|2:1,1:1:0:0:
211,33,64896,6,0,P|237:63|250:100,1,80,0|0,2:1|2:1,2:1:0:0:
133,232,65324,2,0,P|161:204|200:191,1,80,2|0,2:1|2:1,2:1:0:0:
296,236,65753,2,0,P|199:191|157:110,1,200,0|0,2:1|2:1,1:1:0:0:
211,33,66610,6,0,P|237:63|250:100,1,80,0|0,2:1|2:1,2:1:0:0:
133,232,67039,2,0,P|161:204|200:191,1,80,2|0,2:1|2:1,2:1:0:0:
296,236,67467,2,0,P|237:314|141:338,1,200,0|0,2:1|2:1,1:1:0:0:
133,232,68324,2,0,P|161:204|200:191,1,80,0|0,2:1|2:1,2:1:0:0:
401,250,68753,6,0,B|381:350|276:375|197:335|166:245|199:191|199:191|226:190|255:196|274:215,1,440,2|0,1:1|1:1,1:1:0:0:
105,277,70467,1,2,1:1:0:0:
116,159,70896,1,0,1:1:0:0:
199,77,71324,1,0,1:1:0:0:
367,195,71753,6,0,P|337:221|300:234,1,80,0|0,1:1|1:1,1:1:0:0:
199,77,72182,2,0,P|227:105|240:144,1,80,2|0,1:1|1:1,1:1:0:0:
204,211,72610,2,0,P|214:172|241:141,1,80,0|0,1:1|1:1,1:1:0:0:
317,139,73039,1,0,1:1:0:0:
340,300,73467,6,0,P|312:272|299:234,1,80,0|0,1:1|1:1,1:1:0:0:
354,71,73896,2,0,P|344:108|317:139,1,80,2|0,1:1|1:1,1:1:0:0:
204,211,74324,2,0,P|214:172|241:141,1,80,0|0,1:1|1:1,1:1:0:0:
317,139,74753,1,0,1:1:0:0:
317,139,75039,5,0,0:0:0:0:
340,300,75182,2,0,P|312:272|299:234,1,80,0|0,1:1|1:1,1:1:0:0:
455,185,75610,6,0,P|460:234|441:280,1,100,10|0,1:1|1:1,1:1:0:0:
299,234,76039,2,0,P|321:225|355:221,2,50,0|0|0,1:1|1:1|1:1,1:1:0:0:
268,52,76467,2,0,P|313:72|343:111,1,100,8|0,1:1|1:1,1:1:0:0:
202,200,76896,2,0,P|212:177|227:157,2,50,0|0|0,1:1|1:1|1:1,1:1:0:0:
17,154,77324,6,0,P|57:124|106:118,1,100,10|0,1:1|1:1,1:1:0:0:
143,260,77753,2,0,P|122:244|106:223,1,50,0|0,1:1|1:1,1:1:0:0:
197,131,78039,5,0,1:1:0:0:
211,143,78110,1,0,1:1:0:0:
227,157,78182,2,0,B|262:192|262:192|238:296,2,133.320001875626,8|8|8,1:1|1:1|1:1,1:1:0:0:
390,314,79039,6,0,P|372:296|356:268,1,50,10|0,1:1|1:1,1:1:0:0:
340,184,79324,1,0,1:1:0:0:
478,207,79467,2,0,P|453:213|421:212,1,50,8|0,1:1|1:1,1:1:0:0:
340,184,79752,1,0,1:1:0:0:
427,75,79896,6,0,P|444:92|460:120,1,50,8|0,1:1|1:1,1:1:0:0:
478,207,80181,1,0,1:1:0:0:
340,184,80324,2,0,P|346:159|363:132,1,50,8|0,1:1|1:1,1:1:0:0:
427,75,80610,1,0,1:1:0:0:
354,269,80753,6,0,B|411:262|411:262|430:215,1,107.250001472855,10|0,1:1|1:1,1:1:0:0:
268,232,81039,6,0,B|303:276|303:276|354:269,1,107.250001472855,8|0,1:1|1:1,1:1:0:0:
256,139,81324,6,0,B|236:191|236:191|268:231,1,107.250001472855,8|0,1:1|1:1,1:1:0:0:
288,74,81610,6,0,P|320:50|361:43,2,80,8|0|0,1:1|1:1|1:1,1:1:0:0:
427,75,82039,2,0,P|466:167|392:237,1,200,8|0,1:1|1:1,1:1:0:0:
285,301,82467,6,0,P|305:268|337:251,1,75.000002861023,4|0,1:3|1:1,1:1:0:0:
356,322,82753,1,0,0:0:0:0:
208,359,82896,6,0,L|179:239,1,112.500004291535,2|0,1:3|1:1,1:1:0:0:
156,230,83217,6,0,L|180:341,1,112.500004291535,2|0,1:1|1:1,1:1:0:0:
155,320,83539,6,0,L|142:266,1,56.2500021457673,2|0,1:1|1:1,1:1:0:0:
124,192,83753,5,4,0:3:0:0:
249,161,83896,2,0,P|230:191|178:215,1,78.0000026184083,2|0,0:1|0:0,0:0:0:0:
106,119,84182,6,0,P|124:88|177:64,1,78.0000026184083,4|0,0:3|0:0,0:0:0:0:
178,139,84467,1,0,0:0:0:0:
53,172,84610,2,0,P|35:140|40:83,1,78.0000026184083,4|0,0:3|0:0,0:0:0:0:
88,49,84896,1,0,0:0:0:0:
178,139,85039,2,0,P|159:170|107:194,2,78.0000026184083,4|0|0,0:3|0:0|0:0,0:0:0:0:
229,246,85467,2,0,B|215:244|206:213|193:212,2,50,4|0|0,0:3|0:0|0:0,0:0:0:0:
124,349,85896,5,4,0:3:0:0:
112,333,85967,1,0,0:0:0:0:
105,315,86038,1,0,0:0:0:0:
102,295,86110,1,0,0:0:0:0:
106,276,86181,1,0,0:0:0:0:
194,212,86324,6,0,L|288:303,1,117.000003927612,6|0,0:3|0:0,0:0:0:0:
208,366,86646,6,0,L|236:252,1,117.000003927612,2|0,0:3|0:0,0:0:0:0:
335,277,86967,6,0,L|278:293,1,58.5000019638062,2|0,0:3|0:0,0:0:0:0:
286,197,87182,5,4,0:3:0:0:
292,203,87324,1,0,0:0:0:0:
298,209,87467,1,0,0:0:0:0:
408,298,87610,6,0,P|373:297|325:264,1,78.0000026184083,4|0,0:3|0:0,0:0:0:0:
388,224,87896,1,0,0:0:0:0:
354,350,88039,2,0,P|337:319|341:261,1,78.0000026184083,4|0,0:3|0:0,0:0:0:0:
388,224,88324,1,0,0:0:0:0:
480,318,88467,2,0,P|441:317|407:298,2,78.0000026184083,4|0|0,0:3|0:0|0:0,0:0:0:0:
283,328,88896,1,6,1:3:0:0:
388,224,89039,1,2,1:3:0:0:
426,367,89182,1,2,1:3:0:0:
335,277,89324,6,0,P|318:246|322:188,1,78.0000026184083,4|0,0:3|0:0,0:0:0:0:
388,224,89609,1,0,0:0:0:0:
236,252,89753,6,0,L|250:136,1,112.500004291535,6|0,1:3|1:1,1:1:0:0:
317,204,90074,6,0,L|300:332,1,112.500004291535,2|0,1:1|1:1,1:1:0:0:
381,279,90396,6,0,L|388:223,1,56.2500021457673,2|0,1:1|1:1,1:1:0:0:
488,162,90610,6,0,P|401:210|352:122,1,220.000006713867,6|0,1:3|1:1,1:1:0:0:
469,92,91039,6,0,P|437:72|400:72,2,75.000002861023,4|0|0,1:3|1:1|1:1,1:1:0:0:
370,191,91467,2,0,P|351:160|352:122,1,75.000002861023,4|0,1:3|1:1,1:1:0:0:
401,72,91753,1,0,1:1:0:0:
440,210,91896,2,0,P|423:240|391:260,2,75.000002861023,4|0|0,1:3|1:1|1:1,1:1:0:0:
318,323,92324,6,0,B|326:295|348:263|388:260|388:260|420:284|420:323|413:350,1,200,6|0,1:3|1:1,1:1:0:0:
257,361,92753,5,4,1:3:0:0:
248,343,92824,1,0,1:1:0:0:
245,324,92895,1,0,1:1:0:0:
247,306,92967,1,0,1:1:0:0:
255,289,93038,1,0,1:1:0:0:
347,215,93182,6,0,L|318:324,1,112.500004291535,6|0,1:3|1:1,1:1:0:0:
413,350,93503,6,0,L|333:271,1,112.500004291535,2|0,1:1|1:1,1:1:0:0:
482,281,93824,6,0,L|394:304,1,56.2500021457673,2|0,1:1|1:1,1:1:0:0:
347,215,94039,6,0,P|346:166|377:129,2,100,6|2|2,1:3|1:1|1:1,1:1:0:0:
460,85,94467,6,0,P|446:186|348:215,1,216.999993957138,6|0,1:3|1:1,1:1:0:0:
325,54,94896,2,0,P|372:93|378:131,1,100,6|0,1:3|1:1,1:1:0:0:
378,129,95324,2,0,P|276:137|226:57,1,200,6|0,1:3|1:1,1:1:0:0:
384,135,95753,2,0,B|331:141|308:190|308:190|282:237|229:247,1,200,6|0,1:3|1:1,1:1:0:0:
86,139,96182,6,0,P|140:141|182:165,1,100,4|0,1:3|1:1,1:1:0:0:
229,247,96467,1,0,1:1:0:0:
68,288,96610,6,0,L|86:139,1,150,10|0,1:1|1:1,1:1:0:0:
77,65,96932,6,0,L|95:213,1,150,2|0,1:1|1:1,1:1:0:0:
155,257,97253,6,0,L|229:247,1,75,2|0,1:1|1:1,1:1:0:0:
377,229,97467,5,8,1:1:0:0:
276,308,97610,1,2,1:1:0:0:
230,247,97753,1,0,1:1:0:0:
351,299,97896,6,0,P|313:373|242:375,1,150,4|0,1:3|1:1,1:1:0:0:
204,289,98182,2,0,P|213:266|230:248,1,50,0|0,1:1|1:1,1:1:0:0:
377,229,98324,2,0,P|414:261|424:320,1,100,8|0,1:1|1:1,1:1:0:0:
276,308,98610,1,0,1:1:0:0:
330,172,98753,2,0,P|376:155|431:177,1,100,4|0,1:3|1:1,1:1:0:0:
351,299,99039,1,0,1:1:0:0:
374,90,99182,2,0,P|411:122|422:180,2,100,8|0|0,1:1|1:1|1:1,1:1:0:0:
398,242,99610,5,4,1:3:0:0:
376,230,99681,1,0,1:1:0:0:
359,212,99752,1,0,1:1:0:0:
352,188,99824,1,0,1:1:0:0:
349,164,99895,1,0,1:1:0:0:
404,22,100039,6,0,L|423:170,1,150,10|0,1:1|1:1,1:1:0:0:
398,242,100360,6,0,L|465:53,1,150,2|0,1:1|1:1,1:1:0:0:
349,164,100682,6,0,L|255:152,1,75,2|0,1:1|1:1,1:1:0:0:
199,148,100896,5,8,1:1:0:0:
242,85,101039,1,0,1:1:0:0:
315,92,101182,1,0,1:1:0:0:
148,205,101324,6,0,P|124:137|167:79,1,150,4|0,1:3|1:1,1:1:0:0:
275,154,101610,2,0,P|278:175|273:203,1,50,0|0,1:1|1:1,1:1:0:0:
185,282,101753,2,0,P|134:288|95:259,1,100,8|0,1:1|1:1,1:1:0:0:
199,148,102039,1,0,1:1:0:0:
123,348,102182,2,0,P|92:306|97:258,2,100,4|0|0,1:3|1:1|1:1,1:1:0:0:
275,154,102610,1,10,1:1:0:0:
212,369,102753,1,2,1:1:0:0:
57,197,102896,1,2,1:1:0:0:
254,224,103039,6,0,P|231:267|184:281,1,100,4|0,1:3|1:1,1:1:0:0:
96,260,103324,1,0,1:1:0:0:
199,148,103467,6,0,L|49:199,1,150,10|0,1:1|1:1,1:1:0:0:
17,133,103789,6,0,L|96:260,1,150,2|0,1:1|1:1,1:1:0:0:
149,204,104110,6,0,L|199:148,1,75,2|0,1:1|1:1,1:1:0:0:
376,171,104324,6,0,P|324:273|231:217,1,250,10|0,1:1|1:1,1:1:0:0:
332,110,104753,6,0,P|406:102|451:176,1,150,4|0,1:3|1:1,1:1:0:0:
447,254,105039,2,0,P|433:284|413:307,1,50,0|0,1:1|1:1,1:1:0:0:
306,199,105182,2,0,P|303:150|332:110,1,100,8|0,1:1|1:1,1:1:0:0:
449,156,105467,1,0,1:1:0:0:
304,276,105610,2,0,P|258:259|231:217,1,100,4|0,1:3|1:1,1:1:0:0:
376,171,105895,1,0,1:1:0:0:
369,375,106039,6,0,B|336:353|301:315|304:275|304:275|342:256|390:276|423:297,1,250,10|0,1:1|1:1,1:1:0:0:
217,311,106467,5,4,1:3:0:0:
208,287,106538,1,0,1:1:0:0:
208,262,106609,1,0,1:1:0:0:
216,238,106681,1,0,1:1:0:0:
231,218,106752,1,0,1:1:0:0:
355,57,106896,6,0,L|304:207,1,150,10|0,1:1|1:1,1:1:0:0:
376,171,107218,6,0,L|276:52,1,150,2|0,1:1|1:1,1:1:0:0:
250,136,107539,6,0,L|176:149,1,75,2|0,1:1|1:1,1:1:0:0:
37,252,107753,6,0,P|42:203|75:167,2,100,10|2|2,1:1|1:1|1:1,1:1:0:0:
222,238,108182,2,0,P|131:238|75:166,1,187.5,6|0,1:3|1:1,1:1:0:0:
147,94,108467,2,0,L|176:149,1,62.5,0|0,1:1|1:1,1:1:0:0:
151,332,108610,2,0,P|172:274|222:238,1,125,10|0,1:1|1:1,1:1:0:0:
229,244,109039,2,0,P|161:343|41:340,1,250,6|0,1:3|1:1,1:1:0:0:
75,167,109467,5,8,1:1:0:0:
291,309,109610,1,8,1:1:0:0:
38,252,109753,1,8,1:1:0:0:
229,244,109896,6,0,B|237:231|262:216|287:220|287:220|353:232,1,133.200003251953,4|0,1:3|1:1,1:1:0:0:
443,248,110324,2,0,P|434:279|410:302,1,66.6000016259766,0|0,1:1|1:1,1:1:0:0:
353,232,110610,1,0,1:1:0:0:
338,60,110753,2,0,B|353:61|379:75|388:98|388:98|411:162,1,133.200003251953,0|0,1:1|1:1,1:1:0:0:
443,248,111182,1,0,1:1:0:0:
443,248,111467,5,0,1:1:0:0:
291,309,111610,2,0,P|259:315|227:305,1,66.6000016259766,4|0,1:3|1:1,1:1:0:0:
227,305,112039,6,0,P|237:275|347:279,1,133.200003251953,0|0,1:1|1:1,1:1:0:0:
320,365,112467,2,0,B|276:383|227:354|227:301|227:301|232:234|232:234|237:186|293:158|332:186,1,333.000008129883,0|0,1:1|1:1,2:1:0:0:
414,231,113324,2,0,P|394:261|354:283,1,66.6000016259766,4|0,1:3|1:1,1:1:0:0:
369,278,113753,6,0,P|333:285|239:197,1,166.500004064941,0|0,1:1|1:1,1:1:0:0:
331,184,114182,2,0,P|343:148|375:116,1,66.6000016259766,0|0,1:1|1:1,1:1:0:0:
448,140,114467,1,0,1:1:0:0:
472,225,114610,2,0,P|459:261|427:293,1,66.6000016259766,0|0,1:1|1:1,1:1:0:0:
357,325,114896,1,0,1:1:0:0:
180,274,115039,1,4,1:3:0:0:
180,274,115324,5,0,1:1:0:0:
192,191,115467,2,0,P|212:171|248:155,1,66.6000016259766,0|0,1:1|1:1,1:1:0:0:
331,185,115753,1,0,1:1:0:0:
241,330,115896,2,0,P|188:197|330:183,1,333.000008129883,0|0,1:1|1:1,2:1:0:0:
382,279,116753,6,0,B|369:288|340:291|319:278|319:278|263:241,1,133.200003251953,4|0,1:3|1:1,1:1:0:0:
192,191,117182,2,0,P|212:171|248:155,1,66.6000016259766,0|0,1:1|1:1,1:1:0:0:
332,184,117467,1,0,1:1:0:0:
358,373,117610,2,0,B|342:378|315:377|293:364|293:364|237:328,1,133.200003251953,0|0,1:1|1:1,1:1:0:0:
161,279,118039,1,0,1:1:0:0:
161,279,118324,5,0,1:1:0:0:
119,111,118467,2,0,P|150:121|172:146,1,66.6000016259766,4|0,1:3|1:1,1:1:0:0:
173,146,118896,6,0,P|149:166|57:105,1,133.200003251953,0|0,1:1|1:1,1:1:0:0:
124,47,119324,2,0,B|171:53|198:103|171:149|171:149|132:203|132:203|102:242|41:237|22:193,1,333.000008129883,0|0,1:1|1:1,2:1:0:0:
72,86,120181,2,0,P|95:59|139:44,1,66.6000016259766,4|0,1:3|1:1,1:1:0:0:
123,46,120610,6,0,P|159:48|221:159,1,166.500004064941,0|0,1:1|1:1,1:1:0:0:
153,198,121040,6,0,P|140:167|140:134,2,66.6000016259766,0|0|0,1:1|1:1|1:1,1:1:0:0:
63,202,121467,2,0,P|56:186|54:170,6,33.3000008129883,0|0|0|0|0|0|0,1:1|1:1|1:1|1:1|1:1|1:1|1:1,1:1:0:0:
193,41,123610,6,0,B|230:132|230:132|242:164|239:203|216:233,1,200,4|0,1:3|1:1,1:1:0:0:
126,267,124039,2,0,P|119:217|136:171,1,100,0|0,1:1|1:1,1:1:0:0:
228,128,124324,1,0,1:1:0:0:
369,112,124467,6,0,B|308:190|308:190|287:216|251:233|214:228,1,200,8|0,1:1|1:1,1:1:0:0:
136,171,124896,1,0,1:1:0:0:
136,171,125182,5,0,1:1:0:0:
238,32,125324,2,0,P|284:50|316:88,1,100,4|0,1:3|1:1,1:1:0:0:
315,88,125753,6,0,P|204:123|141:25,1,250,0|0,1:1|1:1,1:1:0:0:
238,32,126182,6,0,P|283:11|334:17,2,100,8|0|0,1:1|1:1|1:1,1:1:0:0:
473,13,126610,2,0,P|427:33|398:72,2,100,0|0|0,1:1|1:1|1:1,1:1:0:0:
440,161,127039,2,0,P|447:211|430:257,1,100,4|0,1:3|1:1,1:1:0:0:
430,256,127467,6,0,P|346:178|400:71,1,250,0|0,1:1|1:1,1:1:0:0:
440,161,127896,6,0,P|448:210|430:257,1,100,8|0,1:1|1:1,1:1:0:0:
344,295,128182,1,0,1:1:0:0:
275,148,128324,2,0,P|313:114|363:107,1,100,0|0,1:1|1:1,1:1:0:0:
440,161,128610,1,0,1:1:0:0:
422,352,128753,1,4,1:3:0:0:
422,352,129039,5,0,1:1:0:0:
344,295,129182,2,0,P|336:246|353:200,1,100,0|0,1:1|1:1,1:1:0:0:
440,160,129467,1,0,1:1:0:0:
422,352,129610,2,0,B|329:338|299:237|352:155|440:160|440:160|451:188|448:230|431:256|431:256|404:270|358:262|335:243,1,500,8|0,1:1|1:1,2:1:0:0:
172,229,130467,6,0,P|209:196|258:189,1,100,4|0,1:3|1:1,1:1:0:0:
337,244,130752,1,0,1:1:0:0:
242,379,130896,2,0,P|195:362|164:323,1,100,0|0,1:1|1:1,1:1:0:0:
172,229,131181,1,0,1:1:0:0:
305,57,131324,2,0,B|345:146|345:146|358:178|357:217|337:244,1,200,8|0,1:1|1:1,1:1:0:0:
258,189,131753,1,0,1:1:0:0:
258,189,132039,5,0,1:1:0:0:
433,109,132182,2,0,P|443:157|424:203,1,100,4|0,1:3|1:1,1:1:0:0:
337,244,132467,1,0,1:1:0:0:
258,189,132611,2,0,P|296:156|345:149,1,100,0|0,1:1|1:1,1:1:0:0:
424,203,132896,1,0,1:1:0:0:
329,338,133039,2,0,P|304:334|282:322,5,50,8|0|0|0|0|0,1:1|1:1|1:1|1:1|1:1|1:1,1:1:0:0:
218,360,133467,2,0,P|208:336|208:311,5,50,0|0|0|0|0|0,1:1|1:1|1:1|1:1|1:1|1:1,1:1:0:0:
133,346,133896,6,0,B|129:292|140:250|163:214|163:214|218:200,1,187.500007152558,4|0,1:3|1:1,1:1:0:0:
221,237,134324,2,0,B|167:226|130:205|101:173|101:173|87:119,1,187.500007152558,0|0,1:1|1:1,1:1:0:0:
83,88,134753,2,0,B|111:60|155:69,1,75.000002861023,2|0,1:1|1:1,1:1:0:0:
182,92,134967,6,0,B|221:237,2,150.000005722046,2|2|0,1:1|1:1|1:1,1:1:0:0:
197,58,135610,6,0,P|347:135|252:257,1,366.300008942871,6|0,1:3|1:1,2:1:0:0:
221,237,136467,2,0,P|237:179|346:133,1,187.500007152558,2|0,1:1|1:1,1:1:0:0:
380,148,136896,1,0,1:1:0:0:
422,208,137039,1,0,1:1:0:0:
405,281,137182,1,0,1:1:0:0:
306,359,137324,6,0,B|340:210,1,150.000005722046,6|0,1:3|1:1,1:1:0:0:
473,166,137753,2,0,L|422:208,2,66.6000016259766,4|0|0,1:3|1:1|1:1,1:1:0:0:
467,306,138182,2,0,L|394:312,2,66.6000016259766,4|0|0,1:3|1:1|1:1,1:1:0:0:
232,324,138610,2,0,B|261:193,1,112.500004291535,6|2,1:3|1:1,1:1:0:0:
265,177,138896,1,2,1:1:0:0:
373,67,139039,6,0,B|339:213,1,150.000005722046,6|0,1:3|1:1,1:1:0:0:
205,256,139467,2,0,L|256:214,2,66.6000016259766,4|0|0,1:3|1:1|1:1,1:1:0:0:
215,115,139896,2,0,L|280:104,1,66.6000016259766,4|0,1:3|1:1,1:1:0:0:
320,97,140110,1,0,1:1:0:0:
354,92,140181,1,0,1:1:0:0:
487,188,140324,2,0,L|340:213,1,150.000005722046,6|0,1:3|1:1,1:1:0:0:
132,129,140753,6,0,L|259:108,1,112.500004291535,6|0,1:3|1:1,1:1:0:0:
281,104,141039,1,2,1:1:0:0:
487,188,141182,2,0,L|340:213,1,150.000005722046,6|0,1:3|1:1,1:1:0:0:
243,110,141610,2,0,L|370:89,1,112.500004291535,6|2,1:3|1:1,1:1:0:0:
392,85,141896,1,2,1:1:0:0:
339,213,142039,2,0,L|192:238,1,150.000005722046,6|0,1:3|1:1,1:1:0:0:
89,174,142467,6,0,L|24:134,1,75.000002861023,6|0,1:3|1:1,1:1:0:0:
153,54,142753,2,0,L|189:120,1,75.000002861023,2|4,1:1|1:3,1:1:0:0:
320,97,143039,2,0,L|321:22,1,75.000002861023,2|0,1:1|1:1,1:1:0:0:
489,129,143324,2,0,L|449:193,1,75.000002861023,6|0,1:3|1:1,1:1:0:0:
216,348,143753,6,0,B|187:217,1,112.500004291535,6|2,1:3|1:1,1:1:0:0:
184,201,144039,1,2,1:1:0:0:
306,91,144182,6,0,B|271:248,1,150.000005722046,6|0,1:3|1:1,1:1:0:0:
110,239,144610,1,4,1:3:0:0:
77,92,145039,1,4,1:3:0:0:
225,91,145467,2,0,B|196:222,1,112.500004291535,6|2,1:3|1:1,1:1:0:0:
192,238,145753,1,2,1:1:0:0:
53,356,145896,6,0,B|18:199,1,150.000005722046,6|0,1:3|1:1,1:1:0:0:
142,106,146324,2,0,L|77:91,2,66.6000016259766,4|0|0,1:3|1:1|1:1,1:1:0:0:
192,238,146753,2,0,L|134:185,1,66.6000016259766,4|0,1:3|1:1,1:1:0:0:
173,322,147039,1,0,1:1:0:0:
21,209,147182,2,0,B|56:52,1,150.000005722046,6|0,1:3|1:1,1:1:0:0:
225,91,147610,5,6,1:3:0:0:
173,322,147896,5,2,1:1:0:0:
143,193,148039,1,2,1:3:0:0:
393,253,148467,5,6,1:3:0:0:
173,322,148753,5,2,1:1:0:0:
265,224,148896,1,2,1:3:0:0:
246,339,149324,6,0,L|169:321,1,75.000002861023,6|0,1:3|1:1,1:1:0:0:
210,172,149610,2,0,L|265:224,1,75.000002861023,2|4,1:1|1:3,1:1:0:0:
359,155,149896,2,0,L|335:80,1,75.000002861023,2|0,1:1|1:1,1:1:0:0:
464,202,150182,2,0,L|448:276,1,75.000002861023,6|0,1:3|1:1,1:1:0:0:
430,348,150467,1,0,1:1:0:0:
356,362,150610,1,4,1:3:0:0:
96,342,151039,6,0,L|67:252,1,75.000002861023,6|0,1:3|1:1,1:1:0:0:
50,199,151324,1,0,1:1:0:0:
174,159,151467,1,10,1:1:0:0:
123,215,151610,1,0,1:1:0:0:
100,143,151753,1,0,1:1:0:0:
224,104,151896,2,0,L|318:124,1,75.000002861023,6|0,1:3|1:1,1:1:0:0:
319,191,152182,1,0,1:1:0:0:
236,342,152324,2,0,B|215:282|215:282|265:239,1,125,10|0,1:1|1:1,1:1:0:0:
262,242,152753,6,0,B|214:283|214:283|141:284,1,125,6|0,1:3|1:1,1:1:0:0:
123,215,153039,1,0,1:1:0:0:
152,88,153182,1,10,1:1:0:0:
224,104,153324,1,0,1:1:0:0:
174,159,153467,1,0,1:1:0:0:
201,32,153610,2,0,L|292:2,1,75.000002861023,6|0,1:3|1:1,1:1:0:0:
246,175,153896,1,0,1:1:0:0:
100,143,154039,1,10,1:1:0:0:
367,252,154467,6,0,B|291:336|291:336|180:311,1,225.000008583069,6|8,1:3|1:1,1:1:0:0:
291,103,155182,6,0,L|274:100,2,16.6500004064942,2|0|0,1:1|1:1|1:1,1:1:0:0:
297,119,155324,2,0,B|246:175|246:175|171:158,1,150.000005722046,6|0,1:3|1:1,1:1:0:0:
202,33,155752,2,0,L|296:52,1,75.000002861023,10|0,1:1|1:1,1:1:0:0:
347,63,156038,1,0,1:1:0:0:
270,246,156181,6,0,L|239:155,1,75.000002861023,6|0,1:3|1:1,1:1:0:0:
202,33,156467,1,0,1:1:0:0:
371,135,156609,2,0,L|277:115,1,75.000002861023,10|0,1:1|1:1,1:1:0:0:
152,88,156895,1,0,1:1:0:0:
319,42,157038,6,0,L|322:24,12,12.5,6|0|0|0|0|2|0|0|0|0|2|0|0,1:3|1:1|1:1|1:1|1:1|1:1|1:1|1:1|1:1|1:1|1:1|1:1|1:1,1:1:0:0:
355,49,157395,1,2,1:1:0:0:
392,57,157466,1,8,1:1:0:0:
446,129,157608,2,0,L|432:202,1,75.000002861023,0|0,1:1|1:1,1:1:0:0:
270,246,157894,6,0,L|343:259,1,75.000002861023,6|0,1:3|1:1,1:1:0:0:
418,276,158180,1,0,1:1:0:0:
296,317,158322,1,10,1:1:0:0:
321,191,158466,1,0,1:1:0:0:
418,276,158608,1,0,1:1:0:0:
270,246,158751,1,6,1:3:0:0:
370,135,158894,1,0,1:1:0:0:
418,276,159037,1,0,1:1:0:0:
245,174,159179,2,0,L|230:127,1,50,10|0,1:1|1:1,1:1:0:0:
395,8,159608,6,0,L|420:79,1,75.000002861023,6|0,1:3|1:1,1:1:0:0:
370,135,159894,1,0,1:1:0:0:
284,84,160036,6,0,L|298:126,1,37.5000014305115,10|0,1:1|1:1,1:1:0:0:
172,159,160179,2,0,L|196:130,1,37.5000014305115,2|0,1:1|1:1,1:1:0:0:
258,209,160322,2,0,L|272:251,1,37.5000014305115,2|0,1:1|1:1,1:1:0:0:
170,354,160466,6,0,L|145:283,1,75.000002861023,6|0,1:3|1:1,1:1:0:0:
120,213,160751,1,0,1:1:0:0:
258,209,160894,1,8,1:1:0:0:
258,209,161322,5,4,1:3:0:0:
129,138,161465,5,0,1:1:0:0:
68,36,161608,1,0,1:1:0:0:
224,105,161751,1,10,1:1:0:0:
120,213,161894,1,0,1:1:0:0:
203,33,162037,2,0,L|229:121,1,75.000002861023,2|4,1:1|1:3,1:1:0:0:
129,138,162322,5,0,1:1:0:0:
68,36,162465,1,0,1:1:0:0:
224,105,162608,1,10,1:1:0:0:
120,213,162751,1,0,1:1:0:0:
137,65,162894,1,0,1:1:0:0:
319,193,163036,6,0,L|340:264,1,75.000002861023,6|0,1:3|1:1,1:1:0:0:
238,374,163322,1,0,1:1:0:0:
224,105,163465,2,0,L|296:121,1,75.000002861023,10|0,1:1|1:1,1:1:0:0:
341,265,163751,1,0,1:1:0:0:
222,248,163894,6,0,L|202:246,12,12.5,2|0|0|0|0|2|0|0|0|0|2|0|0,1:1|1:1|1:1|1:1|1:1|1:1|1:1|1:1|1:1|1:1|1:1|1:1|1:1,1:1:0:0:
231,216,164252,1,2,1:1:0:0:
240,184,164323,1,8,1:1:0:0:
282,43,164465,1,8,1:1:0:0:
341,265,164608,1,8,1:1:0:0:
224,105,164751,6,0,B|373:139,1,150.000005722046,6|0,1:3|1:1,1:1:0:0:
341,265,165180,2,0,L|360:328,2,66.6000016259766,4|0|0,1:3|1:1|1:1,1:1:0:0:
222,248,165608,2,0,L|240:184,2,66.6000016259766,4|0|0,1:3|1:1|1:1,1:1:0:0:
219,22,166037,2,0,B|350:51,1,112.500004291535,6|2,1:3|1:1,1:1:0:0:
366,55,166323,1,2,1:1:0:0:
474,166,166465,6,0,L|376:144,2,75.000002861023,6|0|0,1:3|1:1|1:1,1:1:0:0:
341,265,166893,2,0,L|325:329,2,66.6000016259766,4|0|0,1:3|1:1|1:1,1:1:0:0:
222,248,167322,2,0,L|207:183,2,66.6000016259766,4|0|0,1:3|1:1|1:1,1:1:0:0:
111,79,167751,2,0,B|260:113,1,150.000005722046,6|0,1:3|1:1,1:1:0:0:
240,330,168179,6,0,B|211:199,1,112.500004291535,6|2,1:3|1:1,1:1:0:0:
207,183,168466,1,2,1:1:0:0:
350,62,168609,2,0,B|315:219,1,150.000005722046,6|0,1:3|1:1,1:1:0:0:
216,220,169036,2,0,B|183:80,1,112.500004291535,6|2,1:3|1:1,1:1:0:0:
181,73,169322,1,2,1:1:0:0:
334,136,169465,2,0,B|298:294,1,150.000005722046,6|0,1:3|1:1,1:1:0:0:
174,315,169893,6,0,L|240:330,2,66.6000016259766,4|0|0,1:3|1:1|1:1,1:1:0:0:
216,220,170322,2,0,L|158:167,2,66.6000016259766,4|0|0,1:3|1:1|1:1,1:1:0:0:
230,49,170751,2,0,L|251:113,2,66.6000016259766,4|0|0,1:3|1:1|1:1,1:1:0:0:
427,80,171179,2,0,B|398:211,1,112.500004291535,6|2,1:3|1:1,1:1:0:0:
393,226,171465,1,2,1:1:0:0:
240,329,171608,6,0,B|207:182,1,150.000005722046,6|0,1:3|1:1,1:1:0:0:
316,127,172036,2,0,L|250:112,2,66.6000016259766,4|0|0,1:3|1:1|1:1,1:1:0:0:
330,247,172465,2,0,L|404:223,2,66.6000016259766,4|0|0,1:3|1:1|1:1,1:1:0:0:
173,329,172893,2,0,B|202:198,1,112.500004291535,6|2,1:3|1:1,1:1:0:0:
207,183,173179,1,2,1:1:0:0:
333,54,173322,6,0,L|311:152,2,75.000002861023,6|0|0,1:3|1:1|1:1,1:1:0:0:
393,226,173751,2,0,L|438:177,2,66.6000016259766,4|0|0,1:3|1:1|1:1,1:1:0:0:
284,273,174179,1,6,1:3:0:0:
317,127,174322,1,2,1:1:0:0:
317,127,174608,6,0,B|282:284,1,150.000005722046,6|0,1:3|1:1,1:1:0:0:
137,240,175036,5,6,1:3:0:0:
23,33,175322,5,2,1:1:0:0:
115,117,175465,1,2,1:1:0:0:
47,326,175893,5,6,1:3:0:0:
115,117,176179,5,2,1:1:0:0:
137,240,176322,1,2,1:1:0:0:
137,240,176751,6,0,P|173:240|206:254,1,75.000002861023,6|0,1:3|1:1,1:1:0:0:
117,358,177036,2,0,L|124:321,1,37.5000014305115,0|0,1:1|1:1,1:1:0:0:
225,184,177179,6,0,P|224:220|210:253,1,75.000002861023,4|0,1:3|1:1,1:1:0:0:
107,159,177464,2,0,L|143:166,1,37.5000014305115,0|0,1:1|1:1,1:1:0:0:
338,211,177608,6,0,P|364:278|326:340,1,150.000005722046,6|0,1:3|1:1,1:1:0:0:
285,273,178036,1,2,1:1:0:0:
393,149,178179,1,2,1:1:0:0:
482,287,178322,1,2,1:1:0:0:
326,340,178465,6,0,B|246:387|170:291|224:224|224:224|286:274,1,299.700007316895,4|0,1:3|1:1,1:1:0:0:
137,369,180179,2,0,P|178:133|317:84,2,399.60000975586,0|0|0,1:1|1:1|1:1,1:1:0:0:
212,304,184036,1,0,1:1:0:0:
245,214,184465,1,0,1:1:0:0:
290,288,184751,5,0,1:1:0:0:
212,304,184893,2,0,P|218:253|253:208,1,100,0|0,1:1|1:1,1:1:0:0:
331,355,185322,6,0,B|251:402|175:306|229:239|229:239|291:289,1,299.700007316895,4|0,1:3|1:1,1:1:0:0:
126,335,187036,2,0,P|205:136|381:102,2,399.60000975586,0|0|0,1:1|1:1|1:1,1:1:0:0:
239,311,190893,1,0,1:1:0:0:
279,224,191322,1,0,1:1:0:0:
336,303,191608,5,0,1:1:0:0:
239,311,191751,2,0,P|248:260|287:218,1,100,0|0,1:1|1:1,1:1:0:0:
496,274,192179,6,0,P|276:203|326:98,1,400,0|0,1:1|1:1,1:1:0:0:
382,217,193465,2,0,L|415:180,2,50,0|0|0,1:1|1:1|1:1,1:1:0:0:
319,291,193893,1,0,1:1:0:0:
228,323,194322,1,0,1:1:0:0:
134,306,194751,1,0,1:1:0:0:
196,234,195036,5,0,1:1:0:0:
228,323,195179,2,0,L|180:378,2,50,0|0|0,1:1|1:1|1:1,1:1:0:0:
134,306,195608,5,0,1:1:0:0:
102,216,196036,1,0,1:1:0:0:
196,234,196322,5,0,1:1:0:0:
134,306,196465,2,0,L|61:291,2,50,0|0|0,1:1|1:1|1:1,1:1:0:0:
102,216,196893,2,0,L|46:170,2,50,0|0|0,1:1|1:1|1:1,1:1:0:0:
164,143,197322,5,0,1:1:0:0:
253,110,197751,1,0,1:1:0:0:
347,126,198179,1,0,1:1:0:0:
285,200,198465,5,0,1:1:0:0:
253,110,198608,2,0,P|304:106|348:127,1,100,0|0,1:1|1:1,1:1:0:0:
317,290,199036,6,0,P|266:294|222:273,1,100,8|0,1:1|1:1,1:1:0:0:
141,191,199465,2,0,P|165:186|190:183,1,50,0|0,1:1|1:1,1:1:0:0:
285,200,199751,1,0,1:1:0:0:
317,290,199893,2,0,L|288:347,2,50,8|0|0,1:1|1:1|1:1,1:1:0:0:
223,274,200322,2,0,L|158:277,2,50,0|0|0,1:1|1:1|1:1,1:1:0:0:
191,183,200751,5,8,1:1:0:0:
219,19,201179,1,0,1:1:0:0:
347,126,201608,1,8,1:1:0:0:
285,200,201893,5,0,1:1:0:0:
253,110,202036,2,0,L|285:72,2,50,0|0|0,1:1|1:1|1:1,1:1:0:0:
381,243,202465,6,0,P|368:264|355:285,2,50,8|0|0,1:1|1:1|1:1,1:1:0:0:
285,200,202893,2,0,P|259:200|234:198,2,50,8|0|0,1:1|1:1|1:1,1:1:0:0:
448,154,203322,6,0,P|461:174|472:196,1,50,8|0,1:1|1:1,1:1:0:0:
285,200,203608,1,0,1:1:0:0:
381,29,203751,2,0,P|406:27|430:28,1,50,8|0,1:1|1:1,1:1:0:0:
473,197,204037,1,0,1:1:0:0:
355,285,204179,5,4,1:3:0:0:
192,94,204465,5,4,1:3:0:0:
123,335,204751,5,4,1:3:0:0:
172,166,205036,5,4,1:3:0:0:
192,94,205178,1,4,1:3:0:0:
214,23,205321,1,4,1:3:0:0:
381,29,205465,2,0,L|419:70,2,50,4|4|4,1:3|1:3|1:3,0:0:0:0:
355,285,205893,6,0,P|246:342|123:335,1,250,4|0,1:3|1:1,2:1:0:0:
93,58,206751,6,0,P|115:86|134:118,1,50,8|0,1:1|1:1,1:1:0:0:
150,167,207036,1,0,1:1:0:0:
154,241,207179,2,0,P|143:289|106:359,1,100,0|0,1:1|1:1,1:1:0:0:
68,250,207608,6,0,P|60:215|57:178,1,50,4|0,1:3|1:1,1:1:0:0:
64,127,207893,1,0,1:1:0:0:
93,58,208036,1,4,1:3:0:0:
93,58,208465,6,0,P|128:52|165:52,1,50,8|0,1:1|1:1,1:1:0:0:
215,63,208750,1,0,1:1:0:0:
280,95,208893,2,0,P|308:120|333:149,1,75,0|0,1:1|1:1,1:1:0:0:
288,221,209179,2,0,P|280:211|273:200,1,25,0|0,1:1|1:1,1:1:0:0:
408,63,209322,6,0,P|413:98|413:135,1,50,4|0,1:3|1:1,1:1:0:0:
403,185,209607,1,0,1:1:0:0:
205,160,209750,2,0,P|239:124|306:82,1,100,0|0,1:1|1:1,1:1:0:0:
306,352,210180,6,0,P|272:338|240:320,1,50,8|0,1:1|1:1,1:1:0:0:
202,284,210465,1,0,1:1:0:0:
162,220,210608,2,0,P|147:172|144:93,1,100,0|0,1:1|1:1,1:1:0:0:
331,40,211036,2,0,P|307:68|280:95,1,75,4|0,1:3|1:1,1:1:0:0:
195,64,211322,2,0,P|204:55|216:48,1,25,0|0,1:1|1:1,1:1:0:0:
346,142,211465,6,0,P|340:179|331:216,1,75,4|0,1:3|1:1,1:1:0:0:
241,186,211751,2,0,P|250:177|262:170,1,25,0|0,1:1|1:1,1:1:0:0:
463,198,211893,6,0,P|454:222|442:244,1,50,8|0,1:1|1:1,1:1:0:0:
393,302,212179,1,4,1:3:0:0:
328,341,212322,1,0,1:1:0:0:
463,198,212608,5,8,1:1:0:0:
328,341,212751,2,0,P|207:365|91:325,1,250,4|0,1:3|1:1,2:1:0:0:
140,51,213608,6,0,P|153:83|162:119,1,50,8|0,1:1|1:1,1:1:0:0:
164,171,213893,1,0,1:1:0:0:
148,243,214036,2,0,P|124:286|69:343,1,100,0|0,1:1|1:1,1:1:0:0:
49,132,214465,6,0,P|70:103|97:77,1,50,4|0,1:3|1:1,1:1:0:0:
140,51,214750,1,0,1:1:0:0:
211,29,214893,1,4,1:3:0:0:
211,29,215322,6,0,P|246:33|282:43,1,50,8|0,1:1|1:1,1:1:0:0:
328,68,215607,1,0,1:1:0:0:
381,118,215750,2,0,P|402:150|416:185,1,75,0|0,1:1|1:1,1:1:0:0:
353,243,216036,2,0,P|348:231|346:219,1,25,0|0,1:1|1:1,1:1:0:0:
466,75,216179,6,0,P|479:107|488:143,1,50,4|0,1:3|1:1,1:1:0:0:
491,198,216464,1,0,1:1:0:0:
292,161,216608,2,0,P|334:135|410:113,1,100,0|0,1:1|1:1,1:1:0:0:
280,369,217036,6,0,P|245:373|208:372,1,50,8|0,1:1|1:1,1:1:0:0:
157,361,217321,1,0,1:1:0:0:
91,324,217465,2,0,P|55:289|14:221,1,100,0|0,1:1|1:1,1:1:0:0:
292,161,217893,6,0,P|306:195|314:232,1,75,8|0,1:1|1:1,1:1:0:0:
220,279,218179,2,0,P|216:266|216:254,1,25,4|0,1:3|1:1,1:1:0:0:
389,145,218322,6,0,P|394:169|397:194,1,50,8|4,1:1|1:3,1:1:0:0:
318,257,218608,2,0,P|314:244|314:232,1,25,0|0,1:1|1:1,1:1:0:0:
358,26,218751,6,0,P|372:58|380:94,1,50,4|0,1:3|1:1,1:1:0:0:
397,194,219036,1,0,1:1:0:0:
220,279,219179,1,8,1:1:0:0:
358,26,219465,5,8,1:1:0:0:
318,257,219608,2,0,P|196:278|81:236,1,250,4|0,1:3|1:1,2:1:0:0:
219,16,220465,6,0,P|238:30|256:47,1,50,8|0,1:1|1:1,1:1:0:0:
298,111,220751,1,0,1:1:0:0:
319,182,220893,1,4,1:3:0:0:
318,257,221036,1,4,1:3:0:0:
294,329,221179,1,4,1:3:0:0:
148,267,221322,6,0,P|171:241|199:218,1,50,4|0,1:3|1:1,1:1:0:0:
246,195,221607,1,0,1:1:0:0:
319,182,221750,2,0,P|368:185|416:199,1,100,4|0,1:3|1:1,1:1:0:0:
148,267,222179,6,0,P|122:243|99:215,1,50,8|0,1:1|1:1,1:1:0:0:
76,169,222464,1,0,1:1:0:0:
194,80,222608,2,0,P|199:114|198:150,2,50,4|4|4,1:3|1:3|1:3,1:1:0:0:
393,133,223036,6,0,P|377:164|356:193,1,50,4|0,1:3|1:1,1:1:0:0:
315,229,223321,1,0,1:1:0:0:
312,58,223465,2,0,P|360:54|410:61,1,100,0|0,1:1|1:1,1:1:0:0:
391,324,223893,6,0,P|364:301|340:274,1,50,8|0,1:1|1:1,1:1:0:0:
315,229,224178,1,0,1:1:0:0:
298,156,224322,2,0,P|299:106|311:58,1,100,0|0,1:3|1:1,1:1:0:0:
482,188,224751,6,0,P|438:212|390:225,1,100,4|0,1:3|1:1,1:1:0:0:
204,172,225179,2,0,P|171:133|148:89,1,100,4|0,1:3|1:1,1:1:0:0:
482,188,225608,6,0,P|474:222|461:257,1,50,8|0,1:1|1:1,1:1:0:0:
431,301,225893,1,4,1:3:0:0:
374,351,226036,1,0,1:1:0:0:
482,188,226322,5,8,1:1:0:0:
374,351,226465,2,0,P|252:372|137:330,1,250,4|0,1:3|1:1,2:1:0:0:
297,124,227322,6,0,P|294:147|288:171,1,50,8|0,1:1|1:1,1:1:0:0:
254,239,227608,1,0,1:1:0:0:
203,293,227750,1,4,1:3:0:0:
136,330,227893,1,4,1:3:0:0:
63,345,228036,1,4,1:3:0:0:
71,175,228179,6,0,P|105:173|140:179,1,50,4|0,1:3|1:1,1:1:0:0:
193,195,228464,1,0,1:1:0:0:
254,239,228608,2,0,P|285:275|309:319,1,100,4|0,1:3|1:1,1:1:0:0:
71,175,229036,6,0,P|86:144|116:108,1,75,8|0,1:1|1:1,1:1:0:0:
207,86,229322,2,0,P|199:96|190:104,1,25,4|4,1:3|1:3,1:1:0:0:
16,68,229465,6,0,P|46:54|84:44,1,50,4|4,1:3|1:3,1:1:0:0:
141,40,229751,1,4,1:3:0:0:
199,207,229893,6,0,P|169:188|145:162,1,50,4|0,1:3|1:1,1:1:0:0:
111,112,230178,1,0,1:1:0:0:
305,97,230322,2,0,P|283:127|255:152,1,75,0|4,1:1|1:3,1:1:0:0:
159,178,230608,2,0,P|166:167|175:159,1,25,4|4,1:3|1:3,1:1:0:0:
369,153,230751,6,0,P|349:180|322:204,1,50,8|0,1:1|1:1,1:1:0:0:
273,239,231036,1,4,1:3:0:0:
250,47,231179,2,0,P|280:69|305:97,1,75,0|4,1:1|1:3,1:1:0:0:
338,191,231465,2,0,P|327:184|319:175,1,25,4|4,1:3|1:3,1:1:0:0:
410,23,231608,6,0,B|440:43|440:43|458:77,1,75.000002861023,12|8,1:1|1:1,1:1:0:0:
494,170,231893,1,8,1:1:0:0:
273,239,232036,1,8,1:1:0:0:
338,191,232179,1,8,1:1:0:0:
414,165,232322,1,8,1:1:0:0:
404,323,232465,2,0,B|371:342|371:342|335:345,1,75.000002861023,8|8,1:1|1:1,1:1:0:0:
227,308,232750,1,8,1:1:0:0:
76,255,232893,1,8,1:1:0:0:
15,334,233322,6,0,L|80:249,1,99.9000024389649,4|0,1:3|1:1,1:1:0:0:
147,267,234179,2,0,P|76:255|48:189,1,150,2|0,1:1|1:1,1:1:0:0:
131,34,235036,5,4,1:3:0:0:
169,126,235464,1,0,1:1:0:0:
123,194,235893,2,0,P|158:131|263:156,1,175.500000669479,2|0,1:1|1:1,1:1:0:0:
163,367,236751,6,0,L|227:282,1,99.9000024389649,4|0,1:3|1:1,1:1:0:0:
318,283,237608,2,0,P|247:299|203:186,1,207.000000315857,2|0,1:1|1:1,1:1:0:0:
271,33,238465,5,4,1:3:0:0:
309,125,238893,1,0,1:1:0:0:
268,226,239322,2,0,P|309:125|409:170,1,243.000005932617,2|0,1:1|1:1,1:1:0:0:
251,345,240179,6,0,L|144:331,1,99.9000024389649,4|0,1:3|1:1,1:1:0:0:
117,167,241036,2,0,P|243:208|251:343,1,284.999992389679,2|0,1:1|1:1,1:1:0:0:
9,180,241893,5,4,0:3:0:0:
69,102,242321,1,0,0:0:0:0:
229,160,242751,2,0,P|126:242|9:181,1,280.000003417969,2|0,1:1|1:1,1:1:0:0:
44,105,243179,2,0,L|69:102,2,25,0|0|0,1:1|1:1|1:1,1:1:0:0:
168,33,243608,6,0,L|135:29,2,33.3000008129883,4|0|0,1:3|1:1|1:1,1:1:0:0:
238,93,244036,2,0,L|290:86,2,50,0|0|0,1:1|1:1|1:1,1:1:0:0:
302,279,244465,2,0,P|166:222|237:93,1,333.250007271538,2|0,1:1|1:1,1:1:0:0:
361,77,244893,2,0,L|382:23,2,50,0|0|0,1:1|1:1|1:1,1:1:0:0:
487,160,245322,6,0,L|463:98,2,66.6000016259766,4|0|0,1:3|1:1|1:1,1:1:0:0:
358,231,245751,2,0,L|386:162,2,75.000002861023,0|0|0,1:1|1:1|1:1,1:1:0:0:
206,215,246179,6,0,B|262:218|262:218|290:150,5,115.000002193451,0|0|0|0|0|0,1:1|1:1|1:1|1:1|1:1|1:1,1:1:0:0:
449,327,247036,6,0,B|324:368|190:363|67:285|67:285|84:181|175:118|242:92,1,666.500014543076,6|0,1:3|1:1,1:1:0:0:
367,68,247893,2,0,B|319:201|185:301|67:285|67:285|84:181|175:118|240:93,1,666.500014543076,8|0,1:1|1:1,1:1:0:0:
440,190,248751,2,0,B|298:294|187:306|66:284|66:284|22:219|10:122|65:30,1,666.500014543076,6|0,1:3|1:1,1:1:0:0:
367,68,249608,2,0,B|319:201|187:301|66:284|66:284|22:220|10:123|65:30,1,666.500014543076,10|0,1:1|1:1,1:1:0:0:
450,328,250465,2,0,B|325:369|191:364|68:286|68:286|85:182|176:119|243:93,1,666.500014543076,6|0,1:3|1:1,1:1:0:0:
441,190,251322,5,10,1:1:0:0:
326,258,251465,1,2,1:1:0:0:
197,293,251608,1,2,1:1:0:0:
68,285,251751,1,2,1:1:0:0:
129,167,251894,1,2,1:1:0:0:
240,94,252036,1,2,1:1:0:0:
441,190,252179,6,0,B|300:294|189:306|68:286|68:286|73:250|95:200|132:165,1,533.200011634461,6|0,1:3|1:1,1:1:0:0:
240,94,252893,5,2,1:1:0:0:
302,181,253036,1,10,1:1:0:0:
306,254,253179,1,2,1:1:0:0:
257,282,253322,1,2,1:1:0:0:
211,261,253465,1,0,1:1:0:0:
200,220,253608,1,0,1:1:0:0:
220,190,253751,1,0,1:1:0:0:
130,168,253893,6,0,P|240:94|392:67,1,266.60000581723,4|0,1:3|1:1,1:1:0:0:
450,328,254322,6,0,P|422:293|377:204,2,133.300002908615,2|2|2,0:0|0:0|0:0,0:0:0:0:
197,293,254751,2,0,P|213:252|268:168,1,133.300002908615,2|2,0:0|0:0,0:0:0:0:
370,67,255036,1,2,0:0:0:0:
450,328,255179,2,0,P|406:334|320:327,1,119.999996337891,2|0,0:0|0:0,0:0:0:0:
197,293,255464,1,0,0:0:0:0:
370,67,255608,5,6,1:3:0:0:
381,215,255751,1,0,0:0:0:0:
261,177,255893,1,0,0:0:0:0:
409,139,256036,1,2,1:3:0:0:
425,287,256179,1,0,0:0:0:0:
305,249,256321,1,0,0:0:0:0:
370,67,256465,6,0,B|322:200|191:304|68:284|68:284|64:236|78:183|115:145|115:145|152:132|192:133|228:159,1,666.500014543076,10|0,1:1|1:1,1:1:0:0:
485,316,257322,6,0,P|343:351|249:351,1,199.950004362923,6|2,1:3|1:1,1:1:0:0:
212,345,257608,1,2,1:1:0:0:
303,181,257751,2,0,B|244:250|156:299|63:283,1,266.60000581723,0|0,1:1|1:1,1:1:0:0:
158,44,258179,2,0,B|267:-19|496:57|453:185|453:185|421:269|315:246|303:181,1,599.850013088768,10|0,1:1|1:1,1:1:0:0:
377,160,258893,1,2,1:1:0:0:
422,337,259036,6,0,P|356:349|290:353,1,133.300002908615,6|0,1:3|1:1,1:1:0:0:
68,284,259322,2,0,B|52:204|91:92|158:44|158:44|203:69|231:117|227:168,1,414.000000631714,2|0,1:1|1:1,1:1:0:0:
465,149,259893,6,0,P|444:263|375:351,1,225.000008583069,10|0,1:1|1:1,1:1:0:0:
296,358,260179,6,0,P|409:264|428:125,1,247.500002360344,2|0,1:1|1:1,1:1:0:0:
386,93,260465,6,0,P|401:161|297:323,1,272.24999231472,2|0,1:1|1:1,1:1:0:0:
169,256,260751,6,0,P|331:199|125:201,1,612.500005841255,6|0,0:0|0:0,0:0:0:0:
22,244,261322,2,0,P|52:313|113:355,1,150.000005722046,2|0,1:1|1:1,1:1:0:0:
227,164,261608,6,0,P|153:155|86:187,1,150.000005722046,10|0,1:1|1:1,1:1:0:0:
196,381,261893,2,0,P|240:321|246:247,1,150.000005722046,2|0,1:1|1:1,1:1:0:0:
64,46,262179,2,0,P|55:119|86:186,1,150.000005722046,2|0,1:1|1:1,1:1:0:0:
303,56,262465,6,0,P|243:11|169:5,1,150.000005722046,2|0,1:1|1:1,1:1:0:0:
246,248,262750,2,0,P|314:218|356:157,1,150.000005722046,2|0,1:1|1:1,1:1:0:0:
170,5,263036,2,0,P|161:78|192:145,1,150.000005722046,2|0,1:1|1:1,1:1:0:0:
196,381,263322,6,0,P|240:321|246:247,1,150.000005722046,10|0,1:1|1:1,1:1:0:0:
436,107,263608,2,0,P|376:62|302:56,1,150.000005722046,2|0,1:1|1:1,1:1:0:0:
64,46,263893,2,0,P|55:119|86:186,1,150.000005722046,2|0,1:1|1:1,1:1:0:0:
340,329,264179,2,0,B|487:308|537:133|429:-13|244:18|193:146|193:146|208:198|276:217|327:191,1,750.000028610231,2|0,1:1|1:1,1:1:0:0:
332,197,265036,6,0,P|359:265|346:337,1,150.000005722046,10|0,1:1|1:1,1:1:0:0:
147,222,265322,2,0,P|192:164|261:139,1,150.000005722046,2|0,1:1|1:1,1:1:0:0:
260,370,265608,2,0,P|187:359|131:312,1,150.000005722046,2|0,1:1|1:1,1:1:0:0:
319,55,265893,6,0,P|345:123|333:195,1,150.000005722046,2|0,1:1|1:1,1:1:0:0:
32,305,266179,2,0,P|77:247|146:222,1,150.000005722046,2|0,1:1|1:1,1:1:0:0:
454,243,266465,2,0,P|411:303|345:338,1,150.000005722046,2|0,1:1|1:1,1:1:0:0:
133,80,266751,6,0,P|205:90|261:137,1,150.000005722046,10|0,1:1|1:1,1:1:0:0:
260,370,267036,2,0,P|233:302|246:230,1,150.000005722046,2|0,1:1|1:1,1:1:0:0:
449,115,267322,2,0,P|403:172|334:197,1,150.000005722046,2|0,1:1|1:1,1:1:0:0:
315,28,267608,2,0,P|449:115|344:338,1,450.000017166138,2|0,1:1|1:1,1:1:0:0:
350,344,268465,6,0,P|415:309|459:248,1,150.000005722046,10|0,1:1|1:1,1:1:0:0:
219,86,268751,2,0,P|216:160|246:228,1,150.000005722046,2|0,1:1|1:1,1:1:0:0:
498,107,269036,2,0,P|435:67|361:59,1,150.000005722046,2|0,1:1|1:1,1:1:0:0:
136,323,269322,6,0,P|202:288|246:228,1,150.000005722046,2|0,1:1|1:1,1:1:0:0:
15,70,269608,2,0,P|49:136|109:180,1,150.000005722046,2|0,1:1|1:1,1:1:0:0:
361,59,269893,1,2,1:1:0:0:
361,59,270179,6,0,P|285:56|219:86,1,150.000005722046,10|0,1:1|1:1,1:1:0:0:
339,341,270465,2,0,P|378:278|387:203,1,150.000005722046,2|0,1:1|1:1,1:1:0:0:
109,179,270751,2,0,P|140:247|201:289,1,150.000005722046,2|0,1:1|1:1,1:1:0:0:
219,86,271036,1,2,1:1:0:0:
34,304,271322,1,2,1:1:0:0:
339,341,271608,1,2,1:1:0:0:
339,341,271893,6,0,P|261:334|186:263,1,155.000001182556,10|0,1:1|1:1,1:1:0:0:
125,87,272179,2,0,P|204:93|278:167,1,155.000001182556,2|0,1:1|1:1,1:1:0:0:
33,303,272465,2,0,P|53:230|110:179,1,155.000001182556,2|0,1:1|1:1,1:1:0:0:
362,59,272751,6,0,P|387:208|128:81,1,626.999975986176,2|0,1:1|1:1,1:1:0:0:
367,64,273608,6,0,P|435:147|406:313,1,266.60000581723,2|0,1:1|1:1,1:1:0:0:
373,70,274036,2,0,P|451:141|462:387,1,350.00000333786,2|0,1:1|1:1,1:1:0:0:
34,304,274465,6,0,P|123:88|384:77,1,509.999993190765,14|0,1:1|1:1,1:1:0:0:
234,349,275322,6,0,P|237:299|262:251,1,100,8|0,1:1|1:1,1:1:0:0:
418,298,275608,2,0,P|375:321|325:322,1,100,0|0,1:1|1:1,1:1:0:0:
191,186,275893,6,0,P|232:211|258:253,1,100,0|0,1:1|1:1,1:1:0:0:
72,301,276179,2,0,P|116:279|176:285,1,100,4|0,1:3|1:1,1:1:0:0:
234,349,276465,1,0,1:1:0:0:
72,301,276608,2,0,P|166:281|235:352,1,200,4|0,1:3|1:1,1:1:0:0:
283,162,277036,6,0,P|283:211|259:254,1,100,8|0,1:1|1:1,1:1:0:0:
98,209,277322,2,0,P|140:186|189:185,1,100,0|0,1:1|1:1,1:1:0:0:
234,349,277608,2,0,P|194:327|165:278,1,100,0|0,1:1|1:1,1:1:0:0:
218,92,277893,6,0,P|284:164|258:255,1,200,4|0,1:3|1:1,1:1:0:0:
166,282,278322,1,0,1:1:0:0:
98,209,278465,1,0,1:1:0:0:
191,185,278608,1,0,1:1:0:0:
72,301,278751,6,0,P|73:250|100:207,1,100,8|0,1:1|1:1,1:1:0:0:
258,254,279036,2,0,P|215:280|166:281,1,100,0|0,1:1|1:1,1:1:0:0:
122,119,279322,2,0,P|165:142|191:184,1,100,0|0,1:1|1:1,1:1:0:0:
29,143,279608,6,0,P|56:50|150:26,1,200,4|0,1:3|1:1,1:1:0:0:
212,86,279965,1,0,1:1:0:0:
217,92,280036,2,0,P|283:164|257:255,1,200,4|0,1:3|1:1,1:1:0:0:
104,215,280393,1,0,1:1:0:0:
97,209,280465,2,0,P|190:186|257:254,1,200,8|0,1:1|1:1,1:1:0:0:
217,92,281179,5,8,1:1:0:0:
257,254,281322,2,0,P|138:369|97:209,1,400,4|0,1:3|1:1,1:1:0:0:
307,72,282179,6,0,P|351:97|378:148,1,100,8|0,1:1|1:1,1:1:0:0:
257,254,282465,2,0,P|253:207|282:161,1,100,0|0,1:1|1:1,1:1:0:0:
469,115,282750,6,0,P|426:138|377:139,1,100,0|0,1:1|1:1,1:1:0:0:
214,95,283036,2,0,P|260:71|326:79,1,100,4|0,1:3|1:1,1:1:0:0:
376,139,283322,1,0,1:1:0:0:
214,94,283465,2,0,P|307:72|376:139,1,200,4|0,1:3|1:1,1:1:0:0:
258,254,283893,6,0,P|219:228|191:180,1,100,8|0,1:1|1:1,1:1:0:0:
307,72,284179,2,0,P|307:119|281:163,1,100,0|0,1:1|1:1,1:1:0:0:
123,122,284465,2,0,P|166:95|215:95,1,100,0|0,1:1|1:1,1:1:0:0:
184,272,284751,6,0,P|124:122|281:167,1,400,4|0,1:3|1:1,1:1:0:0:
325,322,285608,6,0,B|309:288|325:246|351:229|351:229|389:229|419:255|426:288|426:288|416:301|411:307|396:315,1,250,10|0,1:1|1:1,1:1:0:0:
184,272,286036,2,0,B|201:256|224:243|252:240|252:240|246:256|242:277|244:297,1,125,2|0,1:1|1:1,1:1:0:0:
211,360,286322,1,2,1:1:0:0:
192,183,286465,1,10,1:1:0:0:
192,183,286751,5,0,1:1:0:0:
325,322,286893,2,0,P|272:355|210:360,1,125,10|0,1:1|1:1,1:1:0:0:
106,301,287179,1,0,1:1:0:0:
279,163,287322,2,0,P|275:229|243:288,1,133.300002908615,10|4,1:1|1:3,1:1:0:0:
104,203,287608,1,4,1:3:0:0:
366,151,287751,1,10,1:1:0:0:
244,288,287893,1,2,1:1:0:0:
102,105,288036,1,6,1:3:0:0:
279,163,288179,1,4,1:3:0:0:
279,163,289036,6,0,L|289:281,2,100,0|0|0,2:1|2:1|2:1,2:1:0:0:
375,71,289893,2,0,L|365:170,2,100,0|0|0,2:1|2:1|2:1,2:1:0:0:
449,183,290751,5,0,2:1:0:0:
374,269,291036,1,0,2:1:0:0:
365,170,291322,1,0,2:1:0:0:
459,84,291608,1,0,2:1:0:0:
185,249,292465,6,0,L|195:367,1,100,0|0,2:1|2:1,2:1:0:0:
279,163,293322,2,0,L|269:262,2,100,0|0|0,2:1|2:1|2:1,2:1:0:0:
185,249,294179,6,0,L|195:367,1,100,2|0,2:1|2:1,2:1:0:0:
351,248,294608,6,0,L|357:188,1,50,2|0,2:1|2:1,2:1:0:0:
351,248,295036,6,0,L|342:348,1,100,2|0,2:1|2:1,2:1:0:0:
379,172,295893,6,0,L|261:162,2,100,0|0|0,2:1|2:1|2:1,2:1:0:0:
269,263,296750,2,0,L|170:273,2,100,0|0|0,2:1|2:1|2:1,2:1:0:0:
170,273,297608,5,0,2:1:0:0:
95,359,297893,1,0,2:1:0:0:
86,260,298179,1,0,2:1:0:0:
181,174,298465,1,0,2:1:0:0:
391,71,299322,6,0,L|273:61,2,100,0|0|0,2:1|2:1|2:1,2:1:0:0:
281,164,300179,2,0,L|182:174,2,100,0|0|0,2:1|2:1|2:1,2:1:0:0:
184,275,301036,2,0,L|85:265,1,100,2|0,2:1|2:1,2:1:0:0:
82,183,301465,6,0,L|87:133,1,50,2|0,2:1|2:1,2:1:0:0:
82,183,301893,6,0,P|174:370|281:162,1,550,2|0,2:1|2:1,2:1:0:0:
189,247,303608,2,0,P|394:213|227:50,1,550,2|0,2:1|2:1,2:1:0:0:
280,161,305322,2,0,B|431:174|431:174|489:179|527:130|499:75|441:70|441:70|225:51,1,550,2|0,2:1|2:1,2:1:0:0:
167,145,307036,2,0,P|212:241|280:160,1,250,2|0,2:1|2:1,2:1:0:0:
159,46,307893,6,0,L|169:164,1,100,2|0,2:1|2:1,2:1:0:0:
280,162,308322,6,0,L|286:94,1,50,2|0,2:1|2:1,2:1:0:0:
280,162,308751,6,0,L|270:280,1,100,2|0,2:1|2:1,2:1:0:0:
379,169,310465,2,0,L|261:159,1,100,2|0,2:1|2:1,2:1:0:0:
76,255,312179,2,0,L|175:245,1,100,2|0,2:1|2:1,2:1:0:0:
280,161,313893,2,0,L|180:169,1,100,2|0,2:1|2:1,2:1:0:0:
100,318,314751,5,2,2:1:0:0:
268,313,315179,5,2,2:1:0:0:
180,169,315608,6,0,B|162:205|182:240|182:240|201:274|184:311,7,150,2|0|0|0|0|0|0|0,2:1|2:1|2:1|2:1|2:1|2:1|2:1|2:1,2:1:0:0:
256,192,321893,12,0,327608,2:1:0:0:
162,249,327965,6,0,B|236:296|333:266|381:173|363:47|217:-5|137:87|137:87|228:165,1,612.500005841255,4|0,1:3|1:1,1:1:0:0:
