osu file format v14

[General]
AudioFilename: Rise Up.mp3
AudioLeadIn: 0
PreviewTime: 205005
Countdown: 1
SampleSet: None
StackLeniency: 0.4
Mode: 0
LetterboxInBreaks: 1
WidescreenStoryboard: 0

[Editor]
DistanceSpacing: 1.7
BeatDivisor: 6
GridSize: 4
TimelineZoom: 3.699999

[Metadata]
Title:Rise Up
TitleUnicode:Rise Up
Artist:Infected Mushroom & Savant
ArtistUnicode:Infected Mushroom & Savant
Creator:Nemis
Version:Nemis
Source:
Tags:
BeatmapID:1435488
BeatmapSetID:678905

[Difficulty]
HPDrainRate:7
CircleSize:4
OverallDifficulty:8
ApproachRate:9
SliderMultiplier:1.8
SliderTickRate:1

[Events]
//Background and Video events
0,0,"riseup.jpg",0,0
//Break Periods
2,70633,150405
2,171632,203548
//Storyboard Layer 0 (Background)
//Storyboard Layer 1 (Fail)
//Storyboard Layer 2 (Pass)
//Storyboard Layer 3 (Foreground)
//Storyboard Sound Samples

[TimingPoints]
148,428.571428571429,4,1,0,30,1,0
148,-200,4,1,0,30,0,0
27576,-100,4,1,0,30,0,0
39576,-66.6666666666667,4,1,0,30,0,0
41290,-100,4,1,0,30,0,0
55005,-200,4,1,0,30,0,0
151005,-100,4,1,0,30,0,0
170719,-66.6666666666667,4,1,0,30,0,0
171576,-200,4,1,0,30,0,0
204148,-200,4,1,0,30,0,0
205862,-100,4,1,0,75,0,0
206719,-66.6666666666667,4,1,0,75,0,0
207576,-100,4,1,0,75,0,0
208433,-66.6666666666667,4,1,0,75,0,0
209290,-100,4,1,0,75,0,0
210148,-66.6666666666667,4,1,0,75,0,0
211005,-100,4,1,0,75,0,0
211862,-66.6666666666667,4,1,0,75,0,0
212719,-100,4,1,0,75,0,0
213576,-66.6666666666667,4,1,0,75,0,0
214433,-100,4,1,0,75,0,0
215290,-66.6666666666667,4,1,0,75,0,0
216148,-100,4,1,0,75,0,0
217005,-66.6666666666667,4,1,0,75,0,0
219576,-100,4,1,0,75,0,0
220433,-66.6666666666667,4,1,0,75,0,0
221290,-100,4,1,0,75,0,0
222148,-66.6666666666667,4,1,0,75,0,0
223005,-100,4,1,0,75,0,0
223862,-66.6666666666667,4,1,0,75,0,0
224719,-100,4,1,0,75,0,0
225576,-66.6666666666667,4,1,0,75,0,0
226433,-100,4,1,0,75,0,0
227290,-66.6666666666667,4,1,0,75,0,0
228148,-100,4,1,0,75,0,0
229005,-66.6666666666667,4,1,0,75,0,0
229862,-100,4,1,0,75,0,0
230719,-66.6666666666667,4,1,0,75,0,0
233290,-200,4,1,0,30,0,0

[HitObjects]
124,80,148,6,0,L|52:88,2,60,2|0|0,0:0|0:0|0:0,0:0:0:0:
208,140,1005,2,0,L|280:148,2,60,2|0|0,0:0|0:0|0:0,0:0:0:0:
136,212,1862,2,0,L|140:276,1,60,2|0,0:0|0:0,0:0:0:0:
200,352,2433,1,0,0:0:0:0:
300,328,2719,2,0,L|303:268,1,60,2|0,0:0|0:0,0:0:0:0:
380,200,3290,1,0,0:0:0:0:
316,120,3576,6,0,P|260:104|172:200,1,180,2|2,0:0|0:0,0:0:0:0:
232,260,4719,2,0,L|236:324,1,60
332,292,5290,2,0,L|392:296,2,60,2|0|0,0:0|0:0|0:0,0:0:0:0:
232,260,6148,2,0,L|236:216,2,30,2|0|0,0:0|0:0|0:0,0:0:0:0:
266,153,6576,2,0,L|264:124,1,30,2|0,0:0|0:0,0:0:0:0:
264,124,7005,6,0,L|132:112,1,120,2|0,0:0|0:0,0:0:0:0:
84,196,7862,2,0,L|88:256,2,60,2|0|0,0:0|0:0|0:0,0:0:0:0:
192,248,8719,2,0,L|188:308,2,60,2|0|0,0:0|0:0|0:0,0:0:0:0:
284,200,9576,1,2,0:0:0:0:
372,252,9862,1,0,0:0:0:0:
284,200,10148,1,0,0:0:0:0:
296,100,10433,6,0,P|388:104|432:172,1,180,2|2,0:0|0:0,0:0:0:0:
372,252,11576,2,0,L|364:336,1,60
200,288,12148,2,0,L|156:292,4,30,2|0|0|0|0,0:0|0:0|0:0|0:0|0:0,0:0:0:0:
264,208,13005,2,0,L|308:212,2,30,2|0|0,0:0|0:0|0:0,0:0:0:0:
360,168,13433,2,0,L|404:164,1,30,2|0,0:0|0:0,0:0:0:0:
389,165,13862,6,0,P|384:116|312:64,1,120,2|0,0:0|0:0,0:0:0:0:
240,112,14719,2,0,L|176:108,1,60,2|0,0:0|0:0,0:0:0:0:
84,72,15290,1,0,0:0:0:0:
32,192,15576,2,0,L|91:188,2,60,2|0|0,0:0|0:0|0:0,0:0:0:0:
8,292,16433,1,2,0:0:0:0:
96,348,16719,2,0,L|104:288,1,60,0|0,0:0|0:0,0:0:0:0:
192,340,17290,6,0,P|256:348|328:248,1,180,2|2,0:0|0:0,0:0:0:0:
256,196,18433,1,0,0:0:0:0:
156,212,18719,1,0,0:0:0:0:
256,196,19005,2,0,L|260:136,1,60,2|0,0:0|0:0,0:0:0:0:
264,36,19576,1,0,0:0:0:0:
380,84,19862,2,0,L|383:113,2,30,2|0|0,0:0|0:0|0:0,0:0:0:0:
420,188,20290,2,0,L|416:217,1,30,2|0,0:0|0:0,0:0:0:0:
416,217,20719,6,0,L|288:228,1,120,2|0,0:0|0:0,0:0:0:0:
224,300,21576,1,2,0:0:0:0:
132,256,21862,2,0,L|124:320,1,60
168,160,22433,1,2,0:0:0:0:
260,116,22719,2,0,L|268:180,1,60
356,228,23290,2,0,L|348:287,2,60,2|0|0,0:0|0:0|0:0,0:0:0:0:
436,160,24148,6,0,P|432:104|324:56,1,180,2|2,0:0|0:0,0:0:0:0:
260,116,25290,2,0,L|176:124,1,60
104,88,25862,2,0,L|100:132,4,30,2|0|0|0|0,0:0|0:0|0:0|0:0|0:0,0:0:0:0:
52,180,26505,1,0,0:0:0:0:
52,180,26576,1,0,0:0:0:0:
52,180,26648,1,0,0:0:0:0:
52,180,26719,2,0,L|56:208,5,15,2|0|0|0|0|0,0:0|0:0|0:0|0:0|0:0|0:0,0:0:0:0:
108,248,27148,2,0,L|104:276,5,15,2|0|0|0|0|0,0:0|0:0|0:0|0:0|0:0|0:0,0:0:0:0:
105,262,27576,6,0,P|144:340|252:332,1,180,4|0,0:0|0:0,0:0:0:0:
280,272,28148,2,0,L|272:180,1,90,0|0,0:0|0:0,0:0:0:0:
272,182,28433,2,0,L|332:178,1,60,8|0,3:1|0:0,0:0:0:0:
476,224,28719,2,0,L|416:220,1,60,0|0,0:0|0:0,0:0:0:0:
288,88,29005,2,0,P|232:92|184:156,1,120,0|0,0:0|3:0,0:0:0:0:
115,263,29433,6,0,L|112:204,1,60
264,299,29719,2,0,L|272:180,1,120,0|0,3:0|0:0,0:0:0:0:
404,84,30148,2,0,L|412:144,1,60,8|0,3:1|0:0,0:0:0:0:
476,224,30433,1,0,0:0:0:0:
440,320,30576,2,0,L|336:308,1,90
264,300,30862,2,0,L|208:312,1,30
148,328,31005,6,0,L|72:316,2,60,0|0|0,3:0|0:0|0:0,0:0:0:0:
264,300,31433,2,0,P|280:264|208:152,1,180,0|8,0:0|3:1,0:0:0:0:
215,153,32005,1,0,0:0:0:0:
124,204,32148,2,0,L|116:144,1,60
308,224,32433,2,0,L|424:232,1,90
468,196,32719,6,0,L|472:168,8,15,0|0|0|0|0|0|0|0|0,3:0|0:0|0:0|0:0|0:0|0:0|0:0|0:0|0:0,0:0:0:0:
416,124,33076,1,0,0:0:0:0:
416,124,33148,2,0,L|412:96,8,15,0|0|0|0|0|0|0|0|0,3:0|0:0|0:0|0:0|0:0|0:0|0:0|0:0|0:0,0:0:0:0:
324,112,33505,1,0,0:0:0:0:
324,112,33576,2,0,L|244:116,1,60,8|0,3:1|0:0,0:0:0:0:
264,114,33862,1,0,3:0:0:0:
72,184,34005,2,0,L|196:180,1,120,0|8,0:0|0:0,0:0:0:0:
416,224,34433,6,0,L|408:284,1,60,0|0,3:0|0:0,0:0:0:0:
320,372,34719,2,0,L|312:312,1,60
312,312,35290,2,0,P|272:344|204:344,1,120,8|0,3:1|0:0,0:0:0:0:
136,268,35719,1,0,0:0:0:0:
232,124,35862,2,0,L|240:220,1,90
239,213,36148,6,0,L|304:208,1,60,0|0,3:0|0:0,0:0:0:0:
392,252,36433,1,0,0:0:0:0:
480,120,36576,2,0,L|348:100,1,120,0|0,3:0|0:0,0:0:0:0:
232,124,37005,2,0,L|228:60,1,60,8|0,3:1|0:0,0:0:0:0:
244,300,37290,2,0,L|247:359,1,60
128,200,37576,2,0,L|164:192,1,30
240,212,37719,2,0,L|276:220,1,30
392,252,37862,6,0,L|396:188,2,60,0|0|0,3:0|0:0|0:0,0:0:0:0:
284,312,38290,2,0,P|244:272|272:160,1,180,0|8,0:0|3:1,0:0:0:0:
348,112,38862,2,0,L|344:52,1,60,0|0,0:0|0:0,0:0:0:0:
136,80,39148,2,0,L|128:204,1,120
128,199,39576,6,0,B|160:240|160:240|288:228,1,180.000006866455,8|0,3:1|0:0,0:0:0:0:
504,176,40005,2,0,B|472:135|472:135|344:147,1,180.000006866455,8|0,3:1|0:0,0:0:0:0:
288,228,40433,2,0,L|280:320,1,90.0000034332277,8|0,3:1|0:0,0:0:0:0:
220,100,40719,1,0,0:0:0:0:
38,207,40862,2,0,L|128:200,1,90.0000034332277,8|0,0:0|0:0,0:0:0:0:
344,147,41148,1,8,0:0:0:0:
344,147,41290,6,0,P|384:224|264:320,1,240,4|0,0:0|0:0,0:0:0:0:
290,322,42148,2,0,L|284:260,1,60
220,100,42433,2,0,L|212:160,1,60
128,216,42719,1,0,0:0:0:0:
112,36,42862,1,0,0:0:0:0:
212,160,43005,6,0,L|364:148,2,150,0|0|0,0:0|0:0|0:0,0:0:0:0:
128,216,43862,2,0,L|60:212,1,60
176,348,44148,2,0,P|188:324|184:284,1,60
56,324,44433,2,0,L|108:320,1,30
176,348,44576,2,0,L|228:352,1,30
288,308,44719,6,0,L|364:304,2,60,0|0|0,0:0|0:0|0:0,0:0:0:0:
364,216,45148,2,0,P|420:248|424:356,1,180
425,354,45719,1,0,0:0:0:0:
288,308,45862,2,0,L|280:248,1,60
68,248,46148,2,0,L|192:256,1,120
187,255,46469,6,0,L|191:227,7,15,0|0|0|0|0|0|0|0,0:0|0:0|0:0|0:0|0:0|0:0|0:0|0:0,0:0:0:0:
168,164,46790,1,0,0:0:0:0:
168,164,46862,2,0,L|164:136,8,15,0|0|0|0|0|0|0|0|0,0:0|0:0|0:0|0:0|0:0|0:0|0:0|0:0|0:0,0:0:0:0:
228,92,47219,1,0,0:0:0:0:
228,92,47290,2,0,L|300:88,1,60,0|0,0:0|0:0,0:0:0:0:
464,136,47576,2,0,L|404:132,1,60,0|0,0:0|0:0,0:0:0:0:
296,184,47862,2,0,L|300:248,1,60
492,348,48148,6,0,P|496:316|396:228,1,180,0|0,0:0|0:0,0:0:0:0:
396,227,48719,2,0,L|404:108,1,120
296,184,49148,1,0,0:0:0:0:
236,324,49290,2,0,L|232:264,1,60
140,228,49576,2,0,L|80:224,1,60
307,34,49862,2,0,L|296:184,1,150
364,244,50290,2,0,P|322:319|236:324,1,180
236,324,50862,1,0,0:0:0:0:
140,228,51005,2,0,L|148:252,3,15,0|0|0|0,0:0|0:0|0:0|0:0,0:0:0:0:
140,228,51148,2,0,L|204:220,1,60
288,168,51433,1,0,0:0:0:0:
88,132,51576,6,0,L|24:124,2,60,0|0|0,0:0|0:0|0:0,0:0:0:0:
288,168,52005,2,0,L|380:156,1,90
464,148,52290,2,0,L|460:184,1,30
424,316,52433,2,0,P|368:296|344:232,1,120
292,108,52862,2,0,L|288:167,1,60
196,312,53148,2,0,L|193:297,3,15,0|0|0|0,0:0|0:0|0:0|0:0,0:0:0:0:
120,264,53290,5,0,0:0:0:0:
120,264,53433,1,0,0:0:0:0:
120,264,53576,1,0,0:0:0:0:
120,264,53719,1,0,0:0:0:0:
120,264,53862,1,0,0:0:0:0:
120,264,54005,1,0,0:0:0:0:
120,264,54148,1,0,0:0:0:0:
120,264,54291,1,0,0:0:0:0:
120,264,54433,1,0,0:0:0:0:
120,264,54576,1,0,0:0:0:0:
120,264,54719,1,0,0:0:0:0:
120,264,54862,1,0,0:0:0:0:
120,264,55005,6,0,P|100:220|288:52,1,360
348,124,57148,2,0,L|344:216,1,90
248,308,57862,1,0,0:0:0:0:
248,308,58005,2,0,L|244:248,1,60
160,216,58433,6,0,L|100:220,1,60
252,68,58862,2,0,L|248:157,1,90,0|0,0:0|0:0,0:0:0:0:
332,264,59576,1,0,0:0:0:0:
332,264,59719,2,0,L|328:200,1,60
248,308,60148,2,0,P|284:344|384:344,1,150
452,288,61005,2,0,L|456:228,1,60
416,144,61433,2,0,L|412:72,1,60
268,92,61862,6,0,P|172:100|128:324,1,360
220,356,64005,2,0,L|312:352,1,90
448,288,64719,1,0,0:0:0:0:
448,288,64862,2,0,L|388:284,1,60
328,208,65290,6,0,L|332:148,1,60
268,88,65719,2,0,L|179:92,2,90,0|0|0,0:0|0:0|0:0,0:0:0:0:
232,172,66719,2,0,L|236:204,1,30
240,288,67005,2,0,L|232:352,1,60
380,300,67433,2,0,P|352:256|312:244,1,90
104,284,68148,1,0,0:0:0:0:
104,284,68290,2,0,L|100:212,1,60
48,144,68719,6,0,P|128:108|296:280,1,360
144,144,151005,6,0,L|140:84,1,60,2|0,0:0|0:0,0:0:0:0:
208,212,151290,1,0,0:0:0:0:
328,156,151433,2,0,L|324:216,1,60,2|0,0:0|0:0,0:0:0:0:
240,124,151718,1,0,0:0:0:0:
116,228,151862,2,0,L|56:231,1,60,2|0,0:0|0:0,0:0:0:0:
208,212,152148,1,0,0:0:0:0:
316,304,152290,2,0,L|375:307,1,60,2|0,0:0|0:0,0:0:0:0:
375,307,152576,1,0,0:0:0:0:
488,188,152719,5,2,0:0:0:0:
432,56,152862,2,0,L|428:116,1,60
328,156,153148,2,0,L|268:159,1,60,2|0,0:0|0:0,0:0:0:0:
188,120,153433,1,0,0:0:0:0:
156,308,153576,2,0,P|212:296|244:244,1,120,2|0,0:0|0:0,0:0:0:0:
188,120,154005,2,0,L|128:116,1,60,2|0,0:0|0:0,0:0:0:0:
272,76,154290,1,0,0:0:0:0:
277,237,154433,6,0,P|408:202|372:72,1,300,2|0,0:0|0:0,0:0:0:0:
272,76,155183,2,0,L|264:104,1,30
332,160,155290,2,0,L|451:173,1,120,2|0,0:0|0:0,0:0:0:0:
208,176,155719,2,0,L|136:184,1,60,2|0,0:0|0:0,0:0:0:0:
64,140,156005,1,0,0:0:0:0:
144,340,156148,6,0,L|152:280,2,60,2|0|0,0:0|0:0|0:0,0:0:0:0:
288,296,156576,2,0,L|280:236,2,60,2|0|0,0:0|0:0|0:0,0:0:0:0:
428,336,157005,2,0,L|436:304,1,30,2|0,0:0|0:0,0:0:0:0:
436,296,157148,2,0,L|428:264,1,30
428,256,157290,2,0,L|436:224,1,30
440,216,157433,2,0,L|428:152,1,60,2|0,0:0|0:0,0:0:0:0:
428,157,157719,1,0,0:0:0:0:
284,72,157862,6,0,L|344:76,1,60
224,148,158148,1,0,0:0:0:0:
84,96,158290,2,0,L|144:92,1,60
224,148,158576,2,0,L|220:212,1,60
252,356,158862,2,0,L|255:296,1,60
104,280,159148,1,0,0:0:0:0:
256,296,159290,2,0,L|332:304,1,60
460,220,159576,6,0,P|480:164|468:124,1,90
408,92,159862,2,0,L|376:100,1,30,2|0,0:0|0:0,0:0:0:0:
304,120,160005,2,0,L|272:112,1,30
204,32,160148,2,0,L|213:63,1,30
176,164,160290,2,0,L|198:140,1,30
196,142,160433,2,0,P|204:188|288:220,1,120
376,176,160862,2,0,L|372:236,1,60
304,120,161148,1,0,0:0:0:0:
156,336,161290,6,0,L|152:276,2,60,0|0|0,0:0|0:0|0:0,0:0:0:0:
0,148,161719,2,0,P|12:184|88:204,1,120
176,164,162148,1,0,0:0:0:0:
348,260,162290,2,0,L|288:256,1,60
176,164,162576,2,0,L|236:168,1,60
368,80,162862,1,0,0:0:0:0:
456,260,163005,5,0,0:0:0:0:
348,260,163148,1,0,0:0:0:0:
292,344,163290,1,0,0:0:0:0:
168,260,163433,2,0,L|164:320,1,60
176,164,163719,1,0,0:0:0:0:
348,260,163862,2,0,L|368:256,11,15,0|0|0|0|0|0|0|0|0|0|0|0,0:0|0:0|0:0|0:0|0:0|0:0|0:0|0:0|0:0|0:0|0:0|0:0,0:0:0:0:
408,172,164290,1,0,0:0:0:0:
408,172,164433,1,0,0:0:0:0:
408,172,164576,1,0,0:0:0:0:
408,172,164719,6,0,P|400:116|340:80,1,120
264,132,165148,2,0,L|260:196,1,60
164,120,165433,1,0,0:0:0:0:
132,272,165576,2,0,L|128:208,1,60
112,40,165862,1,0,0:0:0:0:
260,192,166005,2,0,L|356:200,1,90
164,120,166290,2,0,L|104:123,1,60
348,200,166576,6,0,L|351:259,1,60,0|0,0:0|0:0,0:0:0:0:
440,356,166862,2,0,L|443:296,1,60,0|0,0:0|0:0,0:0:0:0:
460,176,167148,1,0,0:0:0:0:
252,212,167290,2,0,L|180:204,1,60
260,80,167576,1,0,0:0:0:0:
16,132,167719,2,0,L|191:117,1,150
260,80,168148,6,0,P|316:104|328:164,1,120
250,271,168576,2,0,L|252:212,1,60
252,211,168862,1,0,0:0:0:0:
500,256,169005,2,0,L|372:236,1,120
128,148,169433,2,0,L|192:140,1,60
328,120,169719,1,0,0:0:0:0:
152,248,169862,6,0,L|148:228,11,15,0|0|0|0|0|0|0|0|0|0|0|0,0:0|0:0|0:0|0:0|0:0|0:0|0:0|0:0|0:0|0:0|0:0|0:0,0:0:0:0:
104,48,170290,2,0,L|106:62,11,15,0|0|0|0|0|0|0|0|0|0|0|0,0:0|0:0|0:0|0:0|0:0|0:0|0:0|0:0|0:0|0:0|0:0|0:0,0:0:0:0:
128,148,170719,2,0,P|88:164|60:208,1,90.0000034332277
328,120,171005,2,0,L|340:28,1,90.0000034332277
152,248,171290,2,0,L|164:340,1,90.0000034332277
144,104,204148,5,2,0:0:0:0:
364,136,204433,1,0,0:0:0:0:
176,204,204719,1,0,0:0:0:0:
329,237,205005,1,8,0:0:0:0:
208,304,205148,6,0,L|248:300,1,30
329,237,205433,6,0,L|300:240,1,30
300,240,205719,1,0,0:0:0:0:
300,240,205862,6,0,P|260:192|396:64,1,300,4|0,0:0|0:0,0:0:0:0:
440,236,206719,2,0,L|447:146,1,90.0000034332277,10|0,0:0|0:0,0:0:0:0:
356,164,207005,1,0,0:0:0:0:
307,329,207148,2,0,L|300:240,2,90.0000034332277,0|0|0,0:0|0:0|0:0,0:0:0:0:
116,292,207576,6,0,L|176:300,1,60,2|0,0:0|0:0,0:0:0:0:
32,324,207862,1,0,0:0:0:0:
210,214,208005,2,0,L|32:192,1,180,0|10,0:0|0:0,0:0:0:0:
272,148,208576,2,0,L|260:56,1,90.0000034332277
437,78,208862,2,0,P|415:140|355:168,1,135.000005149842
272,148,209148,2,0,L|228:144,1,45.0000017166138
144,100,209290,6,0,L|52:108,2,60,2|0|0,0:0|0:0|0:0,0:0:0:0:
124,188,209719,2,0,P|128:260|228:296,1,180,0|10,0:0|0:0,0:0:0:0:
304,276,210290,2,0,L|296:368,1,90.0000034332277
368,208,210576,1,0,0:0:0:0:
272,148,210719,2,0,L|268:56,1,90.0000034332277
368,208,211005,6,0,L|408:204,5,30,2|0|0|0|0|0,0:0|0:0|0:0|0:0|0:0|0:0,0:0:0:0:
208,212,211433,2,0,L|178:214,5,30,0|0|0|0|0|0,0:0|0:0|0:0|0:0|0:0|0:0,0:0:0:0:
208,212,211862,2,0,P|192:272|72:288,1,180.000006866455,10|0,0:0|0:0,0:0:0:0:
272,148,212290,2,0,L|364:156,1,90.0000034332277
192,72,212576,1,8,0:0:0:0:
296,236,212719,6,0,P|380:264|448:104,1,300,4|0,0:0|0:0,0:0:0:0:
368,56,213576,2,0,L|278:63,1,90.0000034332277,10|0,0:0|0:0,0:0:0:0:
132,140,213862,2,0,L|42:132,1,90.0000034332277
192,72,214148,2,0,P|220:116|212:172,1,90.0000034332277
80,220,214433,6,0,P|52:264|60:336,1,120,2|0,0:0|0:0,0:0:0:0:
140,368,214862,2,0,L|260:352,1,120
328,292,215290,2,0,L|332:200,1,90.0000034332277,10|0,0:0|0:0,0:0:0:0:
336,108,215576,1,0,0:0:0:0:
148,96,215719,2,0,P|168:136|256:148,1,135.000005149842
336,108,216005,2,0,L|384:116,1,45.0000017166138
424,200,216148,6,0,L|508:192,2,60,2|0|0,0:0|0:0|0:0,0:0:0:0:
320,200,216576,2,0,P|260:228|244:340,1,180,0|10,0:0|0:0,0:0:0:0:
328,292,217148,2,0,L|420:304,1,90.0000034332277
228,212,217433,1,0,0:0:0:0:
72,288,217576,2,0,L|164:276,1,90.0000034332277
228,212,217862,6,0,L|212:28,1,180.000006866455,10|0,0:0|0:0,0:0:0:0:
343,112,218290,2,0,L|328:292,1,180.000006866455,8|0,0:0|0:0,0:0:0:0:
44,184,218719,1,10,0:0:0:0:
80,100,218862,1,0,0:0:0:0:
168,80,219005,1,0,0:0:0:0:
228,212,219148,1,8,0:0:0:0:
296,268,219290,1,0,0:0:0:0:
384,252,219433,1,8,0:0:0:0:
384,252,219576,6,0,P|384:124|240:128,1,300,4|0,0:0|0:0,0:0:0:0:
228,212,220433,2,0,L|232:304,1,90.0000034332277,10|0,0:0|0:0,0:0:0:0:
312,180,220719,1,0,0:0:0:0:
156,148,220862,2,0,L|152:58,1,90.0000034332277
152,58,221148,1,0,0:0:0:0:
84,256,221290,6,0,L|16:264,2,60,2|0|0,0:0|0:0|0:0,0:0:0:0:
176,288,221719,2,0,L|356:304,1,180,0|10,0:0|0:0,0:0:0:0:
312,180,222290,2,0,L|320:88,1,90.0000034332277
484,156,222576,2,0,P|468:204|388:224,1,135.000005149842
312,180,222862,2,0,L|244:188,1,45.0000017166138
192,132,223005,6,0,P|127:142|88:208,1,120,2|0,0:0|0:0,0:0:0:0:
184,344,223433,2,0,L|176:220,1,120
312,180,223862,2,0,L|320:44,2,90.0000034332277,10|0|0,0:0|0:0|0:0,0:0:0:0:
440,296,224290,1,0,0:0:0:0:
352,296,224433,1,0,0:0:0:0:
264,292,224576,1,0,0:0:0:0:
176,288,224719,6,0,L|172:256,5,30,2|0|0|0|0|0,0:0|0:0|0:0|0:0|0:0|0:0,0:0:0:0:
152,112,225148,2,0,L|156:144,5,30,0|0|0|0|0|0,0:0|0:0|0:0|0:0|0:0|0:0,0:0:0:0:
152,112,225576,2,0,P|92:128|56:236,1,180.000006866455,10|0,0:0|0:0,0:0:0:0:
248,156,226005,2,0,L|340:168,1,90.0000034332277
428,128,226290,1,8,0:0:0:0:
496,276,226433,6,0,L|196:236,1,300,6|0,0:0|0:0,0:0:0:0:
112,188,227290,2,0,P|76:192|32:240,1,90.0000034332277,10|0,0:0|0:0,0:0:0:0:
200,236,227576,2,0,L|208:140,1,90.0000034332277
36,24,227862,2,0,L|43:113,1,90.0000034332277
112,188,228148,6,0,L|256:180,1,120,2|0,0:0|0:0,0:0:0:0:
312,116,228576,2,0,L|431:122,1,120
424,312,229005,2,0,L|428:220,1,90.0000034332277,10|0,0:0|0:0,0:0:0:0:
427,222,229290,1,0,0:0:0:0:
304,300,229433,2,0,P|236:288|200:196,1,135.000005149842
112,188,229719,2,0,L|120:116,1,45.0000017166138
160,60,229862,6,0,L|240:52,2,60,2|0|0,0:0|0:0|0:0,0:0:0:0:
401,108,230290,2,0,L|312:116,1,90
252,188,230576,2,0,L|260:236,1,30
304,300,230719,2,0,L|484:316,1,180.000006866455,10|0,0:0|0:0,0:0:0:0:
252,188,231148,2,0,L|72:204,1,180.000006866455
160,60,231576,5,10,0:0:0:0:
160,60,231719,1,8,0:0:0:0:
160,60,231862,1,8,0:0:0:0:
160,60,232005,1,8,0:0:0:0:
160,60,232148,1,8,0:0:0:0:
160,60,232291,1,8,0:0:0:0:
160,60,232433,1,10,0:0:0:0:
160,60,232576,1,8,0:0:0:0:
160,60,232719,1,8,0:0:0:0:
160,60,232862,2,0,L|144:344,1,270.000010299683
