osu file format v14

[General]
AudioFilename: audio.mp3
AudioLeadIn: 0
PreviewTime: 92619
Countdown: 1
SampleSet: Soft
StackLeniency: 0.4
Mode: 0
LetterboxInBreaks: 0
WidescreenStoryboard: 0

[Editor]
Bookmarks: 48,13762,27476,41190,54905,68619,82333,96048,109762,123476,137190,150905,164619,178333,192048,205762,222934,233897,243203,251286,253486,258427,264830,270633,275938,280818,285345,289556,293509,297205,300716,304144,307573,311001,314430,317858,321045,327902,341616,355330,369045,382759,396473,410187,423902,437616,458187,471902,485616,499330,513045,526759,540473,554187,567902
DistanceSpacing: 1.5
BeatDivisor: 6
GridSize: 4
TimelineZoom: 2

[Metadata]
Title:Bliss on Mushrooms (feat. Miyavi)
TitleUnicode:Bliss on Mushrooms (feat. Miyavi)
Artist:Infected Mushroom & Bliss
ArtistUnicode:Infected Mushroom & Bliss
Creator:Vovan
Version:Psychedelic
Source:
Tags:electronic EDM dance psy-trance psytrance head of NASA and the 2 amish boys monstercat
BeatmapID:1886835
BeatmapSetID:903894

[Difficulty]
HPDrainRate:4.3
CircleSize:3.9
OverallDifficulty:6
ApproachRate:9.5
SliderMultiplier:1.8
SliderTickRate:1

[Events]
//Background and Video events
0,0,"bg.jpg",0,0
//Break Periods
2,192248,205162
2,321245,323873
//Storyboard Layer 0 (Background)
//Storyboard Layer 1 (Fail)
//Storyboard Layer 2 (Pass)
//Storyboard Layer 3 (Foreground)
//Storyboard Layer 4 (Overlay)
//Storyboard Sound Samples

[TimingPoints]
48,428.571428571429,4,2,0,30,1,0
10333,-76.9230769230769,4,2,0,35,0,0
11476,-83.3333333333333,4,2,0,35,0,0
12619,-90.9090909090909,4,2,0,35,0,0
13762,-90.9090909090909,4,2,0,40,0,0
27476,-142.857142857143,4,2,0,40,0,0
28905,-142.857142857143,4,2,0,5,0,0
29048,-142.857142857143,4,2,0,40,0,0
30190,-142.857142857143,4,2,0,5,0,0
30333,-142.857142857143,4,2,0,40,0,0
30476,-142.857142857143,4,2,0,5,0,0
30619,-142.857142857143,4,2,0,40,0,0
30762,-142.857142857143,4,2,0,5,0,0
30905,-142.857142857143,4,2,0,40,0,0
32333,-142.857142857143,4,2,0,5,0,0
32476,-142.857142857143,4,2,0,40,0,0
33619,-142.857142857143,4,2,0,5,0,0
33762,-142.857142857143,4,2,0,40,0,0
33905,-142.857142857143,4,2,0,5,0,0
34048,-142.857142857143,4,2,0,40,0,0
34190,-142.857142857143,4,2,0,5,0,0
34333,-142.857142857143,4,2,0,40,0,0
34548,-142.857142857143,4,2,0,5,0,0
34619,-142.857142857143,4,2,0,40,0,0
34833,-142.857142857143,4,2,0,5,0,0
34905,-142.857142857143,4,2,0,40,0,0
35119,-142.857142857143,4,2,0,5,0,0
35190,-142.857142857143,4,2,0,40,0,0
35405,-142.857142857143,4,2,0,5,0,0
35476,-142.857142857143,4,2,0,40,0,0
35690,-142.857142857143,4,2,0,5,0,0
35762,-142.857142857143,4,2,0,40,0,0
35976,-142.857142857143,4,2,0,5,0,0
36048,-142.857142857143,4,2,0,40,0,0
36262,-142.857142857143,4,2,0,5,0,0
36333,-142.857142857143,4,2,0,40,0,0
36548,-142.857142857143,4,2,0,5,0,0
36619,-142.857142857143,4,2,0,40,0,0
36833,-142.857142857143,4,2,0,5,0,0
36905,-142.857142857143,4,2,0,40,0,0
37119,-142.857142857143,4,2,0,5,0,0
37190,-142.857142857143,4,2,0,40,0,0
37405,-142.857142857143,4,2,0,5,0,0
37476,-142.857142857143,4,2,0,40,0,0
37690,-142.857142857143,4,2,0,5,0,0
37762,-166.666666666667,4,2,0,40,0,0
39190,-142.857142857143,4,2,0,5,0,0
39333,-142.857142857143,4,2,0,40,0,0
40476,-142.857142857143,4,2,0,5,0,0
40619,-142.857142857143,4,2,0,40,0,0
40762,-142.857142857143,4,2,0,5,0,0
40905,-142.857142857143,4,2,0,40,0,0
41048,-142.857142857143,4,2,0,5,0,0
41190,-90.9090909090909,4,2,0,40,0,0
54905,-166.666666666667,4,2,0,40,0,0
58333,-142.857142857143,4,2,0,40,0,0
61762,-125,4,2,0,40,0,0
68619,-90.9090909090909,4,2,0,40,0,0
94333,-80,4,2,0,40,0,0
96048,-71.4285714285714,4,2,0,50,0,1
123476,-71.4285714285714,4,2,0,50,0,1
144048,-500,4,2,0,50,0,1
145190,-71.4285714285714,4,2,0,50,0,1
150905,-90.9090909090909,4,2,0,40,0,0
163762,-333.333333333333,4,2,0,40,0,0
164476,-90.9090909090909,4,2,0,40,0,0
176619,-333.333333333333,4,2,0,40,0,0
177762,-90.9090909090909,4,2,0,40,0,0
180976,-90.9090909090909,4,2,0,5,0,0
181048,-90.9090909090909,4,2,0,40,0,0
181119,-90.9090909090909,4,2,0,5,0,0
181190,-90.9090909090909,4,2,0,40,0,0
181262,-90.9090909090909,4,2,0,5,0,0
181333,-90.9090909090909,4,2,0,40,0,0
181405,-90.9090909090909,4,2,0,5,0,0
181476,-90.9090909090909,4,2,0,40,0,0
181548,-90.9090909090909,4,2,0,5,0,0
181619,-90.9090909090909,4,2,0,40,0,0
181690,-90.9090909090909,4,2,0,5,0,0
181762,-90.9090909090909,4,2,0,40,0,0
184405,-90.9090909090909,4,2,0,5,0,0
184476,-90.9090909090909,4,2,0,40,0,0
184548,-90.9090909090909,4,2,0,5,0,0
184619,-90.9090909090909,4,2,0,40,0,0
184690,-90.9090909090909,4,2,0,5,0,0
184762,-90.9090909090909,4,2,0,40,0,0
184833,-90.9090909090909,4,2,0,5,0,0
184905,-90.9090909090909,4,2,0,40,0,0
184976,-90.9090909090909,4,2,0,5,0,0
185048,-90.9090909090909,4,2,0,40,0,0
185119,-90.9090909090909,4,2,0,5,0,0
185190,-90.9090909090909,4,2,0,50,0,0
191190,-50,4,2,0,50,0,0
192048,-90.9090909090909,4,2,0,30,0,0
216048,-200,4,2,0,20,0,0
221298,-200,4,2,0,40,0,0
221726,-100,4,2,0,5,0,0
222476,458.015267175573,4,2,0,40,1,0
222934,731.707317073171,4,2,0,40,1,0
225860,699.708454810496,4,2,0,40,1,0
228658,670.391061452514,4,2,0,40,1,0
231339,639.691061452514,4,2,0,40,1,0
233897,614.991061452513,4,2,0,40,1,0
236356,591.291061452513,4,2,0,50,1,0
238721,570.491061452513,4,2,0,50,1,0
241002,550.45871559633,4,2,0,50,1,0
243203,529.75871559633,4,2,0,50,1,0
245322,512.820512820513,4,2,0,50,1,0
247373,495.867768595041,4,2,0,50,1,0
249356,482.699999999999,4,2,0,50,1,0
251286,465.116279069767,4,2,0,50,1,0
253146,454.216279069767,4,2,0,50,1,0
254962,437.956204379562,4,2,0,50,1,0
256713,428.571428571429,4,2,0,50,1,0
258427,416.666666666667,4,2,0,50,1,0
260093,405.405405405405,4,2,0,50,1,0
261714,394.736842105263,4,2,0,60,1,0
263292,384.615384615385,4,2,0,60,1,0
264830,377.358490566038,4,2,0,60,1,0
266339,365.853658536585,4,2,0,60,1,0
267802,357.142857142857,4,2,0,60,1,0
269230,350.877192982456,4,2,0,60,1,0
270633,342.857142857143,4,2,0,60,1,0
272004,335.195530726257,4,2,0,60,1,0
273344,327.868852459016,4,2,0,60,1,0
274655,320.855614973262,4,2,0,60,1,0
275938,314.13612565445,4,2,0,60,1,0
277194,307.692307692308,4,2,0,60,1,0
278424,301.507537688442,4,2,0,60,1,0
279630,297.029702970297,4,2,0,70,1,0
280818,289.855072463768,4,2,0,70,1,0
281977,285.714285714286,4,2,0,70,1,0
283119,280.373831775701,4,2,0,70,1,0
284240,276.497695852535,4,2,0,70,1,0
285345,270.27027027027,4,2,0,70,1,0
286426,265.486725663717,4,2,0,70,1,0
287487,262.008733624454,4,2,0,70,1,0
288535,255.31914893617,4,2,0,70,1,0
289556,252.100840336134,4,2,0,70,1,0
290564,248.96265560166,4,2,0,70,1,0
291559,246.913580246914,4,2,0,70,1,0
292546,240.963855421687,4,2,0,70,1,0
293509,237.154150197628,4,2,0,80,1,0
294457,232.558139534884,4,2,0,80,1,0
295387,229.007633587786,4,2,0,80,1,0
296303,225.563909774436,4,2,0,80,1,0
297205,-142.857142857143,4,2,0,80,0,0
298107,220.588235294118,4,2,0,80,1,0
298107,-142.857142857143,4,2,0,80,0,0
298989,216.988235294118,4,2,0,80,1,0
298989,-142.857142857143,4,2,0,80,0,0
299856,215.05376344086,4,2,0,80,1,0
299856,-142.857142857143,4,2,0,80,0,0
300716,214.285714285714,4,2,0,80,1,0
300716,-142.857142857143,4,2,0,80,0,0
304144,-100,4,2,0,70,0,0
317858,428.571428571429,4,2,0,40,1,0
317858,-1000,4,2,0,40,0,0
320000,521.739130434783,4,2,0,40,1,0
320260,428.571428571429,4,2,0,40,1,0
321045,428.571428571429,4,2,0,50,1,0
327902,-71.4285714285714,4,2,0,50,0,1
355330,-71.4285714285714,4,2,0,40,0,1
382759,-90.9090909090909,4,2,0,30,0,0
389187,-142.857142857143,4,2,0,30,0,0
389616,-90.9090909090909,4,2,0,30,0,0
423902,-166.666666666667,4,2,0,10,0,0
427330,-142.857142857143,4,2,0,15,0,0
430759,-125,4,2,0,20,0,0
434187,-111.111111111111,4,2,0,25,0,0
437616,-90.9090909090909,4,2,0,30,0,0
444473,-100,4,2,0,25,0,0
446187,-111.111111111111,4,2,0,20,0,0
447902,-125,4,2,0,15,0,0
449616,-142.857142857143,4,2,0,10,0,0
451330,-200,4,2,0,5,0,0
453045,-153.846153846154,4,2,0,10,0,0
454759,-125,4,2,0,17,0,0
456473,-105.263157894737,4,2,0,24,0,0
458187,-90.9090909090909,4,2,0,30,0,0
471473,-125,4,2,0,30,0,0
471902,-90.9090909090909,4,2,0,30,0,0
485616,-71.4285714285714,4,2,0,60,0,1
495902,-90.9090909090909,4,2,0,55,0,0
496759,-125,4,2,0,50,0,0
497616,-200,4,2,0,45,0,0
498473,-71.4285714285714,4,2,0,40,0,0
499330,-71.4285714285714,4,2,0,60,0,1
509616,-66.6666666666667,4,2,0,80,0,1
512187,-200,4,2,0,50,0,1
513045,-90.9090909090909,4,2,0,40,0,0
526330,-125,4,2,0,40,0,0
526759,-90.9090909090909,4,2,0,40,0,0

[Colours]
Combo1 : 175,245,0
Combo2 : 155,2,45
Combo3 : 245,16,200
Combo4 : 130,0,130
Combo5 : 0,0,151
Combo6 : 72,255,255

[HitObjects]
51,71,48,6,0,P|108:42|177:44,1,120,6|0,0:0|0:0,0:0:0:0:
245,78,476,2,0,P|283:133|344:152,1,120
419,170,905,2,0,P|395:230|404:292,1,120
429,369,1333,2,0,P|366:350|299:358,1,120
222,359,1762,6,0,P|250:303|240:242,1,120
200,168,2190,2,0,P|146:197|81:197,1,120
2,170,2619,1,0,0:0:0:0:
29,84,2762,1,0,0:0:0:0:
106,37,2905,1,0,0:0:0:0:
195,31,3048,2,0,L|319:64,1,120
398,84,3476,6,0,B|370:142|370:142|388:199,1,120,2|0,0:0|0:0,0:0:0:0:
447,261,3905,2,0,B|389:239|389:239|332:261,1,120
253,299,4333,2,0,B|195:321|195:321|138:299,1,120
50,310,4762,2,0,B|99:275|99:275|106:210,1,120
109,125,5190,6,0,B|168:147|168:147|224:131,1,120
296,184,5619,2,0,B|271:129|271:129|290:69,1,120
349,4,6048,1,0,0:0:0:0:
365,92,6190,1,0,0:0:0:0:
277,108,6333,1,0,0:0:0:0:
261,20,6476,2,0,L|231:25,5,30
187,36,6905,6,0,L|62:57,1,120,12|0,0:0|0:0,0:0:0:0:
22,133,7333,1,0,0:0:0:0:
154,255,7619,1,0,0:0:0:0:
243,241,7762,2,0,L|361:221,1,120,8|0,0:0|0:0,0:0:0:0:
450,208,8190,1,0,0:0:0:0:
359,363,8476,1,0,0:0:0:0:
270,346,8619,6,0,L|152:326,1,120,8|0,0:0|0:0,0:0:0:0:
62,307,9048,1,0,0:0:0:0:
12,134,9333,1,0,0:0:0:0:
67,71,9476,1,8,0:0:0:0:
140,111,9619,1,0,0:0:0:0:
195,48,9762,1,0,0:0:0:0:
268,88,9905,1,0,0:0:0:0:
299,255,10190,1,0,0:0:0:0:
195,310,10333,6,0,P|117:322|37:296,1,155.999992858887,8|0,0:0|0:0,0:0:0:0:
174,107,10905,2,0,P|252:95|328:122,1,155.999992858887,0|8,0:0|0:0,0:0:0:0:
370,327,11476,6,0,P|386:257|370:178,1,143.999995605469
174,107,12048,2,0,P|157:176|172:257,1,143.999995605469,8|0,0:0|0:0,0:0:0:0:
240,63,12619,6,0,P|309:46|386:60,1,132.00000402832,0|8,0:0|0:0,0:0:0:0:
174,107,13190,1,0,0:0:0:0:
174,107,13333,1,8,0:0:0:0:
60,309,13762,6,0,P|167:337|246:294,1,198.000006042481,12|8,0:0|0:0,0:0:0:0:
255,101,14476,1,0,0:0:0:0:
255,101,14619,2,0,P|177:179|174:269,1,198.000006042481,8|8,0:0|0:0,0:0:0:0:
336,374,15333,1,0,0:0:0:0:
336,374,15476,2,0,P|315:279|237:222,1,198.000006042481,8|8,0:0|0:0,0:0:0:0:
76,106,16190,1,0,0:0:0:0:
76,106,16333,2,0,B|103:42|103:42|189:27,1,132.00000402832,8|8,0:0|0:0,0:0:0:0:
264,27,16762,2,0,B|236:90|236:90|150:105,1,132.00000402832,8|8,0:0|0:0,0:0:0:0:
76,106,17190,6,0,P|67:211|123:279,1,198.000006042481,8|8,0:0|0:0,0:0:0:0:
210,100,17905,1,0,0:0:0:0:
210,100,18048,2,0,P|105:91|37:147,1,198.000006042481,8|8,0:0|0:0,0:0:0:0:
215,232,18762,1,0,0:0:0:0:
215,232,18905,2,0,P|224:127|168:59,1,198.000006042481,8|8,0:0|0:0,0:0:0:0:
11,180,19619,1,0,0:0:0:0:
11,180,19762,2,0,L|73:305,1,132.00000402832,8|8,0:0|0:0,0:0:0:0:
168,302,20190,2,0,L|106:177,1,132.00000402832,8|8,0:0|0:0,0:0:0:0:
60,96,20619,6,0,P|160:99|208:178,1,198.000006042481,12|8,0:0|0:0,0:0:0:0:
114,351,21333,1,0,0:0:0:0:
114,351,21476,2,0,P|66:262|111:181,1,198.000006042481,8|8,0:0|0:0,0:0:0:0:
306,173,22190,1,0,0:0:0:0:
306,173,22333,2,0,P|253:258|160:260,1,198.000006042481,8|8,0:0|0:0,0:0:0:0:
60,96,23048,1,0,0:0:0:0:
60,96,23190,2,0,L|191:57,1,132.00000402832,8|8,0:0|0:0,0:0:0:0:
237,144,23619,2,0,L|368:105,1,132.00000402832,8|8,0:0|0:0,0:0:0:0:
456,69,24048,6,0,P|440:168|350:201,1,198.000006042481,8|8,0:0|0:0,0:0:0:0:
452,375,24762,1,0,0:0:0:0:
452,375,24905,2,0,P|374:311|390:217,1,198.000006042481,8|8,0:0|0:0,0:0:0:0:
187,217,25619,1,0,0:0:0:0:
187,217,25762,2,0,P|280:181|354:242,1,198.000006042481,8|8,0:0|0:0,0:0:0:0:
198,109,26476,1,0,0:0:0:0:
198,109,26619,2,0,B|127:94|127:94|64:119,1,132.00000402832,8|8,0:0|0:0,0:0:0:0:
0,184,27048,2,0,B|71:199|71:199|134:174,1,132.00000402832,8|8,0:0|0:0,0:0:0:0:
188,165,27476,6,0,B|204:229|236:261|255:285|295:285|319:261|319:213|295:189|263:189|236:213|207:309|207:309|167:309|141:338,1,419.999987182618,12|0,0:0|0:0,0:0:0:0:
70,349,29048,2,0,B|50:347|29:351|29:351|58:229|25:59,1,335.999989746094,2|0,0:0|0:0,0:0:0:0:
70,3,30333,2,0,P|100:1|122:5,1,41.9999987182618,2|0,0:0|0:0,0:0:0:0:
169,44,30619,2,0,P|199:42|221:46,1,41.9999987182618,2|0,0:0|0:0,0:0:0:0:
275,75,30905,6,0,B|297:73|320:79|320:79|321:96|321:96|342:99|342:99|343:120|343:120|365:121|365:121|366:141|366:141|387:140|387:140|388:161|388:161|410:160|410:160|412:180|412:180|434:178|434:178|436:197|436:197|458:195|458:195|460:215|460:215|481:213|481:213|483:234|483:234|504:231|504:231|511:251|511:276,1,419.999987182618,6|0,0:0|0:0,0:0:0:0:
487,340,32476,2,0,B|469:355|440:353|440:353|154:353,1,335.999989746094,2|0,0:0|0:0,0:0:0:0:
82,353,33762,2,0,L|38:344,1,41.9999987182618,2|0,0:0|0:0,0:0:0:0:
61,275,34048,2,0,L|29:245,1,41.9999987182618,2|0,0:0|0:0,0:0:0:0:
91,200,34333,6,0,P|76:185|67:141,1,62.9999980773926,6|0,0:0|0:0,0:0:0:0:
100,133,34619,2,0,P|92:113|103:69,1,62.9999980773926,2|0,0:0|0:0,0:0:0:0:
137,76,34905,2,0,P|138:54|166:19,1,62.9999980773926,2|0,0:2|0:0,0:0:0:0:
193,39,35190,2,0,P|203:20|243:0,1,62.9999980773926,2|0,0:0|0:0,0:0:0:0:
261,31,35476,6,0,P|278:18|323:17,1,62.9999980773926,2|0,0:0|0:0,0:0:0:0:
324,51,35762,2,0,P|344:47|386:65,1,62.9999980773926,2|0,0:0|0:0,0:0:0:0:
374,96,36048,2,0,P|394:101|424:135,1,62.9999980773926,6|0,0:0|0:0,0:0:0:0:
400,159,36333,2,0,P|416:172|429:215,1,62.9999980773926,2|0,0:0|0:0,0:0:0:0:
396,224,36619,6,0,P|404:243|398:287,1,62.9999980773926,2|0,0:0|0:0,0:0:0:0:
365,284,36905,2,0,P|364:305|340:342,1,62.9999980773926,2|0,0:0|0:0,0:0:0:0:
311,326,37190,2,0,P|302:345|263:368,1,62.9999980773926,2|0,0:0|0:0,0:0:0:0:
248,345,37476,2,0,P|231:358|187:363,1,62.9999980773926,2|0,0:0|0:0,0:0:0:0:
161,354,37762,6,0,B|26:180|244:182|145:22,1,359.999989013672,6|0,0:0|0:0,0:0:0:0:
96,75,39333,2,0,B|127:99|166:97|189:84|207:54|207:54|261:47|323:109|255:209,1,335.999989746094,2|0,0:0|0:0,0:0:0:0:
218,266,40619,2,0,P|204:290|191:305,1,41.9999987182618,2|0,0:0|0:0,0:0:0:0:
261,327,40905,2,0,P|258:354|253:373,1,41.9999987182618,2|0,0:0|0:0,0:0:0:0:
336,354,41190,6,0,P|401:348|455:234,1,198.000006042481,6|8,0:0|0:0,0:0:0:0:
369,31,41905,1,0,0:0:0:0:
369,31,42048,2,0,P|304:37|250:151,1,198.000006042481,8|8,0:0|0:0,0:0:0:0:
195,363,42762,1,0,0:0:0:0:
195,363,42905,2,0,P|130:357|76:243,1,198.000006042481,8|8,0:0|0:0,0:0:0:0:
71,23,43619,1,0,0:0:0:0:
179,51,43762,2,0,L|315:58,1,132.00000402832,2|0,0:0|0:0,0:0:0:0:
280,166,44190,2,0,L|416:173,1,132.00000402832,2|0,0:0|0:0,0:0:0:0:
506,235,44619,6,0,P|452:275|330:243,1,198.000006042481,8|8,0:0|0:0,0:0:0:0:
265,31,45333,1,0,0:0:0:0:
265,31,45476,2,0,P|326:57|359:179,1,198.000006042481,8|8,0:0|0:0,0:0:0:0:
211,343,46190,1,0,0:0:0:0:
211,343,46333,2,0,P|203:276|292:186,1,198.000006042481,8|8,0:0|0:0,0:0:0:0:
511,157,47048,1,0,0:0:0:0:
432,78,47190,2,0,B|386:24|386:24|325:21,1,132.00000402832,2|0,0:0|0:0,0:0:0:0:
220,67,47619,2,0,B|265:120|265:120|326:123,1,132.00000402832,2|0,0:0|0:0,0:0:0:0:
435,156,48048,6,0,P|451:225|418:283,1,132.00000402832,14|0,0:0|0:0,0:0:0:0:
340,351,48476,2,0,P|279:387|213:374,1,132.00000402832,8|0,0:0|0:0,0:0:0:0:
124,321,48905,2,0,P|70:274|63:208,1,132.00000402832,8|0,0:0|0:0,0:0:0:0:
86,107,49333,2,0,P|113:41|174:14,1,132.00000402832,8|0,0:0|0:0,0:0:0:0:
278,12,49762,1,8,0:0:0:0:
278,12,50476,1,0,0:0:0:0:
278,124,50619,2,0,P|358:92|386:41,1,132.00000402832,8|0,0:0|0:0,0:0:0:0:
488,93,51048,2,0,P|459:151|410:196,1,132.00000402832,8|0,0:0|0:0,0:0:0:0:
326,270,51476,6,0,P|362:375|355:275,1,330.000010070801,8|0,0:0|0:0,0:0:0:0:
291,184,52333,2,0,P|191:233|289:214,1,330.000010070801,8|0,0:0|0:0,0:0:0:0:
383,154,53190,1,8,0:0:0:0:
368,378,53476,1,0,0:0:0:0:
368,378,53619,1,8,0:0:0:0:
151,383,53905,1,0,0:0:0:0:
150,381,54048,1,8,0:0:0:0:
256,192,54333,1,0,0:0:0:0:
256,192,54476,1,8,0:0:0:0:
256,192,54905,5,6,0:0:0:0:
199,121,55190,1,0,0:0:0:0:
169,106,55333,2,0,B|136:95|136:95|122:75|122:75|101:83,1,71.9999978027344
80,93,55762,2,0,B|47:118|47:118|56:134|44:159|44:159,1,71.9999978027344
43,179,56190,2,0,B|30:200|51:222|31:242|31:242|32:260,1,71.9999978027344
50,273,56619,2,0,B|56:315|42:325|42:325|45:351,1,71.9999978027344
76,339,57048,2,0,B|104:331|117:318|117:318|138:318|138:318|149:307,1,71.9999978027344
172,308,57476,2,0,B|202:288|202:288|220:282|235:272,1,71.9999978027344
264,259,57905,2,0,B|276:259|287:250|287:250|294:235|294:235|291:225|291:225|283:198,1,71.9999978027344
256,192,58333,5,6,0:0:0:0:
315,144,58619,1,0,0:0:0:0:
346,121,58762,2,0,B|362:101|362:101|387:102|387:102|408:75|420:74,1,83.9999974365235
438,52,59190,2,0,B|474:35|493:51|493:51|510:61|510:61|505:74,1,83.9999974365235
495,102,59619,2,0,B|467:140|467:140|470:166|453:180,1,83.9999974365235
439,207,60048,2,0,B|407:206|396:214|396:214|389:226|389:226|376:220|376:220|357:219|356:221,1,83.9999974365235
330,232,60476,2,0,B|312:258|318:294|318:294|296:311,1,83.9999974365235
269,322,60905,1,0,0:0:0:0:
195,330,61190,2,0,B|196:280|234:259|234:259|225:239|229:215,1,125.999996154785
256,192,61762,5,6,0:0:0:0:
235,107,62048,1,0,0:0:0:0:
192,101,62190,2,0,B|154:88|154:88|123:91|123:91|96:83,1,96
59,101,62619,2,0,B|105:120|105:120|92:158|92:158|105:172,1,96
119,199,63048,2,0,B|141:225|141:225|136:240|152:270|152:270|149:294,1,96
151,327,63476,2,0,B|171:340|171:340|200:334|228:350|228:350|240:332,1,96
266,308,63905,2,0,B|285:278|329:261|329:261|334:236,1,96
339,202,64333,2,0,B|362:175|362:175|368:148|351:110,1,96
318,89,64762,2,0,B|285:93|273:111|273:111|264:122|264:122|253:134|253:134|251:151,1,96
256,192,65190,5,6,0:0:0:0:
338,164,65476,1,0,0:0:0:0:
379,149,65619,2,0,B|451:129|451:129|450:114|450:114|462:123|466:126,1,96
485,150,66048,2,0,B|485:198|485:198|506:202|506:202|489:217|489:217|487:233,1,96
479,263,66476,2,0,B|445:284|418:282|418:282|418:293|418:293|414:282|414:282|392:282,1,96
363,276,66905,2,0,B|327:265|327:265|329:259|329:259|325:264|325:264|296:255|274:264,1,96
239,274,67333,2,0,B|215:276|215:276|207:262|207:262|203:277|203:277|184:277|155:256,1,96
127,243,67762,1,0,0:0:0:0:
94,163,68048,2,0,B|121:140|169:161|169:161|186:162|186:162|201:156|201:156|217:147|217:147|233:134,1,144
256,192,68619,5,6,0:0:0:0:
376,2,68905,1,0,0:0:0:0:
486,23,69048,2,0,B|511:86|511:86|470:137,1,132.00000402832
485,247,69476,2,0,B|442:300|442:300|378:290,1,132.00000402832,8|0,0:0|0:0,0:0:0:0:
290,359,69905,2,0,B|222:349|222:349|199:288,1,132.00000402832
256,192,70333,5,6,0:0:0:0:
134,2,70619,1,0,0:0:0:0:
22,16,70762,2,0,L|11:153,1,132.00000402832
4,259,71190,2,0,L|117:337,1,132.00000402832,8|0,0:0|0:0,0:0:0:0:
224,320,71619,2,0,L|348:261,1,132.00000402832
256,192,72048,5,6,0:0:0:0:
352,384,72333,1,0,0:0:0:0:
455,341,72476,2,0,P|498:289|493:227,1,132.00000402832
448,124,72905,2,0,P|409:78|340:64,1,132.00000402832,8|0,0:0|0:0,0:0:0:0:
230,83,73333,2,0,P|172:116|144:177,1,132.00000402832
256,192,73762,5,6,0:0:0:0:
160,384,74048,1,0,0:0:0:0:
79,307,74190,2,0,B|75:241|25:263|12:191,1,132.00000402832
64,96,74619,2,0,B|128:80|97:35|166:9,1,132.00000402832,8|0,0:0|0:0,0:0:0:0:
260,64,75048,2,0,B|286:124|325:86|362:150,1,132.00000402832
256,192,75476,5,6,0:0:0:0:
256,192,75762,1,0,0:0:0:0:
256,192,76048,1,0,0:0:0:0:
256,192,76333,1,8,0:0:0:0:
31,199,76619,1,0,0:0:0:0:
46,310,76762,1,0,0:0:0:0:
137,244,76905,1,0,0:0:0:0:
152,355,77048,1,0,0:0:0:0:
243,289,77190,5,6,0:0:0:0:
243,289,77476,1,0,0:0:0:0:
243,289,77762,1,0,0:0:0:0:
243,289,78048,2,0,L|297:240,1,66.0000020141602,8|8,0:0|0:0,0:0:0:0:
471,110,78476,1,0,0:0:0:0:
450,0,78619,1,0,0:0:0:0:
340,21,78762,1,0,0:0:0:0:
361,131,78905,5,6,0:0:0:0:
361,131,79190,1,0,0:0:0:0:
361,131,79476,1,0,0:0:0:0:
361,131,79762,2,0,L|311:174,1,66.0000020141602,8|8,0:0|0:0,0:0:0:0:
157,337,80190,1,0,0:0:0:0:
47,358,80333,1,0,0:0:0:0:
26,248,80476,1,0,0:0:0:0:
136,227,80619,5,6,0:0:0:0:
136,227,80905,1,0,0:0:0:0:
136,227,81190,1,0,0:0:0:0:
136,227,81476,2,0,L|195:190,1,66.0000020141602,8|8,0:0|0:0,0:0:0:0:
389,83,81905,1,0,0:0:0:0:
488,30,82048,1,0,0:0:0:0:
484,142,82190,1,0,0:0:0:0:
389,83,82333,5,6,0:0:0:0:
292,24,82476,2,0,L|261:5,2,33.0000010070801
384,114,82762,5,0,0:0:0:0:
267,43,82905,2,0,L|236:24,2,33.0000010070801
379,145,83190,5,8,0:0:0:0:
238,59,83333,2,0,L|207:40,2,33.0000010070801
374,178,83619,5,0,0:0:0:0:
204,74,83762,2,0,L|166:51,2,33.0000010070801
379,145,84048,5,6,0:0:0:0:
320,242,84191,2,0,L|301:273,2,33.0000010070801
410,150,84477,5,0,0:0:0:0:
339,267,84620,2,0,L|320:298,2,33.0000010070801
441,155,84905,5,8,0:0:0:0:
355,296,85048,2,0,L|336:327,2,33.0000010070801
474,160,85334,5,0,0:0:0:0:
370,330,85477,2,0,L|347:367,2,33.0000010070801
471,281,85762,6,0,L|492:293,48,16.5000005035401,6|0|0|0|0|0|0|0|0|0|0|0|0|0|0|0|0|0|0|0|0|0|0|0|8|0|0|0|0|0|0|0|0|0|0|0|0|0|0|0|0|0|0|0|0|0|0|0|0,0:0|0:0|0:0|0:0|0:0|0:0|0:0|0:0|0:0|0:0|0:0|0:0|0:0|0:0|0:0|0:0|0:0|0:0|0:0|0:0|0:0|0:0|0:0|0:0|0:0|0:0|0:0|0:0|0:0|0:0|0:0|0:0|0:0|0:0|0:0|0:0|0:0|0:0|0:0|0:0|0:0|0:0|0:0|0:0|0:0|0:0|0:0|0:0|0:0,0:0:0:0:
444,219,87476,2,0,L|464:205,46,16.5000005035401,6|0|0|0|0|0|0|0|0|0|0|0|0|0|0|0|0|0|0|0|0|0|0|0|8|0|0|0|0|0|0|0|0|0|0|0|0|0|0|0|0|0|0|0|0|0|0,0:0|0:0|0:0|0:0|0:0|0:0|0:0|0:0|0:0|0:0|0:0|0:0|0:0|0:0|0:0|0:0|0:0|0:0|0:0|0:0|0:0|0:0|0:0|0:0|0:0|0:0|0:0|0:0|0:0|0:0|0:0|0:0|0:0|0:0|0:0|0:0|0:0|0:0|0:0|0:0|0:0|0:0|0:0|0:0|0:0|0:0|0:0,0:0:0:0:
403,273,89190,6,0,B|341:298|341:298|281:271|281:271|215:297,1,198.000006042481,6|0,0:0|0:0,0:0:0:0:
201,303,89762,1,0,0:0:0:0:
151,347,89905,1,0,0:0:0:0:
50,316,90048,1,0,0:0:0:0:
43,295,90190,1,0,0:0:0:0:
79,240,90333,1,0,0:0:0:0:
152,164,90476,1,0,0:0:0:0:
176,147,90619,1,0,0:0:0:0:
236,173,90762,1,0,0:0:0:0:
321,246,90905,5,0,0:0:0:0:
367,289,91048,1,0,0:0:0:0:
391,212,91190,1,0,0:0:0:0:
453,126,91333,1,0,0:0:0:0:
467,64,91476,1,0,0:0:0:0:
388,82,91618,1,0,0:0:0:0:
283,99,91762,1,0,0:0:0:0:
222,117,91905,1,0,0:0:0:0:
274,179,92047,1,0,0:0:0:0:
239,249,92190,2,0,L|173:289,2,66.0000020141602
315,243,92619,5,8,0:0:0:0:
256,367,92762,1,8,0:0:0:0:
380,198,92905,5,8,0:0:0:0:
354,332,93048,1,8,0:0:0:0:
431,137,93190,5,8,0:0:0:0:
440,273,93333,1,8,0:0:0:0:
464,64,93476,5,8,0:0:0:0:
508,193,93619,1,8,0:0:0:0:
385,71,93762,5,8,0:0:0:0:
301,94,93905,2,0,L|259:36,2,66.0000020141602,8|8|8,0:0|0:0|0:0,0:0:0:0:
365,197,94333,6,0,P|373:230|367:274,1,75,4|0,0:0|0:0,0:0:0:0:
337,339,94619,1,0,0:0:0:0:
282,178,94762,6,0,P|292:219|284:274,1,75,4|0,0:0|0:0,0:0:0:0:
247,355,95048,1,0,0:0:0:0:
202,155,95190,6,0,P|213:203|204:268,1,75,4|0,0:0|0:0,0:0:0:0:
160,363,95476,1,0,0:0:0:0:
57,217,95619,5,10,0:0:0:0:
267,78,96048,6,0,P|316:65|353:70,1,83.9999974365235,6|0,0:0|0:0,0:0:0:0:
428,94,96333,1,0,0:0:0:0:
487,204,96476,1,0,0:0:0:0:
466,285,96619,1,0,0:0:0:0:
386,311,96762,1,0,0:0:0:0:
301,323,96905,6,0,L|332:358,1,41.9999987182618,8|0,0:0|0:0,0:0:0:0:
220,230,97048,2,0,L|259:212,1,41.9999987182618,8|0,0:0|0:0,0:0:0:0:
96,290,97191,1,8,0:0:0:0:
87,170,97333,2,0,P|82:126|94:86,1,83.9999974365235,2|0,0:0|0:0,0:0:0:0:
163,38,97619,1,0,0:0:0:0:
278,89,97762,6,0,P|311:119|356:134,1,83.9999974365235,2|0,0:0|0:0,0:0:0:0:
418,85,98048,1,0,0:0:0:0:
394,208,98190,1,0,0:0:0:0:
420,287,98333,1,0,0:0:0:0:
504,295,98476,1,0,0:0:0:0:
390,350,98619,6,0,L|428:382,1,41.9999987182618,8|0,0:0|0:0,0:0:0:0:
296,274,98762,2,0,L|345:259,1,41.9999987182618,8|0,0:0|0:0,0:0:0:0:
177,312,98905,1,8,0:0:0:0:
92,219,99048,2,0,P|60:192|44:147,1,83.9999974365235,2|0,0:0|0:0,0:0:0:0:
42,69,99333,1,0,0:0:0:0:
156,15,99476,6,0,P|201:36|244:33,1,83.9999974365235,6|0,0:0|0:0,0:0:0:0:
318,19,99762,1,0,0:0:0:0:
436,63,99905,1,0,0:0:0:0:
492,125,100048,1,0,0:0:0:0:
459,201,100190,1,0,0:0:0:0:
406,315,100333,6,0,L|433:348,1,41.9999987182618,8|0,0:0|0:0,0:0:0:0:
319,233,100476,2,0,L|338:195,1,41.9999987182618,8|0,0:0|0:0,0:0:0:0:
264,365,100619,1,8,0:0:0:0:
139,344,100762,2,0,P|101:322|87:279,1,83.9999974365235,2|0,0:0|0:0,0:0:0:0:
72,203,101048,1,0,0:0:0:0:
120,87,101190,6,0,L|167:79,10,41.9999987182618,2|0|0|0|0|0|0|0|0|0|0,0:0|0:0|0:0|0:0|0:0|0:0|0:0|0:0|0:0|0:0|0:0,0:0:0:0:
220,76,102048,6,0,L|227:117,1,41.9999987182618,8|0,0:0|0:0,0:0:0:0:
350,126,102190,2,0,L|321:155,1,41.9999987182618,8|0,0:0|0:0,0:0:0:0:
370,263,102333,1,8,0:0:0:0:
277,384,102477,2,0,L|270:343,1,41.9999987182618,8|0,0:0|0:0,0:0:0:0:
147,334,102619,2,0,L|176:305,1,41.9999987182618,8|0,0:0|0:0,0:0:0:0:
127,197,102762,1,8,0:0:0:0:
21,131,102905,6,0,L|11:46,2,83.9999974365235,6|0|0,0:0|0:0|0:0,0:0:0:0:
138,84,103333,2,0,L|77:26,2,83.9999974365235
264,68,103762,6,0,L|254:20,1,41.9999987182618,8|0,0:0|0:0,0:0:0:0:
281,201,103905,2,0,L|245:225,1,41.9999987182618,8|0,0:0|0:0,0:0:0:0:
398,125,104048,1,8,0:0:0:0:
429,246,104190,2,0,P|413:285|377:315,1,83.9999974365235,2|0,0:0|0:0,0:0:0:0:
305,348,104476,1,0,0:0:0:0:
148,319,104619,6,0,L|78:374,2,83.9999974365235,2|0|0,0:0|0:0|0:0,0:0:0:0:
56,232,105048,2,0,L|35:319,2,83.9999974365235
94,112,105476,6,0,L|49:103,1,41.9999987182618,8|0,0:0|0:0,0:0:0:0:
222,143,105619,2,0,L|209:187,1,41.9999987182618,8|0,0:0|0:0,0:0:0:0:
261,22,105762,1,8,0:0:0:0:
387,55,105905,2,0,P|426:81|447:116,1,83.9999974365235,2|0,0:0|0:0,0:0:0:0:
466,193,106190,1,0,0:0:0:0:
354,251,106333,6,0,L|438:296,2,83.9999974365235,6|0|0,0:0|0:0|0:0,0:0:0:0:
329,376,106762,2,0,L|426:357,2,83.9999974365235
212,329,107190,6,0,L|254:354,1,41.9999987182618,8|0,0:0|0:0,0:0:0:0:
106,260,107333,2,0,L|144:235,1,41.9999987182618,8|0,0:0|0:0,0:0:0:0:
11,334,107476,1,8,0:0:0:0:
20,208,107619,2,0,P|40:168|37:127,1,83.9999974365235,2|0,0:0|0:0,0:0:0:0:
13,49,107905,1,0,0:0:0:0:
138,33,108048,6,0,L|189:27,10,41.9999987182618,2|0|0|0|0|0|0|0|0|0|0,0:0|0:0|0:0|0:0|0:0|0:0|0:0|0:0|0:0|0:0|0:0,0:0:0:0:
260,24,108905,6,0,L|291:55,1,41.9999987182618,8|0,0:0|0:0,0:0:0:0:
381,143,109048,2,0,L|339:159,1,41.9999987182618,8|0,0:0|0:0,0:0:0:0:
220,188,109190,2,0,L|232:143,1,41.9999987182618,8|0,0:0|0:0,0:0:0:0:
256,10,109333,2,0,L|291:46,1,41.9999987182618,8|0,0:0|0:0,0:0:0:0:
394,146,109476,2,0,L|346:164,1,41.9999987182618,8|0,0:0|0:0,0:0:0:0:
210,197,109618,2,0,L|224:146,1,41.9999987182618,8|0,0:0|0:0,0:0:0:0:
133,65,109762,6,0,P|229:23|292:44,1,167.999994873047,6|0,0:0|0:0,0:0:0:0:
377,119,110190,2,0,P|281:161|218:140,1,167.999994873047
105,186,110619,2,0,L|89:147,1,41.9999987182618,8|0,0:0|0:0,0:0:0:0:
143,306,110762,2,0,L|103:321,1,41.9999987182618,8|0,0:0|0:0,0:0:0:0:
265,274,110905,2,0,L|279:313,1,41.9999987182618,8|0,0:0|0:0,0:0:0:0:
225,145,111048,2,0,B|191:70|191:70|104:58,1,167.999994873047,2|0,0:0|0:0,0:0:0:0:
229,30,111476,6,0,P|273:4|316:4,1,83.9999974365235,2|0,0:0|0:0,0:0:0:0:
388,18,111762,1,0,0:0:0:0:
305,113,111905,2,0,P|355:121|388:149,1,83.9999974365235
444,197,112191,1,0,0:0:0:0:
336,261,112333,2,0,L|371:236,1,41.9999987182618,8|0,0:0|0:0,0:0:0:0:
227,335,112476,2,0,L|256:370,1,41.9999987182618,8|0,0:0|0:0,0:0:0:0:
145,241,112619,2,0,L|185:214,1,41.9999987182618,8|0,0:0|0:0,0:0:0:0:
33,325,112762,2,0,B|0:298|0:298|18:271|18:271|4:230|32:182,1,167.999994873047,2|0,0:0|0:0,0:0:0:0:
111,86,113190,6,0,P|142:55|190:46,1,83.9999974365235,6|0,0:0|0:0,0:0:0:0:
265,44,113476,1,0,0:0:0:0:
196,150,113619,2,0,P|243:133|277:138,1,83.9999974365235
358,155,113905,1,0,0:0:0:0:
452,239,114048,6,0,L|496:225,1,41.9999987182618,8|0,0:0|0:0,0:0:0:0:
332,277,114190,2,0,L|291:243,1,41.9999987182618,8|0,0:0|0:0,0:0:0:0:
425,361,114333,2,0,L|475:351,1,41.9999987182618,8|0,0:0|0:0,0:0:0:0:
301,383,114476,2,0,B|259:368|259:368|192:376|152:319,1,167.999994873047,2|0,0:0|0:0,0:0:0:0:
120,242,114905,6,0,P|108:218|105:189,10,41.9999987182618,2|0|0|0|0|0|0|0|0|0|0,0:0|0:0|0:0|0:0|0:0|0:0|0:0|0:0|0:0|0:0|0:0,0:0:0:0:
68,127,115762,6,0,L|33:157,1,41.9999987182618,8|0,0:0|0:0,0:0:0:0:
159,58,115905,2,0,L|124:32,1,41.9999987182618,8|0,0:0|0:0,0:0:0:0:
255,134,116048,2,0,L|256:93,1,41.9999987182618,8|0,0:0|0:0,0:0:0:0:
254,257,116190,2,0,B|307:228|307:228|331:235|331:235,2,83.9999974365235,2|0|0,0:0|0:0|0:0,0:0:0:0:
153,332,116619,5,6,0:0:0:0:
153,332,117476,2,0,P|106:322|71:303,2,83.9999974365235,2|0|0,0:0|0:0|0:0,0:0:0:0:
228,322,117905,2,0,P|238:248|166:265,1,167.999994873047,8|0,0:0|0:0,0:0:0:0:
153,332,118333,5,2,0:0:0:0:
153,332,119190,2,0,L|229:288,1,83.9999974365235,2|0,0:0|0:0,0:0:0:0:
197,218,119476,2,0,L|121:262,1,83.9999974365235,0|8,0:0|0:0,0:0:0:0:
124,260,119762,1,0,0:0:0:0:
225,289,119905,1,0,0:0:0:0:
153,332,120048,5,6,0:0:0:0:
96,120,120333,1,0,0:0:0:0:
306,177,120619,1,0,0:0:0:0:
217,88,120905,1,0,0:0:0:0:
63,241,121190,1,0,0:0:0:0:
274,299,121476,1,0,0:0:0:0:
487,349,121762,6,0,L|493:304,11,41.9999987182618,2|0|0|0|0|0|0|0|0|0|0|0,0:0|0:0|0:0|0:0|0:0|0:0|0:0|0:0|0:0|0:0|0:0|0:0,0:0:0:0:
427,273,122619,2,0,L|423:316,11,41.9999987182618
364,354,123476,5,6,0:0:0:0:
206,295,123762,1,0,0:0:0:0:
127,264,123905,2,0,B|65:237|65:237|89:202|89:202|30:176,1,167.999994873047
52,96,124333,2,0,L|216:164,1,167.999994873047
285,193,124762,1,0,0:0:0:0:
362,225,124905,1,0,0:0:0:0:
439,257,125048,1,0,0:0:0:0:
372,307,125190,5,2,0:0:0:0:
372,307,125619,2,0,B|251:352|252:257|111:314,1,251.999992309571
35,166,126333,1,0,0:0:0:0:
64,87,126476,1,0,0:0:0:0:
148,90,126619,1,0,0:0:0:0:
171,171,126762,1,0,0:0:0:0:
102,218,126905,5,6,0:0:0:0:
241,125,127190,1,0,0:0:0:0:
311,79,127333,2,0,P|386:55|409:134,1,167.999994873047
385,199,127762,2,0,P|393:282|322:293,1,167.999994873047
248,259,128190,1,0,0:0:0:0:
182,206,128333,1,0,0:0:0:0:
126,268,128476,1,0,0:0:0:0:
192,321,128619,5,2,0:0:0:0:
273,339,128762,1,0,0:0:0:0:
248,259,128905,1,0,0:0:0:0:
178,325,129048,1,0,0:0:0:0:
283,348,129191,1,0,0:0:0:0:
251,244,129334,1,0,0:0:0:0:
313,188,129476,5,2,0:0:0:0:
294,105,129619,1,0,0:0:0:0:
320,200,129762,1,0,0:0:0:0:
301,93,129905,1,0,0:0:0:0:
329,217,130048,1,0,0:0:0:0:
302,76,130191,1,0,0:0:0:0:
339,237,130333,5,6,0:0:0:0:
176,195,130619,1,0,0:0:0:0:
105,240,130762,2,0,P|54:300|111:356,1,167.999994873047
187,367,131190,2,0,B|255:376|255:376|305:348|305:348|370:355,1,167.999994873047
430,362,131619,1,0,0:0:0:0:
399,283,131762,1,0,0:0:0:0:
482,295,131905,1,0,0:0:0:0:
451,216,132048,5,2,0:0:0:0:
347,83,132476,2,0,P|261:73|324:161,1,251.999992309571
347,83,133190,1,0,0:0:0:0:
428,76,133333,1,0,0:0:0:0:
458,155,133476,1,0,0:0:0:0:
393,208,133619,1,0,0:0:0:0:
323,162,133762,5,6,0:0:0:0:
158,198,134048,1,0,0:0:0:0:
87,242,134190,2,0,B|141:318|141:318|218:314,1,167.999994873047
300,307,134619,2,0,P|385:273|450:313,1,167.999994873047
491,379,135048,1,0,0:0:0:0:
400,145,135476,6,0,L|424:103,11,41.9999987182618,2|0|0|0|0|0|0|0|0|0|0|0,0:0|0:0|0:0|0:0|0:0|0:0|0:0|0:0|0:0|0:0|0:0|0:0,0:0:0:0:
333,184,136333,2,0,L|362:220,11,41.9999987182618
255,192,137190,6,0,P|166:217|71:185,1,167.999994873047,6|0,0:0|0:0,0:0:0:0:
139,128,137619,2,0,P|178:207|110:283,1,167.999994873047
80,329,138048,2,0,P|162:353|221:300,1,167.999994873047
255,192,138476,1,0,0:0:0:0:
331,102,138619,1,0,0:0:0:0:
446,125,138762,1,0,0:0:0:0:
503,247,138905,5,2,0:0:0:0:
277,357,139190,1,0,0:0:0:0:
184,285,139333,1,0,0:0:0:0:
255,192,139476,1,0,0:0:0:0:
348,264,139619,2,0,B|379:236|379:236|385:192,1,83.9999974365235
219,27,140048,1,0,0:0:0:0:
148,120,140191,1,0,0:0:0:0:
54,47,140334,2,0,B|23:75|23:75|17:119,1,83.9999974365235
10,251,140619,5,6,0:0:0:0:
255,192,140905,1,0,0:0:0:0:
184,285,141048,2,0,P|264:307|343:267,1,167.999994873047
408,179,141476,2,0,P|328:157|249:197,1,167.999994873047
184,285,141905,1,0,0:0:0:0:
254,191,142048,1,0,0:0:0:0:
337,272,142190,1,0,0:0:0:0:
254,191,142333,5,2,0:0:0:0:
184,285,142476,1,0,0:0:0:0:
67,268,142619,1,0,0:0:0:0:
22,158,142762,1,0,0:0:0:0:
95,66,142905,1,0,0:0:0:0:
212,83,143048,1,0,0:0:0:0:
256,192,143190,5,2,0:0:0:0:
301,302,143333,1,0,0:0:0:0:
212,83,143476,1,0,0:0:0:0:
140,176,143619,1,0,0:0:0:0:
301,302,143762,1,0,0:0:0:0:
184,285,143905,1,0,0:0:0:0:
256,192,144048,6,0,L|356:207,1,96,6|0,0:0|0:0,0:0:0:0:
467,222,145333,1,0,0:0:0:0:
413,158,145476,1,0,0:0:0:0:
399,274,145619,1,0,0:0:0:0:
475,107,145762,6,0,P|415:77|335:144,1,167.999994873047,2|0,0:0|0:0,0:0:0:0:
413,158,146190,1,0,0:0:0:0:
467,222,146333,1,0,0:0:0:0:
350,206,146476,2,0,L|266:194,1,83.9999974365235
149,177,146762,1,0,0:0:0:0:
32,159,146905,1,0,0:0:0:0:
68,271,147048,1,0,0:0:0:0:
105,381,147190,1,0,0:0:0:0:
68,271,147333,1,0,0:0:0:0:
98,106,147476,5,6,0:0:0:0:
321,30,147762,2,0,P|384:87|353:166,1,167.999994873047
299,206,148190,2,0,B|270:230|270:230|261:267|261:267|273:302|273:302|305:325|305:325|343:326|343:326|371:307|371:307|387:282,1,251.999992309571
412,209,148762,1,0,0:0:0:0:
504,282,148905,1,0,0:0:0:0:
512,164,149048,1,0,0:0:0:0:
490,49,149190,5,2,0:0:0:0:
389,110,149333,1,0,0:0:0:0:
293,43,149476,1,0,0:0:0:0:
192,104,149619,1,0,0:0:0:0:
78,50,149762,5,0,0:0:0:0:
89,175,149905,1,0,0:0:0:0:
194,245,150048,1,0,0:0:0:0:
225,367,150191,1,0,0:0:0:0:
128,331,150333,5,8,0:0:0:0:
287,287,150476,1,8,0:0:0:0:
381,4,150905,6,0,P|352:75|370:138,1,132.00000402832,6|0,0:0|0:0,0:0:0:0:
419,209,151333,2,0,L|342:324,1,132.00000402832
252,284,151762,1,8,0:0:0:0:
345,318,151905,1,0,0:0:0:0:
252,284,152048,1,0,0:0:0:0:
161,245,152190,2,0,P|129:188|141:125,1,132.00000402832
227,175,152619,5,2,0:0:0:0:
303,298,152762,1,0,0:0:0:0:
354,155,152905,1,0,0:0:0:0:
401,239,153048,5,2,0:0:0:0:
276,82,153190,1,0,0:0:0:0:
209,261,153333,1,0,0:0:0:0:
152,342,153476,6,0,P|72:322|47:281,1,132.00000402832,10|0,0:0|0:0,0:0:0:0:
15,189,153905,2,0,P|4:115|31:58,1,132.00000402832
104,4,154333,5,6,0:0:0:0:
295,55,154619,1,0,0:0:0:0:
295,55,154762,2,0,L|303:121,1,66.0000020141602
241,199,155048,1,0,0:0:0:0:
156,149,155190,2,0,B|157:144|153:113,1,33.0000010070801,8|0,0:0|0:0,0:0:0:0:
147,249,155333,2,0,L|107:256,1,33.0000010070801,8|0,0:0|0:0,0:0:0:0:
241,199,155476,1,8,0:0:0:0:
147,249,155619,2,0,P|201:306|263:312,1,132.00000402832
241,199,156048,5,2,0:0:0:0:
344,70,156190,1,0,0:0:0:0:
403,224,156333,1,0,0:0:0:0:
258,192,156476,5,2,0:0:0:0:
341,88,156618,1,0,0:0:0:0:
388,212,156761,1,0,0:0:0:0:
214,209,156905,5,2,0:0:0:0:
348,41,157047,1,0,0:0:0:0:
425,241,157190,1,0,0:0:0:0:
237,200,157333,5,2,0:0:0:0:
344,66,157475,1,0,0:0:0:0:
405,226,157618,1,0,0:0:0:0:
258,192,157762,5,6,0:0:0:0:
258,192,158048,1,0,0:0:0:0:
258,191,158190,2,0,P|252:265|200:317,1,132.00000402832
133,363,158619,2,0,P|95:367|68:360,2,66.0000020141602,8|0|0,0:0|0:0|0:0,0:0:0:0:
216,307,159048,2,0,P|276:351|342:365,1,132.00000402832
430,363,159476,5,2,0:0:0:0:
488,237,159619,1,0,0:0:0:0:
369,166,159762,1,0,0:0:0:0:
369,305,159905,5,2,0:0:0:0:
489,237,160048,1,0,0:0:0:0:
433,110,160191,1,0,0:0:0:0:
292,181,160333,2,0,P|227:154|198:99,1,132.00000402832,10|0,0:0|0:0,0:0:0:0:
296,80,160762,2,0,P|263:24|202:1,1,132.00000402832
103,8,161190,5,6,0:0:0:0:
103,8,161476,1,0,0:0:0:0:
53,93,161619,2,0,P|41:172|66:224,1,132.00000402832
123,295,162048,2,0,L|97:317,1,33.0000010070801,8|0,0:0|0:0,0:0:0:0:
213,256,162190,2,0,L|189:232,1,33.0000010070801,8|0,0:0|0:0,0:0:0:0:
297,307,162333,1,8,0:0:0:0:
379,361,162476,2,0,B|419:362|442:381|442:381|431:328|443:287,1,132.00000402832
466,221,162905,5,14,0:0:0:0:
473,172,162976,1,0,0:0:0:0:
465,123,163048,1,0,0:0:0:0:
444,78,163119,1,0,0:0:0:0:
410,42,163190,1,0,0:0:0:0:
367,18,163262,1,0,0:0:0:0:
318,7,163333,1,8,0:0:0:0:
269,11,163405,1,0,0:0:0:0:
223,29,163476,2,0,P|207:40|191:56,1,33.0000010070801
216,129,163619,2,0,P|210:144|204:167,1,33.0000010070801
262,214,163762,6,0,P|267:270|280:307,1,89.9999972534181,14|0,0:0|0:0,0:0:0:0:
332,384,164619,6,0,P|384:348|460:360,1,132.00000402832,6|0,0:0|0:0,0:0:0:0:
500,268,165048,2,0,P|472:200|496:136,1,132.00000402832
496,48,165476,2,0,P|426:63|391:108,1,132.00000402832
363,204,165905,1,8,0:0:0:0:
363,204,166190,1,0,0:0:0:0:
280,258,166333,6,0,L|148:273,1,132.00000402832,6|0,0:0|0:0,0:0:0:0:
49,281,166762,1,8,0:0:0:0:
49,281,167048,1,0,0:0:0:0:
58,183,167190,2,0,P|73:119|99:55,1,132.00000402832
194,32,167619,2,0,P|179:96|153:160,1,132.00000402832
122,251,168048,6,0,P|200:248|241:203,1,132.00000402832,6|0,0:0|0:0,0:0:0:0:
256,115,168476,2,0,P|301:65|366:56,1,132.00000402832
347,154,168905,2,0,L|383:282,1,132.00000402832
411,375,169333,1,8,0:0:0:0:
411,375,169619,1,0,0:0:0:0:
313,357,169762,6,0,P|239:364|179:338,1,132.00000402832,6|0,0:0|0:0,0:0:0:0:
114,274,170190,1,8,0:0:0:0:
114,274,170476,1,0,0:0:0:0:
65,187,170619,2,0,B|74:117|74:117|140:142,1,132.00000402832
223,178,171048,2,0,B|280:199|280:199|289:129,1,132.00000402832
296,30,171476,5,6,0:0:0:0:
371,55,171619,1,0,0:0:0:0:
422,124,171762,1,0,0:0:0:0:
410,216,171905,1,0,0:0:0:0:
349,294,172048,1,0,0:0:0:0:
253,337,172190,1,0,0:0:0:0:
141,327,172333,2,0,P|78:288|58:229,1,132.00000402832
60,136,172762,1,8,0:0:0:0:
60,136,173048,1,0,0:0:0:0:
133,70,173190,5,6,0:0:0:0:
133,70,173905,1,0,0:0:0:0:
210,8,174048,2,0,P|274:43|297:99,1,132.00000402832
299,193,174476,2,0,P|356:141|414:124,1,132.00000402832
506,120,174905,5,6,0:0:0:0:
495,218,175048,1,8,0:0:0:0:
481,265,175119,1,8,0:0:0:0:
443,296,175190,1,8,0:0:0:0:
358,347,175333,1,2,0:0:0:0:
276,290,175476,1,0,0:0:0:0:
177,301,175619,1,0,0:0:0:0:
108,229,175762,6,0,P|103:189|113:155,1,66.0000020141602,6|8,0:0|0:0,0:0:0:0:
132,120,175976,1,8,0:0:0:0:
161,79,176048,1,8,0:0:0:0:
254,48,176190,1,2,0:0:0:0:
339,98,176333,1,0,0:0:0:0:
428,56,176476,1,0,0:0:0:0:
473,143,176619,6,0,L|483:287,1,143.999995605469,6|0,0:0|0:0,0:0:0:0:
485,328,177905,1,8,0:0:0:0:
485,328,178333,6,0,L|348:338,1,132.00000402832,6|0,0:0|0:0,0:0:0:0:
353,237,178762,2,0,L|219:270,1,132.00000402832
207,170,179190,2,0,L|81:226,1,132.00000402832
0,268,179619,1,8,0:0:0:0:
1,268,179905,1,0,0:0:0:0:
85,320,180048,6,0,B|126:338|126:338|146:315|146:315|171:336|171:336|217:315|217:315,1,132.00000402832,6|0,0:0|0:0,0:0:0:0:
283,285,180476,1,8,0:0:0:0:
283,285,180762,1,0,0:0:0:0:
364,228,180905,6,0,L|400:218,1,33.0000010070801,8|0,0:0|0:0,0:0:0:0:
257,183,181048,2,0,L|223:169,1,33.0000010070801,8|0,0:0|0:0,0:0:0:0:
362,156,181190,2,0,L|405:144,1,33.0000010070801,8|0,0:0|0:0,0:0:0:0:
233,102,181333,2,0,L|192:85,1,33.0000010070801,8|0,0:0|0:0,0:0:0:0:
360,84,181476,2,0,L|410:70,1,33.0000010070801,8|0,0:0|0:0,0:0:0:0:
210,21,181619,2,0,L|162:1,1,33.0000010070801,8|0,0:0|0:0,0:0:0:0:
358,12,181762,6,0,B|411:-2|411:-2|462:21|463:63,1,132.00000402832,6|0,0:0|0:0,0:0:0:0:
466,150,182190,2,0,P|469:238|491:282,1,132.00000402832
440,364,182619,2,0,B|369:385|364:343|292:366,1,132.00000402832
212,383,183048,1,8,0:0:0:0:
212,383,183333,1,0,0:0:0:0:
132,323,183476,6,0,B|96:297|96:297|108:273|108:273|63:239|63:239|51:215,1,132.00000402832,6|0,0:0|0:0,0:0:0:0:
37,138,183905,1,8,0:0:0:0:
37,138,184190,1,0,0:0:0:0:
112,74,184333,6,0,L|76:78,1,33.0000010070801,8|0,0:0|0:0,0:0:0:0:
196,39,184476,2,0,L|224:19,1,33.0000010070801,8|0,0:0|0:0,0:0:0:0:
185,129,184619,2,0,L|149:133,1,33.0000010070801,8|0,0:0|0:0,0:0:0:0:
286,85,184762,2,0,L|314:65,1,33.0000010070801,8|0,0:0|0:0,0:0:0:0:
276,175,184905,2,0,L|240:179,1,33.0000010070801,8|0,0:0|0:0,0:0:0:0:
378,131,185048,2,0,L|406:111,1,33.0000010070801,8|0,0:0|0:0,0:0:0:0:
353,208,185190,5,6,0:0:0:0:
261,343,185333,2,0,P|269:304|291:279,1,66.0000020141602
335,343,185619,5,14,0:0:0:0:
192,266,185762,1,8,0:0:0:0:
353,208,185905,1,8,0:0:0:0:
189,344,186048,2,0,L|122:356,1,66.0000020141602,8|0,0:0|0:0,0:0:0:0:
53,285,186333,1,8,0:0:0:0:
127,88,186476,1,8,0:0:0:0:
192,266,186619,1,8,0:0:0:0:
26,172,186762,1,8,0:0:0:0:
249,143,186905,5,14,0:0:0:0:
301,76,187048,2,0,P|325:108|333:148,1,66.0000020141602
353,208,187333,1,14,0:0:0:0:
386,360,187476,1,8,0:0:0:0:
450,290,187619,1,8,0:0:0:0:
265,288,187762,1,14,0:0:0:0:
171,257,187905,2,0,P|147:225|139:185,1,66.0000020141602
236,175,188190,1,6,0:0:0:0:
267,81,188333,2,0,P|299:57|339:49,1,66.0000020141602
306,217,188619,5,6,0:0:0:0:
259,129,188762,1,8,0:0:0:0:
222,96,188833,1,8,0:0:0:0:
172,88,188905,1,8,0:0:0:0:
73,79,189048,2,0,P|76:120|101:155,1,66.0000020141602
139,225,189333,1,0,0:0:0:0:
215,288,189476,5,6,0:0:0:0:
309,320,189619,1,8,0:0:0:0:
359,319,189690,1,8,0:0:0:0:
401,291,189762,1,8,0:0:0:0:
479,230,189905,2,0,P|448:202|406:193,1,66.0000020141602
331,168,190190,1,0,0:0:0:0:
233,149,190333,5,6,0:0:0:0:
188,131,190405,1,0,0:0:0:0:
138,130,190476,1,0,0:0:0:0:
92,150,190547,1,0,0:0:0:0:
57,184,190619,1,0,0:0:0:0:
38,229,190690,1,0,0:0:0:0:
38,279,190762,1,8,0:0:0:0:
57,325,190833,1,0,0:0:0:0:
92,361,190905,1,0,0:0:0:0:
138,379,190976,1,0,0:0:0:0:
188,380,191048,1,0,0:0:0:0:
234,360,191119,1,0,0:0:0:0:
274,338,191190,6,0,B|329:318|361:339|361:339|372:304|428:285,1,180,8|0,0:0|0:0,0:0:0:0:
495,266,191476,2,0,B|486:244|473:224|453:217|436:215|436:215|476:119,1,180,8|0,0:0|0:0,0:0:0:0:
423,70,191762,2,0,B|371:190|371:190|349:176|314:182,1,180,8|0,0:0|0:0,0:0:0:0:
256,192,192048,5,6,0:0:0:0:
51,46,205762,6,0,P|57:148|177:17,2,396.000012084961,6|0|0,0:0|0:0|0:0,0:0:0:0:
127,94,208190,1,0,0:0:0:0:
127,94,208333,2,0,P|187:65|260:79,1,132.00000402832
303,113,208762,2,0,P|358:147|423:135,1,132.00000402832
476,99,209190,5,6,0:0:0:0:
152,327,210048,2,0,B|186:265|175:192|131:143|131:143|183:95|258:89|315:121,1,396.000012084962
61,337,211619,1,0,0:0:0:0:
61,270,211762,2,0,B|55:245|63:221|77:194|81:172|69:159|58:143|61:130,1,132.00000402832
36,80,212190,2,0,P|66:27|134:24,1,132.00000402832
185,61,212619,6,0,P|244:81|362:20,1,198.000006042481,6|0,0:0|0:0,0:0:0:0:
382,220,213476,2,0,P|323:200|205:261,1,198.000006042481
34,353,214333,2,0,B|18:249|69:161|69:161|135:246|105:349,1,396.000012084961
393,73,216048,6,0,P|274:265|411:107,1,720
154,103,221298,6,0,B|188:134|209:110|240:139,1,90,4|2,0:0|0:0,0:0:0:0:
53,96,222934,5,2,0:0:0:0:
224,41,223299,1,0,0:0:0:0:
331,185,223665,1,0,0:0:0:0:
489,98,224031,1,8,0:0:0:0:
457,267,224397,2,0,L|450:357,1,89.9999972534181,2|0,0:0|0:0,0:0:0:0:
285,338,225129,2,0,L|292:248,1,89.9999972534181,0|8,0:0|0:0,0:0:0:0:
308,107,225860,5,2,0:0:0:0:
185,55,226209,1,0,0:0:0:0:
52,82,226559,2,0,L|41:176,1,90,0|8,0:0|0:0,0:0:0:0:
25,287,227259,5,2,0:0:0:0:
161,341,227609,1,0,0:0:0:0:
297,271,227959,2,0,L|373:215,1,90,0|8,0:0|0:0,0:0:0:0:
446,146,228658,5,2,0:0:0:0:
375,65,228993,1,0,0:0:0:0:
297,137,229328,1,0,0:0:0:0:
358,215,229663,1,8,0:0:0:0:
421,297,229998,1,2,0:0:0:0:
316,307,230333,2,0,L|234:353,2,90,0|0|8,0:0|0:0|0:0,0:0:0:0:
223,238,231339,5,2,0:0:0:0:
209,138,231658,1,0,0:0:0:0:
140,195,231978,1,0,0:0:0:0:
297,180,232298,1,8,0:0:0:0:
378,207,232618,6,0,L|386:113,1,90,2|0,0:0|0:0,0:0:0:0:
477,30,233257,2,0,L|485:122,1,90,0|8,0:0|0:0,0:0:0:0:
493,243,233897,5,2,0:0:0:0:
424,325,234204,1,0,0:0:0:0:
354,246,234511,1,0,0:0:0:0:
293,318,234819,1,8,0:0:0:0:
225,241,235126,1,2,0:0:0:0:
291,159,235434,1,0,0:0:0:0:
189,147,235741,2,0,L|98:127,1,90,0|8,0:0|0:0,0:0:0:0:
7,104,236356,5,2,0:0:0:0:
76,38,236651,1,0,0:0:0:0:
100,128,236947,1,0,0:0:0:0:
120,219,237242,1,8,0:0:0:0:
138,306,237538,5,2,0:0:0:0:
214,248,237834,2,0,L|301:209,2,90,0|0|8,0:0|0:0|0:0,0:0:0:0:
120,219,238721,5,2,0:0:0:0:
100,128,239006,1,0,0:0:0:0:
193,156,239291,1,0,0:0:0:0:
214,248,239576,1,8,0:0:0:0:
234,338,239861,1,2,0:0:0:0:
307,274,240147,1,0,0:0:0:0:
286,175,240432,2,0,L|377:184,1,90,0|8,0:0|0:0,0:0:0:0:
462,196,241002,5,2,0:0:0:0:
472,111,241277,1,0,0:0:0:0:
482,26,241552,1,0,0:0:0:0:
397,63,241827,1,8,0:0:0:0:
387,148,242102,5,2,0:0:0:0:
378,234,242378,1,0,0:0:0:0:
369,320,242653,1,0,0:0:0:0:
299,271,242928,1,8,0:0:0:0:
288,361,243203,5,2,0:0:0:0:
216,306,243467,2,0,B|178:279|178:279|133:279,2,90,0|0|8,0:0|0:0|0:0,0:0:0:0:
299,271,244262,2,0,B|298:227|298:227|324:187,2,90,2|0|0,0:0|0:0|0:0,0:0:0:0:
288,361,245057,1,8,0:0:0:0:
387,345,245322,6,0,B|435:345|435:345|488:328,1,90,2|0,0:0|0:0,0:0:0:0:
457,243,245834,2,0,B|406:242|406:242|352:258,1,90,0|8,0:0|0:0,0:0:0:0:
282,266,246347,1,2,0:0:0:0:
313,185,246604,1,0,0:0:0:0:
233,196,246860,2,0,B|188:217|188:217|142:225,1,90,0|8,0:0|0:0,0:0:0:0:
66,243,247373,5,2,0:0:0:0:
128,300,247620,1,0,0:0:0:0:
66,243,247868,1,0,0:0:0:0:
89,159,248116,1,8,0:0:0:0:
147,222,248364,1,2,0:0:0:0:
128,300,248612,1,0,0:0:0:0:
89,159,248860,1,0,0:0:0:0:
147,222,249108,1,8,0:0:0:0:
233,196,249356,5,2,0:0:0:0:
323,214,249597,1,0,0:0:0:0:
388,286,249838,1,0,0:0:0:0:
295,306,250080,1,8,0:0:0:0:
323,214,250321,6,0,B|339:160|339:160|372:120,1,90,2|0,0:0|0:0,0:0:0:0:
412,50,250804,1,0,0:0:0:0:
328,54,251045,1,8,0:0:0:0:
282,123,251286,5,2,0:0:0:0:
243,51,251518,1,0,0:0:0:0:
200,121,251751,1,0,0:0:0:0:
241,194,251983,1,8,0:0:0:0:
293,268,252216,2,0,B|311:319|311:319|358:352,1,90,2|0,0:0|0:0,0:0:0:0:
434,355,252681,1,0,0:0:0:0:
480,287,252913,1,8,0:0:0:0:
447,211,253146,5,2,0:0:0:0:
414,135,253373,1,2,0:0:0:0:
332,133,253600,1,0,0:0:0:0:
250,131,253827,1,8,0:0:0:0:
289,205,254054,6,0,B|281:261|281:261|260:306,1,90,2|0,0:0|0:0,0:0:0:0:
173,307,254508,2,0,B|183:250|183:250|201:214,1,90,0|8,0:0|0:0,0:0:0:0:
250,131,254962,5,2,0:0:0:0:
174,125,255180,1,0,0:0:0:0:
206,196,255399,1,0,0:0:0:0:
130,190,255618,1,8,0:0:0:0:
162,261,255837,1,2,0:0:0:0:
86,255,256056,1,0,0:0:0:0:
122,330,256275,2,0,B|171:346|171:346|227:348,1,90,0|8,0:0|0:0,0:0:0:0:
283,342,256713,5,2,0:0:0:0:
347,302,256927,1,0,0:0:0:0:
279,268,257141,1,0,0:0:0:0:
340,226,257355,1,8,0:0:0:0:
283,342,257570,5,2,0:0:0:0:
215,308,257784,1,0,0:0:0:0:
279,268,257998,1,0,0:0:0:0:
216,232,258213,1,8,0:0:0:0:
145,269,258427,5,2,0:0:0:0:
145,350,258635,1,0,0:0:0:0:
76,308,258843,1,0,0:0:0:0:
73,232,259052,1,8,0:0:0:0:
145,189,259260,1,2,0:0:0:0:
216,232,259468,1,0,0:0:0:0:
216,308,259677,1,0,0:0:0:0:
145,269,259885,1,8,0:0:0:0:
145,189,260093,6,0,B|134:134|134:134|145:81,1,90,2|0,0:0|0:0,0:0:0:0:
154,28,260498,1,0,0:0:0:0:
231,28,260701,1,8,0:0:0:0:
309,28,260903,6,0,B|319:84|319:84|309:127,1,90,2|0,0:0|0:0,0:0:0:0:
349,184,261309,1,0,0:0:0:0:
276,182,261511,1,8,0:0:0:0:
309,252,261714,5,2,0:0:0:0:
310,325,261911,1,0,0:0:0:0:
243,289,262108,2,0,B|197:273|197:273|168:243,2,90,0|8|2,0:0|0:0|0:0,0:0:0:0:
310,325,262700,1,0,0:0:0:0:
375,289,262898,2,0,B|419:277|419:277|452:244,1,90,0|8,0:0|0:0,0:0:0:0:
512,208,263292,5,2,0:0:0:0:
470,149,263484,1,0,0:0:0:0:
428,90,263676,2,0,B|401:49|401:49|366:21,1,90,0|8,0:0|0:0,0:0:0:0:
393,160,264061,5,2,0:0:0:0:
334,202,264253,1,0,0:0:0:0:
275,244,264445,2,0,B|235:267|235:267|206:308,1,90,0|8,0:0|0:0,0:0:0:0:
263,171,264830,5,2,0:0:0:0:
323,130,265018,1,0,0:0:0:0:
260,99,265207,1,0,0:0:0:0:
197,138,265396,1,8,0:0:0:0:
263,171,265584,1,2,0:0:0:0:
271,308,265773,1,0,0:0:0:0:
223,248,265962,2,0,B|268:239|268:239|313:246,1,90,0|8,0:0|0:0,0:0:0:0:
336,166,266339,5,2,0:0:0:0:
369,101,266521,1,0,0:0:0:0:
296,105,266704,1,0,0:0:0:0:
336,166,266887,1,8,0:0:0:0:
410,162,267070,5,2,0:0:0:0:
375,226,267253,1,0,0:0:0:0:
448,224,267436,1,0,0:0:0:0:
410,162,267619,1,8,0:0:0:0:
485,163,267802,6,0,B|506:119|506:119|510:70,1,90,2|0,0:0|0:0,0:0:0:0:
409,92,268159,2,0,B|414:53|414:53|403:27|403:27|411:0,1,90,0|8,0:0|0:0,0:0:0:0:
336,166,268516,2,0,B|316:124|316:124|311:72,1,89.9999972534181,2|0,0:0|0:0,0:0:0:0:
410,162,268873,2,0,B|404:200|404:200|415:226|415:226|409:252,1,90,0|8,0:0|0:0,0:0:0:0:
411,317,269230,5,2,0:0:0:0:
359,360,269405,1,0,0:0:0:0:
292,362,269580,1,0,0:0:0:0:
241,317,269756,1,8,0:0:0:0:
241,248,269931,5,2,0:0:0:0:
293,205,270107,1,0,0:0:0:0:
360,203,270282,1,0,0:0:0:0:
411,248,270458,1,8,0:0:0:0:
411,317,270633,5,2,0:0:0:0:
359,360,270804,1,0,0:0:0:0:
347,292,270975,1,0,0:0:0:0:
293,334,271147,1,8,0:0:0:0:
286,267,271318,2,0,L|203:221,1,90,2|0,0:0|0:0,0:0:0:0:
244,166,271661,2,0,L|161:120,1,90,0|8,0:0|0:0,0:0:0:0:
197,60,272004,5,2,0:0:0:0:
256,27,272171,1,0,0:0:0:0:
323,23,272339,2,0,P|370:26|407:55,1,90,0|8,0:0|0:0,0:0:0:0:
344,94,272674,6,0,P|368:125|367:177,1,90,2|0,0:0|0:0,0:0:0:0:
300,151,273009,2,0,P|300:200|326:233,1,90,0|8,0:0|0:0,0:0:0:0:
369,283,273344,5,2,0:0:0:0:
318,327,273507,1,0,0:0:0:0:
252,340,273671,1,0,0:0:0:0:
189,335,273835,1,8,0:0:0:0:
128,306,273999,2,0,P|96:277|86:227,1,90,2|0,0:0|0:0,0:0:0:0:
162,237,274327,2,0,P|185:209|181:145,1,90,0|8,0:0|0:0,0:0:0:0:
173,95,274655,5,2,0:0:0:0:
216,46,274815,1,0,0:0:0:0:
275,13,274975,2,0,P|318:4|363:20,1,90,0|8,0:0|0:0,0:0:0:0:
315,81,275296,6,0,P|348:108|364:152,1,90,2|0,0:0|0:0,0:0:0:0:
286,154,275617,2,0,P|288:197|269:244,1,90,0|8,0:0|0:0,0:0:0:0:
236,294,275938,5,2,0:0:0:0:
189,336,276095,1,0,0:0:0:0:
126,335,276252,2,0,P|86:329|47:299,1,90,0|8,0:0|0:0,0:0:0:0:
115,253,276566,2,0,P|84:215|86:165,1,90,2|0,0:0|0:0,0:0:0:0:
161,190,276880,2,0,P|167:141|194:107,1,90,0|8,0:0|0:0,0:0:0:0:
240,66,277194,5,2,0:0:0:0:
304,47,277347,1,0,0:0:0:0:
369,64,277501,2,0,P|405:82|427:130,1,90,0|8,0:0|0:0,0:0:0:0:
445,204,277809,6,0,P|444:244|420:288,1,90,2|0,0:0|0:0,0:0:0:0:
369,324,278117,1,0,0:0:0:0:
310,346,278270,1,8,0:0:0:0:
246,351,278424,5,2,0:0:0:0:
183,345,278574,1,0,0:0:0:0:
125,321,278725,2,0,P|89:299|66:250,1,90,0|8,0:0|0:0,0:0:0:0:
145,246,279027,2,0,P|135:201|153:150,1,90,2|0,0:0|0:0,0:0:0:0:
212,204,279328,2,0,P|224:159|213:114,1,90,0|8,0:0|0:0,0:0:0:0:
176,66,279630,5,2,0:0:0:0:
222,23,279778,1,0,0:0:0:0:
286,21,279927,1,0,0:0:0:0:
344,48,280075,1,8,0:0:0:0:
382,104,280224,6,0,P|398:136|397:198,1,90,2|0,0:0|0:0,0:0:0:0:
478,210,280521,2,0,P|462:241|412:270,1,90,0|8,0:0|0:0,0:0:0:0:
350,288,280818,5,2,0:0:0:0:
288,305,280962,1,0,0:0:0:0:
226,302,281107,1,0,0:0:0:0:
170,273,281252,1,8,0:0:0:0:
129,225,281397,2,0,P|104:180|103:138,3,90,2|0|0|8,0:0|0:0|0:0|0:0,0:0:0:0:
121,82,281977,5,2,0:0:0:0:
161,34,282120,1,0,0:0:0:0:
218,4,282263,1,0,0:0:0:0:
279,0,282405,1,8,0:0:0:0:
343,4,282548,2,0,P|390:11|431:32,3,90,2|0|0|8,0:0|0:0|0:0|0:0,0:0:0:0:
481,69,283119,5,2,0:0:0:0:
436,114,283259,1,0,0:0:0:0:
412,170,283399,1,0,0:0:0:0:
411,235,283539,1,8,0:0:0:0:
432,292,283679,2,0,P|456:331|462:375,3,90,2|0|0|8,0:0|0:0|0:0|0:0,0:0:0:0:
399,374,284240,5,2,0:0:0:0:
336,380,284378,1,0,0:0:0:0:
275,360,284516,1,0,0:0:0:0:
227,321,284654,1,8,0:0:0:0:
198,265,284792,2,0,P|179:227|142:199,3,90,2|0|0|8,0:0|0:0|0:0|0:0,0:0:0:0:
82,175,285345,5,2,0:0:0:0:
109,117,285480,1,0,0:0:0:0:
153,73,285615,1,0,0:0:0:0:
212,50,285750,1,8,0:0:0:0:
275,52,285885,2,0,P|317:57|364:32,3,90,2|0|0|8,0:0|0:0|0:0|0:0,0:0:0:0:
416,8,286426,5,2,0:0:0:0:
463,49,286558,1,0,0:0:0:0:
490,107,286691,1,0,0:0:0:0:
494,169,286824,1,8,0:0:0:0:
473,228,286956,2,0,P|450:268|449:319,3,90,2|0|0|8,0:0|0:0|0:0|0:0,0:0:0:0:
455,374,287487,5,2,0:0:0:0:
392,383,287618,1,0,0:0:0:0:
330,372,287749,1,0,0:0:0:0:
278,336,287880,1,8,0:0:0:0:
243,285,288011,2,0,P|225:242|236:188,3,90,2|0|0|8,0:0|0:0|0:0|0:0,0:0:0:0:
252,140,288535,5,2,0:0:0:0:
193,117,288662,1,0,0:0:0:0:
129,121,288790,1,0,0:0:0:0:
72,146,288917,1,8,0:0:0:0:
30,193,289045,2,0,P|8:228|2:279,3,90,2|0|0|8,0:0|0:0|0:0|0:0,0:0:0:0:
35,330,289556,5,2,0:0:0:0:
86,365,289682,1,0,0:0:0:0:
149,376,289808,1,0,0:0:0:0:
210,363,289934,1,8,0:0:0:0:
262,327,290060,1,2,0:0:0:0:
296,275,290186,1,0,0:0:0:0:
309,214,290312,2,0,P|318:173|305:122,1,90,0|8,0:0|0:0,0:0:0:0:
229,173,290564,5,2,0:0:0:0:
237,110,290688,1,0,0:0:0:0:
271,56,290812,1,0,0:0:0:0:
321,19,290937,1,8,0:0:0:0:
383,4,291061,1,2,0:0:0:0:
444,14,291186,1,0,0:0:0:0:
499,46,291310,2,0,P|510:88|501:135,1,90,0|8,0:0|0:0,0:0:0:0:
419,93,291559,5,2,0:0:0:0:
358,81,291683,1,0,0:0:0:0:
296,92,291806,1,0,0:0:0:0:
243,127,291930,1,8,0:0:0:0:
208,179,292053,1,2,0:0:0:0:
195,241,292177,1,0,0:0:0:0:
207,302,292299,2,0,P|227:343|266:369,1,90,0|8,0:0|0:0,0:0:0:0:
298,283,292546,5,2,0:0:0:0:
311,221,292667,1,0,0:0:0:0:
298,159,292787,1,0,0:0:0:0:
264,107,292908,1,8,0:0:0:0:
212,71,293028,1,2,0:0:0:0:
151,59,293149,1,0,0:0:0:0:
88,70,293268,2,0,P|48:93|17:130,1,90,0|8,0:0|0:0,0:0:0:0:
116,174,293509,5,2,0:0:0:0:
117,231,293627,1,0,0:0:0:0:
143,281,293746,1,0,0:0:0:0:
184,320,293864,1,8,0:0:0:0:
237,340,293983,1,2,0:0:0:0:
293,337,294101,1,0,0:0:0:0:
345,314,294220,1,0,0:0:0:0:
384,272,294339,1,8,0:0:0:0:
411,221,294457,5,2,0:0:0:0:
408,162,294573,1,0,0:0:0:0:
384,107,294689,1,0,0:0:0:0:
339,65,294805,1,8,0:0:0:0:
283,46,294922,1,2,0:0:0:0:
224,48,295038,1,0,0:0:0:0:
170,73,295154,2,0,P|137:107|117:150,1,90,0|8,0:0|0:0,0:0:0:0:
205,153,295387,5,2,0:0:0:0:
245,117,295501,1,0,0:0:0:0:
295,98,295616,1,0,0:0:0:0:
349,99,295730,1,8,0:0:0:0:
398,121,295845,1,2,0:0:0:0:
435,160,295959,1,0,0:0:0:0:
453,211,296074,1,0,0:0:0:0:
452,264,296188,1,8,0:0:0:0:
424,309,296303,5,2,0:0:0:0:
388,344,296415,1,0,0:0:0:0:
339,362,296528,1,0,0:0:0:0:
289,361,296641,1,8,0:0:0:0:
242,339,296754,1,2,0:0:0:0:
208,303,296866,1,0,0:0:0:0:
188,255,296979,2,0,P|189:207|211:168,1,90,0|8,0:0|0:0,0:0:0:0:
277,229,297205,5,2,0:0:0:0:
308,185,297318,1,0,0:0:0:0:
306,131,297430,2,0,P|292:102|270:80,3,62.9999980773926,0|8|2|0,0:0|0:0|0:0|0:0,0:0:0:0:
223,56,297881,2,0,P|192:52|153:59,1,62.9999980773926,0|8,0:0|0:0,0:0:0:0:
110,79,298107,5,2,0:0:0:0:
64,106,298217,1,0,0:0:0:0:
26,143,298327,2,0,P|31:177|46:202,3,62.9999980773926,0|8|2|0,0:0|0:0|0:0|0:0,0:0:0:0:
82,241,298768,2,0,P|108:259|127:283,1,62.9999980773926,0|8,0:0|0:0,0:0:0:0:
161,327,298989,5,2,0:0:0:0:
206,355,299097,1,0,0:0:0:0:
258,364,299205,2,0,P|291:366|321:359,3,62.9999980773926,0|8|2|0,0:0|0:0|0:0|0:0,0:0:0:0:
368,335,299639,2,0,P|397:317|426:311,1,62.9999980773926,0|8,0:0|0:0,0:0:0:0:
479,308,299856,5,2,0:0:0:0:
498,258,299963,1,0,0:0:0:0:
481,207,300071,2,0,P|473:177|455:152,3,62.9999980773926,0|8|2|0,0:0|0:0|0:0|0:0,0:0:0:0:
412,118,300501,2,0,P|381:98|365:73,1,62.9999980773926,0|8,0:0|0:0,0:0:0:0:
336,32,300716,6,0,L|272:23,3,62.9999980773926,2|0|0|8,0:0|0:0|0:0|0:0,0:0:0:0:
223,49,301144,2,0,L|160:40,3,62.9999980773926,2|0|0|8,0:0|0:0|0:0|0:0,0:0:0:0:
107,60,301573,6,0,L|98:124,3,62.9999980773926,2|0|0|8,0:0|0:0|0:0|0:0,0:0:0:0:
124,173,302001,2,0,L|115:235,3,62.9999980773926,2|0|0|8,0:0|0:0|0:0|0:0,0:0:0:0:
135,289,302430,6,0,L|199:298,3,62.9999980773926,2|0|0|8,0:0|0:0|0:0|0:0,0:0:0:0:
248,272,302858,2,0,L|310:280,3,62.9999980773926,2|0|0|8,0:0|0:0|0:0|0:0,0:0:0:0:
364,261,303288,6,0,L|373:197,3,62.9999980773926,2|0|0|8,0:0|0:0|0:0|0:0,0:0:0:0:
347,148,303716,2,0,L|355:85,3,62.9999980773926,2|0|0|8,0:0|0:0|0:0|0:0,0:0:0:0:
322,41,304144,6,0,P|296:30|260:24,23,60,2|0|0|0|0|0|2|0|0|0|0|0|2|0|0|0|0|0|2|0|0|0|0|0,0:0|0:0|0:0|0:0|0:0|0:0|0:0|0:0|0:0|0:0|0:0|0:0|0:0|0:0|0:0|0:0|0:0|0:0|0:0|0:0|0:0|0:0|0:0|0:0,0:0:0:0:
224,58,305858,2,0,P|194:52|166:41,23,60,2|0|0|0|0|0|2|0|0|0|0|0|2|0|0|0|0|0|2|0|0|0|0|0,0:0|0:0|0:0|0:0|0:0|0:0|0:0|0:0|0:0|0:0|0:0|0:0|0:0|0:0|0:0|0:0|0:0|0:0|0:0|0:0|0:0|0:0|0:0|0:0,0:0:0:0:
115,55,307573,2,0,P|104:81|98:117,23,60,2|0|0|0|0|0|2|0|0|0|0|0|2|0|0|0|0|0|2|0|0|0|0|0,0:0|0:0|0:0|0:0|0:0|0:0|0:0|0:0|0:0|0:0|0:0|0:0|0:0|0:0|0:0|0:0|0:0|0:0|0:0|0:0|0:0|0:0|0:0|0:0,0:0:0:0:
132,153,309287,2,0,P|126:182|115:210,23,60,2|0|0|0|0|0|2|0|0|0|0|0|2|0|0|0|0|0|2|0|0|0|0|0,0:0|0:0|0:0|0:0|0:0|0:0|0:0|0:0|0:0|0:0|0:0|0:0|0:0|0:0|0:0|0:0|0:0|0:0|0:0|0:0|0:0|0:0|0:0|0:0,0:0:0:0:
93,250,311001,6,0,L|82:279,94,30,2|0|0|0|0|0|0|0|0|0|0|0|2|0|0|0|0|0|0|0|0|0|0|0|2|0|0|0|0|0|0|0|0|0|0|0|2|0|0|0|0|0|0|0|0|0|0|0|2|0|0|0|0|0|0|0|0|0|0|0|2|0|0|0|0|0|0|0|0|0|0|0|2|0|0|0|0|0|0|0|0|0|0|0|2|0|0|0|0|0|0|0|0|0|0,0:0|0:0|0:0|0:0|0:0|0:0|0:0|0:0|0:0|0:0|0:0|0:0|0:0|0:0|0:0|0:0|0:0|0:0|0:0|0:0|0:0|0:0|0:0|0:0|0:0|0:0|0:0|0:0|0:0|0:0|0:0|0:0|0:0|0:0|0:0|0:0|0:0|0:0|0:0|0:0|0:0|0:0|0:0|0:0|0:0|0:0|0:0|0:0|0:0|0:0|0:0|0:0|0:0|0:0|0:0|0:0|0:0|0:0|0:0|0:0|0:0|0:0|0:0|0:0|0:0|0:0|0:0|0:0|0:0|0:0|0:0|0:0|0:0|0:0|0:0|0:0|0:0|0:0|0:0|0:0|0:0|0:0|0:0|0:0|0:0|0:0|0:0|0:0|0:0|0:0|0:0|0:0|0:0|0:0|0:0,0:0:0:0:
76,293,314430,2,0,L|69:309,189,15,2|0|0|0|0|0|0|0|0|0|0|0|0|0|0|0|0|0|0|0|0|0|0|0|2|0|0|0|0|0|0|0|0|0|0|0|0|0|0|0|0|0|0|0|0|0|0|0|2|0|0|0|0|0|0|0|0|0|0|0|0|0|0|0|0|0|0|0|0|0|0|0|2|0|0|0|0|0|0|0|0|0|0|0|0|0|0|0|0|0|0|0|0|0|0|0|2|0|0|0|0|0|0|0|0|0|0|0|0|0|0|0|0|0|0|0|0|0|0|0|2|0|0|0|0|0|0|0|0|0|0|0|0|0|0|0|0|0|0|0|0|0|0|0|2|0|0|0|0|0|0|0|0|0|0|0|0|0|0|0|0|0|0|0|0|0|0|0|2|0|0|0|0|0|0|0|0|0|0|0|0|0|0|0|0|0|0|0|0|0,0:0|0:0|0:0|0:0|0:0|0:0|0:0|0:0|0:0|0:0|0:0|0:0|0:0|0:0|0:0|0:0|0:0|0:0|0:0|0:0|0:0|0:0|0:0|0:0|0:0|0:0|0:0|0:0|0:0|0:0|0:0|0:0|0:0|0:0|0:0|0:0|0:0|0:0|0:0|0:0|0:0|0:0|0:0|0:0|0:0|0:0|0:0|0:0|0:0|0:0|0:0|0:0|0:0|0:0|0:0|0:0|0:0|0:0|0:0|0:0|0:0|0:0|0:0|0:0|0:0|0:0|0:0|0:0|0:0|0:0|0:0|0:0|0:0|0:0|0:0|0:0|0:0|0:0|0:0|0:0|0:0|0:0|0:0|0:0|0:0|0:0|0:0|0:0|0:0|0:0|0:0|0:0|0:0|0:0|0:0|0:0|0:0|0:0|0:0|0:0|0:0|0:0|0:0|0:0|0:0|0:0|0:0|0:0|0:0|0:0|0:0|0:0|0:0|0:0|0:0|0:0|0:0|0:0|0:0|0:0|0:0|0:0|0:0|0:0|0:0|0:0|0:0|0:0|0:0|0:0|0:0|0:0|0:0|0:0|0:0|0:0|0:0|0:0|0:0|0:0|0:0|0:0|0:0|0:0|0:0|0:0|0:0|0:0|0:0|0:0|0:0|0:0|0:0|0:0|0:0|0:0|0:0|0:0|0:0|0:0|0:0|0:0|0:0|0:0|0:0|0:0|0:0|0:0|0:0|0:0|0:0|0:0|0:0|0:0|0:0|0:0|0:0|0:0|0:0|0:0|0:0|0:0|0:0|0:0|0:0|0:0|0:0|0:0|0:0|0:0,0:0:0:0:
95,349,317858,6,0,P|159:336|185:337,1,90,6|0,0:0|0:0,0:0:0:0:
279,332,320260,2,0,P|293:319|300:304,10,30
311,280,321045,5,6,0:0:0:0:
371,74,324473,5,6,0:0:0:0:
281,200,324616,1,0,0:0:0:0:
255,55,324759,1,0,0:0:0:0:
383,228,324902,1,2,0:0:0:0:
468,94,325045,1,0,0:0:0:0:
269,127,325187,1,0,0:0:0:0:
383,228,325330,5,6,0:0:0:0:
216,262,325473,1,0,0:0:0:0:
269,127,325616,1,0,0:0:0:0:
468,94,325759,1,2,0:0:0:0:
255,55,325902,1,0,0:0:0:0:
383,228,326045,1,0,0:0:0:0:
216,262,326187,6,0,P|174:273|147:271,1,60,6|0,0:0|0:0,0:0:0:0:
301,213,326473,1,0,0:0:0:0:
460,170,326616,6,0,P|471:212|469:239,1,60,2|0,0:0|0:0,0:0:0:0:
411,85,326902,1,0,0:0:0:0:
266,14,327044,6,0,P|308:3|335:5,1,60,6|0,0:0|0:0,0:0:0:0:
181,63,327330,1,0,0:0:0:0:
301,213,327473,1,2,0:0:0:0:
181,63,327902,6,0,P|138:57|98:72,1,83.9999974365235,6|0,0:0|0:0,0:0:0:0:
21,168,328187,1,0,0:0:0:0:
147,150,328330,1,0,0:0:0:0:
74,253,328473,2,0,P|125:274|173:272,1,83.9999974365235
279,264,328759,1,0,0:0:0:0:
391,207,328902,1,0,0:0:0:0:
283,141,329045,1,0,0:0:0:0:
279,264,329187,1,0,0:0:0:0:
391,207,329330,2,0,P|410:167|411:123,1,83.9999974365235
283,141,329616,6,0,L|332:145,1,41.9999987182618,10|0,0:0|0:0,0:0:0:0:
222,75,329759,2,0,L|266:53,1,41.9999987182618,8|0,0:0|0:0,0:0:0:0:
136,48,329902,2,0,L|163:7,1,41.9999987182618,8|0,0:0|0:0,0:0:0:0:
48,67,330045,1,8,0:0:0:0:
19,189,330187,1,0,0:0:0:0:
60,308,330330,1,0,0:0:0:0:
174,361,330473,2,0,P|186:310|135:207,1,167.999994873047
237,288,330902,2,0,B|285:296|313:324|313:324|341:296|389:288,1,167.999994873047
510,266,331330,6,0,P|498:225|505:183,1,83.9999974365235,6|0,0:0|0:0,0:0:0:0:
502,57,331616,1,0,0:0:0:0:
376,42,331759,1,0,0:0:0:0:
271,112,331902,2,0,P|232:121|187:113,1,83.9999974365235
79,50,332187,2,0,B|65:32|42:26|42:26|28:16|28:16|9:26|9:26,2,83.9999974365235
93,176,332616,2,0,P|76:242|119:342,1,167.999994873047
233,364,333045,6,0,L|244:321,1,41.9999987182618,10|0,0:0|0:0,0:0:0:0:
283,371,333187,2,0,L|294:328,1,41.9999987182618,8|0,0:0|0:0,0:0:0:0:
333,378,333330,2,0,L|344:335,1,41.9999987182618,8|0,0:0|0:0,0:0:0:0:
382,384,333473,1,8,0:0:0:0:
453,280,333616,1,0,0:0:0:0:
364,189,333759,1,0,0:0:0:0:
405,70,333902,2,0,P|465:111|479:213,1,167.999994873047
364,189,334330,2,0,B|340:197|340:197|316:189|316:189|292:197|292:197|268:189|268:189|244:197|244:197|220:189|220:189|196:197|196:197,1,167.999994873047
81,224,334759,5,6,0:0:0:0:
160,321,334902,2,0,P|200:343|242:344,1,83.9999974365235
81,224,335187,1,0,0:0:0:0:
36,341,335330,1,0,0:0:0:0:
160,321,335473,1,0,0:0:0:0:
81,224,335616,2,0,P|69:144|129:76,1,167.999994873047
235,26,336045,2,0,B|245:22|245:22|254:22|254:22|264:18|264:18|274:18|274:18|284:15|284:15|294:17|294:17|303:14|303:14|313:17|313:17|323:16|323:16|333:19|333:19|343:18|343:18|352:23|352:23|362:23|362:23|372:28|372:28|381:30|381:30|390:36|390:36|399:38|399:38|408:45|408:45|416:48,1,167.999994873047
475,134,336473,6,0,L|492:177,1,41.9999987182618,10|0,0:0|0:0,0:0:0:0:
404,178,336616,2,0,L|405:224,1,41.9999987182618,8|0,0:0|0:0,0:0:0:0:
322,195,336759,2,0,L|307:238,1,41.9999987182618,8|0,0:0|0:0,0:0:0:0:
239,182,336902,1,8,0:0:0:0:
120,139,337045,1,0,0:0:0:0:
53,244,337187,2,0,P|74:291|106:321,1,83.9999974365235
219,285,337473,1,0,0:0:0:0:
321,358,337616,1,0,0:0:0:0:
423,282,337759,2,0,B|467:307|436:324|483:343,2,83.9999974365235
342,184,338187,6,0,L|396:116,2,83.9999974365235,6|0|0,0:0|0:0|0:0,0:0:0:0:
220,219,338616,2,0,L|166:287,2,83.9999974365235
266,140,339045,2,0,L|198:86,2,83.9999974365235
301,262,339474,2,0,L|369:316,2,83.9999974365235
397,237,339902,5,2,0:0:0:0:
246,318,340045,1,0,0:0:0:0:
397,237,340187,1,0,0:0:0:0:
168,161,340330,1,2,0:0:0:0:
397,237,340473,1,0,0:0:0:0:
322,86,340616,1,0,0:0:0:0:
397,237,340759,1,2,0:0:0:0:
246,318,341187,5,6,0:0:0:0:
168,161,341330,1,0,0:0:0:0:
322,86,341473,1,0,0:0:0:0:
168,161,341616,5,6,0:0:0:0:
182,78,341759,1,0,0:0:0:0:
238,27,341902,1,0,0:0:0:0:
304,14,342045,1,0,0:0:0:0:
362,17,342187,1,0,0:0:0:0:
410,33,342330,1,0,0:0:0:0:
455,104,342473,5,2,0:0:0:0:
409,164,342616,1,0,0:0:0:0:
389,228,342759,1,0,0:0:0:0:
404,285,342902,1,0,0:0:0:0:
431,328,343045,1,0,0:0:0:0:
458,360,343187,1,0,0:0:0:0:
347,360,343330,5,6,0:0:0:0:
230,311,343473,1,0,0:0:0:0:
347,360,343616,1,0,0:0:0:0:
230,311,343759,1,0,0:0:0:0:
352,282,343902,2,0,P|396:297|419:329,1,83.9999974365235
455,205,344187,2,0,B|418:147|486:88|440:38,1,167.999994873047,2|0,0:0|0:0,0:0:0:0:
326,89,344616,2,0,P|241:116|161:96,1,167.999994873047
95,145,345045,5,6,0:0:0:0:
129,212,345187,1,0,0:0:0:0:
96,271,345330,1,0,0:0:0:0:
134,316,345473,1,0,0:0:0:0:
105,357,345616,1,0,0:0:0:0:
138,383,345759,1,0,0:0:0:0:
262,361,345902,6,0,P|309:344|348:352,1,83.9999974365235,2|0,0:0|0:0,0:0:0:0:
464,378,346187,1,0,0:0:0:0:
431,256,346330,2,0,B|386:183|465:183|421:88,1,167.999994873047
305,141,346759,6,0,L|266:157,1,41.9999987182618,6|0,0:0|0:0,0:0:0:0:
233,98,346902,2,0,L|203:70,1,41.9999987182618
184,156,347045,2,0,L|179:201,1,41.9999987182618
125,125,347187,2,0,L|109:83,1,41.9999987182618
79,162,347330,2,0,L|63:202,1,41.9999987182618
32,143,347473,2,0,L|38:100,1,41.9999987182618
9,168,347616,2,0,P|-1:228|12:348,1,167.999994873047,2|0,0:0|0:0,0:0:0:0:
128,373,348045,2,0,P|215:373|301:350,1,167.999994873047
407,300,348473,5,6,0:0:0:0:
407,300,348902,1,0,0:0:0:0:
382,118,349045,1,0,0:0:0:0:
299,281,349187,1,0,0:0:0:0:
465,156,349330,1,2,0:0:0:0:
465,156,349759,1,0,0:0:0:0:
486,317,349902,1,0,0:0:0:0:
343,208,350044,1,0,0:0:0:0:
455,73,350187,5,6,0:0:0:0:
455,73,350616,1,0,0:0:0:0:
463,241,350759,1,0,0:0:0:0:
349,322,350902,1,0,0:0:0:0:
221,262,351045,1,2,0:0:0:0:
221,262,351474,1,0,0:0:0:0:
349,322,351617,1,0,0:0:0:0:
463,241,351759,1,0,0:0:0:0:
221,262,351902,5,6,0:0:0:0:
107,341,352045,2,0,B|72:373|31:386,1,83.9999974365235
243,243,352330,1,0,0:0:0:0:
104,254,352473,2,0,B|57:265|16:255,1,83.9999974365235
271,237,352759,1,2,0:0:0:0:
145,177,352902,2,0,B|99:163|68:134,1,83.9999974365235
298,245,353187,1,0,0:0:0:0:
219,130,353330,2,0,B|186:95|173:54,1,83.9999974365235
309,30,353616,6,0,L|348:9,17,41.9999987182618,6|0|0|0|0|0|0|0|0|0|0|0|2|0|0|0|0|0,0:0|0:0|0:0|0:0|0:0|0:0|0:0|0:0|0:0|0:0|0:0|0:0|0:0|0:0|0:0|0:0|0:0|0:0,0:0:0:0:
401,41,354902,5,0,0:0:0:0:
412,45,355045,1,0,0:0:0:0:
423,49,355187,1,0,0:0:0:0:
504,145,355330,6,0,P|427:179|339:149,1,167.999994873047,6|0,0:0|0:0,0:0:0:0:
249,78,355759,2,0,B|179:135|259:175|163:241,1,167.999994873047
67,274,356187,2,0,B|107:349|107:349|207:352,1,167.999994873047
316,352,356616,2,0,P|361:353|404:336,1,83.9999974365235
503,269,356902,1,0,0:0:0:0:
402,192,357045,5,2,0:0:0:0:
449,76,357187,1,0,0:0:0:0:
331,122,357330,1,0,0:0:0:0:
214,170,357473,1,2,0:0:0:0:
96,216,357616,2,0,P|89:163|100:111,1,83.9999974365235
155,22,357902,6,0,L|115:0,1,41.9999987182618,10|0,0:0|0:0,0:0:0:0:
267,79,358045,2,0,L|227:57,1,41.9999987182618,8|0,0:0|0:0,0:0:0:0:
379,136,358187,2,0,L|339:115,1,41.9999987182618,8|0,0:0|0:0,0:0:0:0:
424,215,358330,2,0,B|376:249|376:249|319:270|261:253,1,167.999994873047,10|0,0:0|0:0,0:0:0:0:
144,235,358759,6,0,B|101:238|67:205|67:205|72:252|43:284,1,167.999994873047,6|0,0:0|0:0,0:0:0:0:
153,345,359187,2,0,P|227:357|329:340,1,167.999994873047
325,216,359616,2,0,B|367:212|401:245|401:245|396:198|424:167,1,167.999994873047
506,70,360045,2,0,P|464:47|410:41,1,83.9999974365235
302,45,360330,1,0,0:0:0:0:
179,76,360473,6,0,L|138:94,5,41.9999987182618,2|0|0|0|0|0,0:0|0:0|0:0|0:0|0:0|0:0,0:0:0:0:
97,139,360902,2,0,L|80:180,5,41.9999987182618,2|0|0|0|0|0,0:0|0:0|0:0|0:0|0:0|0:0,0:0:0:0:
83,242,361330,2,0,L|100:283,5,41.9999987182618,10|0|8|0|8|0,0:0|0:0|0:0|0:0|0:0|0:0,0:0:0:0:
131,335,361759,1,8,0:0:0:0:
5,381,361902,1,0,0:0:0:0:
168,338,362045,1,0,0:0:0:0:
237,320,362187,5,6,0:0:0:0:
312,295,362330,1,0,0:0:0:0:
363,226,362473,1,0,0:0:0:0:
351,134,362616,1,0,0:0:0:0:
290,56,362759,1,0,0:0:0:0:
194,13,362901,1,0,0:0:0:0:
82,23,363045,2,0,P|19:62|0:151,1,167.999994873047
27,246,363473,1,8,0:0:0:0:
143,294,363616,1,0,0:0:0:0:
230,202,363759,1,0,0:0:0:0:
314,108,363902,5,2,0:0:0:0:
418,36,364045,1,0,0:0:0:0:
471,149,364187,1,0,0:0:0:0:
367,221,364330,2,0,P|351:266|355:307,1,83.9999974365235,2|0,0:0|0:0,0:0:0:0:
478,277,364616,1,0,0:0:0:0:
386,363,364759,2,0,L|436:363,1,41.9999987182618,10|0,0:0|0:0,0:0:0:0:
259,365,364902,2,0,L|303:383,1,41.9999987182618,8|0,0:0|0:0,0:0:0:0:
142,317,365045,2,0,L|165:353,1,41.9999987182618,8|0,0:0|0:0,0:0:0:0:
86,225,365187,2,0,B|94:193|78:153|78:153|110:161|110:161|118:129|102:89,1,167.999994873047,10|0,0:0|0:0,0:0:0:0:
80,2,365616,5,6,0:0:0:0:
201,37,365759,1,8,0:0:0:0:
262,50,365830,1,8,0:0:0:0:
324,41,365902,1,8,0:0:0:0:
447,15,366045,1,2,0:0:0:0:
399,130,366187,1,0,0:0:0:0:
454,243,366330,1,0,0:0:0:0:
371,338,366473,5,6,0:0:0:0:
271,260,366616,1,8,0:0:0:0:
214,232,366687,1,8,0:0:0:0:
150,239,366759,1,8,0:0:0:0:
34,289,366902,1,2,0:0:0:0:
73,169,367045,1,0,0:0:0:0:
53,45,367187,1,0,0:0:0:0:
179,41,367330,6,0,L|224:31,5,41.9999987182618,6|0|0|0|0|0,0:0|0:0|0:0|0:0|0:0|0:0,0:0:0:0:
276,60,367759,2,0,L|321:70,5,41.9999987182618
379,60,368187,2,0,L|424:50,5,41.9999987182618,2|0|0|0|0|0,0:0|0:0|0:0|0:0|0:0|0:0,0:0:0:0:
483,43,368616,1,0,0:0:0:0:
506,166,368759,1,0,0:0:0:0:
482,17,368902,1,0,0:0:0:0:
405,141,369045,6,0,P|368:171|254:148,1,167.999994873047,6|0,0:0|0:0,0:0:0:0:
168,62,369473,2,0,P|131:131|150:222,1,167.999994873047
224,316,369902,2,0,P|284:314|391:351,1,167.999994873047,2|0,0:0|0:0,0:0:0:0:
506,383,370330,1,0,0:0:0:0:
434,279,370473,1,0,0:0:0:0:
316,233,370616,1,0,0:0:0:0:
419,160,370759,6,0,P|449:127|461:80,2,83.9999974365235,6|0|0,0:0|0:0|0:0,0:0:0:0:
311,94,371187,2,0,P|320:50|307:3,2,83.9999974365235,2|0|0,0:0|0:0|0:0,0:0:0:0:
184,90,371616,2,0,P|170:47|135:13,2,83.9999974365235,2|0|0,0:0|0:0|0:0,0:0:0:0:
72,150,372045,2,0,P|39:119|-8:107,2,83.9999974365235,2|0|0,0:0|0:0|0:0,0:0:0:0:
125,264,372473,6,0,P|168:337|250:363,1,167.999994873047,6|0,0:0|0:0,0:0:0:0:
370,358,372902,2,0,B|457:336|457:336|457:250,1,167.999994873047
454,131,373330,2,0,B|462:77|440:48|400:35|400:35|340:14,1,167.999994873047,2|0,0:0|0:0,0:0:0:0:
230,3,373759,1,0,0:0:0:0:
131,82,373902,1,0,0:0:0:0:
13,35,374045,1,0,0:0:0:0:
30,158,374187,6,0,L|7:240,2,83.9999974365235,6|0|0,0:0|0:0|0:0,0:0:0:0:
131,82,374616,2,0,L|154:0,2,83.9999974365235,2|0|0,0:0|0:0|0:0,0:0:0:0:
167,203,375045,2,0,L|144:285,2,83.9999974365235,2|0|0,0:0|0:0|0:0,0:0:0:0:
268,127,375474,2,0,L|291:45,2,83.9999974365235,2|0|0,0:0|0:0|0:0,0:0:0:0:
304,248,375902,5,6,0:0:0:0:
304,248,376330,1,0,0:0:0:0:
402,142,376473,1,0,0:0:0:0:
392,332,376616,1,0,0:0:0:0:
311,153,376759,1,2,0:0:0:0:
311,153,377187,1,0,0:0:0:0:
148,234,377330,1,0,0:0:0:0:
215,67,377473,1,0,0:0:0:0:
250,265,377616,5,6,0:0:0:0:
250,265,378045,1,0,0:0:0:0:
401,212,378187,1,0,0:0:0:0:
317,353,378330,1,0,0:0:0:0:
311,153,378473,1,2,0:0:0:0:
311,153,378902,1,0,0:0:0:0:
461,74,379045,1,0,0:0:0:0:
289,44,379187,1,0,0:0:0:0:
444,153,379330,5,6,0:0:0:0:
436,278,379473,2,0,L|473:300,2,41.9999987182618,8|8|8,0:0|0:0|0:0,0:0:0:0:
321,333,379759,2,0,P|278:344|244:369,2,83.9999974365235,2|0|0,0:0|0:0|0:0,0:0:0:0:
330,207,380187,5,6,0:0:0:0:
292,86,380330,1,8,0:0:0:0:
238,51,380402,1,8,0:0:0:0:
175,54,380473,1,8,0:0:0:0:
57,100,380616,1,2,0:0:0:0:
47,225,380759,1,0,0:0:0:0:
135,315,380902,1,0,0:0:0:0:
257,316,381045,5,6,0:0:0:0:
310,317,381116,1,0,0:0:0:0:
360,299,381187,1,0,0:0:0:0:
398,261,381259,1,0,0:0:0:0:
418,211,381330,1,0,0:0:0:0:
415,157,381402,1,0,0:0:0:0:
391,128,381473,5,2,0:0:0:0:
366,81,381544,1,0,0:0:0:0:
325,46,381615,1,0,0:0:0:0:
273,37,381687,1,0,0:0:0:0:
220,41,381758,1,0,0:0:0:0:
174,70,381830,1,0,0:0:0:0:
161,106,381902,5,2,0:0:0:0:
132,151,381973,1,0,0:0:0:0:
123,203,382044,1,0,0:0:0:0:
141,253,382116,1,0,0:0:0:0:
171,297,382187,1,0,0:0:0:0:
219,322,382259,1,0,0:0:0:0:
257,338,382330,6,0,L|301:329,5,41.9999987182618,2|0|0|0|0|0,0:0|0:0|0:0|0:0|0:0|0:0,0:0:0:0:
346,320,382759,5,6,0:0:0:0:
346,320,383045,1,0,0:0:0:0:
401,194,383187,1,0,0:0:0:0:
401,194,383473,1,0,0:0:0:0:
386,42,383616,1,2,0:0:0:0:
319,185,383759,1,0,0:0:0:0:
466,62,383902,1,0,0:0:0:0:
271,123,384045,1,0,0:0:0:0:
271,123,384330,1,0,0:0:0:0:
108,191,384473,5,6,0:0:0:0:
191,37,384616,1,0,0:0:0:0:
191,191,384759,1,0,0:0:0:0:
108,37,384902,1,0,0:0:0:0:
25,191,385045,1,0,0:0:0:0:
108,347,385187,1,0,0:0:0:0:
191,191,385330,2,0,P|203:160|231:117,1,66.0000020141602,2|0,0:0|0:0,0:0:0:0:
381,16,385759,2,0,P|406:11|421:11,5,33.0000010070801
462,11,386187,5,6,0:0:0:0:
462,11,386473,1,0,0:0:0:0:
426,162,386616,1,0,0:0:0:0:
426,162,386902,1,0,0:0:0:0:
390,313,387045,1,2,0:0:0:0:
489,203,387187,1,0,0:0:0:0:
325,274,387330,1,0,0:0:0:0:
361,123,387473,1,0,0:0:0:0:
361,123,387759,1,0,0:0:0:0:
210,87,387902,5,6,0:0:0:0:
78,195,388045,1,0,0:0:0:0:
122,37,388187,1,0,0:0:0:0:
170,195,388330,1,0,0:0:0:0:
122,335,388473,1,0,0:0:0:0:
9,254,388616,1,0,0:0:0:0:
39,87,388759,1,2,0:0:0:0:
227,75,389187,2,0,B|272:67|272:85|317:73,1,83.9999974365235
391,16,389616,6,0,P|416:78|390:141,1,132.00000402832,6|0,0:0|0:0,0:0:0:0:
327,210,390045,2,0,B|266:293|266:293|235:275,1,132.00000402832,8|0,0:0|0:0,0:0:0:0:
166,212,390473,2,0,P|145:246|141:282,2,66.0000020141602,10|8|8,0:0|0:0|0:0,0:0:0:0:
236,140,390902,2,0,L|283:88,1,66.0000020141602,8|0,0:0|0:0,0:0:0:0:
280,91,391116,1,8,0:0:0:0:
280,91,391187,1,8,0:0:0:0:
361,34,391330,5,6,0:0:0:0:
459,43,391473,1,0,0:0:0:0:
487,137,391616,1,0,0:0:0:0:
451,229,391759,2,0,P|434:261|406:286,1,66.0000020141602,8|0,0:0|0:0,0:0:0:0:
330,337,392045,1,0,0:0:0:0:
236,306,392187,2,0,B|253:274|253:274|281:249,1,66.0000020141602,2|0,0:0|0:0,0:0:0:0:
398,98,392616,2,0,P|331:113|264:85,1,132.00000402832,8|0,0:0|0:0,0:0:0:0:
231,64,392973,1,8,0:0:0:0:
195,29,393045,6,0,P|125:10|67:42,1,132.00000402832,14|0,0:0|0:0,0:0:0:0:
22,119,393473,2,0,B|0:182|0:182|22:248,1,132.00000402832,8|0,0:0|0:0,0:0:0:0:
110,287,393902,2,0,P|90:317|63:338,2,66.0000020141602,10|8|8,0:0|0:0|0:0,0:0:0:0:
146,194,394330,2,0,B|209:172|209:172|275:194,1,132.00000402832,8|0,0:0|0:0,0:0:0:0:
362,231,394759,5,6,0:0:0:0:
368,89,394902,1,0,0:0:0:0:
270,192,395045,1,0,0:0:0:0:
150,266,395187,2,0,P|112:260|87:237,1,66.0000020141602
46,141,395473,1,0,0:0:0:0:
117,51,395616,1,2,0:0:0:0:
403,28,396045,2,0,P|426:93|410:159,1,132.00000402832,8|0,0:0|0:0,0:0:0:0:
375,244,396473,6,0,P|419:249|447:256,2,66.0000020141602,6|0|0,0:0|0:0|0:0,0:0:0:0:
275,245,396902,1,0,0:0:0:0:
178,265,397045,1,0,0:0:0:0:
85,230,397187,1,0,0:0:0:0:
65,132,397330,6,0,P|67:88|58:57,2,66.0000020141602,2|0|0,0:0|0:0|0:0,0:0:0:0:
85,230,397759,2,0,P|83:274|92:305,2,66.0000020141602
65,132,398187,6,0,P|21:127|-7:120,2,66.0000020141602,6|0|0,0:0|0:0|0:0,0:0:0:0:
165,131,398616,1,0,0:0:0:0:
262,111,398759,1,0,0:0:0:0:
355,146,398901,1,0,0:0:0:0:
375,244,399044,6,0,P|373:288|382:319,1,66.0000020141602,2|0,0:0|0:0,0:0:0:0:
471,272,399330,1,0,0:0:0:0:
472,172,399473,2,0,P|474:152|470:136,5,33.0000010070801
451,93,399902,6,0,P|438:62|435:23,2,66.0000020141602,6|0|0,0:0|0:0|0:0,0:0:0:0:
375,157,400330,1,0,0:0:0:0:
285,113,400473,1,0,0:0:0:0:
197,158,400616,1,0,0:0:0:0:
110,206,400759,6,0,P|79:219|40:222,2,66.0000020141602,2|0|0,0:0|0:0|0:0,0:0:0:0:
197,158,401187,2,0,P|228:145|267:142,2,66.0000020141602
110,206,401616,6,0,P|97:175|94:136,2,66.0000020141602,6|0|0,0:0|0:0|0:0,0:0:0:0:
166,288,402045,1,0,0:0:0:0:
262,271,402187,1,0,0:0:0:0:
343,326,402330,1,0,0:0:0:0:
414,257,402473,6,0,P|441:234|453:200,1,66.0000020141602,2|0,0:0|0:0,0:0:0:0:
475,109,402759,1,0,0:0:0:0:
390,57,402902,2,0,P|358:64|326:57,1,66.0000020141602
233,21,403187,1,0,0:0:0:0:
151,77,403330,6,0,P|138:46|138:5,2,66.0000020141602,6|0|0,0:0|0:0|0:0,0:0:0:0:
208,158,403759,1,0,0:0:0:0:
275,230,403902,1,0,0:0:0:0:
275,329,404045,1,0,0:0:0:0:
132,248,404187,5,2,0:0:0:0:
80,112,404330,1,0,0:0:0:0:
197,67,404473,1,0,0:0:0:0:
301,85,404616,1,0,0:0:0:0:
378,47,404759,2,0,P|387:87|381:110,1,66.0000020141602
380,120,405045,5,14,0:0:0:0:
379,130,405187,1,8,0:0:0:0:
378,140,405330,1,8,0:0:0:0:
377,150,405473,1,8,0:0:0:0:
376,160,405616,1,8,0:0:0:0:
375,170,405759,1,8,0:0:0:0:
373,181,405902,2,0,P|372:219|358:253,1,66.0000020141602,10|0,0:0|0:0,0:0:0:0:
309,328,406187,1,0,0:0:0:0:
210,338,406330,2,0,L|176:344,5,33.0000010070801
128,353,406759,6,0,P|94:360|60:352,2,66.0000020141602,6|0|0,0:0|0:0|0:0,0:0:0:0:
97,258,407187,1,0,0:0:0:0:
57,166,407330,1,0,0:0:0:0:
118,88,407473,1,0,0:0:0:0:
178,9,407616,6,0,P|223:12|247:3,2,66.0000020141602,2|0|0,0:0|0:0|0:0,0:0:0:0:
118,88,408045,2,0,P|73:85|49:94,2,66.0000020141602
178,9,408473,6,0,P|158:12|141:9,11,33.0000010070801,6|0|0|0|0|0|0|0|0|0|0|0,0:0|0:0|0:0|0:0|0:0|0:0|0:0|0:0|0:0|0:0|0:0|0:0,0:0:0:0:
195,6,409330,2,0,P|243:13|294:77,1,132.00000402832,2|0,0:0|0:0,0:0:0:0:
309,173,409759,2,0,P|344:226|407:241,1,132.00000402832
378,336,410187,6,0,P|316:315|255:265,1,132.00000402832,6|0,0:0|0:0,0:0:0:0:
241,372,410616,2,0,P|197:323|169:249,1,132.00000402832
104,334,411045,2,0,P|90:270|103:191,1,132.00000402832
4,233,411473,2,0,P|24:171|74:110,1,132.00000402832,0|0,2:0|2:0,2:0:0:0:
138,51,411902,6,0,P|108:26|68:19,2,66.0000020141602,2|0|0,0:0|0:0|0:0,0:0:0:0:
236,63,412330,2,0,P|222:26|191:0,2,66.0000020141602
314,122,412759,2,0,P|320:83|306:45,2,66.0000020141602
352,212,413187,2,0,P|362:202|371:185,5,33.0000010070801
387,138,413616,6,0,P|396:105|394:68,2,66.0000020141602,6|0|0,0:0|0:0|0:0,0:0:0:0:
451,214,414045,2,0,P|442:247|444:284,2,66.0000020141602
352,212,414473,2,0,P|319:203|282:205,2,66.0000020141602
308,301,414902,2,0,P|299:334|301:371,2,66.0000020141602
214,268,415330,5,2,0:0:0:0:
122,230,415473,1,0,0:0:0:0:
44,291,415616,1,0,0:0:0:0:
10,197,415759,2,0,P|24:163|21:123,1,66.0000020141602
8,35,416045,1,0,0:0:0:0:
98,73,416187,2,0,P|114:77|135:77,11,33.0000010070801
181,77,417045,6,0,P|216:75|246:66,2,66.0000020141602,6|0|0,0:0|0:0|0:0,0:0:0:0:
143,168,417473,2,0,P|108:170|78:179,2,66.0000020141602
221,229,417902,2,0,P|256:227|286:218,2,66.0000020141602,2|0|0,0:0|0:0|0:0,0:0:0:0:
183,320,418330,2,0,P|148:322|118:331,2,66.0000020141602
289,310,418759,6,0,P|329:313|357:308,2,66.0000020141602,6|0|0,0:0|0:0|0:0,0:0:0:0:
221,229,419187,2,0,P|181:226|153:231,2,66.0000020141602
288,138,419616,2,0,P|328:141|356:136,2,66.0000020141602,2|0|0,0:0|0:0|0:0,0:0:0:0:
208,57,420045,2,0,P|168:54|140:59,2,66.0000020141602
325,77,420473,6,0,P|365:83|393:102,1,66.0000020141602,6|0,0:0|0:0,0:0:0:0:
461,189,420759,1,0,0:0:0:0:
459,307,420902,2,0,P|419:301|391:282,1,66.0000020141602
323,195,421188,1,0,0:0:0:0:
225,117,421330,6,0,P|186:109|154:113,1,66.0000020141602,2|0,0:0|0:0,0:0:0:0:
38,145,421616,1,0,0:0:0:0:
136,223,421759,2,0,P|175:231|207:227,1,66.0000020141602
323,195,422045,1,0,0:0:0:0:
426,114,422187,5,6,0:0:0:0:
442,245,422330,1,0,0:0:0:0:
335,323,422473,1,0,0:0:0:0:
196,320,422616,1,0,0:0:0:0:
85,236,422759,1,0,0:0:0:0:
90,97,422902,1,0,0:0:0:0:
221,51,423045,6,0,P|244:40|258:37,11,33.0000010070801,2|0|0|0|0|0|0|0|0|0|0|0,0:0|0:0|0:0|0:0|0:0|0:0|0:0|0:0|0:0|0:0|0:0|0:0,0:0:0:0:
289,39,423902,6,0,B|297:55|297:55|314:65|314:65|321:81|321:81|340:95,1,71.9999978027344,6|0,0:0|0:0,0:0:0:0:
370,131,424330,2,0,B|378:147|378:147|395:157|395:157|402:173|402:173|421:187,1,71.9999978027344
452,223,424759,2,0,B|443:239|443:239|426:249|426:249|419:265|419:265|401:279,1,71.9999978027344
371,315,425187,2,0,B|362:331|362:331|345:341|345:341|338:357|338:357|320:371,1,71.9999978027344
271,374,425616,2,0,B|262:357|262:357|245:347|245:347|238:331|238:331|220:318,1,71.9999978027344
188,282,426045,2,0,B|196:265|196:265|213:255|213:255|220:239|220:239|239:226,1,71.9999978027344
272,191,426473,2,0,B|291:188|291:188|291:167,2,35.9999989013672,8|8|8,0:0|0:0|0:0,0:0:0:0:
233,229,426902,2,0,B|220:239|220:239|213:255|213:255|196:265|196:265|188:282,1,71.9999978027344,8|0,0:0|0:0,0:0:0:0:
141,324,427330,6,0,L|76:244,1,83.9999974365235,6|0,0:0|0:0,0:0:0:0:
44,213,427759,2,0,B|55:186|55:186|42:158|42:158|54:122,1,83.9999974365235
76,78,428187,2,0,B|103:89|103:89|131:76|131:76|167:88,1,83.9999974365235
210,111,428616,2,0,B|237:122|237:122|265:109|265:109|301:121,1,83.9999974365235
345,143,429045,2,0,B|334:170|334:170|347:198|347:198|335:234,1,83.9999974365235
316,279,429473,2,0,B|305:306|305:306|318:334|318:334|306:370,1,83.9999974365235
250,379,429902,2,0,L|206:383,2,41.9999987182618,8|8|8,0:0|0:0|0:0,0:0:0:0:
310,356,430330,2,0,L|320:332,5,20.9999993591309,8|0|0|0|0|0,0:0|0:0|0:0|0:0|0:0|0:0,0:0:0:0:
332,304,430759,6,0,L|363:212,1,96,6|0,0:0|0:0,0:0:0:0:
302,172,431187,2,0,L|271:264,1,96
211,222,431616,2,0,L|180:314,1,96
241,354,432044,2,0,L|272:262,1,96
295,194,432473,2,0,L|326:102,1,96
265,62,432901,2,0,L|234:154,1,96
206,219,433330,2,0,L|188:266,2,48,8|8|8,0:0|0:0|0:0,0:0:0:0:
234,152,433759,2,0,L|265:62,1,96,8|0,0:0|0:0,0:0:0:0:
318,1,434187,6,0,P|341:39|334:101,1,107.999996704102,6|0,0:0|0:0,0:0:0:0:
414,117,434616,2,0,P|392:155|335:180,1,107.999996704102
361,258,435045,2,0,P|316:258|266:221,1,107.999996704102
212,283,435473,2,0,P|189:245|196:182,1,107.999996704102
116,166,435902,2,0,P|137:127|194:102,1,107.999996704102
168,24,436330,2,0,P|212:23|262:60,1,107.999996704102
318,1,436759,2,0,P|341:39|334:101,1,107.999996704102
414,117,437187,2,0,P|393:154|337:179,1,107.999996704102
235,183,437616,6,0,P|125:206|92:279,3,198.000006042481,6|0|0|0,0:0|0:0|0:0|0:0,0:0:0:0:
338,110,439330,2,0,P|448:87|481:14,3,198.000006042481,6|0|0|0,0:0|0:0|0:0|0:0,0:0:0:0:
188,74,441045,2,0,P|106:2|20:6,3,198.000006042481,6|0|0|0,0:0|0:0|0:0|0:0,0:0:0:0:
0,302,442759,2,0,P|81:373|168:370,3,198.000006042481,6|0|0|0,0:0|0:0|0:0|0:0,0:0:0:0:
266,379,444187,1,8,0:0:0:0:
370,349,444330,1,8,0:0:0:0:
444,298,444473,6,0,P|365:260|288:306,3,180,6|0|0|0,0:0|0:0|0:0|0:0,0:0:0:0:
70,199,446187,2,0,P|108:132|80:53,3,161.999995056153,6|0|0|0,0:0|0:0|0:0|0:0,0:0:0:0:
303,61,447902,2,0,P|368:39|436:66,3,144,6|0|0|0,0:0|0:0|0:0|0:0,0:0:0:0:
373,244,449616,2,0,P|350:303|365:364,3,125.999996154785,6|0|0|0,0:0|0:0|0:0|0:0,0:0:0:0:
278,257,451330,6,0,P|169:250|239:318,1,270,6|0,0:0|0:0,0:0:0:0:
294,255,453045,6,0,P|153:245|243:333,1,350.999983932496,6|0,0:0|0:0,0:0:0:0:
310,253,454759,6,0,P|136:241|247:349,1,432,6|0,0:0|0:0,0:0:0:0:
326,250,456473,6,0,P|120:236|252:365,1,512.999986301423,6|0,0:0|0:0,0:0:0:0:
432,129,458187,6,0,P|405:74|328:63,1,132.00000402832,6|0,0:0|0:0,0:0:0:0:
247,95,458616,2,0,B|219:119|207:147|207:147|195:119|167:95,1,132.00000402832
90,31,459045,1,8,0:0:0:0:
66,208,459187,1,8,0:0:0:0:
18,65,459330,1,8,0:0:0:0:
140,245,459473,1,8,0:0:0:0:
140,245,459902,6,0,P|205:279|274:253,1,132.00000402832,2|0,0:0|0:0,0:0:0:0:
344,215,460330,1,8,0:0:0:0:
396,65,460473,1,8,0:0:0:0:
279,168,460616,1,8,0:0:0:0:
445,125,460759,1,8,0:0:0:0:
403,263,460902,1,8,0:0:0:0:
321,65,461045,1,8,0:0:0:0:
467,201,461187,1,8,0:0:0:0:
467,201,461616,6,0,P|490:272|461:330,1,132.00000402832,6|0,0:0|0:0,0:0:0:0:
370,306,462045,2,0,B|311:278|311:278|251:306,1,132.00000402832,0|8,0:0|0:0,0:0:0:0:
208,333,462402,1,8,0:0:0:0:
166,358,462473,1,8,0:0:0:0:
68,373,462616,1,8,0:0:0:0:
22,275,462759,1,8,0:0:0:0:
88,132,462902,1,8,0:0:0:0:
88,132,463330,6,0,P|154:86|225:89,1,132.00000402832,2|0,0:0|0:0,0:0:0:0:
303,84,463759,1,8,0:0:0:0:
413,183,463902,1,8,0:0:0:0:
241,154,464045,1,8,0:0:0:0:
367,265,464187,1,8,0:0:0:0:
403,87,464330,1,8,0:0:0:0:
412,80,464473,1,8,0:0:0:0:
421,73,464616,1,8,0:0:0:0:
430,66,464759,1,8,0:0:0:0:
439,59,464902,1,8,0:0:0:0:
450,52,465045,6,0,B|496:100|496:100|450:146,1,132.00000402832,6|0,0:0|0:0,0:0:0:0:
366,199,465473,2,0,P|303:226|230:212,1,132.00000402832
156,166,465902,1,8,0:0:0:0:
220,290,466045,1,8,0:0:0:0:
231,140,466187,1,8,0:0:0:0:
99,296,466330,1,8,0:0:0:0:
99,296,466759,6,0,L|49:162,1,132.00000402832,2|0,0:0|0:0,0:0:0:0:
17,79,467187,1,8,0:0:0:0:
152,212,467330,1,8,0:0:0:0:
95,56,467473,1,8,0:0:0:0:
230,189,467616,1,8,0:0:0:0:
173,33,467759,1,8,0:0:0:0:
52,172,467902,1,8,0:0:0:0:
259,85,468045,1,8,0:0:0:0:
259,85,468473,6,0,B|333:60|333:60|372:48|404:80,1,132.00000402832,6|0,0:0|0:0,0:0:0:0:
470,116,468902,2,0,P|501:137|479:228,1,132.00000402832
407,276,469330,1,8,0:0:0:0:
276,315,469473,1,8,0:0:0:0:
364,210,469616,1,8,0:0:0:0:
202,291,469759,1,8,0:0:0:0:
202,291,470187,6,0,B|132:277|132:277|128:217,1,132.00000402832,2|0,0:0|0:0,0:0:0:0:
128,116,470616,1,8,0:0:0:0:
47,258,470759,1,8,0:0:0:0:
209,136,470902,1,8,0:0:0:0:
27,177,471045,1,8,0:0:0:0:
226,215,471187,1,8,0:0:0:0:
341,279,471330,1,8,0:0:0:0:
436,208,471473,2,0,B|444:188|444:188|432:168|432:168|440:144|440:144|436:116,1,96
488,32,471902,6,0,P|424:20|364:52,1,132.00000402832,6|0,0:0|0:0,0:0:0:0:
300,124,472330,2,0,L|208:224,1,132.00000402832
140,292,472759,1,8,0:0:0:0:
31,287,472902,1,8,0:0:0:0:
150,281,473045,1,8,0:0:0:0:
269,351,473187,2,0,P|337:365|398:337,1,132.00000402832,8|0,0:0|0:0,0:0:0:0:
473,282,473616,6,0,P|441:220|442:150,1,132.00000402832,2|0,0:0|0:0,0:0:0:0:
469,63,474045,1,8,0:0:0:0:
350,2,474187,1,8,0:0:0:0:
325,149,474330,1,8,0:0:0:0:
422,10,474473,1,8,0:0:0:0:
263,113,474616,1,8,0:0:0:0:
150,72,474759,1,8,0:0:0:0:
79,164,474902,2,0,P|69:222|104:284,1,132.00000402832,8|0,0:0|0:0,0:0:0:0:
185,339,475330,6,0,B|248:359|248:359|310:339,1,132.00000402832,6|0,0:0|0:0,0:0:0:0:
402,299,475759,2,0,P|383:229|401:172,1,132.00000402832
458,94,476187,1,8,0:0:0:0:
486,235,476330,1,8,0:0:0:0:
470,79,476473,1,8,0:0:0:0:
287,44,476616,2,0,B|237:71|203:30|151:52,1,132.00000402832,8|0,0:0|0:0,0:0:0:0:
61,75,477045,6,0,P|102:136|158:152,1,132.00000402832,2|0,0:0|0:0,0:0:0:0:
254,157,477473,1,8,0:0:0:0:
394,204,477615,1,8,0:0:0:0:
232,230,477759,1,8,0:0:0:0:
416,131,477901,1,8,0:0:0:0:
292,273,478045,1,8,0:0:0:0:
356,88,478187,1,8,0:0:0:0:
365,270,478330,2,0,P|380:297|406:328,2,66.0000020141602,8|8|8,0:0|0:0|0:0,0:0:0:0:
283,91,478759,6,0,P|217:54|151:68,1,132.00000402832,6|0,0:0|0:0,0:0:0:0:
77,110,479187,2,0,P|62:174|84:239,1,132.00000402832
141,315,479616,2,0,P|100:332|68:333,2,66.0000020141602,8|8|8,0:0|0:0|0:0,0:0:0:0:
228,266,480045,2,0,B|262:245|262:245|269:254|269:254|303:233|303:233|310:242|310:242|345:222,1,132.00000402832,8|0,0:0|0:0,0:0:0:0:
424,182,480473,6,0,P|465:120|421:84,1,132.00000402832,2|0,0:0|0:0,0:0:0:0:
334,70,480902,1,8,0:0:0:0:
253,127,481045,1,8,0:0:0:0:
140,93,481187,1,8,0:0:0:0:
59,150,481330,1,8,0:0:0:0:
71,268,481473,1,8,0:0:0:0:
152,211,481616,1,8,0:0:0:0:
151,330,481759,2,0,B|183:313|183:313|214:309|214:309|228:280|228:280|259:254,1,132.00000402832,8|0,0:0|0:0,0:0:0:0:
280,168,482187,6,0,B|280:136|280:136|304:112|304:112|336:112|336:112|360:136|360:136|360:168|360:168|384:192|384:192|416:192|416:192|440:168|440:168|440:136,1,264.000008056641,6|0,0:0|0:0,0:0:0:0:
440,72,482902,2,0,B|384:16|384:16|256:16|256:16|176:96|176:96|176:192|176:192,1,396.000012084961
177,270,483902,6,0,B|159:304|159:304|132:321,2,66.0000020141602,2|0|0,0:0|0:0|0:0,0:0:0:0:
262,220,484330,2,0,B|300:221|300:221|328:206,2,66.0000020141602
176,171,484759,2,0,L|176:148,22,16.5000005035401
176,104,485616,6,0,B|216:80|256:104|256:104|296:128|336:104,1,167.999994873047,6|0,0:0|0:0,0:0:0:0:
438,30,486045,2,0,P|465:5|510:0,2,83.9999974365235,8|0|0,0:0|0:0|0:0,0:0:0:0:
445,155,486473,2,0,L|462:177,1,20.9999993591309
431,263,486616,1,0,0:0:0:0:
306,283,486759,1,0,0:0:0:0:
208,363,486902,2,0,B|161:350|161:350|121:366|121:366|127:328|127:328|105:297,1,167.999994873047,8|0,0:0|0:0,0:0:0:0:
29,196,487330,5,2,0:0:0:0:
155,49,487473,1,0,0:0:0:0:
328,86,487616,1,0,0:0:0:0:
349,244,487759,1,8,0:0:0:0:
222,308,487902,1,0,0:0:0:0:
119,235,488045,1,0,0:0:0:0:
160,128,488187,2,0,B|204:120|204:120|196:128|196:128|244:120|244:120|236:128|236:128|284:120|284:120|276:128|276:128,1,167.999994873047
248,236,488616,1,8,0:0:0:0:
360,136,488759,1,8,0:0:0:0:
308,329,488902,1,8,0:0:0:0:
448,188,489045,6,0,P|456:104|388:36,1,167.999994873047,6|0,0:0|0:0,0:0:0:0:
285,4,489473,2,0,P|245:17|199:18,1,83.9999974365235,8|0,0:0|0:0,0:0:0:0:
76,14,489759,1,0,0:0:0:0:
76,140,489902,1,0,0:0:0:0:
161,232,490045,1,0,0:0:0:0:
286,231,490187,1,0,0:0:0:0:
367,134,490330,2,0,B|281:112|281:112|206:145,1,167.999994873047,8|0,0:0|0:0,0:0:0:0:
97,206,490759,5,2,0:0:0:0:
286,231,490902,1,0,0:0:0:0:
137,355,491045,1,0,0:0:0:0:
350,335,491187,2,0,P|396:328|437:339,2,83.9999974365235,8|0|0,0:0|0:0|0:0,0:0:0:0:
228,373,491616,2,0,P|234:282|307:222,1,167.999994873047
389,194,492045,1,8,0:0:0:0:
472,43,492187,1,8,0:0:0:0:
481,235,492330,1,8,0:0:0:0:
345,57,492473,6,0,P|250:42|166:67,1,167.999994873047,6|0,0:0|0:0,0:0:0:0:
72,125,492902,1,8,0:0:0:0:
42,247,493045,1,0,0:0:0:0:
106,354,493187,1,0,0:0:0:0:
294,377,493330,1,0,0:0:0:0:
128,282,493473,1,0,0:0:0:0:
303,194,493616,1,0,0:0:0:0:
148,97,493759,2,0,P|208:29|298:4,1,167.999994873047,8|0,0:0|0:0,0:0:0:0:
405,5,494187,5,2,0:0:0:0:
506,158,494330,1,0,0:0:0:0:
303,194,494473,1,0,0:0:0:0:
504,240,494616,2,0,P|511:194|499:140,1,83.9999974365235,8|0,0:0|0:0,0:0:0:0:
303,194,494902,1,0,0:0:0:0:
109,89,495045,1,0,0:0:0:0:
123,294,495187,1,0,0:0:0:0:
177,75,495330,1,0,0:0:0:0:
193,349,495473,2,0,P|285:368|374:343,1,167.999994873047,8|0,0:0|0:0,0:0:0:0:
443,304,495902,6,0,B|473:241|473:241|446:173,1,132.00000402832,6|0,0:0|0:0,0:0:0:0:
436,155,496330,1,2,0:0:0:0:
421,126,496473,1,0,0:0:0:0:
406,97,496616,1,0,0:0:0:0:
391,68,496759,6,0,L|289:60,1,96,6|0,0:0|0:0,0:0:0:0:
274,58,497187,1,2,0:0:0:0:
253,58,497330,1,0,0:0:0:0:
232,58,497473,1,0,0:0:0:0:
211,58,497616,6,0,P|180:83|167:107,1,60,6|0,0:0|0:0,0:0:0:0:
167,110,498045,1,2,0:0:0:0:
164,120,498187,1,0,0:0:0:0:
161,130,498330,1,0,0:0:0:0:
158,140,498473,1,8,0:0:0:0:
207,255,498616,1,8,0:0:0:0:
329,286,498759,1,8,0:0:0:0:
438,222,498902,2,0,P|492:150|489:68,1,167.999994873047,8|0,0:0|0:0,0:0:0:0:
368,105,499330,6,0,B|328:128|288:104|288:104|248:80|208:104,1,167.999994873047,6|0,0:0|0:0,0:0:0:0:
103,174,499759,2,0,P|89:218|96:263,1,83.9999974365235,8|0,0:0|0:0,0:0:0:0:
152,367,500045,1,0,0:0:0:0:
276,375,500187,2,0,L|282:351,1,20.9999993591309,8|0,0:0|0:0,0:0:0:0:
378,254,500330,1,8,0:0:0:0:
285,111,500473,1,8,0:0:0:0:
439,11,500616,2,0,P|482:91|461:183,1,167.999994873047,8|0,0:0|0:0,0:0:0:0:
378,254,501045,5,2,0:0:0:0:
271,359,501187,1,0,0:0:0:0:
234,214,501330,1,0,0:0:0:0:
367,256,501473,1,8,0:0:0:0:
274,348,501615,1,0,0:0:0:0:
241,222,501758,1,0,0:0:0:0:
202,100,501902,2,0,P|135:158|116:238,1,167.999994873047,8|0,0:0|0:0,0:0:0:0:
143,355,502330,2,0,P|95:359|57:344,2,83.9999974365235
258,302,502759,6,0,B|304:263|304:263|348:263|348:263|401:222,1,167.999994873047,6|8,0:0|0:0,0:0:0:0:
398,224,503116,1,8,0:0:0:0:
398,224,503187,1,8,0:0:0:0:
416,72,503330,1,0,0:0:0:0:
337,183,503473,1,0,0:0:0:0:
293,66,503616,1,8,0:0:0:0:
196,243,503759,1,8,0:0:0:0:
221,27,503902,1,8,0:0:0:0:
111,208,504045,2,0,P|125:305|210:336,1,167.999994873047,8|0,0:0|0:0,0:0:0:0:
303,310,504473,5,2,0:0:0:0:
390,219,504616,1,0,0:0:0:0:
387,92,504759,1,0,0:0:0:0:
303,310,504902,2,0,P|261:330|220:332,1,83.9999974365235,8|0,0:0|0:0,0:0:0:0:
109,279,505187,1,0,0:0:0:0:
53,158,505330,1,8,0:0:0:0:
151,27,505473,1,8,0:0:0:0:
117,185,505616,1,8,0:0:0:0:
303,81,505759,1,8,0:0:0:0:
303,81,506045,1,8,0:0:0:0:
428,86,506187,6,0,P|398:172|325:209,1,167.999994873047,6|0,0:0|0:0,0:0:0:0:
211,242,506616,2,0,B|172:256|172:256|171:251|171:251|136:266,1,83.9999974365235,8|0,0:0|0:0,0:0:0:0:
22,321,506902,1,0,0:0:0:0:
47,197,507045,1,2,0:0:0:0:
116,87,507187,1,2,0:0:0:0:
35,217,507330,1,2,0:0:0:0:
230,123,507473,1,2,0:0:0:0:
230,123,507902,6,0,P|235:83|220:40,2,83.9999974365235,2|0|0,0:0|0:0|0:0,0:0:0:0:
175,236,508330,1,0,0:0:0:0:
253,334,508473,1,0,0:0:0:0:
379,334,508616,1,0,0:0:0:0:
458,157,508759,1,8,0:0:0:0:
304,57,508902,1,8,0:0:0:0:
172,181,509045,1,8,0:0:0:0:
330,35,509187,2,0,P|420:19|471:70,1,167.999994873047,8|0,0:0|0:0,0:0:0:0:
486,203,509616,6,0,P|429:298|362:332,1,180.000006866455,6|0,0:0|0:0,0:0:0:0:
95,353,510045,1,8,0:0:0:0:
340,181,510187,1,8,0:0:0:0:
70,263,510330,1,8,0:0:0:0:
280,88,510473,6,0,P|360:71|440:141,1,180.000006866455,6|0,0:0|0:0,0:0:0:0:
479,335,510902,1,8,0:0:0:0:
340,181,511045,1,8,0:0:0:0:
184,345,511187,1,8,0:0:0:0:
88,127,511330,6,0,B|111:88|134:51|134:51|178:68|221:78,1,180.000006866455,6|0,0:0|0:0,0:0:0:0:
414,97,511759,1,8,0:0:0:0:
206,166,511902,1,8,0:0:0:0:
460,176,512045,1,8,0:0:0:0:
54,266,512187,6,0,B|29:272|29:272|23:284|23:284|-2:292,2,60,6|0|0,0:0|0:0|0:0,0:0:0:0:
130,260,513045,6,0,P|103:205|26:194,1,132.00000402832,6|0,0:0|0:0,0:0:0:0:
36,90,513474,2,0,B|72:85|101:95|101:95|88:67|89:30,1,132.00000402832
187,46,513902,1,8,0:0:0:0:
207,196,514045,1,8,0:0:0:0:
263,43,514188,1,8,0:0:0:0:
142,158,514331,1,8,0:0:0:0:
142,158,514760,6,0,P|143:231|211:271,1,132.00000402832,2|0,0:0|0:0,0:0:0:0:
279,297,515188,1,8,0:0:0:0:
136,336,515331,1,8,0:0:0:0:
207,196,515474,1,8,0:0:0:0:
326,362,515617,1,8,0:0:0:0:
398,180,515760,1,8,0:0:0:0:
207,196,515903,1,8,0:0:0:0:
418,294,516045,1,8,0:0:0:0:
418,294,516474,6,0,P|434:232|397:179,1,132.00000402832,6|0,0:0|0:0,0:0:0:0:
312,127,516903,2,0,B|250:93|183:130,1,132.00000402832,0|8,0:0|0:0,0:0:0:0:
140,150,517260,1,8,0:0:0:0:
102,181,517331,1,8,0:0:0:0:
36,255,517474,1,8,0:0:0:0:
108,366,517617,1,8,0:0:0:0:
207,196,517760,1,8,0:0:0:0:
207,196,518188,6,0,P|253:262|250:333,1,132.00000402832,2|0,0:0|0:0,0:0:0:0:
158,289,518617,1,8,0:0:0:0:
356,235,518760,1,8,0:0:0:0:
195,107,518903,1,8,0:0:0:0:
415,176,519045,1,8,0:0:0:0:
359,93,519188,1,8,0:0:0:0:
352,84,519331,1,8,0:0:0:0:
345,75,519474,1,8,0:0:0:0:
338,66,519617,1,8,0:0:0:0:
331,57,519760,1,8,0:0:0:0:
324,46,519903,6,0,B|372:0|372:0|418:46,1,132.00000402832,6|0,0:0|0:0,0:0:0:0:
486,118,520331,2,0,P|513:181|499:254,1,132.00000402832
474,337,520760,1,8,0:0:0:0:
382,200,520903,1,8,0:0:0:0:
394,353,521045,1,8,0:0:0:0:
391,115,521187,1,8,0:0:0:0:
391,115,521617,6,0,L|257:165,1,132.00000402832,2|0,0:0|0:0,0:0:0:0:
174,195,522045,1,8,0:0:0:0:
49,325,522188,1,8,0:0:0:0:
110,153,522331,1,8,0:0:0:0:
122,347,522473,1,8,0:0:0:0:
43,185,522616,1,8,0:0:0:0:
193,320,522759,1,8,0:0:0:0:
110,153,522902,1,8,0:0:0:0:
110,153,523331,6,0,B|184:128|184:128|223:116|255:148,1,132.00000402832,6|0,0:0|0:0,0:0:0:0:
315,193,523760,2,0,P|345:230|332:311,1,132.00000402832
264,380,524188,1,8,0:0:0:0:
439,303,524331,1,8,0:0:0:0:
267,257,524473,1,8,0:0:0:0:
398,139,524616,1,8,0:0:0:0:
398,139,525045,6,0,B|334:100|334:100|309:42,1,132.00000402832,2|0,0:0|0:0,0:0:0:0:
275,140,525474,1,8,0:0:0:0:
110,231,525617,1,8,0:0:0:0:
218,93,525760,1,8,0:0:0:0:
152,293,525903,1,8,0:0:0:0:
324,199,526045,1,8,0:0:0:0:
382,346,526188,1,8,0:0:0:0:
459,225,526331,2,0,B|467:205|467:205|455:185|455:185|463:161|463:161|459:133,1,96
508,48,526760,6,0,P|444:36|384:68,1,132.00000402832,6|0,0:0|0:0,0:0:0:0:
315,133,527187,2,0,P|257:162|193:150,1,132.00000402832
107,98,527617,1,8,0:0:0:0:
56,286,527760,1,8,0:0:0:0:
96,73,527903,1,8,0:0:0:0:
187,285,528045,2,0,P|255:299|316:271,1,132.00000402832,8|0,0:0|0:0,0:0:0:0:
396,224,528474,6,0,P|364:162|365:92,1,132.00000402832,2|0,0:0|0:0,0:0:0:0:
378,2,528903,1,8,0:0:0:0:
484,131,529045,1,8,0:0:0:0:
349,9,529188,1,8,0:0:0:0:
291,200,529331,1,8,0:0:0:0:
325,23,529474,1,8,0:0:0:0:
152,67,529617,1,8,0:0:0:0:
52,219,529760,2,0,P|42:277|83:333,1,132.00000402832,8|0,0:0|0:0,0:0:0:0:
176,365,530188,6,0,B|239:385|239:385|301:365,1,132.00000402832,6|0,0:0|0:0,0:0:0:0:
387,314,530617,2,0,P|368:244|386:187,1,132.00000402832
442,107,531045,1,8,0:0:0:0:
483,250,531188,1,8,0:0:0:0:
462,84,531331,1,8,0:0:0:0:
283,47,531474,2,0,B|233:74|199:33|147:55,1,132.00000402832,8|0,0:0|0:0,0:0:0:0:
64,7,531903,6,0,P|53:79|84:129,1,132.00000402832,2|0,0:0|0:0,0:0:0:0:
181,129,532331,1,8,0:0:0:0:
84,291,532473,1,8,0:0:0:0:
211,144,532617,1,8,0:0:0:0:
248,318,532759,1,8,0:0:0:0:
240,149,532903,1,8,0:0:0:0:
405,201,533045,1,8,0:0:0:0:
275,145,533188,2,0,P|302:130|333:104,2,66.0000020141602,8|8|8,0:0|0:0|0:0,0:0:0:0:
243,50,533617,6,0,P|177:13|111:27,1,132.00000402832,6|0,0:0|0:0,0:0:0:0:
162,111,534045,2,0,P|147:175|169:240,1,132.00000402832
177,335,534474,2,0,P|136:352|104:353,2,66.0000020141602,8|8|8,0:0|0:0|0:0,0:0:0:0:
259,279,534902,2,0,B|344:224|344:224|314:210,1,132.00000402832
230,160,535331,6,0,P|162:146|103:184,1,132.00000402832,2|0,0:0|0:0,0:0:0:0:
181,244,535760,1,8,0:0:0:0:
288,87,535903,1,8,0:0:0:0:
186,272,536045,1,8,0:0:0:0:
362,167,536188,1,8,0:0:0:0:
192,299,536330,1,8,0:0:0:0:
379,305,536473,1,8,0:0:0:0:
288,87,536617,2,0,B|320:70|320:70|351:66|351:66|365:37|365:37|396:11,1,132.00000402832,8|0,0:0|0:0,0:0:0:0:
292,2,537045,6,0,B|201:51|201:51|210:21,1,132.00000402832,6|0,0:0|0:0,0:0:0:0:
122,70,537473,2,0,B|130:42|130:42|39:91,1,132.00000402832
13,187,537902,1,8,0:0:0:0:
118,325,538045,1,8,0:0:0:0:
41,174,538187,1,8,0:0:0:0:
215,227,538330,2,0,P|253:248|344:253,1,132.00000402832,8|0,0:0|0:0,0:0:0:0:
436,280,538760,6,0,B|418:314|418:314|391:331,2,66.0000020141602,2|0|0,0:0|0:0|0:0,0:0:0:0:
440,181,539188,2,0,B|441:143|441:143|426:115,2,66.0000020141602
341,164,539617,2,0,L|325:160,22,16.5000005035401
293,150,540473,5,6,0:0:0:0:
293,150,541330,1,0,0:0:0:0:
270,170,541759,1,0,0:0:0:0:
247,190,542187,5,2,0:0:0:0:
247,190,542902,1,0,0:0:0:0:
176,260,543045,1,0,0:0:0:0:
318,120,543330,1,0,0:0:0:0:
247,190,543473,1,0,0:0:0:0:
389,50,543759,1,0,0:0:0:0:
318,120,543902,5,6,0:0:0:0:
318,120,544759,1,0,0:0:0:0:
346,135,545187,1,0,0:0:0:0:
380,135,545616,5,2,0:0:0:0:
380,135,546330,1,0,0:0:0:0:
451,203,546473,1,0,0:0:0:0:
257,159,546759,1,0,0:0:0:0:
328,227,546902,1,0,0:0:0:0:
134,183,547187,1,0,0:0:0:0:
205,251,547330,5,6,0:0:0:0:
205,251,548187,1,0,0:0:0:0:
227,270,548616,1,0,0:0:0:0:
256,280,549045,6,0,P|289:288|386:262,1,132.00000402832,2|0,0:0|0:0,0:0:0:0:
382,264,549759,1,0,0:0:0:0:
444,188,549902,1,0,0:0:0:0:
246,179,550187,1,0,0:0:0:0:
308,103,550330,1,0,0:0:0:0:
255,18,550473,1,0,0:0:0:0:
161,38,550616,1,0,0:0:0:0:
151,137,550759,5,6,0:0:0:0:
151,137,551616,1,0,0:0:0:0:
151,137,552473,5,2,0:0:0:0:
151,137,553187,1,0,0:0:0:0:
126,233,553330,1,0,0:0:0:0:
249,78,553616,1,0,0:0:0:0:
224,174,553759,1,0,0:0:0:0:
347,19,554044,1,0,0:0:0:0:
322,115,554187,6,0,L|291:251,1,132.00000402832,6|0,0:0|0:0,0:0:0:0:
343,329,554616,2,0,P|279:296|214:307,1,132.00000402832
129,342,555045,2,0,B|96:358|61:358|61:358|61:329|95:306,1,132.00000402832,8|0,0:0|0:0,0:0:0:0:
175,253,555473,2,0,P|111:210|54:216,1,132.00000402832
121,136,555902,5,2,0:0:0:0:
121,136,556187,1,0,0:0:0:0:
121,136,556616,1,0,0:0:0:0:
181,58,556759,1,8,0:0:0:0:
258,218,557044,1,0,0:0:0:0:
319,141,557187,1,0,0:0:0:0:
414,181,557330,1,0,0:0:0:0:
406,281,557473,1,0,0:0:0:0:
312,302,557616,6,0,P|239:318|184:286,1,132.00000402832,6|0,0:0|0:0,0:0:0:0:
113,229,558045,2,0,L|13:137,1,132.00000402832
13,40,558473,1,8,0:0:0:0:
13,40,559330,5,2,0:0:0:0:
13,40,560045,1,0,0:0:0:0:
110,27,560187,1,8,0:0:0:0:
209,198,560473,1,0,0:0:0:0:
306,185,560615,1,0,0:0:0:0:
405,356,560902,1,0,0:0:0:0:
502,343,561045,6,0,P|475:269|483:203,1,132.00000402832,6|0,0:0|0:0,0:0:0:0:
497,119,561473,2,0,P|427:131|388:183,1,132.00000402832
364,272,561902,2,0,B|340:342|340:342|326:372|289:390,1,132.00000402832,8|0,0:0|0:0,0:0:0:0:
201,383,562330,2,0,P|138:383|85:343,1,132.00000402832
33,256,562759,5,2,0:0:0:0:
33,256,563045,1,0,0:0:0:0:
33,256,563473,1,0,0:0:0:0:
56,159,563616,1,8,0:0:0:0:
223,52,563902,1,0,0:0:0:0:
200,149,564045,1,0,0:0:0:0:
287,193,564187,1,0,0:0:0:0:
264,290,564330,1,0,0:0:0:0:
351,334,564473,6,0,B|399:319|445:328|445:328|451:280,1,132.00000402832,6|0,0:0|0:0,0:0:0:0:
456,191,564902,2,0,P|459:113|467:49,1,132.00000402832
380,8,565330,1,8,0:0:0:0:
380,8,566187,5,2,0:0:0:0:
380,8,566902,2,0,L|360:75,1,66.0000020141602,0|8,0:0|0:0,0:0:0:0:
166,110,567330,2,0,L|146:177,1,66.0000020141602,0|8,0:0|0:0,0:0:0:0:
275,325,567759,5,8,0:0:0:0:
