osu file format v14

[General]
AudioFilename: audio.mp3
AudioLeadIn: 0
PreviewTime: 516499
Countdown: 0
SampleSet: Soft
StackLeniency: 0.7
Mode: 3
LetterboxInBreaks: 0
SpecialStyle: 0
WidescreenStoryboard: 0

[Editor]
Bookmarks: 48673,59760,97369
DistanceSpacing: 0.8
BeatDivisor: 6
GridSize: 32
TimelineZoom: 2.2

[Metadata]
Title:Astrix on Mushrooms
TitleUnicode:Astrix on Mushrooms
Artist:Infected Mushroom & Astrix
ArtistUnicode:Infected Mushroom & Astrix
Creator:Identikit
Version:Fairy Ring
Source:
Tags:Friends on Mushrooms, Vol. 1 Electronic Instrumental edm Psychedelic Trance Psytrance
BeatmapID:1277091
BeatmapSetID:604377

[Difficulty]
HPDrainRate:8.1
CircleSize:7
OverallDifficulty:8.5
ApproachRate:5
SliderMultiplier:1.4
SliderTickRate:1

[Events]
//Background and Video events
0,0,"bacg.jpg",0,0
//Break Periods
//Storyboard Layer 0 (Background)
//Storyboard Layer 1 (Fail)
//Storyboard Layer 2 (Pass)
//Storyboard Layer 3 (Foreground)
//Storyboard Layer 4 (Overlay)
//Storyboard Sound Samples

[TimingPoints]
27804,434.782608695652,4,2,0,0,1,0
67803,-25,4,2,0,0,0,0
69217,-100,4,2,0,0,0,0
69325,-250,4,2,0,0,0,0
69543,-100,4,2,0,0,0,0
193021,-66.6666666666667,4,2,0,0,0,0
193075,-149.253731343284,4,2,0,0,0,0
193130,-66.6666666666667,4,2,0,0,0,0
193184,-149.253731343284,4,2,0,0,0,0
193238,-66.6666666666667,4,2,0,0,0,0
193293,-149.253731343284,4,2,0,0,0,0
193347,-66.6666666666667,4,2,0,0,0,0
193401,-149.253731343284,4,2,0,0,0,0
193456,-100,4,2,0,0,0,0
193673,-66.6666666666667,4,2,0,0,0,0
193727,-149.253731343284,4,2,0,0,0,0
193782,-66.6666666666667,4,2,0,0,0,0
193836,-149.253731343284,4,2,0,0,0,0
193890,-66.6666666666667,4,2,0,0,0,0
193945,-149.253731343284,4,2,0,0,0,0
193999,-66.6666666666667,4,2,0,0,0,0
194053,-149.253731343284,4,2,0,0,0,0
194108,-66.6666666666667,4,2,0,0,0,0
194162,-149.253731343284,4,2,0,0,0,0
194217,-66.6666666666667,4,2,0,0,0,0
194271,-149.253731343284,4,2,0,0,0,0
194325,-66.6666666666667,4,2,0,0,0,0
194380,-149.253731343284,4,2,0,0,0,0
194434,-66.6666666666667,4,2,0,0,0,0
194488,-149.253731343284,4,2,0,0,0,0
194543,-66.6666666666667,4,2,0,0,0,0
194597,-149.253731343284,4,2,0,0,0,0
194651,-66.6666666666667,4,2,0,0,0,0
194706,-149.253731343284,4,2,0,0,0,0
194760,-100,4,2,0,0,0,0
490412,-100,4,2,0,0,0,1
518238,-100,4,2,0,0,0,0

[HitObjects]
256,192,27804,5,0,0:0:0:0:
36,192,27804,1,0,0:0:0:0:
402,192,27912,1,0,0:0:0:0:
109,192,28021,1,0,0:0:0:0:
36,192,28238,1,0,0:0:0:0:
475,192,28238,1,0,0:0:0:0:
182,192,28238,1,0,0:0:0:0:
329,192,28347,1,0,0:0:0:0:
109,192,28456,1,0,0:0:0:0:
402,192,28564,1,0,0:0:0:0:
36,192,28673,1,0,0:0:0:0:
475,192,28673,128,0,28890:0:0:0:0:
256,192,28673,1,0,0:0:0:0:
182,192,28890,1,0,0:0:0:0:
329,192,28999,1,0,0:0:0:0:
36,192,29108,1,0,0:0:0:0:
475,192,29108,1,0,0:0:0:0:
256,192,29217,1,0,0:0:0:0:
109,192,29325,1,0,0:0:0:0:
402,192,29434,1,0,0:0:0:0:
36,192,29543,1,0,0:0:0:0:
256,192,29543,1,0,0:0:0:0:
402,192,29651,1,0,0:0:0:0:
109,192,29760,1,0,0:0:0:0:
475,192,29869,1,0,0:0:0:0:
329,192,29977,1,0,0:0:0:0:
36,192,29977,1,0,0:0:0:0:
256,192,30086,1,0,0:0:0:0:
109,192,30195,1,0,0:0:0:0:
402,192,30304,1,0,0:0:0:0:
475,192,30412,128,0,30630:0:0:0:0:
36,192,30412,1,0,0:0:0:0:
182,192,30412,1,0,0:0:0:0:
109,192,30630,1,0,0:0:0:0:
256,192,30738,1,0,0:0:0:0:
36,192,30847,1,0,0:0:0:0:
475,192,30847,1,0,0:0:0:0:
329,192,30847,1,0,0:0:0:0:
182,192,30956,1,0,0:0:0:0:
256,192,31064,1,0,0:0:0:0:
109,192,31173,1,0,0:0:0:0:
475,192,31282,1,0,0:0:0:0:
329,192,31282,1,0,0:0:0:0:
182,192,31390,1,0,0:0:0:0:
36,192,31499,1,0,0:0:0:0:
475,192,31717,1,0,0:0:0:0:
109,192,31717,1,0,0:0:0:0:
256,192,31717,1,0,0:0:0:0:
402,192,31825,1,0,0:0:0:0:
182,192,31934,1,0,0:0:0:0:
329,192,32043,1,0,0:0:0:0:
36,192,32151,1,0,0:0:0:0:
109,192,32151,1,0,0:0:0:0:
475,192,32151,128,0,32369:0:0:0:0:
329,192,32369,1,0,0:0:0:0:
182,192,32477,1,0,0:0:0:0:
36,192,32586,1,0,0:0:0:0:
475,192,32586,1,0,0:0:0:0:
109,192,32695,1,0,0:0:0:0:
256,192,32804,1,0,0:0:0:0:
402,192,32912,1,0,0:0:0:0:
182,192,33021,1,0,0:0:0:0:
475,192,33021,1,0,0:0:0:0:
329,192,33130,1,0,0:0:0:0:
109,192,33238,1,0,0:0:0:0:
256,192,33347,1,0,0:0:0:0:
475,192,33456,1,0,0:0:0:0:
36,192,33456,1,0,0:0:0:0:
329,192,33564,1,0,0:0:0:0:
182,192,33673,1,0,0:0:0:0:
402,192,33782,1,0,0:0:0:0:
36,192,33890,1,0,0:0:0:0:
475,192,33890,128,0,34108:0:0:0:0:
256,192,33890,1,0,0:0:0:0:
109,192,34108,1,0,0:0:0:0:
402,192,34217,1,0,0:0:0:0:
36,192,34325,1,0,0:0:0:0:
475,192,34325,1,0,0:0:0:0:
256,192,34325,1,0,0:0:0:0:
182,192,34434,1,0,0:0:0:0:
402,192,34543,1,0,0:0:0:0:
109,192,34651,1,0,0:0:0:0:
36,192,34760,1,0,0:0:0:0:
329,192,34760,1,0,0:0:0:0:
475,192,34869,1,0,0:0:0:0:
182,192,34977,1,0,0:0:0:0:
36,192,35195,1,0,0:0:0:0:
109,192,35195,1,0,0:0:0:0:
402,192,35195,1,0,0:0:0:0:
256,192,35304,1,0,0:0:0:0:
475,192,35412,1,0,0:0:0:0:
329,192,35521,1,0,0:0:0:0:
475,192,35630,1,0,0:0:0:0:
36,192,35630,1,0,0:0:0:0:
182,192,35630,128,0,35847:0:0:0:0:
402,192,35847,1,0,0:0:0:0:
256,192,35956,1,0,0:0:0:0:
402,192,36064,1,0,0:0:0:0:
36,192,36064,1,0,0:0:0:0:
109,192,36173,1,0,0:0:0:0:
256,192,36282,1,0,0:0:0:0:
402,192,36390,1,0,0:0:0:0:
475,192,36499,1,0,0:0:0:0:
36,192,36499,1,0,0:0:0:0:
329,192,36608,1,0,0:0:0:0:
182,192,36717,1,0,0:0:0:0:
329,192,36825,1,0,0:0:0:0:
475,192,36934,1,0,0:0:0:0:
109,192,36934,1,0,0:0:0:0:
256,192,37043,1,0,0:0:0:0:
402,192,37151,1,0,0:0:0:0:
36,192,37260,1,0,0:0:0:0:
182,192,37369,128,0,37586:0:0:0:0:
475,192,37369,1,0,0:0:0:0:
329,192,37369,1,0,0:0:0:0:
402,192,37586,1,0,0:0:0:0:
256,192,37695,1,0,0:0:0:0:
36,192,37804,1,0,0:0:0:0:
475,192,37804,1,0,0:0:0:0:
329,192,37804,1,0,0:0:0:0:
182,192,37912,1,0,0:0:0:0:
402,192,38021,1,0,0:0:0:0:
256,192,38130,1,0,0:0:0:0:
36,192,38238,1,0,0:0:0:0:
329,192,38238,128,0,38673:0:0:0:0:
182,192,38347,128,0,38564:0:0:0:0:
475,192,38456,128,0,39325:0:0:0:0:
36,192,38673,1,0,0:0:0:0:
109,192,38673,1,0,0:0:0:0:
182,192,38673,128,0,38782:0:0:0:0:
329,192,38782,128,0,38890:0:0:0:0:
182,192,38890,128,0,39108:0:0:0:0:
329,192,38999,128,0,39108:0:0:0:0:
256,192,39108,1,0,0:0:0:0:
36,192,39108,128,0,39325:0:0:0:0:
329,192,39325,128,0,39760:0:0:0:0:
182,192,39434,128,0,39869:0:0:0:0:
475,192,39543,1,0,0:0:0:0:
36,192,39543,1,0,0:0:0:0:
402,192,39651,128,0,39977:0:0:0:0:
256,192,39760,128,0,39977:0:0:0:0:
109,192,39869,128,0,39977:0:0:0:0:
36,192,39977,1,0,0:0:0:0:
329,192,40086,128,0,40521:0:0:0:0:
182,192,40195,128,0,40630:0:0:0:0:
475,192,40303,128,0,40847:0:0:0:0:
36,192,40521,128,0,40847:0:0:0:0:
329,192,40630,128,0,40847:0:0:0:0:
182,192,40738,128,0,40847:0:0:0:0:
256,192,40847,128,0,41282:0:0:0:0:
109,192,41064,128,0,41282:0:0:0:0:
402,192,41173,128,0,41282:0:0:0:0:
329,192,41282,128,0,41309:0:0:0:0:
329,192,41390,128,0,41418:0:0:0:0:
182,192,41499,128,0,41526:0:0:0:0:
182,192,41608,128,0,41635:0:0:0:0:
475,192,41717,1,0,0:0:0:0:
36,192,41717,1,0,0:0:0:0:
329,192,41717,1,0,0:0:0:0:
182,192,41825,1,0,0:0:0:0:
475,192,41934,1,0,0:0:0:0:
329,192,41934,1,0,0:0:0:0:
329,192,42043,1,0,0:0:0:0:
36,192,42151,1,0,0:0:0:0:
182,192,42151,1,0,0:0:0:0:
109,192,42151,1,0,0:0:0:0:
182,192,42260,1,0,0:0:0:0:
402,192,42369,1,0,0:0:0:0:
329,192,42369,128,0,42586:0:0:0:0:
402,192,42477,128,0,42586:0:0:0:0:
182,192,42586,1,0,0:0:0:0:
109,192,42586,128,0,42803:0:0:0:0:
475,192,42803,1,0,0:0:0:0:
329,192,42803,1,0,0:0:0:0:
475,192,42912,1,0,0:0:0:0:
182,192,43021,1,0,0:0:0:0:
329,192,43021,1,0,0:0:0:0:
329,192,43130,1,0,0:0:0:0:
182,192,43238,1,0,0:0:0:0:
36,192,43238,1,0,0:0:0:0:
182,192,43347,1,0,0:0:0:0:
402,192,43456,128,0,43673:0:0:0:0:
475,192,43456,128,0,43564:0:0:0:0:
329,192,43564,128,0,43673:0:0:0:0:
109,192,43673,128,0,43890:0:0:0:0:
36,192,43673,128,0,43782:0:0:0:0:
182,192,43782,128,0,43890:0:0:0:0:
475,192,43890,1,0,0:0:0:0:
329,192,43890,1,0,0:0:0:0:
402,192,43890,1,0,0:0:0:0:
256,192,43999,1,0,0:0:0:0:
109,192,44108,1,0,0:0:0:0:
402,192,44108,128,0,44325:0:0:0:0:
329,192,44217,128,0,44325:0:0:0:0:
36,192,44325,1,0,0:0:0:0:
182,192,44325,1,0,0:0:0:0:
36,192,44434,1,0,0:0:0:0:
256,192,44543,1,0,0:0:0:0:
109,192,44543,1,0,0:0:0:0:
256,192,44651,1,0,0:0:0:0:
475,192,44760,1,0,0:0:0:0:
329,192,44760,1,0,0:0:0:0:
182,192,44760,1,0,0:0:0:0:
475,192,44869,1,0,0:0:0:0:
402,192,44977,1,0,0:0:0:0:
36,192,44977,128,0,45195:0:0:0:0:
109,192,44977,1,0,0:0:0:0:
256,192,45086,1,0,0:0:0:0:
182,192,45195,1,0,0:0:0:0:
329,192,45195,128,0,45412:0:0:0:0:
475,192,45303,128,0,45412:0:0:0:0:
109,192,45412,1,0,0:0:0:0:
36,192,45412,1,0,0:0:0:0:
36,192,45521,1,0,0:0:0:0:
109,192,45521,1,0,0:0:0:0:
402,192,45630,1,0,0:0:0:0:
475,192,45630,1,0,0:0:0:0:
256,192,45630,128,0,46064:0:0:0:0:
329,192,45738,128,0,46064:0:0:0:0:
402,192,45847,128,0,46064:0:0:0:0:
109,192,45847,1,0,0:0:0:0:
475,192,45956,128,0,46064:0:0:0:0:
36,192,46064,1,0,0:0:0:0:
182,192,46064,128,0,46282:0:0:0:0:
329,192,46282,1,0,0:0:0:0:
475,192,46282,1,0,0:0:0:0:
329,192,46390,1,0,0:0:0:0:
182,192,46499,1,0,0:0:0:0:
36,192,46499,1,0,0:0:0:0:
475,192,46608,1,0,0:0:0:0:
109,192,46717,1,0,0:0:0:0:
329,192,46717,1,0,0:0:0:0:
109,192,46825,1,0,0:0:0:0:
475,192,46934,1,0,0:0:0:0:
329,192,46934,128,0,47151:0:0:0:0:
182,192,47043,128,0,47151:0:0:0:0:
402,192,47151,128,0,47369:0:0:0:0:
256,192,47151,1,0,0:0:0:0:
109,192,47260,128,0,47369:0:0:0:0:
36,192,47369,1,0,0:0:0:0:
329,192,47369,1,0,0:0:0:0:
475,192,47369,1,0,0:0:0:0:
182,192,47477,1,0,0:0:0:0:
402,192,47586,1,0,0:0:0:0:
475,192,47586,1,0,0:0:0:0:
402,192,47695,1,0,0:0:0:0:
36,192,47803,1,0,0:0:0:0:
109,192,47803,1,0,0:0:0:0:
109,192,47912,1,0,0:0:0:0:
329,192,48021,128,0,48238:0:0:0:0:
256,192,48021,1,0,0:0:0:0:
402,192,48130,128,0,48238:0:0:0:0:
36,192,48238,1,0,0:0:0:0:
182,192,48238,1,0,0:0:0:0:
475,192,48238,1,0,0:0:0:0:
329,192,48456,1,0,0:0:0:0:
402,192,48456,1,0,0:0:0:0:
256,192,48528,1,0,0:0:0:0:
182,192,48601,1,0,0:0:0:0:
36,192,48673,1,0,0:0:0:0:
109,192,48673,1,0,0:0:0:0:
475,192,48673,128,0,48890:0:0:0:0:
329,192,48782,128,0,48890:0:0:0:0:
402,192,48890,128,0,49108:0:0:0:0:
182,192,48890,1,0,0:0:0:0:
256,192,48999,128,0,49108:0:0:0:0:
36,192,49108,1,0,0:0:0:0:
109,192,49108,1,0,0:0:0:0:
475,192,49108,1,0,0:0:0:0:
109,192,49217,1,0,0:0:0:0:
329,192,49325,1,0,0:0:0:0:
402,192,49325,1,0,0:0:0:0:
402,192,49434,1,0,0:0:0:0:
256,192,49543,1,0,0:0:0:0:
182,192,49543,1,0,0:0:0:0:
182,192,49651,1,0,0:0:0:0:
475,192,49760,128,0,49977:0:0:0:0:
329,192,49760,1,0,0:0:0:0:
36,192,49869,128,0,49977:0:0:0:0:
402,192,49977,1,0,0:0:0:0:
109,192,49977,1,0,0:0:0:0:
182,192,49977,1,0,0:0:0:0:
256,192,50086,1,0,0:0:0:0:
475,192,50195,1,0,0:0:0:0:
402,192,50267,1,0,0:0:0:0:
329,192,50340,1,0,0:0:0:0:
36,192,50412,1,0,0:0:0:0:
182,192,50412,1,0,0:0:0:0:
109,192,50521,1,0,0:0:0:0:
329,192,50630,1,0,0:0:0:0:
182,192,50630,1,0,0:0:0:0:
402,192,50738,1,0,0:0:0:0:
329,192,50847,1,0,0:0:0:0:
475,192,50847,1,0,0:0:0:0:
182,192,50847,1,0,0:0:0:0:
182,192,50956,1,0,0:0:0:0:
109,192,51064,1,0,0:0:0:0:
329,192,51064,1,0,0:0:0:0:
329,192,51173,1,0,0:0:0:0:
475,192,51282,1,0,0:0:0:0:
182,192,51282,128,0,51499:0:0:0:0:
329,192,51390,128,0,51499:0:0:0:0:
109,192,51499,128,0,51717:0:0:0:0:
402,192,51499,1,0,0:0:0:0:
256,192,51608,128,0,51717:0:0:0:0:
475,192,51717,1,0,0:0:0:0:
402,192,51717,128,0,51825:0:0:0:0:
36,192,51717,1,0,0:0:0:0:
182,192,51934,128,0,52151:0:0:0:0:
329,192,51934,1,0,0:0:0:0:
36,192,52043,128,0,52151:0:0:0:0:
402,192,52151,1,0,0:0:0:0:
475,192,52151,1,0,0:0:0:0:
329,192,52260,1,0,0:0:0:0:
402,192,52369,1,0,0:0:0:0:
109,192,52369,128,0,52586:0:0:0:0:
36,192,52586,1,0,0:0:0:0:
475,192,52586,1,0,0:0:0:0:
256,192,52586,128,0,52803:0:0:0:0:
402,192,52803,1,0,0:0:0:0:
109,192,52803,1,0,0:0:0:0:
402,192,52912,1,0,0:0:0:0:
36,192,53021,1,0,0:0:0:0:
182,192,53021,128,0,53238:0:0:0:0:
475,192,53238,1,0,0:0:0:0:
329,192,53238,1,0,0:0:0:0:
475,192,53347,1,0,0:0:0:0:
109,192,53456,1,0,0:0:0:0:
256,192,53456,1,0,0:0:0:0:
36,192,53564,128,0,53673:0:0:0:0:
475,192,53673,128,0,53890:0:0:0:0:
329,192,53673,1,0,0:0:0:0:
402,192,53890,1,0,0:0:0:0:
182,192,53890,128,0,54108:0:0:0:0:
109,192,53999,128,0,54108:0:0:0:0:
256,192,54108,1,0,0:0:0:0:
329,192,54108,128,0,54325:0:0:0:0:
402,192,54217,128,0,54325:0:0:0:0:
109,192,54325,1,0,0:0:0:0:
475,192,54325,1,0,0:0:0:0:
182,192,54325,128,0,54543:0:0:0:0:
36,192,54434,128,0,54543:0:0:0:0:
256,192,54543,1,0,0:0:0:0:
329,192,54543,128,0,54760:0:0:0:0:
475,192,54651,128,0,54760:0:0:0:0:
36,192,54760,1,0,0:0:0:0:
109,192,54760,1,0,0:0:0:0:
36,192,54869,1,0,0:0:0:0:
329,192,54977,1,0,0:0:0:0:
256,192,54977,128,0,55630:0:0:0:0:
402,192,54977,1,0,0:0:0:0:
402,192,55086,1,0,0:0:0:0:
36,192,55195,1,0,0:0:0:0:
109,192,55195,1,0,0:0:0:0:
182,192,55195,1,0,0:0:0:0:
109,192,55303,1,0,0:0:0:0:
329,192,55412,128,0,55630:0:0:0:0:
402,192,55412,1,0,0:0:0:0:
182,192,55521,128,0,55630:0:0:0:0:
475,192,55630,1,0,0:0:0:0:
109,192,55630,1,0,0:0:0:0:
36,192,55630,1,0,0:0:0:0:
402,192,55738,1,0,0:0:0:0:
109,192,55847,1,0,0:0:0:0:
182,192,55847,1,0,0:0:0:0:
109,192,55956,1,0,0:0:0:0:
256,192,55956,1,0,0:0:0:0:
475,192,56064,1,0,0:0:0:0:
402,192,56064,1,0,0:0:0:0:
329,192,56064,1,0,0:0:0:0:
182,192,56173,1,0,0:0:0:0:
329,192,56282,1,0,0:0:0:0:
475,192,56282,1,0,0:0:0:0:
329,192,56390,1,0,0:0:0:0:
475,192,56390,1,0,0:0:0:0:
36,192,56499,1,0,0:0:0:0:
109,192,56499,128,0,56717:0:0:0:0:
475,192,56717,1,0,0:0:0:0:
402,192,56717,1,0,0:0:0:0:
475,192,56825,1,0,0:0:0:0:
402,192,56825,1,0,0:0:0:0:
182,192,56934,1,0,0:0:0:0:
36,192,56934,1,0,0:0:0:0:
109,192,56934,1,0,0:0:0:0:
329,192,57043,1,0,0:0:0:0:
36,192,57151,1,0,0:0:0:0:
182,192,57151,1,0,0:0:0:0:
36,192,57260,1,0,0:0:0:0:
182,192,57260,1,0,0:0:0:0:
256,192,57369,1,0,0:0:0:0:
475,192,57369,1,0,0:0:0:0:
329,192,57477,1,0,0:0:0:0:
402,192,57477,1,0,0:0:0:0:
109,192,57586,1,0,0:0:0:0:
182,192,57586,1,0,0:0:0:0:
36,192,57695,1,0,0:0:0:0:
256,192,57695,1,0,0:0:0:0:
475,192,57803,1,0,0:0:0:0:
329,192,57803,1,0,0:0:0:0:
402,192,57803,1,0,0:0:0:0:
109,192,57912,1,0,0:0:0:0:
402,192,58021,1,0,0:0:0:0:
182,192,58021,1,0,0:0:0:0:
475,192,58130,1,0,0:0:0:0:
256,192,58130,1,0,0:0:0:0:
36,192,58238,1,0,0:0:0:0:
109,192,58238,1,0,0:0:0:0:
109,192,58347,1,0,0:0:0:0:
475,192,58456,128,0,58564:0:0:0:0:
329,192,58456,128,0,58564:0:0:0:0:
256,192,58564,128,0,58673:0:0:0:0:
402,192,58564,128,0,58673:0:0:0:0:
182,192,58673,1,0,0:0:0:0:
109,192,58673,1,0,0:0:0:0:
36,192,58673,1,0,0:0:0:0:
329,192,58782,1,0,0:0:0:0:
475,192,58890,1,0,0:0:0:0:
182,192,58890,1,0,0:0:0:0:
329,192,58999,1,0,0:0:0:0:
36,192,58999,1,0,0:0:0:0:
256,192,59108,1,0,0:0:0:0:
402,192,59108,128,0,59325:0:0:0:0:
109,192,59217,128,0,59325:0:0:0:0:
36,192,59325,1,0,0:0:0:0:
182,192,59325,1,0,0:0:0:0:
329,192,59434,1,0,0:0:0:0:
475,192,59434,1,0,0:0:0:0:
36,192,59543,1,0,0:0:0:0:
182,192,59543,1,0,0:0:0:0:
109,192,59543,1,0,0:0:0:0:
475,192,59651,1,0,0:0:0:0:
402,192,59651,1,0,0:0:0:0:
109,192,59760,1,0,0:0:0:0:
182,192,59760,1,0,0:0:0:0:
329,192,59869,1,0,0:0:0:0:
402,192,59869,1,0,0:0:0:0:
182,192,59977,1,0,0:0:0:0:
36,192,59977,128,0,60086:0:0:0:0:
256,192,60086,1,0,0:0:0:0:
329,192,60195,1,0,0:0:0:0:
475,192,60195,1,0,0:0:0:0:
36,192,60303,1,0,0:0:0:0:
182,192,60303,1,0,0:0:0:0:
329,192,60412,1,0,0:0:0:0:
402,192,60412,1,0,0:0:0:0:
256,192,60521,1,0,0:0:0:0:
109,192,60630,1,0,0:0:0:0:
182,192,60630,1,0,0:0:0:0:
475,192,60738,1,0,0:0:0:0:
402,192,60738,1,0,0:0:0:0:
36,192,60847,1,0,0:0:0:0:
109,192,60847,1,0,0:0:0:0:
256,192,60956,1,0,0:0:0:0:
475,192,61064,1,0,0:0:0:0:
402,192,61064,1,0,0:0:0:0:
182,192,61173,1,0,0:0:0:0:
109,192,61173,1,0,0:0:0:0:
475,192,61282,1,0,0:0:0:0:
36,192,61282,1,0,0:0:0:0:
329,192,61282,1,0,0:0:0:0:
256,192,61390,1,0,0:0:0:0:
182,192,61499,1,0,0:0:0:0:
109,192,61499,1,0,0:0:0:0:
475,192,61608,1,0,0:0:0:0:
402,192,61608,1,0,0:0:0:0:
36,192,61717,1,0,0:0:0:0:
182,192,61717,1,0,0:0:0:0:
182,192,61825,1,0,0:0:0:0:
402,192,61934,1,0,0:0:0:0:
475,192,61934,128,0,62151:0:0:0:0:
109,192,62043,1,0,0:0:0:0:
36,192,62043,128,0,62151:0:0:0:0:
256,192,62151,1,0,0:0:0:0:
182,192,62151,128,0,62260:0:0:0:0:
329,192,62151,128,0,62260:0:0:0:0:
402,192,62369,128,0,62477:0:0:0:0:
109,192,62369,128,0,62477:0:0:0:0:
256,192,62477,1,0,0:0:0:0:
36,192,62586,1,0,0:0:0:0:
475,192,62586,128,0,62803:0:0:0:0:
329,192,62695,128,0,62803:0:0:0:0:
109,192,62803,1,0,0:0:0:0:
402,192,62803,1,0,0:0:0:0:
109,192,62912,1,0,0:0:0:0:
402,192,62912,1,0,0:0:0:0:
256,192,63021,1,0,0:0:0:0:
182,192,63021,1,0,0:0:0:0:
329,192,63021,1,0,0:0:0:0:
256,192,63130,1,0,0:0:0:0:
36,192,63238,1,0,0:0:0:0:
475,192,63238,1,0,0:0:0:0:
36,192,63347,1,0,0:0:0:0:
475,192,63347,1,0,0:0:0:0:
182,192,63456,1,0,0:0:0:0:
329,192,63456,1,0,0:0:0:0:
329,192,63564,1,0,0:0:0:0:
475,192,63673,1,0,0:0:0:0:
182,192,63673,1,0,0:0:0:0:
109,192,63782,1,0,0:0:0:0:
402,192,63782,1,0,0:0:0:0:
36,192,63890,1,0,0:0:0:0:
256,192,63890,1,0,0:0:0:0:
402,192,63999,1,0,0:0:0:0:
182,192,63999,1,0,0:0:0:0:
329,192,64108,1,0,0:0:0:0:
109,192,64108,1,0,0:0:0:0:
182,192,64217,1,0,0:0:0:0:
402,192,64217,1,0,0:0:0:0:
36,192,64325,1,0,0:0:0:0:
475,192,64325,1,0,0:0:0:0:
329,192,64434,1,0,0:0:0:0:
256,192,64434,1,0,0:0:0:0:
109,192,64543,1,0,0:0:0:0:
182,192,64543,1,0,0:0:0:0:
402,192,64651,1,0,0:0:0:0:
475,192,64651,1,0,0:0:0:0:
36,192,64760,1,0,0:0:0:0:
109,192,64760,1,0,0:0:0:0:
329,192,64760,1,0,0:0:0:0:
182,192,64869,1,0,0:0:0:0:
475,192,64977,1,0,0:0:0:0:
256,192,64977,1,0,0:0:0:0:
475,192,65086,1,0,0:0:0:0:
329,192,65086,1,0,0:0:0:0:
36,192,65195,1,0,0:0:0:0:
182,192,65195,128,0,65521:0:0:0:0:
256,192,65303,128,0,65521:0:0:0:0:
329,192,65412,128,0,65521:0:0:0:0:
109,192,65412,1,0,0:0:0:0:
402,192,65521,1,0,0:0:0:0:
36,192,65630,1,0,0:0:0:0:
475,192,65630,128,0,65847:0:0:0:0:
256,192,65630,1,0,0:0:0:0:
109,192,65847,128,0,66064:0:0:0:0:
329,192,65847,1,0,0:0:0:0:
182,192,65956,128,0,66064:0:0:0:0:
256,192,65956,1,0,0:0:0:0:
475,192,66064,1,0,0:0:0:0:
402,192,66064,1,0,0:0:0:0:
475,192,66173,1,0,0:0:0:0:
402,192,66173,1,0,0:0:0:0:
182,192,66282,1,0,0:0:0:0:
36,192,66282,1,0,0:0:0:0:
182,192,66390,1,0,0:0:0:0:
36,192,66390,1,0,0:0:0:0:
475,192,66499,1,0,0:0:0:0:
402,192,66499,1,0,0:0:0:0:
329,192,66499,1,0,0:0:0:0:
475,192,66608,1,0,0:0:0:0:
329,192,66608,1,0,0:0:0:0:
256,192,66717,1,0,0:0:0:0:
109,192,66717,1,0,0:0:0:0:
109,192,66825,1,0,0:0:0:0:
256,192,66825,1,0,0:0:0:0:
402,192,66934,128,0,67151:0:0:0:0:
182,192,67151,1,0,0:0:0:0:
182,192,67260,1,0,0:0:0:0:
475,192,67369,1,0,0:0:0:0:
329,192,67369,1,0,0:0:0:0:
36,192,67477,1,0,0:0:0:0:
256,192,67586,128,0,67803:0:0:0:0:
475,192,69543,1,0,0:0:0:0:
329,192,69869,1,0,0:0:0:0:
475,192,69977,1,0,0:0:0:0:
256,192,70086,1,0,0:0:0:0:
402,192,70195,1,0,0:0:0:0:
475,192,70412,1,0,0:0:0:0:
329,192,70738,1,0,0:0:0:0:
475,192,70847,1,0,0:0:0:0:
256,192,70956,1,0,0:0:0:0:
402,192,71064,1,0,0:0:0:0:
475,192,71282,1,0,0:0:0:0:
329,192,71608,1,0,0:0:0:0:
475,192,71717,1,0,0:0:0:0:
256,192,71825,1,0,0:0:0:0:
402,192,71934,1,0,0:0:0:0:
475,192,72151,1,0,0:0:0:0:
329,192,72477,1,0,0:0:0:0:
475,192,72586,1,0,0:0:0:0:
256,192,72695,1,0,0:0:0:0:
402,192,72803,1,0,0:0:0:0:
475,192,73021,1,0,0:0:0:0:
329,192,73347,1,0,0:0:0:0:
475,192,73456,1,0,0:0:0:0:
256,192,73564,1,0,0:0:0:0:
402,192,73673,1,0,0:0:0:0:
475,192,73890,1,0,0:0:0:0:
329,192,74217,1,0,0:0:0:0:
475,192,74325,1,0,0:0:0:0:
256,192,74434,1,0,0:0:0:0:
402,192,74543,1,0,0:0:0:0:
475,192,74760,1,0,0:0:0:0:
329,192,75086,1,0,0:0:0:0:
475,192,75195,1,0,0:0:0:0:
256,192,75303,1,0,0:0:0:0:
402,192,75412,1,0,0:0:0:0:
36,192,75630,1,0,0:0:0:0:
182,192,75956,1,0,0:0:0:0:
36,192,76064,1,0,0:0:0:0:
256,192,76173,1,0,0:0:0:0:
109,192,76282,1,0,0:0:0:0:
36,192,76499,1,0,0:0:0:0:
182,192,76825,1,0,0:0:0:0:
36,192,76934,1,0,0:0:0:0:
256,192,77043,1,0,0:0:0:0:
109,192,77151,1,0,0:0:0:0:
36,192,77369,1,0,0:0:0:0:
182,192,77695,1,0,0:0:0:0:
36,192,77803,1,0,0:0:0:0:
256,192,77912,1,0,0:0:0:0:
109,192,78021,1,0,0:0:0:0:
36,192,78238,1,0,0:0:0:0:
182,192,78564,1,0,0:0:0:0:
36,192,78673,1,0,0:0:0:0:
256,192,78782,1,0,0:0:0:0:
109,192,78890,1,0,0:0:0:0:
36,192,79108,1,0,0:0:0:0:
182,192,79434,1,0,0:0:0:0:
36,192,79543,1,0,0:0:0:0:
256,192,79651,1,0,0:0:0:0:
109,192,79760,1,0,0:0:0:0:
36,192,79977,1,0,0:0:0:0:
182,192,80303,1,0,0:0:0:0:
36,192,80412,1,0,0:0:0:0:
256,192,80521,1,0,0:0:0:0:
109,192,80630,1,0,0:0:0:0:
36,192,80847,1,0,0:0:0:0:
182,192,81173,1,0,0:0:0:0:
36,192,81282,1,0,0:0:0:0:
256,192,81390,1,0,0:0:0:0:
109,192,81499,1,0,0:0:0:0:
329,192,81717,1,0,0:0:0:0:
475,192,81717,1,0,0:0:0:0:
329,192,81825,1,0,0:0:0:0:
329,192,81934,1,0,0:0:0:0:
329,192,82043,1,0,0:0:0:0:
109,192,82043,1,0,0:0:0:0:
329,192,82151,1,0,0:0:0:0:
475,192,82151,1,0,0:0:0:0:
182,192,82206,1,0,0:0:0:0:
36,192,82260,1,0,0:0:0:0:
329,192,82369,1,0,0:0:0:0:
402,192,82369,1,0,0:0:0:0:
182,192,82423,1,0,0:0:0:0:
36,192,82477,1,0,0:0:0:0:
256,192,82586,1,0,0:0:0:0:
475,192,82659,1,0,0:0:0:0:
402,192,82731,1,0,0:0:0:0:
329,192,82803,1,0,0:0:0:0:
402,192,82876,1,0,0:0:0:0:
182,192,82912,1,0,0:0:0:0:
475,192,82948,1,0,0:0:0:0:
329,192,83021,1,0,0:0:0:0:
36,192,83021,1,0,0:0:0:0:
329,192,83130,1,0,0:0:0:0:
109,192,83238,1,0,0:0:0:0:
329,192,83347,1,0,0:0:0:0:
36,192,83456,1,0,0:0:0:0:
329,192,83456,1,0,0:0:0:0:
329,192,83782,1,0,0:0:0:0:
36,192,83782,1,0,0:0:0:0:
182,192,83890,1,0,0:0:0:0:
475,192,83999,1,0,0:0:0:0:
329,192,84108,1,0,0:0:0:0:
109,192,84108,1,0,0:0:0:0:
182,192,84325,1,0,0:0:0:0:
329,192,84434,1,0,0:0:0:0:
475,192,84651,1,0,0:0:0:0:
329,192,84760,1,0,0:0:0:0:
182,192,84760,1,0,0:0:0:0:
36,192,84869,1,0,0:0:0:0:
402,192,84977,1,0,0:0:0:0:
329,192,85086,1,0,0:0:0:0:
182,192,85195,1,0,0:0:0:0:
329,192,85412,1,0,0:0:0:0:
36,192,85521,1,0,0:0:0:0:
182,192,85630,1,0,0:0:0:0:
329,192,85738,1,0,0:0:0:0:
475,192,85738,1,0,0:0:0:0:
109,192,85847,1,0,0:0:0:0:
182,192,86064,1,0,0:0:0:0:
329,192,86064,1,0,0:0:0:0:
329,192,86390,1,0,0:0:0:0:
475,192,86390,1,0,0:0:0:0:
182,192,86499,1,0,0:0:0:0:
36,192,86499,128,0,86608:0:0:0:0:
256,192,86608,1,0,0:0:0:0:
329,192,86717,1,0,0:0:0:0:
109,192,86717,1,0,0:0:0:0:
475,192,86717,128,0,86825:0:0:0:0:
182,192,86934,1,0,0:0:0:0:
329,192,87043,1,0,0:0:0:0:
36,192,87260,1,0,0:0:0:0:
329,192,87369,1,0,0:0:0:0:
182,192,87369,1,0,0:0:0:0:
402,192,87477,1,0,0:0:0:0:
109,192,87586,1,0,0:0:0:0:
256,192,87803,1,0,0:0:0:0:
329,192,88130,1,0,0:0:0:0:
256,192,88238,1,0,0:0:0:0:
36,192,88238,128,0,88347:0:0:0:0:
329,192,88347,1,0,0:0:0:0:
182,192,88456,1,0,0:0:0:0:
475,192,88456,128,0,88564:0:0:0:0:
256,192,88673,1,0,0:0:0:0:
182,192,88999,1,0,0:0:0:0:
256,192,89108,1,0,0:0:0:0:
182,192,89217,1,0,0:0:0:0:
329,192,89325,1,0,0:0:0:0:
256,192,89543,1,0,0:0:0:0:
329,192,89869,1,0,0:0:0:0:
256,192,89977,1,0,0:0:0:0:
36,192,89977,128,0,90086:0:0:0:0:
329,192,90086,1,0,0:0:0:0:
475,192,90195,128,0,90303:0:0:0:0:
182,192,90195,1,0,0:0:0:0:
109,192,90412,1,0,0:0:0:0:
36,192,90738,1,0,0:0:0:0:
402,192,90847,1,0,0:0:0:0:
36,192,90956,1,0,0:0:0:0:
475,192,91064,1,0,0:0:0:0:
109,192,91282,1,0,0:0:0:0:
36,192,91608,1,0,0:0:0:0:
402,192,91717,1,0,0:0:0:0:
182,192,91717,128,0,91825:0:0:0:0:
36,192,91825,1,0,0:0:0:0:
475,192,91934,1,0,0:0:0:0:
329,192,91934,128,0,92043:0:0:0:0:
109,192,92151,1,0,0:0:0:0:
36,192,92477,1,0,0:0:0:0:
402,192,92586,1,0,0:0:0:0:
36,192,92695,1,0,0:0:0:0:
475,192,92803,1,0,0:0:0:0:
109,192,93021,1,0,0:0:0:0:
36,192,93347,1,0,0:0:0:0:
402,192,93456,1,0,0:0:0:0:
182,192,93456,128,0,93564:0:0:0:0:
36,192,93564,1,0,0:0:0:0:
475,192,93673,1,0,0:0:0:0:
329,192,93673,128,0,93782:0:0:0:0:
109,192,93890,1,0,0:0:0:0:
475,192,94217,1,0,0:0:0:0:
109,192,94325,1,0,0:0:0:0:
475,192,94434,1,0,0:0:0:0:
36,192,94543,1,0,0:0:0:0:
109,192,94760,1,0,0:0:0:0:
475,192,95086,1,0,0:0:0:0:
109,192,95195,1,0,0:0:0:0:
329,192,95195,128,0,95303:0:0:0:0:
475,192,95303,1,0,0:0:0:0:
36,192,95412,1,0,0:0:0:0:
182,192,95412,128,0,95521:0:0:0:0:
109,192,95630,1,0,0:0:0:0:
475,192,95956,1,0,0:0:0:0:
109,192,96064,1,0,0:0:0:0:
475,192,96173,1,0,0:0:0:0:
36,192,96282,1,0,0:0:0:0:
329,192,96499,128,0,96934:0:0:0:0:
109,192,96499,1,0,0:0:0:0:
182,192,96934,1,0,0:0:0:0:
256,192,97151,128,0,97369:0:0:0:0:
36,192,97369,1,0,0:0:0:0:
475,192,97369,1,0,0:0:0:0:
182,192,97586,1,0,0:0:0:0:
329,192,97586,1,0,0:0:0:0:
36,192,97695,1,0,0:0:0:0:
475,192,97695,1,0,0:0:0:0:
182,192,97803,1,0,0:0:0:0:
329,192,97803,1,0,0:0:0:0:
109,192,97912,1,0,0:0:0:0:
402,192,97912,1,0,0:0:0:0:
475,192,98021,1,0,0:0:0:0:
36,192,98021,1,0,0:0:0:0:
256,192,98130,1,0,0:0:0:0:
36,192,98238,1,0,0:0:0:0:
109,192,98456,1,0,0:0:0:0:
182,192,98456,1,0,0:0:0:0:
329,192,98564,1,0,0:0:0:0:
402,192,98564,1,0,0:0:0:0:
36,192,98673,1,0,0:0:0:0:
109,192,98673,1,0,0:0:0:0:
329,192,98782,1,0,0:0:0:0:
256,192,98782,1,0,0:0:0:0:
402,192,98890,1,0,0:0:0:0:
475,192,98890,1,0,0:0:0:0:
182,192,98999,1,0,0:0:0:0:
36,192,99108,1,0,0:0:0:0:
329,192,99325,1,0,0:0:0:0:
475,192,99325,1,0,0:0:0:0:
182,192,99434,1,0,0:0:0:0:
36,192,99434,1,0,0:0:0:0:
475,192,99543,1,0,0:0:0:0:
329,192,99543,1,0,0:0:0:0:
36,192,99651,1,0,0:0:0:0:
182,192,99651,1,0,0:0:0:0:
256,192,99760,1,0,0:0:0:0:
402,192,99760,1,0,0:0:0:0:
475,192,99869,1,0,0:0:0:0:
36,192,99977,1,0,0:0:0:0:
402,192,100195,1,0,0:0:0:0:
329,192,100195,1,0,0:0:0:0:
109,192,100303,1,0,0:0:0:0:
182,192,100303,1,0,0:0:0:0:
329,192,100412,1,0,0:0:0:0:
402,192,100412,1,0,0:0:0:0:
109,192,100521,1,0,0:0:0:0:
182,192,100521,1,0,0:0:0:0:
475,192,100630,1,0,0:0:0:0:
402,192,100630,1,0,0:0:0:0:
256,192,100738,1,0,0:0:0:0:
36,192,100847,1,0,0:0:0:0:
329,192,101064,1,0,0:0:0:0:
109,192,101064,1,0,0:0:0:0:
182,192,101173,1,0,0:0:0:0:
402,192,101173,1,0,0:0:0:0:
36,192,101282,1,0,0:0:0:0:
256,192,101282,1,0,0:0:0:0:
402,192,101390,1,0,0:0:0:0:
182,192,101390,1,0,0:0:0:0:
475,192,101499,1,0,0:0:0:0:
256,192,101499,1,0,0:0:0:0:
402,192,101608,1,0,0:0:0:0:
36,192,101717,1,0,0:0:0:0:
182,192,101934,1,0,0:0:0:0:
329,192,101934,1,0,0:0:0:0:
256,192,102043,1,0,0:0:0:0:
402,192,102043,1,0,0:0:0:0:
36,192,102151,1,0,0:0:0:0:
182,192,102151,1,0,0:0:0:0:
329,192,102260,1,0,0:0:0:0:
475,192,102260,1,0,0:0:0:0:
256,192,102369,1,0,0:0:0:0:
402,192,102369,1,0,0:0:0:0:
475,192,102477,1,0,0:0:0:0:
36,192,102586,1,0,0:0:0:0:
109,192,102803,1,0,0:0:0:0:
182,192,102803,1,0,0:0:0:0:
256,192,102912,1,0,0:0:0:0:
329,192,102912,1,0,0:0:0:0:
475,192,103021,1,0,0:0:0:0:
402,192,103021,1,0,0:0:0:0:
256,192,103130,1,0,0:0:0:0:
329,192,103130,1,0,0:0:0:0:
109,192,103238,1,0,0:0:0:0:
182,192,103238,1,0,0:0:0:0:
329,192,103347,1,0,0:0:0:0:
36,192,103456,1,0,0:0:0:0:
109,192,103673,1,0,0:0:0:0:
475,192,103673,1,0,0:0:0:0:
182,192,103782,1,0,0:0:0:0:
402,192,103782,1,0,0:0:0:0:
475,192,103890,1,0,0:0:0:0:
109,192,103890,1,0,0:0:0:0:
402,192,103999,1,0,0:0:0:0:
182,192,103999,1,0,0:0:0:0:
256,192,104108,1,0,0:0:0:0:
329,192,104108,1,0,0:0:0:0:
475,192,104217,1,0,0:0:0:0:
36,192,104325,1,0,0:0:0:0:
109,192,104543,1,0,0:0:0:0:
256,192,104543,1,0,0:0:0:0:
182,192,104651,1,0,0:0:0:0:
329,192,104651,1,0,0:0:0:0:
256,192,104760,1,0,0:0:0:0:
402,192,104760,1,0,0:0:0:0:
182,192,104869,1,0,0:0:0:0:
329,192,104869,1,0,0:0:0:0:
109,192,104977,1,0,0:0:0:0:
402,192,104977,1,0,0:0:0:0:
256,192,105086,1,0,0:0:0:0:
36,192,105195,1,0,0:0:0:0:
256,192,105412,1,0,0:0:0:0:
329,192,105412,1,0,0:0:0:0:
402,192,105521,1,0,0:0:0:0:
475,192,105521,1,0,0:0:0:0:
109,192,105630,1,0,0:0:0:0:
182,192,105630,1,0,0:0:0:0:
256,192,105738,1,0,0:0:0:0:
329,192,105738,1,0,0:0:0:0:
402,192,105847,1,0,0:0:0:0:
475,192,105847,1,0,0:0:0:0:
182,192,105956,1,0,0:0:0:0:
36,192,106064,1,0,0:0:0:0:
109,192,106282,1,0,0:0:0:0:
475,192,106282,1,0,0:0:0:0:
36,192,106390,1,0,0:0:0:0:
402,192,106390,1,0,0:0:0:0:
182,192,106499,1,0,0:0:0:0:
329,192,106499,1,0,0:0:0:0:
109,192,106608,1,0,0:0:0:0:
475,192,106608,1,0,0:0:0:0:
36,192,106717,1,0,0:0:0:0:
402,192,106717,1,0,0:0:0:0:
329,192,106825,1,0,0:0:0:0:
36,192,106934,1,0,0:0:0:0:
182,192,107151,1,0,0:0:0:0:
402,192,107151,1,0,0:0:0:0:
109,192,107260,1,0,0:0:0:0:
329,192,107260,1,0,0:0:0:0:
36,192,107369,1,0,0:0:0:0:
256,192,107369,1,0,0:0:0:0:
109,192,107477,1,0,0:0:0:0:
329,192,107477,1,0,0:0:0:0:
182,192,107586,1,0,0:0:0:0:
402,192,107586,1,0,0:0:0:0:
329,192,107695,1,0,0:0:0:0:
36,192,107803,1,0,0:0:0:0:
329,192,108021,1,0,0:0:0:0:
402,192,108021,1,0,0:0:0:0:
182,192,108130,1,0,0:0:0:0:
256,192,108130,1,0,0:0:0:0:
36,192,108238,1,0,0:0:0:0:
109,192,108238,1,0,0:0:0:0:
475,192,108347,1,0,0:0:0:0:
402,192,108347,1,0,0:0:0:0:
329,192,108456,1,0,0:0:0:0:
256,192,108456,1,0,0:0:0:0:
182,192,108564,1,0,0:0:0:0:
36,192,108673,1,0,0:0:0:0:
475,192,108890,1,0,0:0:0:0:
182,192,108890,1,0,0:0:0:0:
402,192,108999,1,0,0:0:0:0:
109,192,108999,1,0,0:0:0:0:
36,192,109108,1,0,0:0:0:0:
329,192,109108,1,0,0:0:0:0:
109,192,109217,1,0,0:0:0:0:
402,192,109217,1,0,0:0:0:0:
182,192,109325,1,0,0:0:0:0:
475,192,109325,1,0,0:0:0:0:
402,192,109434,1,0,0:0:0:0:
256,192,109543,1,0,0:0:0:0:
402,192,109760,1,0,0:0:0:0:
475,192,109760,1,0,0:0:0:0:
36,192,109869,1,0,0:0:0:0:
109,192,109869,1,0,0:0:0:0:
256,192,109977,1,0,0:0:0:0:
329,192,109977,1,0,0:0:0:0:
109,192,110086,1,0,0:0:0:0:
182,192,110086,1,0,0:0:0:0:
329,192,110195,1,0,0:0:0:0:
402,192,110195,1,0,0:0:0:0:
182,192,110303,1,0,0:0:0:0:
256,192,110412,1,0,0:0:0:0:
182,192,110630,1,0,0:0:0:0:
329,192,110630,1,0,0:0:0:0:
109,192,110738,1,0,0:0:0:0:
402,192,110738,1,0,0:0:0:0:
182,192,110847,1,0,0:0:0:0:
329,192,110847,1,0,0:0:0:0:
109,192,110956,1,0,0:0:0:0:
402,192,110956,1,0,0:0:0:0:
36,192,111064,1,0,0:0:0:0:
475,192,111064,1,0,0:0:0:0:
256,192,111173,1,0,0:0:0:0:
182,192,111282,1,0,0:0:0:0:
329,192,111282,1,0,0:0:0:0:
109,192,111499,1,0,0:0:0:0:
256,192,111499,1,0,0:0:0:0:
402,192,111608,1,0,0:0:0:0:
475,192,111608,1,0,0:0:0:0:
36,192,111717,1,0,0:0:0:0:
182,192,111717,1,0,0:0:0:0:
402,192,111825,1,0,0:0:0:0:
475,192,111825,1,0,0:0:0:0:
256,192,111934,1,0,0:0:0:0:
329,192,111934,1,0,0:0:0:0:
182,192,112043,1,0,0:0:0:0:
36,192,112151,1,0,0:0:0:0:
475,192,112260,1,0,0:0:0:0:
109,192,112369,1,0,0:0:0:0:
256,192,112369,1,0,0:0:0:0:
182,192,112477,1,0,0:0:0:0:
329,192,112477,1,0,0:0:0:0:
36,192,112586,1,0,0:0:0:0:
475,192,112586,1,0,0:0:0:0:
182,192,112695,1,0,0:0:0:0:
329,192,112695,1,0,0:0:0:0:
256,192,112803,1,0,0:0:0:0:
402,192,112803,1,0,0:0:0:0:
109,192,112912,1,0,0:0:0:0:
475,192,113021,1,0,0:0:0:0:
256,192,113238,1,0,0:0:0:0:
402,192,113238,1,0,0:0:0:0:
329,192,113347,1,0,0:0:0:0:
182,192,113347,1,0,0:0:0:0:
36,192,113456,1,0,0:0:0:0:
475,192,113456,1,0,0:0:0:0:
329,192,113564,1,0,0:0:0:0:
182,192,113564,1,0,0:0:0:0:
109,192,113673,1,0,0:0:0:0:
256,192,113673,1,0,0:0:0:0:
402,192,113782,1,0,0:0:0:0:
36,192,113890,1,0,0:0:0:0:
475,192,113999,1,0,0:0:0:0:
109,192,114108,1,0,0:0:0:0:
182,192,114108,1,0,0:0:0:0:
329,192,114217,1,0,0:0:0:0:
402,192,114217,1,0,0:0:0:0:
36,192,114325,1,0,0:0:0:0:
475,192,114325,1,0,0:0:0:0:
182,192,114434,1,0,0:0:0:0:
329,192,114434,1,0,0:0:0:0:
109,192,114543,1,0,0:0:0:0:
402,192,114543,1,0,0:0:0:0:
256,192,114651,1,0,0:0:0:0:
475,192,114760,1,0,0:0:0:0:
329,192,114977,1,0,0:0:0:0:
402,192,114977,1,0,0:0:0:0:
109,192,115086,1,0,0:0:0:0:
182,192,115086,1,0,0:0:0:0:
36,192,115195,1,0,0:0:0:0:
475,192,115195,1,0,0:0:0:0:
182,192,115303,1,0,0:0:0:0:
329,192,115303,1,0,0:0:0:0:
109,192,115412,1,0,0:0:0:0:
402,192,115412,1,0,0:0:0:0:
256,192,115521,1,0,0:0:0:0:
36,192,115630,1,0,0:0:0:0:
475,192,115738,1,0,0:0:0:0:
109,192,115847,1,0,0:0:0:0:
329,192,115847,1,0,0:0:0:0:
182,192,115956,1,0,0:0:0:0:
402,192,115956,1,0,0:0:0:0:
36,192,116064,1,0,0:0:0:0:
329,192,116064,1,0,0:0:0:0:
182,192,116173,1,0,0:0:0:0:
402,192,116173,1,0,0:0:0:0:
256,192,116282,1,0,0:0:0:0:
475,192,116282,1,0,0:0:0:0:
182,192,116390,1,0,0:0:0:0:
475,192,116499,1,0,0:0:0:0:
402,192,116717,1,0,0:0:0:0:
182,192,116717,1,0,0:0:0:0:
329,192,116825,1,0,0:0:0:0:
109,192,116825,1,0,0:0:0:0:
475,192,116934,1,0,0:0:0:0:
182,192,116934,1,0,0:0:0:0:
329,192,117043,1,0,0:0:0:0:
109,192,117043,1,0,0:0:0:0:
256,192,117151,1,0,0:0:0:0:
36,192,117151,1,0,0:0:0:0:
329,192,117260,1,0,0:0:0:0:
36,192,117369,1,0,0:0:0:0:
475,192,117477,1,0,0:0:0:0:
109,192,117586,1,0,0:0:0:0:
256,192,117586,1,0,0:0:0:0:
329,192,117695,1,0,0:0:0:0:
475,192,117695,1,0,0:0:0:0:
36,192,117803,1,0,0:0:0:0:
182,192,117803,1,0,0:0:0:0:
329,192,117912,1,0,0:0:0:0:
475,192,117912,1,0,0:0:0:0:
256,192,118021,1,0,0:0:0:0:
402,192,118021,1,0,0:0:0:0:
109,192,118130,1,0,0:0:0:0:
475,192,118238,1,0,0:0:0:0:
402,192,118456,1,0,0:0:0:0:
256,192,118456,1,0,0:0:0:0:
182,192,118564,1,0,0:0:0:0:
36,192,118564,1,0,0:0:0:0:
475,192,118673,1,0,0:0:0:0:
329,192,118673,1,0,0:0:0:0:
182,192,118782,1,0,0:0:0:0:
36,192,118782,1,0,0:0:0:0:
109,192,118890,1,0,0:0:0:0:
256,192,118890,1,0,0:0:0:0:
402,192,118999,1,0,0:0:0:0:
36,192,119108,1,0,0:0:0:0:
475,192,119217,1,0,0:0:0:0:
109,192,119325,1,0,0:0:0:0:
402,192,119325,1,0,0:0:0:0:
182,192,119434,1,0,0:0:0:0:
475,192,119434,1,0,0:0:0:0:
36,192,119543,1,0,0:0:0:0:
256,192,119543,1,0,0:0:0:0:
182,192,119651,1,0,0:0:0:0:
475,192,119651,1,0,0:0:0:0:
329,192,119760,1,0,0:0:0:0:
36,192,119760,1,0,0:0:0:0:
182,192,119869,1,0,0:0:0:0:
475,192,119977,1,0,0:0:0:0:
109,192,120195,1,0,0:0:0:0:
402,192,120195,1,0,0:0:0:0:
329,192,120303,1,0,0:0:0:0:
36,192,120303,1,0,0:0:0:0:
256,192,120412,1,0,0:0:0:0:
475,192,120412,1,0,0:0:0:0:
329,192,120521,1,0,0:0:0:0:
36,192,120521,1,0,0:0:0:0:
182,192,120630,1,0,0:0:0:0:
475,192,120630,1,0,0:0:0:0:
329,192,120738,1,0,0:0:0:0:
36,192,120847,1,0,0:0:0:0:
475,192,120956,1,0,0:0:0:0:
182,192,121064,1,0,0:0:0:0:
329,192,121064,1,0,0:0:0:0:
256,192,121173,1,0,0:0:0:0:
402,192,121173,1,0,0:0:0:0:
36,192,121282,1,0,0:0:0:0:
109,192,121282,1,0,0:0:0:0:
402,192,121390,1,0,0:0:0:0:
256,192,121499,1,0,0:0:0:0:
475,192,121499,1,0,0:0:0:0:
182,192,121608,1,0,0:0:0:0:
475,192,121717,1,0,0:0:0:0:
256,192,121934,1,0,0:0:0:0:
109,192,121934,1,0,0:0:0:0:
329,192,122043,1,0,0:0:0:0:
182,192,122043,1,0,0:0:0:0:
475,192,122151,1,0,0:0:0:0:
402,192,122151,1,0,0:0:0:0:
36,192,122260,1,0,0:0:0:0:
329,192,122369,1,0,0:0:0:0:
182,192,122369,1,0,0:0:0:0:
402,192,122477,1,0,0:0:0:0:
36,192,122586,1,0,0:0:0:0:
475,192,122695,1,0,0:0:0:0:
182,192,122803,1,0,0:0:0:0:
329,192,122912,1,0,0:0:0:0:
109,192,123021,1,0,0:0:0:0:
402,192,123021,1,0,0:0:0:0:
329,192,123238,1,0,0:0:0:0:
182,192,123347,1,0,0:0:0:0:
475,192,123456,1,0,0:0:0:0:
109,192,123673,1,0,0:0:0:0:
402,192,123782,1,0,0:0:0:0:
256,192,123890,1,0,0:0:0:0:
402,192,124108,1,0,0:0:0:0:
109,192,124217,1,0,0:0:0:0:
329,192,124325,128,0,124543:0:0:0:0:
475,192,124325,128,0,125195:0:0:0:0:
182,192,124434,128,0,124651:0:0:0:0:
36,192,124543,128,0,124760:0:0:0:0:
182,192,124760,128,0,124977:0:0:0:0:
329,192,124760,128,0,124977:0:0:0:0:
109,192,124977,128,0,125195:0:0:0:0:
256,192,124977,128,0,125195:0:0:0:0:
402,192,124977,128,0,125195:0:0:0:0:
36,192,125195,1,0,0:0:0:0:
182,192,125195,1,0,0:0:0:0:
329,192,125195,1,0,0:0:0:0:
402,192,125303,1,0,0:0:0:0:
256,192,125412,1,0,0:0:0:0:
109,192,125412,1,0,0:0:0:0:
329,192,125521,128,0,125630:0:0:0:0:
475,192,125521,128,0,125630:0:0:0:0:
36,192,125630,1,0,0:0:0:0:
402,192,125630,1,0,0:0:0:0:
182,192,125630,1,0,0:0:0:0:
109,192,125738,1,0,0:0:0:0:
329,192,125738,1,0,0:0:0:0:
256,192,125847,1,0,0:0:0:0:
475,192,125847,1,0,0:0:0:0:
182,192,125956,1,0,0:0:0:0:
36,192,126064,1,0,0:0:0:0:
402,192,126064,1,0,0:0:0:0:
256,192,126173,1,0,0:0:0:0:
475,192,126282,1,0,0:0:0:0:
329,192,126282,1,0,0:0:0:0:
36,192,126390,128,0,126499:0:0:0:0:
182,192,126390,128,0,126499:0:0:0:0:
475,192,126499,1,0,0:0:0:0:
109,192,126499,1,0,0:0:0:0:
402,192,126499,1,0,0:0:0:0:
36,192,126608,1,0,0:0:0:0:
256,192,126608,1,0,0:0:0:0:
329,192,126717,1,0,0:0:0:0:
475,192,126717,1,0,0:0:0:0:
182,192,126825,1,0,0:0:0:0:
109,192,126934,1,0,0:0:0:0:
402,192,126934,1,0,0:0:0:0:
329,192,127043,1,0,0:0:0:0:
36,192,127151,1,0,0:0:0:0:
182,192,127151,1,0,0:0:0:0:
402,192,127260,128,0,127369:0:0:0:0:
475,192,127260,128,0,127369:0:0:0:0:
36,192,127369,1,0,0:0:0:0:
109,192,127369,1,0,0:0:0:0:
256,192,127369,1,0,0:0:0:0:
402,192,127477,1,0,0:0:0:0:
182,192,127477,1,0,0:0:0:0:
256,192,127586,1,0,0:0:0:0:
475,192,127586,1,0,0:0:0:0:
109,192,127695,1,0,0:0:0:0:
36,192,127803,1,0,0:0:0:0:
402,192,127803,1,0,0:0:0:0:
256,192,127912,1,0,0:0:0:0:
329,192,128021,1,0,0:0:0:0:
475,192,128021,1,0,0:0:0:0:
109,192,128130,128,0,128238:0:0:0:0:
182,192,128130,128,0,128238:0:0:0:0:
36,192,128238,1,0,0:0:0:0:
402,192,128238,1,0,0:0:0:0:
475,192,128238,1,0,0:0:0:0:
329,192,128347,1,0,0:0:0:0:
182,192,128347,1,0,0:0:0:0:
109,192,128456,1,0,0:0:0:0:
402,192,128456,1,0,0:0:0:0:
256,192,128564,1,0,0:0:0:0:
36,192,128673,1,0,0:0:0:0:
182,192,128673,1,0,0:0:0:0:
329,192,128782,1,0,0:0:0:0:
475,192,128890,1,0,0:0:0:0:
109,192,128890,1,0,0:0:0:0:
256,192,128999,128,0,129108:0:0:0:0:
329,192,128999,128,0,129108:0:0:0:0:
402,192,129108,1,0,0:0:0:0:
475,192,129108,1,0,0:0:0:0:
182,192,129108,1,0,0:0:0:0:
109,192,129217,1,0,0:0:0:0:
329,192,129217,1,0,0:0:0:0:
475,192,129325,1,0,0:0:0:0:
256,192,129325,1,0,0:0:0:0:
182,192,129434,1,0,0:0:0:0:
36,192,129543,1,0,0:0:0:0:
329,192,129543,1,0,0:0:0:0:
402,192,129651,1,0,0:0:0:0:
182,192,129760,1,0,0:0:0:0:
109,192,129760,1,0,0:0:0:0:
329,192,129869,128,0,129977:0:0:0:0:
475,192,129869,128,0,129977:0:0:0:0:
256,192,129977,1,0,0:0:0:0:
36,192,129977,1,0,0:0:0:0:
402,192,129977,1,0,0:0:0:0:
182,192,130086,1,0,0:0:0:0:
475,192,130086,1,0,0:0:0:0:
329,192,130195,1,0,0:0:0:0:
109,192,130195,1,0,0:0:0:0:
402,192,130303,1,0,0:0:0:0:
256,192,130412,1,0,0:0:0:0:
36,192,130412,1,0,0:0:0:0:
329,192,130521,1,0,0:0:0:0:
182,192,130630,1,0,0:0:0:0:
402,192,130630,128,0,130847:0:0:0:0:
475,192,130630,128,0,130847:0:0:0:0:
256,192,130738,1,0,0:0:0:0:
329,192,130847,1,0,0:0:0:0:
109,192,130847,1,0,0:0:0:0:
36,192,130847,1,0,0:0:0:0:
182,192,130956,1,0,0:0:0:0:
256,192,130956,1,0,0:0:0:0:
329,192,131064,1,0,0:0:0:0:
402,192,131064,1,0,0:0:0:0:
109,192,131173,1,0,0:0:0:0:
182,192,131282,1,0,0:0:0:0:
475,192,131282,1,0,0:0:0:0:
329,192,131390,1,0,0:0:0:0:
256,192,131499,1,0,0:0:0:0:
402,192,131499,1,0,0:0:0:0:
36,192,131608,128,0,131717:0:0:0:0:
182,192,131608,128,0,131717:0:0:0:0:
475,192,131717,1,0,0:0:0:0:
329,192,131717,1,0,0:0:0:0:
109,192,131717,1,0,0:0:0:0:
182,192,131825,1,0,0:0:0:0:
402,192,131825,1,0,0:0:0:0:
36,192,131934,1,0,0:0:0:0:
329,192,131934,1,0,0:0:0:0:
256,192,132043,1,0,0:0:0:0:
402,192,132151,1,0,0:0:0:0:
36,192,132151,128,0,132477:0:0:0:0:
182,192,132151,128,0,132477:0:0:0:0:
475,192,132260,1,0,0:0:0:0:
256,192,132369,1,0,0:0:0:0:
329,192,132477,128,0,132586:0:0:0:0:
475,192,132477,128,0,132586:0:0:0:0:
402,192,132586,1,0,0:0:0:0:
109,192,132586,1,0,0:0:0:0:
36,192,132695,1,0,0:0:0:0:
182,192,132695,1,0,0:0:0:0:
256,192,132803,1,0,0:0:0:0:
402,192,132803,1,0,0:0:0:0:
475,192,132912,1,0,0:0:0:0:
36,192,133021,1,0,0:0:0:0:
182,192,133021,1,0,0:0:0:0:
329,192,133130,1,0,0:0:0:0:
402,192,133238,1,0,0:0:0:0:
256,192,133238,1,0,0:0:0:0:
109,192,133347,128,0,133456:0:0:0:0:
182,192,133347,128,0,133456:0:0:0:0:
36,192,133456,1,0,0:0:0:0:
329,192,133456,1,0,0:0:0:0:
475,192,133456,1,0,0:0:0:0:
256,192,133564,1,0,0:0:0:0:
402,192,133564,1,0,0:0:0:0:
109,192,133673,1,0,0:0:0:0:
182,192,133673,1,0,0:0:0:0:
329,192,133782,1,0,0:0:0:0:
36,192,133890,1,0,0:0:0:0:
475,192,133890,1,0,0:0:0:0:
402,192,133999,1,0,0:0:0:0:
36,192,134108,128,0,134325:0:0:0:0:
182,192,134108,128,0,134325:0:0:0:0:
329,192,134217,1,0,0:0:0:0:
475,192,134325,1,0,0:0:0:0:
256,192,134325,1,0,0:0:0:0:
109,192,134325,1,0,0:0:0:0:
402,192,134434,1,0,0:0:0:0:
182,192,134434,1,0,0:0:0:0:
109,192,134543,1,0,0:0:0:0:
36,192,134543,1,0,0:0:0:0:
256,192,134651,1,0,0:0:0:0:
475,192,134760,1,0,0:0:0:0:
329,192,134760,1,0,0:0:0:0:
36,192,134869,128,0,135195:0:0:0:0:
109,192,134869,128,0,135195:0:0:0:0:
182,192,134977,128,0,135195:0:0:0:0:
256,192,134977,128,0,135195:0:0:0:0:
329,192,135086,128,0,135195:0:0:0:0:
402,192,135086,128,0,135195:0:0:0:0:
475,192,135195,1,0,0:0:0:0:
329,192,135303,1,0,0:0:0:0:
402,192,135303,1,0,0:0:0:0:
109,192,135412,1,0,0:0:0:0:
182,192,135412,1,0,0:0:0:0:
109,192,135521,1,0,0:0:0:0:
402,192,135630,1,0,0:0:0:0:
475,192,135630,1,0,0:0:0:0:
182,192,135738,1,0,0:0:0:0:
36,192,135847,1,0,0:0:0:0:
256,192,135847,1,0,0:0:0:0:
109,192,135956,1,0,0:0:0:0:
329,192,135956,1,0,0:0:0:0:
475,192,135956,128,0,136064:0:0:0:0:
36,192,136064,1,0,0:0:0:0:
182,192,136064,1,0,0:0:0:0:
256,192,136064,1,0,0:0:0:0:
329,192,136173,1,0,0:0:0:0:
402,192,136173,1,0,0:0:0:0:
109,192,136282,1,0,0:0:0:0:
182,192,136282,1,0,0:0:0:0:
475,192,136390,1,0,0:0:0:0:
182,192,136499,1,0,0:0:0:0:
329,192,136499,1,0,0:0:0:0:
36,192,136608,1,0,0:0:0:0:
402,192,136717,1,0,0:0:0:0:
256,192,136717,128,0,136934:0:0:0:0:
475,192,136825,1,0,0:0:0:0:
109,192,136825,1,0,0:0:0:0:
36,192,136934,1,0,0:0:0:0:
182,192,136934,1,0,0:0:0:0:
329,192,136934,1,0,0:0:0:0:
475,192,137043,1,0,0:0:0:0:
256,192,137043,1,0,0:0:0:0:
402,192,137151,1,0,0:0:0:0:
109,192,137151,1,0,0:0:0:0:
182,192,137260,1,0,0:0:0:0:
475,192,137369,1,0,0:0:0:0:
329,192,137369,1,0,0:0:0:0:
256,192,137477,1,0,0:0:0:0:
182,192,137586,1,0,0:0:0:0:
36,192,137586,128,0,137803:0:0:0:0:
329,192,137695,1,0,0:0:0:0:
402,192,137695,1,0,0:0:0:0:
109,192,137803,1,0,0:0:0:0:
256,192,137803,1,0,0:0:0:0:
475,192,137803,1,0,0:0:0:0:
182,192,137912,1,0,0:0:0:0:
402,192,137912,1,0,0:0:0:0:
109,192,138021,1,0,0:0:0:0:
329,192,138021,1,0,0:0:0:0:
402,192,138130,1,0,0:0:0:0:
256,192,138238,1,0,0:0:0:0:
256,192,138456,1,0,0:0:0:0:
182,192,138782,1,0,0:0:0:0:
329,192,138782,1,0,0:0:0:0:
182,192,138890,1,0,0:0:0:0:
329,192,138890,1,0,0:0:0:0:
182,192,138999,1,0,0:0:0:0:
329,192,138999,1,0,0:0:0:0:
475,192,139108,1,0,0:0:0:0:
256,192,139108,1,0,0:0:0:0:
36,192,139108,1,0,0:0:0:0:
329,192,139217,1,0,0:0:0:0:
256,192,139325,1,0,0:0:0:0:
402,192,139325,1,0,0:0:0:0:
329,192,139434,1,0,0:0:0:0:
182,192,139434,1,0,0:0:0:0:
475,192,139434,1,0,0:0:0:0:
36,192,139543,1,0,0:0:0:0:
109,192,139543,1,0,0:0:0:0:
402,192,139543,1,0,0:0:0:0:
329,192,139651,1,0,0:0:0:0:
256,192,139651,1,0,0:0:0:0:
182,192,139651,1,0,0:0:0:0:
402,192,139760,1,0,0:0:0:0:
256,192,139760,1,0,0:0:0:0:
109,192,139760,1,0,0:0:0:0:
36,192,139869,1,0,0:0:0:0:
182,192,139977,1,0,0:0:0:0:
475,192,139977,1,0,0:0:0:0:
256,192,140086,1,0,0:0:0:0:
182,192,140195,1,0,0:0:0:0:
329,192,140195,1,0,0:0:0:0:
109,192,140303,1,0,0:0:0:0:
256,192,140303,1,0,0:0:0:0:
402,192,140303,1,0,0:0:0:0:
475,192,140412,1,0,0:0:0:0:
182,192,140412,1,0,0:0:0:0:
36,192,140412,1,0,0:0:0:0:
109,192,140521,1,0,0:0:0:0:
402,192,140521,1,0,0:0:0:0:
329,192,140521,1,0,0:0:0:0:
475,192,140630,1,0,0:0:0:0:
329,192,140630,1,0,0:0:0:0:
182,192,140630,1,0,0:0:0:0:
36,192,140738,1,0,0:0:0:0:
256,192,140738,1,0,0:0:0:0:
402,192,140847,1,0,0:0:0:0:
109,192,140847,1,0,0:0:0:0:
329,192,140956,128,0,141173:0:0:0:0:
182,192,140956,1,0,0:0:0:0:
36,192,141064,1,0,0:0:0:0:
256,192,141064,1,0,0:0:0:0:
109,192,141173,1,0,0:0:0:0:
475,192,141173,1,0,0:0:0:0:
182,192,141173,128,0,141282:0:0:0:0:
256,192,141282,1,0,0:0:0:0:
36,192,141282,1,0,0:0:0:0:
402,192,141282,1,0,0:0:0:0:
182,192,141390,1,0,0:0:0:0:
329,192,141390,1,0,0:0:0:0:
475,192,141390,128,0,141499:0:0:0:0:
36,192,141499,1,0,0:0:0:0:
109,192,141499,1,0,0:0:0:0:
402,192,141499,1,0,0:0:0:0:
256,192,141608,1,0,0:0:0:0:
182,192,141717,1,0,0:0:0:0:
475,192,141717,1,0,0:0:0:0:
109,192,141825,1,0,0:0:0:0:
402,192,141825,128,0,142151:0:0:0:0:
36,192,141934,1,0,0:0:0:0:
256,192,141934,1,0,0:0:0:0:
329,192,142043,1,0,0:0:0:0:
182,192,142043,1,0,0:0:0:0:
109,192,142151,1,0,0:0:0:0:
475,192,142151,1,0,0:0:0:0:
256,192,142151,1,0,0:0:0:0:
36,192,142260,1,0,0:0:0:0:
329,192,142260,1,0,0:0:0:0:
182,192,142260,1,0,0:0:0:0:
329,192,142369,1,0,0:0:0:0:
475,192,142369,1,0,0:0:0:0:
36,192,142369,1,0,0:0:0:0:
109,192,142441,1,0,0:0:0:0:
402,192,142477,1,0,0:0:0:0:
182,192,142514,1,0,0:0:0:0:
36,192,142586,1,0,0:0:0:0:
475,192,142586,1,0,0:0:0:0:
256,192,142695,1,0,0:0:0:0:
182,192,142803,1,0,0:0:0:0:
109,192,142803,1,0,0:0:0:0:
182,192,142912,1,0,0:0:0:0:
109,192,142912,1,0,0:0:0:0:
329,192,142912,1,0,0:0:0:0:
256,192,143021,1,0,0:0:0:0:
36,192,143021,1,0,0:0:0:0:
475,192,143021,1,0,0:0:0:0:
402,192,143130,1,0,0:0:0:0:
329,192,143130,1,0,0:0:0:0:
182,192,143130,1,0,0:0:0:0:
402,192,143238,1,0,0:0:0:0:
329,192,143238,1,0,0:0:0:0:
256,192,143347,1,0,0:0:0:0:
329,192,143456,1,0,0:0:0:0:
475,192,143456,1,0,0:0:0:0:
36,192,143564,1,0,0:0:0:0:
182,192,143564,1,0,0:0:0:0:
329,192,143673,1,0,0:0:0:0:
402,192,143673,1,0,0:0:0:0:
256,192,143782,1,0,0:0:0:0:
475,192,143782,1,0,0:0:0:0:
36,192,143890,1,0,0:0:0:0:
109,192,143890,1,0,0:0:0:0:
182,192,143890,1,0,0:0:0:0:
329,192,143999,1,0,0:0:0:0:
402,192,143999,1,0,0:0:0:0:
475,192,143999,1,0,0:0:0:0:
329,192,144108,1,0,0:0:0:0:
402,192,144108,1,0,0:0:0:0:
256,192,144108,1,0,0:0:0:0:
256,192,144217,1,0,0:0:0:0:
182,192,144217,1,0,0:0:0:0:
36,192,144325,1,0,0:0:0:0:
109,192,144325,1,0,0:0:0:0:
475,192,144434,128,0,144651:0:0:0:0:
329,192,144434,1,0,0:0:0:0:
36,192,144543,1,0,0:0:0:0:
182,192,144543,1,0,0:0:0:0:
329,192,144651,1,0,0:0:0:0:
182,192,144651,1,0,0:0:0:0:
256,192,144651,128,0,144760:0:0:0:0:
475,192,144760,1,0,0:0:0:0:
36,192,144760,1,0,0:0:0:0:
329,192,144869,1,0,0:0:0:0:
182,192,144869,1,0,0:0:0:0:
109,192,144869,128,0,144977:0:0:0:0:
475,192,144977,1,0,0:0:0:0:
329,192,144977,1,0,0:0:0:0:
182,192,145086,1,0,0:0:0:0:
36,192,145195,1,0,0:0:0:0:
329,192,145195,1,0,0:0:0:0:
182,192,145303,1,0,0:0:0:0:
475,192,145303,128,0,145630:0:0:0:0:
109,192,145412,1,0,0:0:0:0:
329,192,145521,128,0,145738:0:0:0:0:
109,192,145521,1,0,0:0:0:0:
182,192,145630,128,0,145847:0:0:0:0:
402,192,145630,1,0,0:0:0:0:
36,192,145738,128,0,145956:0:0:0:0:
256,192,145738,1,0,0:0:0:0:
475,192,145847,128,0,146064:0:0:0:0:
109,192,145847,1,0,0:0:0:0:
256,192,145956,128,0,146064:0:0:0:0:
402,192,145956,1,0,0:0:0:0:
329,192,146064,128,0,146499:0:0:0:0:
36,192,146064,1,0,0:0:0:0:
109,192,146064,1,0,0:0:0:0:
182,192,146173,1,0,0:0:0:0:
109,192,146282,1,0,0:0:0:0:
402,192,146282,1,0,0:0:0:0:
182,192,146390,128,0,146499:0:0:0:0:
36,192,146390,1,0,0:0:0:0:
475,192,146390,1,0,0:0:0:0:
109,192,146499,1,0,0:0:0:0:
256,192,146499,1,0,0:0:0:0:
402,192,146499,1,0,0:0:0:0:
36,192,146608,1,0,0:0:0:0:
182,192,146608,1,0,0:0:0:0:
329,192,146608,1,0,0:0:0:0:
256,192,146717,1,0,0:0:0:0:
402,192,146717,1,0,0:0:0:0:
475,192,146717,1,0,0:0:0:0:
182,192,146825,1,0,0:0:0:0:
36,192,146934,1,0,0:0:0:0:
329,192,146934,1,0,0:0:0:0:
109,192,147043,1,0,0:0:0:0:
256,192,147043,1,0,0:0:0:0:
402,192,147151,1,0,0:0:0:0:
329,192,147151,1,0,0:0:0:0:
329,192,147260,1,0,0:0:0:0:
402,192,147260,1,0,0:0:0:0:
36,192,147369,1,0,0:0:0:0:
256,192,147369,1,0,0:0:0:0:
475,192,147369,1,0,0:0:0:0:
109,192,147477,1,0,0:0:0:0:
182,192,147477,1,0,0:0:0:0:
402,192,147477,1,0,0:0:0:0:
329,192,147586,1,0,0:0:0:0:
182,192,147586,1,0,0:0:0:0:
109,192,147586,1,0,0:0:0:0:
402,192,147695,1,0,0:0:0:0:
36,192,147803,1,0,0:0:0:0:
475,192,147803,1,0,0:0:0:0:
182,192,147912,1,0,0:0:0:0:
475,192,148021,1,0,0:0:0:0:
329,192,148021,1,0,0:0:0:0:
475,192,148130,1,0,0:0:0:0:
329,192,148130,1,0,0:0:0:0:
109,192,148238,1,0,0:0:0:0:
256,192,148238,1,0,0:0:0:0:
402,192,148238,1,0,0:0:0:0:
36,192,148347,1,0,0:0:0:0:
329,192,148347,1,0,0:0:0:0:
182,192,148347,1,0,0:0:0:0:
36,192,148456,1,0,0:0:0:0:
182,192,148456,1,0,0:0:0:0:
402,192,148456,1,0,0:0:0:0:
256,192,148564,1,0,0:0:0:0:
475,192,148673,1,0,0:0:0:0:
329,192,148673,1,0,0:0:0:0:
109,192,148782,1,0,0:0:0:0:
182,192,148782,1,0,0:0:0:0:
36,192,148890,1,0,0:0:0:0:
329,192,148890,1,0,0:0:0:0:
36,192,148999,1,0,0:0:0:0:
329,192,148999,1,0,0:0:0:0:
109,192,149108,1,0,0:0:0:0:
256,192,149108,1,0,0:0:0:0:
402,192,149108,1,0,0:0:0:0:
329,192,149217,1,0,0:0:0:0:
182,192,149217,1,0,0:0:0:0:
475,192,149217,1,0,0:0:0:0:
329,192,149325,1,0,0:0:0:0:
475,192,149325,1,0,0:0:0:0:
182,192,149325,1,0,0:0:0:0:
36,192,149434,1,0,0:0:0:0:
475,192,149543,1,0,0:0:0:0:
256,192,149543,1,0,0:0:0:0:
329,192,149651,1,0,0:0:0:0:
36,192,149760,1,0,0:0:0:0:
182,192,149760,1,0,0:0:0:0:
182,192,149869,1,0,0:0:0:0:
329,192,149869,1,0,0:0:0:0:
402,192,149869,1,0,0:0:0:0:
36,192,149977,1,0,0:0:0:0:
256,192,149977,1,0,0:0:0:0:
475,192,149977,1,0,0:0:0:0:
329,192,150086,1,0,0:0:0:0:
109,192,150086,1,0,0:0:0:0:
182,192,150086,1,0,0:0:0:0:
36,192,150195,1,0,0:0:0:0:
329,192,150195,1,0,0:0:0:0:
475,192,150195,1,0,0:0:0:0:
256,192,150303,1,0,0:0:0:0:
36,192,150412,1,0,0:0:0:0:
475,192,150412,1,0,0:0:0:0:
182,192,150521,1,0,0:0:0:0:
329,192,150521,1,0,0:0:0:0:
109,192,150630,1,0,0:0:0:0:
402,192,150630,1,0,0:0:0:0:
109,192,150738,1,0,0:0:0:0:
402,192,150738,1,0,0:0:0:0:
36,192,150847,1,0,0:0:0:0:
256,192,150847,1,0,0:0:0:0:
475,192,150847,1,0,0:0:0:0:
329,192,150956,1,0,0:0:0:0:
182,192,150956,1,0,0:0:0:0:
402,192,150956,1,0,0:0:0:0:
182,192,151064,1,0,0:0:0:0:
109,192,151064,1,0,0:0:0:0:
329,192,151064,1,0,0:0:0:0:
256,192,151173,1,0,0:0:0:0:
36,192,151282,1,0,0:0:0:0:
475,192,151282,1,0,0:0:0:0:
329,192,151390,1,0,0:0:0:0:
109,192,151499,1,0,0:0:0:0:
36,192,151499,1,0,0:0:0:0:
182,192,151499,1,0,0:0:0:0:
109,192,151608,1,0,0:0:0:0:
182,192,151608,1,0,0:0:0:0:
329,192,151717,1,0,0:0:0:0:
402,192,151717,1,0,0:0:0:0:
475,192,151717,1,0,0:0:0:0:
329,192,151825,1,0,0:0:0:0:
402,192,151825,1,0,0:0:0:0:
256,192,151825,1,0,0:0:0:0:
182,192,151934,1,0,0:0:0:0:
329,192,151934,1,0,0:0:0:0:
256,192,151934,1,0,0:0:0:0:
36,192,152043,1,0,0:0:0:0:
475,192,152043,1,0,0:0:0:0:
109,192,152151,128,0,152532:0:0:0:0:
256,192,152151,128,0,152586:0:0:0:0:
402,192,152151,128,0,152532:0:0:0:0:
36,192,152369,1,0,0:0:0:0:
182,192,152441,1,0,0:0:0:0:
329,192,152514,1,0,0:0:0:0:
475,192,152586,1,0,0:0:0:0:
109,192,152586,128,0,153021:0:0:0:0:
402,192,152586,128,0,153021:0:0:0:0:
256,192,152695,1,0,0:0:0:0:
256,192,152803,1,0,0:0:0:0:
256,192,152912,1,0,0:0:0:0:
475,192,153021,1,0,0:0:0:0:
182,192,153021,1,0,0:0:0:0:
329,192,153021,1,0,0:0:0:0:
36,192,153021,128,0,154325:0:0:0:0:
475,192,153238,1,0,0:0:0:0:
329,192,153347,1,0,0:0:0:0:
109,192,153456,1,0,0:0:0:0:
256,192,153456,1,0,0:0:0:0:
402,192,153456,1,0,0:0:0:0:
256,192,153564,1,0,0:0:0:0:
402,192,153564,1,0,0:0:0:0:
329,192,153673,1,0,0:0:0:0:
475,192,153673,1,0,0:0:0:0:
329,192,153782,1,0,0:0:0:0:
475,192,153782,1,0,0:0:0:0:
256,192,153890,1,0,0:0:0:0:
109,192,153890,1,0,0:0:0:0:
182,192,153890,1,0,0:0:0:0:
256,192,154108,1,0,0:0:0:0:
402,192,154108,1,0,0:0:0:0:
329,192,154108,1,0,0:0:0:0:
109,192,154217,1,0,0:0:0:0:
329,192,154325,1,0,0:0:0:0:
475,192,154325,1,0,0:0:0:0:
182,192,154325,1,0,0:0:0:0:
256,192,154543,1,0,0:0:0:0:
402,192,154543,1,0,0:0:0:0:
329,192,154543,1,0,0:0:0:0:
182,192,154651,1,0,0:0:0:0:
329,192,154651,1,0,0:0:0:0:
109,192,154760,128,0,156064:0:0:0:0:
36,192,154760,1,0,0:0:0:0:
475,192,154760,1,0,0:0:0:0:
402,192,154977,1,0,0:0:0:0:
256,192,155086,1,0,0:0:0:0:
475,192,155195,1,0,0:0:0:0:
329,192,155195,1,0,0:0:0:0:
402,192,155195,1,0,0:0:0:0:
329,192,155303,1,0,0:0:0:0:
402,192,155303,1,0,0:0:0:0:
182,192,155412,1,0,0:0:0:0:
256,192,155412,1,0,0:0:0:0:
256,192,155521,1,0,0:0:0:0:
182,192,155521,1,0,0:0:0:0:
36,192,155630,1,0,0:0:0:0:
475,192,155630,1,0,0:0:0:0:
329,192,155630,1,0,0:0:0:0:
36,192,155847,1,0,0:0:0:0:
475,192,155847,1,0,0:0:0:0:
182,192,155847,1,0,0:0:0:0:
256,192,155956,1,0,0:0:0:0:
329,192,156064,1,0,0:0:0:0:
475,192,156064,1,0,0:0:0:0:
402,192,156064,1,0,0:0:0:0:
36,192,156282,1,0,0:0:0:0:
182,192,156282,1,0,0:0:0:0:
475,192,156282,1,0,0:0:0:0:
329,192,156282,128,0,156390:0:0:0:0:
182,192,156390,1,0,0:0:0:0:
109,192,156390,1,0,0:0:0:0:
475,192,156499,128,0,157803:0:0:0:0:
36,192,156499,1,0,0:0:0:0:
256,192,156499,1,0,0:0:0:0:
329,192,156717,1,0,0:0:0:0:
182,192,156825,1,0,0:0:0:0:
36,192,156934,1,0,0:0:0:0:
109,192,156934,1,0,0:0:0:0:
256,192,156934,1,0,0:0:0:0:
36,192,157043,1,0,0:0:0:0:
109,192,157043,1,0,0:0:0:0:
182,192,157151,1,0,0:0:0:0:
256,192,157151,1,0,0:0:0:0:
182,192,157260,1,0,0:0:0:0:
256,192,157260,1,0,0:0:0:0:
329,192,157369,1,0,0:0:0:0:
36,192,157369,1,0,0:0:0:0:
402,192,157369,1,0,0:0:0:0:
36,192,157586,1,0,0:0:0:0:
109,192,157586,1,0,0:0:0:0:
402,192,157586,1,0,0:0:0:0:
256,192,157695,1,0,0:0:0:0:
329,192,157803,1,0,0:0:0:0:
182,192,157803,1,0,0:0:0:0:
36,192,157803,1,0,0:0:0:0:
36,192,158021,1,0,0:0:0:0:
109,192,158021,1,0,0:0:0:0:
402,192,158021,1,0,0:0:0:0:
256,192,158021,128,0,158130:0:0:0:0:
109,192,158130,1,0,0:0:0:0:
182,192,158130,1,0,0:0:0:0:
402,192,158238,128,0,159543:0:0:0:0:
256,192,158238,1,0,0:0:0:0:
475,192,158238,1,0,0:0:0:0:
36,192,158456,1,0,0:0:0:0:
182,192,158564,1,0,0:0:0:0:
109,192,158673,1,0,0:0:0:0:
329,192,158673,1,0,0:0:0:0:
475,192,158673,1,0,0:0:0:0:
109,192,158782,1,0,0:0:0:0:
329,192,158782,1,0,0:0:0:0:
36,192,158890,1,0,0:0:0:0:
256,192,158890,1,0,0:0:0:0:
36,192,158999,1,0,0:0:0:0:
256,192,158999,1,0,0:0:0:0:
475,192,159108,1,0,0:0:0:0:
109,192,159108,1,0,0:0:0:0:
182,192,159108,1,0,0:0:0:0:
329,192,159108,1,0,0:0:0:0:
109,192,159325,1,0,0:0:0:0:
182,192,159325,1,0,0:0:0:0:
329,192,159325,1,0,0:0:0:0:
109,192,159434,1,0,0:0:0:0:
182,192,159543,1,0,0:0:0:0:
256,192,159543,1,0,0:0:0:0:
36,192,159543,1,0,0:0:0:0:
256,192,159760,1,0,0:0:0:0:
182,192,159760,1,0,0:0:0:0:
36,192,159760,1,0,0:0:0:0:
475,192,159760,128,0,159869:0:0:0:0:
256,192,159869,1,0,0:0:0:0:
402,192,159869,1,0,0:0:0:0:
182,192,159977,128,0,161282:0:0:0:0:
475,192,159977,1,0,0:0:0:0:
109,192,159977,1,0,0:0:0:0:
329,192,160195,1,0,0:0:0:0:
402,192,160303,1,0,0:0:0:0:
475,192,160412,1,0,0:0:0:0:
256,192,160412,1,0,0:0:0:0:
109,192,160412,1,0,0:0:0:0:
256,192,160521,1,0,0:0:0:0:
475,192,160521,1,0,0:0:0:0:
329,192,160630,1,0,0:0:0:0:
36,192,160630,1,0,0:0:0:0:
329,192,160738,1,0,0:0:0:0:
36,192,160738,1,0,0:0:0:0:
109,192,160847,1,0,0:0:0:0:
402,192,160847,1,0,0:0:0:0:
475,192,160847,1,0,0:0:0:0:
36,192,161064,1,0,0:0:0:0:
109,192,161064,1,0,0:0:0:0:
402,192,161064,1,0,0:0:0:0:
256,192,161173,1,0,0:0:0:0:
36,192,161282,1,0,0:0:0:0:
475,192,161282,1,0,0:0:0:0:
329,192,161282,1,0,0:0:0:0:
36,192,161499,1,0,0:0:0:0:
109,192,161499,1,0,0:0:0:0:
402,192,161499,1,0,0:0:0:0:
256,192,161499,128,0,161608:0:0:0:0:
402,192,161608,1,0,0:0:0:0:
182,192,161608,1,0,0:0:0:0:
329,192,161717,128,0,163021:0:0:0:0:
36,192,161717,1,0,0:0:0:0:
256,192,161717,1,0,0:0:0:0:
109,192,161934,1,0,0:0:0:0:
182,192,162043,1,0,0:0:0:0:
36,192,162151,1,0,0:0:0:0:
475,192,162151,1,0,0:0:0:0:
402,192,162151,1,0,0:0:0:0:
36,192,162260,1,0,0:0:0:0:
475,192,162260,1,0,0:0:0:0:
402,192,162369,1,0,0:0:0:0:
109,192,162369,1,0,0:0:0:0:
109,192,162477,1,0,0:0:0:0:
402,192,162477,1,0,0:0:0:0:
36,192,162586,1,0,0:0:0:0:
475,192,162586,1,0,0:0:0:0:
256,192,162586,1,0,0:0:0:0:
109,192,162803,1,0,0:0:0:0:
402,192,162803,1,0,0:0:0:0:
256,192,162803,1,0,0:0:0:0:
182,192,162912,1,0,0:0:0:0:
475,192,163021,1,0,0:0:0:0:
36,192,163021,1,0,0:0:0:0:
402,192,163021,1,0,0:0:0:0:
109,192,163238,1,0,0:0:0:0:
256,192,163238,1,0,0:0:0:0:
402,192,163238,1,0,0:0:0:0:
36,192,163238,128,0,163347:0:0:0:0:
182,192,163347,1,0,0:0:0:0:
329,192,163347,1,0,0:0:0:0:
475,192,163456,128,0,164760:0:0:0:0:
109,192,163456,1,0,0:0:0:0:
402,192,163456,1,0,0:0:0:0:
256,192,163456,1,0,0:0:0:0:
36,192,163673,1,0,0:0:0:0:
109,192,163782,1,0,0:0:0:0:
182,192,163890,1,0,0:0:0:0:
329,192,163890,1,0,0:0:0:0:
256,192,163890,1,0,0:0:0:0:
182,192,163999,1,0,0:0:0:0:
329,192,163999,1,0,0:0:0:0:
109,192,164108,1,0,0:0:0:0:
402,192,164108,1,0,0:0:0:0:
109,192,164217,1,0,0:0:0:0:
402,192,164217,1,0,0:0:0:0:
36,192,164325,1,0,0:0:0:0:
182,192,164325,1,0,0:0:0:0:
329,192,164325,1,0,0:0:0:0:
109,192,164543,1,0,0:0:0:0:
256,192,164543,1,0,0:0:0:0:
402,192,164543,1,0,0:0:0:0:
329,192,164651,1,0,0:0:0:0:
402,192,164760,1,0,0:0:0:0:
182,192,164760,1,0,0:0:0:0:
36,192,164760,1,0,0:0:0:0:
329,192,164977,1,0,0:0:0:0:
475,192,164977,1,0,0:0:0:0:
109,192,164977,1,0,0:0:0:0:
402,192,164977,128,0,165086:0:0:0:0:
256,192,165086,1,0,0:0:0:0:
182,192,165086,1,0,0:0:0:0:
36,192,165195,128,0,166499:0:0:0:0:
109,192,165195,1,0,0:0:0:0:
329,192,165195,1,0,0:0:0:0:
475,192,165195,1,0,0:0:0:0:
182,192,165412,1,0,0:0:0:0:
256,192,165521,1,0,0:0:0:0:
329,192,165630,1,0,0:0:0:0:
475,192,165630,1,0,0:0:0:0:
402,192,165630,1,0,0:0:0:0:
329,192,165738,1,0,0:0:0:0:
475,192,165738,1,0,0:0:0:0:
256,192,165847,1,0,0:0:0:0:
109,192,165847,1,0,0:0:0:0:
109,192,165956,1,0,0:0:0:0:
256,192,165956,1,0,0:0:0:0:
182,192,166064,1,0,0:0:0:0:
329,192,166064,1,0,0:0:0:0:
402,192,166064,1,0,0:0:0:0:
182,192,166282,1,0,0:0:0:0:
256,192,166282,1,0,0:0:0:0:
402,192,166282,1,0,0:0:0:0:
109,192,166390,1,0,0:0:0:0:
182,192,166499,1,0,0:0:0:0:
329,192,166499,1,0,0:0:0:0:
475,192,166499,1,0,0:0:0:0:
182,192,166717,1,0,0:0:0:0:
256,192,166717,1,0,0:0:0:0:
402,192,166717,1,0,0:0:0:0:
329,192,166717,128,0,166825:0:0:0:0:
475,192,166825,1,0,0:0:0:0:
109,192,166825,1,0,0:0:0:0:
402,192,166934,128,0,168238:0:0:0:0:
36,192,166934,1,0,0:0:0:0:
182,192,166934,1,0,0:0:0:0:
329,192,166934,1,0,0:0:0:0:
36,192,167151,1,0,0:0:0:0:
182,192,167260,1,0,0:0:0:0:
256,192,167369,1,0,0:0:0:0:
329,192,167369,1,0,0:0:0:0:
475,192,167369,1,0,0:0:0:0:
256,192,167477,1,0,0:0:0:0:
329,192,167477,1,0,0:0:0:0:
36,192,167586,1,0,0:0:0:0:
109,192,167586,1,0,0:0:0:0:
109,192,167695,1,0,0:0:0:0:
36,192,167695,1,0,0:0:0:0:
329,192,167803,1,0,0:0:0:0:
182,192,167803,1,0,0:0:0:0:
256,192,167803,1,0,0:0:0:0:
36,192,168021,1,0,0:0:0:0:
256,192,168021,1,0,0:0:0:0:
475,192,168021,1,0,0:0:0:0:
109,192,168130,1,0,0:0:0:0:
475,192,168238,1,0,0:0:0:0:
329,192,168238,1,0,0:0:0:0:
182,192,168238,1,0,0:0:0:0:
36,192,168456,1,0,0:0:0:0:
256,192,168456,1,0,0:0:0:0:
475,192,168456,1,0,0:0:0:0:
329,192,168456,128,0,168564:0:0:0:0:
402,192,168564,1,0,0:0:0:0:
182,192,168564,1,0,0:0:0:0:
109,192,168673,128,0,169977:0:0:0:0:
475,192,168673,1,0,0:0:0:0:
36,192,168673,1,0,0:0:0:0:
256,192,168673,1,0,0:0:0:0:
402,192,168890,1,0,0:0:0:0:
329,192,168999,1,0,0:0:0:0:
475,192,169108,1,0,0:0:0:0:
182,192,169108,1,0,0:0:0:0:
256,192,169108,1,0,0:0:0:0:
182,192,169217,1,0,0:0:0:0:
475,192,169217,1,0,0:0:0:0:
329,192,169325,1,0,0:0:0:0:
36,192,169325,1,0,0:0:0:0:
36,192,169434,1,0,0:0:0:0:
329,192,169434,1,0,0:0:0:0:
402,192,169543,1,0,0:0:0:0:
256,192,169543,1,0,0:0:0:0:
182,192,169543,1,0,0:0:0:0:
256,192,169760,1,0,0:0:0:0:
402,192,169760,1,0,0:0:0:0:
475,192,169760,1,0,0:0:0:0:
329,192,169869,1,0,0:0:0:0:
256,192,169977,1,0,0:0:0:0:
36,192,169977,1,0,0:0:0:0:
475,192,169977,1,0,0:0:0:0:
256,192,170195,1,0,0:0:0:0:
402,192,170195,1,0,0:0:0:0:
475,192,170195,1,0,0:0:0:0:
36,192,170195,128,0,170303:0:0:0:0:
256,192,170303,1,0,0:0:0:0:
109,192,170303,1,0,0:0:0:0:
329,192,170412,128,0,171717:0:0:0:0:
475,192,170412,1,0,0:0:0:0:
182,192,170412,1,0,0:0:0:0:
36,192,170412,1,0,0:0:0:0:
109,192,170630,1,0,0:0:0:0:
182,192,170738,1,0,0:0:0:0:
402,192,170847,1,0,0:0:0:0:
475,192,170847,1,0,0:0:0:0:
256,192,170847,1,0,0:0:0:0:
402,192,170956,1,0,0:0:0:0:
475,192,170956,1,0,0:0:0:0:
36,192,171064,1,0,0:0:0:0:
109,192,171064,1,0,0:0:0:0:
36,192,171173,1,0,0:0:0:0:
109,192,171173,1,0,0:0:0:0:
182,192,171282,1,0,0:0:0:0:
256,192,171282,1,0,0:0:0:0:
402,192,171282,1,0,0:0:0:0:
36,192,171499,1,0,0:0:0:0:
475,192,171499,1,0,0:0:0:0:
256,192,171499,1,0,0:0:0:0:
256,192,171608,1,0,0:0:0:0:
109,192,171717,1,0,0:0:0:0:
402,192,171717,1,0,0:0:0:0:
182,192,171717,1,0,0:0:0:0:
36,192,171934,1,0,0:0:0:0:
256,192,171934,1,0,0:0:0:0:
475,192,171934,1,0,0:0:0:0:
402,192,171934,128,0,172043:0:0:0:0:
36,192,172043,1,0,0:0:0:0:
329,192,172043,1,0,0:0:0:0:
182,192,172151,128,0,173456:0:0:0:0:
475,192,172151,1,0,0:0:0:0:
402,192,172151,1,0,0:0:0:0:
109,192,172151,1,0,0:0:0:0:
329,192,172369,1,0,0:0:0:0:
36,192,172477,1,0,0:0:0:0:
256,192,172586,1,0,0:0:0:0:
402,192,172586,1,0,0:0:0:0:
329,192,172586,1,0,0:0:0:0:
256,192,172695,1,0,0:0:0:0:
402,192,172695,1,0,0:0:0:0:
109,192,172803,1,0,0:0:0:0:
475,192,172803,1,0,0:0:0:0:
109,192,172912,1,0,0:0:0:0:
475,192,172912,1,0,0:0:0:0:
36,192,173021,1,0,0:0:0:0:
402,192,173021,1,0,0:0:0:0:
329,192,173021,1,0,0:0:0:0:
36,192,173238,1,0,0:0:0:0:
109,192,173238,1,0,0:0:0:0:
402,192,173238,1,0,0:0:0:0:
256,192,173347,1,0,0:0:0:0:
475,192,173456,1,0,0:0:0:0:
329,192,173456,1,0,0:0:0:0:
36,192,173456,1,0,0:0:0:0:
36,192,173673,1,0,0:0:0:0:
109,192,173673,1,0,0:0:0:0:
402,192,173673,1,0,0:0:0:0:
475,192,173673,128,0,173782:0:0:0:0:
109,192,173782,1,0,0:0:0:0:
329,192,173782,1,0,0:0:0:0:
256,192,173890,128,0,175195:0:0:0:0:
182,192,173890,1,0,0:0:0:0:
402,192,173890,1,0,0:0:0:0:
36,192,173890,1,0,0:0:0:0:
182,192,174108,1,0,0:0:0:0:
402,192,174217,1,0,0:0:0:0:
109,192,174325,1,0,0:0:0:0:
475,192,174325,1,0,0:0:0:0:
329,192,174325,1,0,0:0:0:0:
109,192,174434,1,0,0:0:0:0:
475,192,174434,1,0,0:0:0:0:
402,192,174543,1,0,0:0:0:0:
36,192,174543,1,0,0:0:0:0:
36,192,174651,1,0,0:0:0:0:
402,192,174651,1,0,0:0:0:0:
182,192,174760,1,0,0:0:0:0:
329,192,174760,1,0,0:0:0:0:
475,192,174760,1,0,0:0:0:0:
109,192,174977,1,0,0:0:0:0:
402,192,174977,1,0,0:0:0:0:
475,192,174977,1,0,0:0:0:0:
329,192,175086,1,0,0:0:0:0:
36,192,175195,1,0,0:0:0:0:
182,192,175195,1,0,0:0:0:0:
329,192,175195,1,0,0:0:0:0:
475,192,175412,1,0,0:0:0:0:
402,192,175412,1,0,0:0:0:0:
109,192,175412,1,0,0:0:0:0:
36,192,175412,128,0,175521:0:0:0:0:
256,192,175521,1,0,0:0:0:0:
182,192,175521,1,0,0:0:0:0:
329,192,175630,128,0,176934:0:0:0:0:
475,192,175630,1,0,0:0:0:0:
36,192,175630,1,0,0:0:0:0:
402,192,175630,1,0,0:0:0:0:
109,192,175847,1,0,0:0:0:0:
182,192,175956,1,0,0:0:0:0:
36,192,176064,1,0,0:0:0:0:
256,192,176064,1,0,0:0:0:0:
109,192,176064,1,0,0:0:0:0:
256,192,176173,1,0,0:0:0:0:
36,192,176173,1,0,0:0:0:0:
402,192,176282,1,0,0:0:0:0:
182,192,176282,1,0,0:0:0:0:
182,192,176390,1,0,0:0:0:0:
402,192,176390,1,0,0:0:0:0:
475,192,176499,1,0,0:0:0:0:
256,192,176499,1,0,0:0:0:0:
109,192,176499,1,0,0:0:0:0:
36,192,176717,1,0,0:0:0:0:
182,192,176717,1,0,0:0:0:0:
402,192,176717,1,0,0:0:0:0:
475,192,176825,1,0,0:0:0:0:
256,192,176934,1,0,0:0:0:0:
109,192,176934,1,0,0:0:0:0:
402,192,176934,1,0,0:0:0:0:
402,192,177151,1,0,0:0:0:0:
182,192,177151,1,0,0:0:0:0:
36,192,177151,1,0,0:0:0:0:
256,192,177151,128,0,177260:0:0:0:0:
182,192,177260,1,0,0:0:0:0:
475,192,177260,1,0,0:0:0:0:
402,192,177369,128,0,178673:0:0:0:0:
36,192,177369,1,0,0:0:0:0:
109,192,177369,1,0,0:0:0:0:
329,192,177369,1,0,0:0:0:0:
109,192,177586,1,0,0:0:0:0:
182,192,177586,1,0,0:0:0:0:
329,192,177695,1,0,0:0:0:0:
256,192,177803,1,0,0:0:0:0:
182,192,177803,1,0,0:0:0:0:
109,192,177803,1,0,0:0:0:0:
109,192,177912,1,0,0:0:0:0:
182,192,177912,1,0,0:0:0:0:
182,192,178021,1,0,0:0:0:0:
109,192,178021,1,0,0:0:0:0:
109,192,178130,1,0,0:0:0:0:
182,192,178130,1,0,0:0:0:0:
475,192,178238,1,0,0:0:0:0:
36,192,178238,1,0,0:0:0:0:
329,192,178238,1,0,0:0:0:0:
36,192,178456,1,0,0:0:0:0:
475,192,178456,1,0,0:0:0:0:
182,192,178456,1,0,0:0:0:0:
329,192,178564,1,0,0:0:0:0:
36,192,178673,1,0,0:0:0:0:
256,192,178673,1,0,0:0:0:0:
475,192,178673,1,0,0:0:0:0:
109,192,178890,1,0,0:0:0:0:
182,192,178890,128,0,178999:0:0:0:0:
329,192,178890,1,0,0:0:0:0:
402,192,178890,1,0,0:0:0:0:
36,192,178999,1,0,0:0:0:0:
329,192,178999,1,0,0:0:0:0:
475,192,179108,128,0,180412:0:0:0:0:
402,192,179108,1,0,0:0:0:0:
256,192,179108,1,0,0:0:0:0:
109,192,179108,128,0,179325:0:0:0:0:
182,192,179217,128,0,179434:0:0:0:0:
256,192,179325,128,0,179543:0:0:0:0:
36,192,179325,1,0,0:0:0:0:
109,192,179434,1,0,0:0:0:0:
329,192,179434,128,0,179651:0:0:0:0:
109,192,179543,128,0,180412:0:0:0:0:
182,192,179543,1,0,0:0:0:0:
402,192,179543,1,0,0:0:0:0:
182,192,179651,128,0,180086:0:0:0:0:
256,192,179651,1,0,0:0:0:0:
256,192,179760,128,0,180521:0:0:0:0:
329,192,179760,1,0,0:0:0:0:
329,192,179869,128,0,180195:0:0:0:0:
402,192,179869,1,0,0:0:0:0:
36,192,179977,128,0,180847:0:0:0:0:
182,192,180195,128,0,180847:0:0:0:0:
402,192,180195,1,0,0:0:0:0:
329,192,180303,1,0,0:0:0:0:
329,192,180412,128,0,180847:0:0:0:0:
109,192,180521,128,0,180847:0:0:0:0:
475,192,180630,128,0,180847:0:0:0:0:
256,192,180630,128,0,180793:0:0:0:0:
402,192,180738,128,0,180847:0:0:0:0:
256,192,180847,1,0,0:0:0:0:
182,192,180956,1,0,0:0:0:0:
475,192,180956,1,0,0:0:0:0:
36,192,181064,1,0,0:0:0:0:
329,192,181064,1,0,0:0:0:0:
109,192,181173,1,0,0:0:0:0:
256,192,181282,1,0,0:0:0:0:
402,192,181282,1,0,0:0:0:0:
36,192,181390,1,0,0:0:0:0:
475,192,181390,1,0,0:0:0:0:
109,192,181499,1,0,0:0:0:0:
329,192,181499,1,0,0:0:0:0:
182,192,181608,1,0,0:0:0:0:
402,192,181608,1,0,0:0:0:0:
36,192,181717,1,0,0:0:0:0:
256,192,181717,1,0,0:0:0:0:
182,192,181825,1,0,0:0:0:0:
329,192,181934,1,0,0:0:0:0:
475,192,181934,1,0,0:0:0:0:
109,192,182043,1,0,0:0:0:0:
402,192,182043,1,0,0:0:0:0:
182,192,182151,1,0,0:0:0:0:
329,192,182260,1,0,0:0:0:0:
109,192,182260,1,0,0:0:0:0:
36,192,182369,1,0,0:0:0:0:
256,192,182369,1,0,0:0:0:0:
109,192,182477,1,0,0:0:0:0:
475,192,182477,1,0,0:0:0:0:
182,192,182586,1,0,0:0:0:0:
36,192,182695,1,0,0:0:0:0:
402,192,182695,1,0,0:0:0:0:
109,192,182803,1,0,0:0:0:0:
329,192,182803,1,0,0:0:0:0:
256,192,182912,1,0,0:0:0:0:
475,192,182912,1,0,0:0:0:0:
109,192,183021,1,0,0:0:0:0:
182,192,183130,1,0,0:0:0:0:
329,192,183130,1,0,0:0:0:0:
256,192,183238,1,0,0:0:0:0:
402,192,183238,1,0,0:0:0:0:
36,192,183347,1,0,0:0:0:0:
475,192,183347,1,0,0:0:0:0:
182,192,183456,1,0,0:0:0:0:
402,192,183456,1,0,0:0:0:0:
329,192,183564,1,0,0:0:0:0:
109,192,183673,1,0,0:0:0:0:
256,192,183673,1,0,0:0:0:0:
182,192,183782,1,0,0:0:0:0:
402,192,183782,1,0,0:0:0:0:
329,192,183890,1,0,0:0:0:0:
475,192,183890,1,0,0:0:0:0:
256,192,183999,1,0,0:0:0:0:
36,192,183999,1,0,0:0:0:0:
402,192,184108,1,0,0:0:0:0:
109,192,184108,1,0,0:0:0:0:
329,192,184217,1,0,0:0:0:0:
182,192,184217,1,0,0:0:0:0:
256,192,184325,1,0,0:0:0:0:
329,192,184434,1,0,0:0:0:0:
182,192,184543,1,0,0:0:0:0:
329,192,184760,1,0,0:0:0:0:
182,192,184869,1,0,0:0:0:0:
329,192,184977,1,0,0:0:0:0:
182,192,185086,1,0,0:0:0:0:
256,192,185195,1,0,0:0:0:0:
329,192,185412,1,0,0:0:0:0:
182,192,185521,1,0,0:0:0:0:
182,192,185738,1,0,0:0:0:0:
256,192,185847,1,0,0:0:0:0:
329,192,185956,1,0,0:0:0:0:
402,192,186173,1,0,0:0:0:0:
109,192,186282,1,0,0:0:0:0:
475,192,186390,1,0,0:0:0:0:
36,192,186608,1,0,0:0:0:0:
475,192,186717,1,0,0:0:0:0:
109,192,186825,1,0,0:0:0:0:
402,192,186934,1,0,0:0:0:0:
36,192,187151,1,0,0:0:0:0:
475,192,187260,1,0,0:0:0:0:
109,192,187369,1,0,0:0:0:0:
402,192,187477,1,0,0:0:0:0:
109,192,187586,1,0,0:0:0:0:
402,192,187695,1,0,0:0:0:0:
256,192,187803,1,0,0:0:0:0:
182,192,187912,1,0,0:0:0:0:
329,192,188021,1,0,0:0:0:0:
182,192,188238,1,0,0:0:0:0:
329,192,188347,1,0,0:0:0:0:
182,192,188456,1,0,0:0:0:0:
329,192,188564,1,0,0:0:0:0:
256,192,188673,1,0,0:0:0:0:
182,192,188890,1,0,0:0:0:0:
329,192,188999,1,0,0:0:0:0:
329,192,189217,1,0,0:0:0:0:
256,192,189325,1,0,0:0:0:0:
182,192,189434,1,0,0:0:0:0:
402,192,189651,1,0,0:0:0:0:
109,192,189760,1,0,0:0:0:0:
475,192,189869,1,0,0:0:0:0:
36,192,190086,1,0,0:0:0:0:
402,192,190195,1,0,0:0:0:0:
109,192,190303,1,0,0:0:0:0:
475,192,190412,1,0,0:0:0:0:
109,192,190630,1,0,0:0:0:0:
402,192,190738,1,0,0:0:0:0:
36,192,190847,1,0,0:0:0:0:
475,192,190956,1,0,0:0:0:0:
36,192,191064,1,0,0:0:0:0:
475,192,191173,1,0,0:0:0:0:
182,192,191282,1,0,0:0:0:0:
402,192,191390,1,0,0:0:0:0:
109,192,191499,1,0,0:0:0:0:
36,192,191717,1,0,0:0:0:0:
182,192,191825,1,0,0:0:0:0:
329,192,191934,1,0,0:0:0:0:
402,192,192043,1,0,0:0:0:0:
256,192,192151,1,0,0:0:0:0:
475,192,192369,1,0,0:0:0:0:
182,192,192477,1,0,0:0:0:0:
109,192,192695,1,0,0:0:0:0:
256,192,192803,1,0,0:0:0:0:
402,192,192912,1,0,0:0:0:0:
182,192,193021,1,0,0:0:0:0:
475,192,193130,1,0,0:0:0:0:
329,192,193238,1,0,0:0:0:0:
36,192,193347,1,0,0:0:0:0:
402,192,193456,128,0,193673:0:0:0:0:
109,192,193673,1,0,0:0:0:0:
109,192,193782,1,0,0:0:0:0:
329,192,193890,1,0,0:0:0:0:
182,192,193999,1,0,0:0:0:0:
329,192,194108,1,0,0:0:0:0:
402,192,194217,1,0,0:0:0:0:
182,192,194325,1,0,0:0:0:0:
36,192,194434,1,0,0:0:0:0:
329,192,194543,1,0,0:0:0:0:
475,192,194651,1,0,0:0:0:0:
182,192,194760,1,0,0:0:0:0:
36,192,194760,1,0,0:0:0:0:
402,192,194760,1,0,0:0:0:0:
256,192,194869,1,0,0:0:0:0:
109,192,194977,1,0,0:0:0:0:
329,192,194977,1,0,0:0:0:0:
256,192,195086,1,0,0:0:0:0:
36,192,195195,1,0,0:0:0:0:
182,192,195195,1,0,0:0:0:0:
475,192,195195,1,0,0:0:0:0:
329,192,195303,1,0,0:0:0:0:
329,192,195412,1,0,0:0:0:0:
182,192,195521,1,0,0:0:0:0:
36,192,195630,1,0,0:0:0:0:
402,192,195630,1,0,0:0:0:0:
256,192,195738,1,0,0:0:0:0:
109,192,195847,1,0,0:0:0:0:
475,192,195956,1,0,0:0:0:0:
36,192,196064,1,0,0:0:0:0:
182,192,196064,1,0,0:0:0:0:
329,192,196173,1,0,0:0:0:0:
329,192,196282,1,0,0:0:0:0:
329,192,196390,1,0,0:0:0:0:
36,192,196499,1,0,0:0:0:0:
182,192,196499,1,0,0:0:0:0:
402,192,196608,1,0,0:0:0:0:
109,192,196717,1,0,0:0:0:0:
256,192,196717,1,0,0:0:0:0:
182,192,196825,1,0,0:0:0:0:
36,192,196934,1,0,0:0:0:0:
329,192,196934,1,0,0:0:0:0:
475,192,196934,1,0,0:0:0:0:
256,192,197043,1,0,0:0:0:0:
402,192,197151,1,0,0:0:0:0:
329,192,197260,1,0,0:0:0:0:
36,192,197369,1,0,0:0:0:0:
182,192,197369,1,0,0:0:0:0:
182,192,197477,1,0,0:0:0:0:
256,192,197586,1,0,0:0:0:0:
329,192,197695,1,0,0:0:0:0:
182,192,197803,1,0,0:0:0:0:
36,192,197803,1,0,0:0:0:0:
475,192,197803,1,0,0:0:0:0:
402,192,197912,1,0,0:0:0:0:
402,192,198021,1,0,0:0:0:0:
402,192,198130,1,0,0:0:0:0:
36,192,198238,1,0,0:0:0:0:
256,192,198238,1,0,0:0:0:0:
475,192,198347,1,0,0:0:0:0:
182,192,198456,1,0,0:0:0:0:
329,192,198456,1,0,0:0:0:0:
402,192,198564,1,0,0:0:0:0:
109,192,198673,1,0,0:0:0:0:
256,192,198673,1,0,0:0:0:0:
475,192,198673,1,0,0:0:0:0:
329,192,198782,1,0,0:0:0:0:
36,192,198890,1,0,0:0:0:0:
36,192,198999,128,0,199108:0:0:0:0:
256,192,199108,1,0,0:0:0:0:
329,192,199217,128,0,199543:0:0:0:0:
402,192,199325,128,0,199543:0:0:0:0:
475,192,199434,128,0,199543:0:0:0:0:
36,192,199543,1,0,0:0:0:0:
182,192,199543,1,0,0:0:0:0:
256,192,199651,1,0,0:0:0:0:
256,192,199760,1,0,0:0:0:0:
256,192,199869,1,0,0:0:0:0:
36,192,199977,1,0,0:0:0:0:
329,192,199977,1,0,0:0:0:0:
475,192,200086,1,0,0:0:0:0:
109,192,200195,1,0,0:0:0:0:
402,192,200195,1,0,0:0:0:0:
256,192,200303,1,0,0:0:0:0:
182,192,200412,1,0,0:0:0:0:
36,192,200412,1,0,0:0:0:0:
402,192,200521,1,0,0:0:0:0:
475,192,200630,1,0,0:0:0:0:
475,192,200738,1,0,0:0:0:0:
36,192,200847,1,0,0:0:0:0:
256,192,200847,1,0,0:0:0:0:
402,192,200956,1,0,0:0:0:0:
182,192,201064,1,0,0:0:0:0:
329,192,201173,1,0,0:0:0:0:
182,192,201282,1,0,0:0:0:0:
36,192,201282,1,0,0:0:0:0:
475,192,201390,1,0,0:0:0:0:
256,192,201499,1,0,0:0:0:0:
402,192,201608,1,0,0:0:0:0:
36,192,201717,1,0,0:0:0:0:
329,192,201717,1,0,0:0:0:0:
329,192,201825,1,0,0:0:0:0:
109,192,201934,1,0,0:0:0:0:
256,192,201934,1,0,0:0:0:0:
402,192,202043,1,0,0:0:0:0:
36,192,202151,1,0,0:0:0:0:
182,192,202151,1,0,0:0:0:0:
329,192,202260,1,0,0:0:0:0:
475,192,202369,1,0,0:0:0:0:
182,192,202477,1,0,0:0:0:0:
36,192,202586,1,0,0:0:0:0:
329,192,202586,1,0,0:0:0:0:
256,192,202695,1,0,0:0:0:0:
402,192,202803,1,0,0:0:0:0:
475,192,202912,1,0,0:0:0:0:
36,192,203021,1,0,0:0:0:0:
329,192,203021,1,0,0:0:0:0:
182,192,203130,1,0,0:0:0:0:
182,192,203238,1,0,0:0:0:0:
182,192,203347,1,0,0:0:0:0:
36,192,203456,1,0,0:0:0:0:
475,192,203456,1,0,0:0:0:0:
329,192,203564,1,0,0:0:0:0:
109,192,203673,1,0,0:0:0:0:
256,192,203673,1,0,0:0:0:0:
402,192,203782,1,0,0:0:0:0:
182,192,203890,1,0,0:0:0:0:
36,192,203890,1,0,0:0:0:0:
329,192,203999,1,0,0:0:0:0:
475,192,204108,1,0,0:0:0:0:
329,192,204217,1,0,0:0:0:0:
36,192,204325,1,0,0:0:0:0:
256,192,204325,1,0,0:0:0:0:
256,192,204434,1,0,0:0:0:0:
256,192,204543,1,0,0:0:0:0:
402,192,204651,1,0,0:0:0:0:
182,192,204760,1,0,0:0:0:0:
36,192,204760,1,0,0:0:0:0:
475,192,204760,1,0,0:0:0:0:
329,192,204869,1,0,0:0:0:0:
329,192,204977,1,0,0:0:0:0:
329,192,205086,1,0,0:0:0:0:
36,192,205195,1,0,0:0:0:0:
475,192,205195,1,0,0:0:0:0:
109,192,205303,1,0,0:0:0:0:
402,192,205412,1,0,0:0:0:0:
256,192,205412,1,0,0:0:0:0:
182,192,205521,1,0,0:0:0:0:
36,192,205630,1,0,0:0:0:0:
475,192,205630,1,0,0:0:0:0:
329,192,205630,1,0,0:0:0:0:
109,192,205738,1,0,0:0:0:0:
109,192,205847,1,0,0:0:0:0:
329,192,205956,128,0,206064:0:0:0:0:
182,192,206064,1,0,0:0:0:0:
402,192,206173,128,0,206499:0:0:0:0:
256,192,206282,128,0,206499:0:0:0:0:
109,192,206390,128,0,206499:0:0:0:0:
36,192,206499,1,0,0:0:0:0:
475,192,206499,1,0,0:0:0:0:
182,192,206608,1,0,0:0:0:0:
182,192,206717,1,0,0:0:0:0:
182,192,206825,1,0,0:0:0:0:
36,192,206934,1,0,0:0:0:0:
329,192,206934,1,0,0:0:0:0:
475,192,207043,1,0,0:0:0:0:
109,192,207151,1,0,0:0:0:0:
256,192,207151,1,0,0:0:0:0:
402,192,207260,1,0,0:0:0:0:
182,192,207369,1,0,0:0:0:0:
36,192,207369,1,0,0:0:0:0:
475,192,207477,128,0,207803:0:0:0:0:
256,192,207586,1,0,0:0:0:0:
256,192,207695,1,0,0:0:0:0:
329,192,207803,128,0,208021:0:0:0:0:
36,192,207803,1,0,0:0:0:0:
182,192,207912,1,0,0:0:0:0:
182,192,208021,1,0,0:0:0:0:
256,192,208130,1,0,0:0:0:0:
475,192,208238,1,0,0:0:0:0:
475,192,208347,1,0,0:0:0:0:
36,192,208456,128,0,208673:0:0:0:0:
329,192,208456,1,0,0:0:0:0:
329,192,208564,1,0,0:0:0:0:
475,192,208673,1,0,0:0:0:0:
182,192,208673,1,0,0:0:0:0:
402,192,208782,1,0,0:0:0:0:
256,192,208782,1,0,0:0:0:0:
329,192,208890,1,0,0:0:0:0:
36,192,208890,1,0,0:0:0:0:
109,192,208890,1,0,0:0:0:0:
402,192,208999,1,0,0:0:0:0:
256,192,208999,1,0,0:0:0:0:
182,192,208999,1,0,0:0:0:0:
475,192,209108,1,0,0:0:0:0:
36,192,209108,1,0,0:0:0:0:
329,192,209108,1,0,0:0:0:0:
109,192,209217,1,0,0:0:0:0:
182,192,209325,1,0,0:0:0:0:
402,192,209325,1,0,0:0:0:0:
182,192,209434,1,0,0:0:0:0:
402,192,209434,1,0,0:0:0:0:
36,192,209543,1,0,0:0:0:0:
329,192,209543,1,0,0:0:0:0:
256,192,209651,1,0,0:0:0:0:
109,192,209760,1,0,0:0:0:0:
475,192,209760,1,0,0:0:0:0:
109,192,209869,1,0,0:0:0:0:
475,192,209869,1,0,0:0:0:0:
182,192,209977,1,0,0:0:0:0:
329,192,209977,1,0,0:0:0:0:
36,192,210086,1,0,0:0:0:0:
402,192,210086,1,0,0:0:0:0:
402,192,210195,1,0,0:0:0:0:
36,192,210195,1,0,0:0:0:0:
36,192,210303,1,0,0:0:0:0:
402,192,210303,1,0,0:0:0:0:
475,192,210412,1,0,0:0:0:0:
329,192,210412,1,0,0:0:0:0:
182,192,210412,1,0,0:0:0:0:
256,192,210521,1,0,0:0:0:0:
109,192,210521,1,0,0:0:0:0:
36,192,210630,1,0,0:0:0:0:
402,192,210630,1,0,0:0:0:0:
182,192,210630,1,0,0:0:0:0:
182,192,210738,1,0,0:0:0:0:
475,192,210738,1,0,0:0:0:0:
329,192,210738,1,0,0:0:0:0:
36,192,210847,1,0,0:0:0:0:
256,192,210847,1,0,0:0:0:0:
402,192,210847,1,0,0:0:0:0:
109,192,210956,1,0,0:0:0:0:
329,192,210956,1,0,0:0:0:0:
182,192,211064,1,0,0:0:0:0:
475,192,211064,1,0,0:0:0:0:
475,192,211173,1,0,0:0:0:0:
182,192,211173,1,0,0:0:0:0:
36,192,211282,1,0,0:0:0:0:
109,192,211282,1,0,0:0:0:0:
256,192,211282,1,0,0:0:0:0:
36,192,211390,1,0,0:0:0:0:
109,192,211390,1,0,0:0:0:0:
36,192,211499,1,0,0:0:0:0:
109,192,211499,1,0,0:0:0:0:
329,192,211499,1,0,0:0:0:0:
256,192,211608,1,0,0:0:0:0:
475,192,211608,1,0,0:0:0:0:
36,192,211717,1,0,0:0:0:0:
182,192,211717,1,0,0:0:0:0:
329,192,211717,1,0,0:0:0:0:
402,192,211825,1,0,0:0:0:0:
109,192,211825,1,0,0:0:0:0:
256,192,211934,1,0,0:0:0:0:
329,192,211934,1,0,0:0:0:0:
256,192,212043,1,0,0:0:0:0:
329,192,212043,1,0,0:0:0:0:
36,192,212151,1,0,0:0:0:0:
475,192,212151,1,0,0:0:0:0:
402,192,212151,1,0,0:0:0:0:
109,192,212260,1,0,0:0:0:0:
182,192,212260,1,0,0:0:0:0:
329,192,212369,1,0,0:0:0:0:
402,192,212369,1,0,0:0:0:0:
182,192,212477,1,0,0:0:0:0:
256,192,212477,1,0,0:0:0:0:
36,192,212586,1,0,0:0:0:0:
475,192,212586,1,0,0:0:0:0:
402,192,212586,1,0,0:0:0:0:
256,192,212695,1,0,0:0:0:0:
109,192,212695,1,0,0:0:0:0:
182,192,212803,1,0,0:0:0:0:
329,192,212803,1,0,0:0:0:0:
256,192,212912,1,0,0:0:0:0:
402,192,212912,1,0,0:0:0:0:
36,192,213021,1,0,0:0:0:0:
109,192,213021,1,0,0:0:0:0:
109,192,213130,1,0,0:0:0:0:
182,192,213130,1,0,0:0:0:0:
182,192,213238,1,0,0:0:0:0:
256,192,213238,1,0,0:0:0:0:
256,192,213347,1,0,0:0:0:0:
329,192,213347,1,0,0:0:0:0:
402,192,213456,1,0,0:0:0:0:
109,192,213456,1,0,0:0:0:0:
36,192,213564,1,0,0:0:0:0:
475,192,213564,1,0,0:0:0:0:
36,192,213673,1,0,0:0:0:0:
475,192,213673,1,0,0:0:0:0:
36,192,213782,1,0,0:0:0:0:
475,192,213782,1,0,0:0:0:0:
182,192,213890,1,0,0:0:0:0:
329,192,213890,1,0,0:0:0:0:
109,192,213999,1,0,0:0:0:0:
402,192,213999,1,0,0:0:0:0:
36,192,214108,1,0,0:0:0:0:
256,192,214108,1,0,0:0:0:0:
475,192,214108,1,0,0:0:0:0:
182,192,214217,1,0,0:0:0:0:
329,192,214217,1,0,0:0:0:0:
109,192,214325,1,0,0:0:0:0:
256,192,214325,1,0,0:0:0:0:
402,192,214325,1,0,0:0:0:0:
36,192,214434,1,0,0:0:0:0:
182,192,214543,1,0,0:0:0:0:
475,192,214543,1,0,0:0:0:0:
475,192,214651,1,0,0:0:0:0:
182,192,214651,1,0,0:0:0:0:
36,192,214760,1,0,0:0:0:0:
329,192,214760,1,0,0:0:0:0:
256,192,214869,1,0,0:0:0:0:
402,192,214869,1,0,0:0:0:0:
109,192,214977,1,0,0:0:0:0:
256,192,214977,1,0,0:0:0:0:
109,192,215086,1,0,0:0:0:0:
402,192,215086,1,0,0:0:0:0:
475,192,215195,1,0,0:0:0:0:
36,192,215195,1,0,0:0:0:0:
329,192,215195,1,0,0:0:0:0:
182,192,215195,1,0,0:0:0:0:
329,192,215303,1,0,0:0:0:0:
475,192,215412,1,0,0:0:0:0:
182,192,215412,1,0,0:0:0:0:
329,192,215412,1,0,0:0:0:0:
182,192,215521,1,0,0:0:0:0:
36,192,215521,1,0,0:0:0:0:
475,192,215630,1,0,0:0:0:0:
329,192,215630,1,0,0:0:0:0:
402,192,215630,1,0,0:0:0:0:
402,192,215738,1,0,0:0:0:0:
256,192,215738,1,0,0:0:0:0:
109,192,215847,1,0,0:0:0:0:
182,192,215847,1,0,0:0:0:0:
109,192,215956,1,0,0:0:0:0:
256,192,215956,1,0,0:0:0:0:
36,192,216064,1,0,0:0:0:0:
475,192,216064,1,0,0:0:0:0:
182,192,216173,1,0,0:0:0:0:
402,192,216173,1,0,0:0:0:0:
329,192,216282,1,0,0:0:0:0:
256,192,216282,1,0,0:0:0:0:
329,192,216390,1,0,0:0:0:0:
109,192,216390,1,0,0:0:0:0:
36,192,216499,1,0,0:0:0:0:
475,192,216499,1,0,0:0:0:0:
402,192,216608,1,0,0:0:0:0:
182,192,216717,1,0,0:0:0:0:
329,192,216717,1,0,0:0:0:0:
109,192,216825,1,0,0:0:0:0:
256,192,216825,1,0,0:0:0:0:
36,192,216934,1,0,0:0:0:0:
182,192,216934,1,0,0:0:0:0:
402,192,217043,1,0,0:0:0:0:
475,192,217043,1,0,0:0:0:0:
329,192,217043,1,0,0:0:0:0:
402,192,217151,1,0,0:0:0:0:
475,192,217151,1,0,0:0:0:0:
329,192,217151,1,0,0:0:0:0:
402,192,217260,1,0,0:0:0:0:
475,192,217260,1,0,0:0:0:0:
329,192,217260,1,0,0:0:0:0:
36,192,217369,1,0,0:0:0:0:
182,192,217369,1,0,0:0:0:0:
109,192,217477,1,0,0:0:0:0:
182,192,217477,1,0,0:0:0:0:
329,192,217586,1,0,0:0:0:0:
402,192,217586,1,0,0:0:0:0:
256,192,217695,1,0,0:0:0:0:
329,192,217695,1,0,0:0:0:0:
36,192,217803,1,0,0:0:0:0:
475,192,217803,1,0,0:0:0:0:
182,192,217912,1,0,0:0:0:0:
402,192,218021,1,0,0:0:0:0:
109,192,218021,1,0,0:0:0:0:
256,192,218021,1,0,0:0:0:0:
475,192,218130,1,0,0:0:0:0:
36,192,218130,1,0,0:0:0:0:
329,192,218130,1,0,0:0:0:0:
182,192,218238,1,0,0:0:0:0:
109,192,218238,1,0,0:0:0:0:
109,192,218347,1,0,0:0:0:0:
182,192,218347,1,0,0:0:0:0:
182,192,218456,1,0,0:0:0:0:
109,192,218456,1,0,0:0:0:0:
329,192,218456,1,0,0:0:0:0:
402,192,218564,1,0,0:0:0:0:
475,192,218673,1,0,0:0:0:0:
256,192,218673,1,0,0:0:0:0:
36,192,218673,1,0,0:0:0:0:
182,192,218782,1,0,0:0:0:0:
329,192,218782,1,0,0:0:0:0:
182,192,218890,1,0,0:0:0:0:
329,192,218890,1,0,0:0:0:0:
182,192,218999,1,0,0:0:0:0:
329,192,218999,1,0,0:0:0:0:
36,192,219108,1,0,0:0:0:0:
475,192,219108,1,0,0:0:0:0:
402,192,219108,1,0,0:0:0:0:
402,192,219217,1,0,0:0:0:0:
475,192,219217,1,0,0:0:0:0:
182,192,219325,1,0,0:0:0:0:
256,192,219325,1,0,0:0:0:0:
109,192,219325,1,0,0:0:0:0:
182,192,219434,1,0,0:0:0:0:
256,192,219434,1,0,0:0:0:0:
329,192,219543,1,0,0:0:0:0:
402,192,219543,1,0,0:0:0:0:
475,192,219543,1,0,0:0:0:0:
329,192,219651,1,0,0:0:0:0:
402,192,219651,1,0,0:0:0:0:
109,192,219760,1,0,0:0:0:0:
36,192,219760,1,0,0:0:0:0:
182,192,219760,1,0,0:0:0:0:
36,192,219869,1,0,0:0:0:0:
109,192,219869,1,0,0:0:0:0:
256,192,219869,1,0,0:0:0:0:
402,192,219977,1,0,0:0:0:0:
475,192,219977,1,0,0:0:0:0:
402,192,220086,1,0,0:0:0:0:
329,192,220086,1,0,0:0:0:0:
256,192,220195,1,0,0:0:0:0:
329,192,220195,1,0,0:0:0:0:
256,192,220303,1,0,0:0:0:0:
182,192,220303,1,0,0:0:0:0:
36,192,220412,1,0,0:0:0:0:
109,192,220412,1,0,0:0:0:0:
329,192,220521,1,0,0:0:0:0:
475,192,220521,1,0,0:0:0:0:
329,192,220630,1,0,0:0:0:0:
475,192,220630,1,0,0:0:0:0:
329,192,220738,1,0,0:0:0:0:
475,192,220738,1,0,0:0:0:0:
36,192,220847,1,0,0:0:0:0:
182,192,220847,1,0,0:0:0:0:
402,192,220956,1,0,0:0:0:0:
109,192,221064,1,0,0:0:0:0:
256,192,221173,1,0,0:0:0:0:
329,192,221282,1,0,0:0:0:0:
182,192,221390,1,0,0:0:0:0:
475,192,221499,1,0,0:0:0:0:
329,192,221608,1,0,0:0:0:0:
36,192,221717,1,0,0:0:0:0:
182,192,221825,1,0,0:0:0:0:
329,192,221934,1,0,0:0:0:0:
475,192,222043,1,0,0:0:0:0:
475,192,222151,128,0,222586:0:0:0:0:
402,192,222151,128,0,222586:0:0:0:0:
329,192,222151,128,0,222586:0:0:0:0:
182,192,222151,128,0,222586:0:0:0:0:
109,192,222151,128,0,222586:0:0:0:0:
36,192,222151,128,0,222586:0:0:0:0:
256,192,222586,1,0,0:0:0:0:
182,192,222695,1,0,0:0:0:0:
402,192,222803,1,0,0:0:0:0:
109,192,222803,1,0,0:0:0:0:
182,192,222912,1,0,0:0:0:0:
329,192,222912,1,0,0:0:0:0:
36,192,223021,1,0,0:0:0:0:
475,192,223021,1,0,0:0:0:0:
256,192,223021,1,0,0:0:0:0:
402,192,223130,1,0,0:0:0:0:
329,192,223238,1,0,0:0:0:0:
109,192,223238,1,0,0:0:0:0:
36,192,223347,1,0,0:0:0:0:
256,192,223347,1,0,0:0:0:0:
475,192,223456,1,0,0:0:0:0:
329,192,223456,1,0,0:0:0:0:
182,192,223564,1,0,0:0:0:0:
36,192,223673,128,0,223890:0:0:0:0:
256,192,223673,1,0,0:0:0:0:
402,192,223673,1,0,0:0:0:0:
329,192,223782,1,0,0:0:0:0:
475,192,223782,1,0,0:0:0:0:
256,192,223890,1,0,0:0:0:0:
402,192,223890,1,0,0:0:0:0:
182,192,223999,1,0,0:0:0:0:
475,192,224108,128,0,224325:0:0:0:0:
36,192,224108,1,0,0:0:0:0:
329,192,224108,1,0,0:0:0:0:
109,192,224217,1,0,0:0:0:0:
256,192,224217,1,0,0:0:0:0:
182,192,224325,1,0,0:0:0:0:
402,192,224434,1,0,0:0:0:0:
109,192,224434,128,0,224651:0:0:0:0:
329,192,224543,1,0,0:0:0:0:
182,192,224543,1,0,0:0:0:0:
256,192,224651,1,0,0:0:0:0:
402,192,224651,1,0,0:0:0:0:
329,192,224760,1,0,0:0:0:0:
475,192,224760,1,0,0:0:0:0:
109,192,224869,1,0,0:0:0:0:
256,192,224977,1,0,0:0:0:0:
402,192,224977,1,0,0:0:0:0:
36,192,225086,1,0,0:0:0:0:
475,192,225086,1,0,0:0:0:0:
109,192,225195,1,0,0:0:0:0:
256,192,225303,1,0,0:0:0:0:
182,192,225412,1,0,0:0:0:0:
329,192,225412,1,0,0:0:0:0:
475,192,225412,128,0,225630:0:0:0:0:
109,192,225521,1,0,0:0:0:0:
256,192,225521,1,0,0:0:0:0:
36,192,225630,128,0,226064:0:0:0:0:
182,192,225630,1,0,0:0:0:0:
329,192,225738,1,0,0:0:0:0:
475,192,225847,1,0,0:0:0:0:
256,192,225847,1,0,0:0:0:0:
402,192,225919,1,0,0:0:0:0:
182,192,225956,1,0,0:0:0:0:
329,192,225992,1,0,0:0:0:0:
475,192,226064,1,0,0:0:0:0:
182,192,226173,1,0,0:0:0:0:
256,192,226282,1,0,0:0:0:0:
402,192,226282,1,0,0:0:0:0:
329,192,226390,1,0,0:0:0:0:
109,192,226390,1,0,0:0:0:0:
36,192,226499,1,0,0:0:0:0:
475,192,226499,1,0,0:0:0:0:
256,192,226608,1,0,0:0:0:0:
36,192,226717,1,0,0:0:0:0:
402,192,226717,1,0,0:0:0:0:
182,192,226717,128,0,226934:0:0:0:0:
475,192,226825,1,0,0:0:0:0:
329,192,226825,1,0,0:0:0:0:
109,192,226934,1,0,0:0:0:0:
256,192,227043,1,0,0:0:0:0:
36,192,227151,1,0,0:0:0:0:
182,192,227151,1,0,0:0:0:0:
329,192,227151,128,0,227369:0:0:0:0:
475,192,227260,1,0,0:0:0:0:
109,192,227260,1,0,0:0:0:0:
182,192,227369,1,0,0:0:0:0:
402,192,227369,1,0,0:0:0:0:
36,192,227477,1,0,0:0:0:0:
256,192,227586,1,0,0:0:0:0:
402,192,227586,1,0,0:0:0:0:
182,192,227695,1,0,0:0:0:0:
475,192,227695,1,0,0:0:0:0:
36,192,227803,1,0,0:0:0:0:
256,192,227912,1,0,0:0:0:0:
402,192,228021,1,0,0:0:0:0:
109,192,228021,1,0,0:0:0:0:
475,192,228130,1,0,0:0:0:0:
182,192,228130,1,0,0:0:0:0:
256,192,228238,1,0,0:0:0:0:
402,192,228238,1,0,0:0:0:0:
329,192,228347,1,0,0:0:0:0:
109,192,228456,1,0,0:0:0:0:
256,192,228456,1,0,0:0:0:0:
36,192,228564,1,0,0:0:0:0:
182,192,228564,1,0,0:0:0:0:
402,192,228673,1,0,0:0:0:0:
109,192,228782,1,0,0:0:0:0:
182,192,228890,1,0,0:0:0:0:
329,192,228890,1,0,0:0:0:0:
475,192,228890,1,0,0:0:0:0:
109,192,228999,1,0,0:0:0:0:
256,192,228999,1,0,0:0:0:0:
402,192,228999,1,0,0:0:0:0:
36,192,229108,1,0,0:0:0:0:
475,192,229108,1,0,0:0:0:0:
182,192,229108,1,0,0:0:0:0:
256,192,229217,1,0,0:0:0:0:
329,192,229217,1,0,0:0:0:0:
182,192,229325,1,0,0:0:0:0:
475,192,229325,1,0,0:0:0:0:
402,192,229325,1,0,0:0:0:0:
109,192,229434,1,0,0:0:0:0:
256,192,229434,1,0,0:0:0:0:
329,192,229434,1,0,0:0:0:0:
36,192,229543,1,0,0:0:0:0:
182,192,229543,1,0,0:0:0:0:
109,192,229651,1,0,0:0:0:0:
402,192,229651,1,0,0:0:0:0:
182,192,229760,1,0,0:0:0:0:
329,192,229760,1,0,0:0:0:0:
475,192,229760,1,0,0:0:0:0:
402,192,229869,1,0,0:0:0:0:
36,192,229869,1,0,0:0:0:0:
256,192,229869,1,0,0:0:0:0:
329,192,229977,1,0,0:0:0:0:
109,192,229977,1,0,0:0:0:0:
475,192,229977,1,0,0:0:0:0:
256,192,230086,1,0,0:0:0:0:
182,192,230086,1,0,0:0:0:0:
475,192,230195,1,0,0:0:0:0:
109,192,230195,1,0,0:0:0:0:
329,192,230195,1,0,0:0:0:0:
402,192,230303,1,0,0:0:0:0:
36,192,230303,1,0,0:0:0:0:
256,192,230303,1,0,0:0:0:0:
329,192,230412,1,0,0:0:0:0:
182,192,230412,1,0,0:0:0:0:
256,192,230521,1,0,0:0:0:0:
402,192,230521,1,0,0:0:0:0:
109,192,230630,1,0,0:0:0:0:
475,192,230630,1,0,0:0:0:0:
329,192,230630,1,0,0:0:0:0:
36,192,230738,1,0,0:0:0:0:
402,192,230738,1,0,0:0:0:0:
182,192,230738,1,0,0:0:0:0:
256,192,230847,1,0,0:0:0:0:
109,192,230847,1,0,0:0:0:0:
475,192,230847,1,0,0:0:0:0:
182,192,230956,1,0,0:0:0:0:
402,192,230956,1,0,0:0:0:0:
109,192,231064,1,0,0:0:0:0:
256,192,231064,1,0,0:0:0:0:
329,192,231064,1,0,0:0:0:0:
402,192,231173,1,0,0:0:0:0:
36,192,231173,1,0,0:0:0:0:
182,192,231173,1,0,0:0:0:0:
475,192,231282,1,0,0:0:0:0:
256,192,231282,1,0,0:0:0:0:
182,192,231390,1,0,0:0:0:0:
329,192,231390,1,0,0:0:0:0:
475,192,231499,1,0,0:0:0:0:
402,192,231499,1,0,0:0:0:0:
109,192,231499,1,0,0:0:0:0:
329,192,231608,1,0,0:0:0:0:
182,192,231608,1,0,0:0:0:0:
36,192,231608,1,0,0:0:0:0:
256,192,231717,1,0,0:0:0:0:
402,192,231717,1,0,0:0:0:0:
109,192,231717,1,0,0:0:0:0:
182,192,231825,1,0,0:0:0:0:
475,192,231825,1,0,0:0:0:0:
329,192,231934,1,0,0:0:0:0:
256,192,231934,1,0,0:0:0:0:
109,192,231934,1,0,0:0:0:0:
475,192,232043,1,0,0:0:0:0:
36,192,232043,1,0,0:0:0:0:
402,192,232043,1,0,0:0:0:0:
109,192,232151,1,0,0:0:0:0:
329,192,232151,1,0,0:0:0:0:
256,192,232260,1,0,0:0:0:0:
182,192,232260,1,0,0:0:0:0:
109,192,232369,1,0,0:0:0:0:
329,192,232369,1,0,0:0:0:0:
402,192,232369,128,0,232586:0:0:0:0:
36,192,232477,1,0,0:0:0:0:
256,192,232477,1,0,0:0:0:0:
475,192,232477,128,0,232586:0:0:0:0:
182,192,232586,128,0,233021:0:0:0:0:
109,192,232586,1,0,0:0:0:0:
329,192,232695,1,0,0:0:0:0:
475,192,232803,1,0,0:0:0:0:
256,192,232803,1,0,0:0:0:0:
402,192,232876,1,0,0:0:0:0:
109,192,232912,1,0,0:0:0:0:
329,192,232948,1,0,0:0:0:0:
475,192,233021,1,0,0:0:0:0:
109,192,233130,1,0,0:0:0:0:
329,192,233238,1,0,0:0:0:0:
475,192,233238,1,0,0:0:0:0:
36,192,233347,1,0,0:0:0:0:
182,192,233347,1,0,0:0:0:0:
402,192,233456,1,0,0:0:0:0:
256,192,233456,1,0,0:0:0:0:
182,192,233564,1,0,0:0:0:0:
329,192,233673,1,0,0:0:0:0:
475,192,233673,1,0,0:0:0:0:
109,192,233782,1,0,0:0:0:0:
256,192,233782,1,0,0:0:0:0:
402,192,233890,1,0,0:0:0:0:
256,192,233999,1,0,0:0:0:0:
182,192,234108,1,0,0:0:0:0:
36,192,234108,1,0,0:0:0:0:
329,192,234217,1,0,0:0:0:0:
475,192,234217,1,0,0:0:0:0:
256,192,234325,1,0,0:0:0:0:
109,192,234325,1,0,0:0:0:0:
402,192,234434,1,0,0:0:0:0:
36,192,234543,1,0,0:0:0:0:
182,192,234543,1,0,0:0:0:0:
329,192,234651,1,0,0:0:0:0:
475,192,234651,1,0,0:0:0:0:
182,192,234760,1,0,0:0:0:0:
256,192,234869,1,0,0:0:0:0:
402,192,234977,1,0,0:0:0:0:
109,192,234977,1,0,0:0:0:0:
475,192,235086,1,0,0:0:0:0:
182,192,235086,1,0,0:0:0:0:
36,192,235195,1,0,0:0:0:0:
329,192,235195,1,0,0:0:0:0:
182,192,235303,1,0,0:0:0:0:
475,192,235412,1,0,0:0:0:0:
329,192,235412,1,0,0:0:0:0:
182,192,235521,1,0,0:0:0:0:
36,192,235521,1,0,0:0:0:0:
256,192,235630,128,0,236499:0:0:0:0:
475,192,235738,1,0,0:0:0:0:
36,192,235847,1,0,0:0:0:0:
475,192,235956,1,0,0:0:0:0:
109,192,236064,1,0,0:0:0:0:
402,192,236064,1,0,0:0:0:0:
109,192,236173,1,0,0:0:0:0:
402,192,236173,1,0,0:0:0:0:
109,192,236282,128,0,236499:0:0:0:0:
402,192,236282,128,0,236499:0:0:0:0:
182,192,236499,1,0,0:0:0:0:
36,192,236499,1,0,0:0:0:0:
475,192,236499,1,0,0:0:0:0:
256,192,236608,1,0,0:0:0:0:
109,192,236608,1,0,0:0:0:0:
402,192,236717,1,0,0:0:0:0:
329,192,236717,1,0,0:0:0:0:
36,192,236717,1,0,0:0:0:0:
475,192,236825,1,0,0:0:0:0:
256,192,236825,1,0,0:0:0:0:
182,192,236825,1,0,0:0:0:0:
329,192,236934,1,0,0:0:0:0:
36,192,236934,1,0,0:0:0:0:
109,192,236934,1,0,0:0:0:0:
256,192,237043,1,0,0:0:0:0:
402,192,237043,1,0,0:0:0:0:
182,192,237151,1,0,0:0:0:0:
475,192,237151,1,0,0:0:0:0:
329,192,237151,1,0,0:0:0:0:
182,192,237260,1,0,0:0:0:0:
402,192,237260,1,0,0:0:0:0:
36,192,237260,1,0,0:0:0:0:
329,192,237369,1,0,0:0:0:0:
256,192,237369,1,0,0:0:0:0:
402,192,237477,1,0,0:0:0:0:
109,192,237477,1,0,0:0:0:0:
475,192,237586,1,0,0:0:0:0:
36,192,237586,1,0,0:0:0:0:
182,192,237586,1,0,0:0:0:0:
329,192,237695,1,0,0:0:0:0:
402,192,237695,1,0,0:0:0:0:
256,192,237695,1,0,0:0:0:0:
109,192,237803,1,0,0:0:0:0:
182,192,237803,1,0,0:0:0:0:
36,192,237803,1,0,0:0:0:0:
402,192,237912,1,0,0:0:0:0:
329,192,237912,1,0,0:0:0:0:
475,192,237912,1,0,0:0:0:0:
256,192,237912,1,0,0:0:0:0:
109,192,238021,1,0,0:0:0:0:
182,192,238021,1,0,0:0:0:0:
36,192,238021,1,0,0:0:0:0:
402,192,238130,1,0,0:0:0:0:
329,192,238130,1,0,0:0:0:0:
475,192,238130,1,0,0:0:0:0:
256,192,238130,1,0,0:0:0:0:
36,192,238238,1,0,0:0:0:0:
182,192,238238,1,0,0:0:0:0:
256,192,238347,1,0,0:0:0:0:
402,192,238347,1,0,0:0:0:0:
329,192,238456,1,0,0:0:0:0:
36,192,238456,1,0,0:0:0:0:
109,192,238456,1,0,0:0:0:0:
475,192,238564,1,0,0:0:0:0:
256,192,238564,1,0,0:0:0:0:
182,192,238564,1,0,0:0:0:0:
402,192,238673,1,0,0:0:0:0:
36,192,238673,1,0,0:0:0:0:
109,192,238673,1,0,0:0:0:0:
256,192,238782,1,0,0:0:0:0:
182,192,238782,1,0,0:0:0:0:
329,192,238890,1,0,0:0:0:0:
475,192,238890,1,0,0:0:0:0:
109,192,238890,1,0,0:0:0:0:
329,192,238999,1,0,0:0:0:0:
402,192,238999,1,0,0:0:0:0:
36,192,238999,1,0,0:0:0:0:
182,192,239108,1,0,0:0:0:0:
109,192,239108,1,0,0:0:0:0:
329,192,239217,1,0,0:0:0:0:
256,192,239217,1,0,0:0:0:0:
475,192,239325,1,0,0:0:0:0:
36,192,239325,1,0,0:0:0:0:
182,192,239325,1,0,0:0:0:0:
402,192,239434,1,0,0:0:0:0:
109,192,239434,1,0,0:0:0:0:
329,192,239434,1,0,0:0:0:0:
256,192,239543,1,0,0:0:0:0:
475,192,239543,1,0,0:0:0:0:
182,192,239543,1,0,0:0:0:0:
109,192,239651,1,0,0:0:0:0:
402,192,239651,1,0,0:0:0:0:
36,192,239651,1,0,0:0:0:0:
329,192,239651,1,0,0:0:0:0:
256,192,239760,1,0,0:0:0:0:
475,192,239760,1,0,0:0:0:0:
182,192,239760,1,0,0:0:0:0:
36,192,239869,1,0,0:0:0:0:
402,192,239869,1,0,0:0:0:0:
329,192,239869,1,0,0:0:0:0:
109,192,239869,1,0,0:0:0:0:
256,192,239977,1,0,0:0:0:0:
475,192,239977,1,0,0:0:0:0:
182,192,240086,1,0,0:0:0:0:
329,192,240086,1,0,0:0:0:0:
109,192,240195,1,0,0:0:0:0:
475,192,240195,1,0,0:0:0:0:
256,192,240195,1,0,0:0:0:0:
36,192,240303,1,0,0:0:0:0:
402,192,240303,1,0,0:0:0:0:
329,192,240303,1,0,0:0:0:0:
182,192,240412,1,0,0:0:0:0:
109,192,240412,1,0,0:0:0:0:
475,192,240412,1,0,0:0:0:0:
402,192,240521,1,0,0:0:0:0:
256,192,240521,1,0,0:0:0:0:
109,192,240630,1,0,0:0:0:0:
475,192,240630,1,0,0:0:0:0:
329,192,240630,1,0,0:0:0:0:
109,192,240738,1,0,0:0:0:0:
402,192,240738,1,0,0:0:0:0:
36,192,240738,1,0,0:0:0:0:
256,192,240847,1,0,0:0:0:0:
329,192,240847,1,0,0:0:0:0:
182,192,240956,1,0,0:0:0:0:
475,192,240956,1,0,0:0:0:0:
36,192,241064,1,0,0:0:0:0:
402,192,241064,1,0,0:0:0:0:
256,192,241064,1,0,0:0:0:0:
109,192,241173,1,0,0:0:0:0:
329,192,241173,1,0,0:0:0:0:
475,192,241173,1,0,0:0:0:0:
182,192,241282,1,0,0:0:0:0:
402,192,241282,1,0,0:0:0:0:
36,192,241282,1,0,0:0:0:0:
256,192,241390,1,0,0:0:0:0:
109,192,241390,1,0,0:0:0:0:
475,192,241390,1,0,0:0:0:0:
329,192,241390,1,0,0:0:0:0:
182,192,241499,1,0,0:0:0:0:
402,192,241499,1,0,0:0:0:0:
36,192,241499,1,0,0:0:0:0:
256,192,241608,1,0,0:0:0:0:
475,192,241608,1,0,0:0:0:0:
109,192,241608,1,0,0:0:0:0:
329,192,241608,1,0,0:0:0:0:
36,192,241717,1,0,0:0:0:0:
402,192,241717,1,0,0:0:0:0:
256,192,241825,1,0,0:0:0:0:
109,192,241825,1,0,0:0:0:0:
182,192,241934,1,0,0:0:0:0:
329,192,241934,1,0,0:0:0:0:
402,192,241934,1,0,0:0:0:0:
36,192,242043,1,0,0:0:0:0:
475,192,242043,1,0,0:0:0:0:
256,192,242043,1,0,0:0:0:0:
109,192,242151,1,0,0:0:0:0:
402,192,242151,1,0,0:0:0:0:
182,192,242151,1,0,0:0:0:0:
36,192,242260,1,0,0:0:0:0:
329,192,242260,1,0,0:0:0:0:
402,192,242369,1,0,0:0:0:0:
256,192,242369,1,0,0:0:0:0:
109,192,242369,1,0,0:0:0:0:
402,192,242477,1,0,0:0:0:0:
36,192,242477,1,0,0:0:0:0:
475,192,242477,1,0,0:0:0:0:
182,192,242586,1,0,0:0:0:0:
329,192,242586,1,0,0:0:0:0:
109,192,242695,1,0,0:0:0:0:
256,192,242695,1,0,0:0:0:0:
36,192,242803,1,0,0:0:0:0:
329,192,242803,1,0,0:0:0:0:
402,192,242803,1,0,0:0:0:0:
182,192,242912,1,0,0:0:0:0:
475,192,242912,1,0,0:0:0:0:
109,192,242912,1,0,0:0:0:0:
256,192,243021,1,0,0:0:0:0:
329,192,243021,1,0,0:0:0:0:
402,192,243021,1,0,0:0:0:0:
109,192,243130,1,0,0:0:0:0:
36,192,243130,1,0,0:0:0:0:
182,192,243130,1,0,0:0:0:0:
329,192,243238,1,0,0:0:0:0:
402,192,243238,1,0,0:0:0:0:
475,192,243238,1,0,0:0:0:0:
256,192,243347,1,0,0:0:0:0:
182,192,243347,1,0,0:0:0:0:
36,192,243347,1,0,0:0:0:0:
109,192,243347,1,0,0:0:0:0:
329,192,243456,1,0,0:0:0:0:
475,192,243456,1,0,0:0:0:0:
329,192,243564,1,0,0:0:0:0:
182,192,243564,1,0,0:0:0:0:
182,192,243673,1,0,0:0:0:0:
36,192,243673,1,0,0:0:0:0:
36,192,243782,1,0,0:0:0:0:
402,192,243782,1,0,0:0:0:0:
475,192,243890,1,0,0:0:0:0:
256,192,243890,1,0,0:0:0:0:
109,192,243890,1,0,0:0:0:0:
329,192,243999,1,0,0:0:0:0:
182,192,243999,1,0,0:0:0:0:
36,192,244108,1,0,0:0:0:0:
256,192,244108,1,0,0:0:0:0:
475,192,244108,1,0,0:0:0:0:
36,192,244217,1,0,0:0:0:0:
256,192,244217,1,0,0:0:0:0:
475,192,244217,1,0,0:0:0:0:
109,192,244325,1,0,0:0:0:0:
402,192,244325,1,0,0:0:0:0:
402,192,244434,1,0,0:0:0:0:
182,192,244434,1,0,0:0:0:0:
182,192,244543,1,0,0:0:0:0:
329,192,244543,1,0,0:0:0:0:
329,192,244651,1,0,0:0:0:0:
109,192,244651,1,0,0:0:0:0:
109,192,244760,1,0,0:0:0:0:
182,192,244760,1,0,0:0:0:0:
256,192,244760,1,0,0:0:0:0:
256,192,244869,1,0,0:0:0:0:
329,192,244869,1,0,0:0:0:0:
402,192,244869,1,0,0:0:0:0:
475,192,244869,1,0,0:0:0:0:
36,192,244977,1,0,0:0:0:0:
109,192,244977,1,0,0:0:0:0:
182,192,244977,1,0,0:0:0:0:
182,192,245086,1,0,0:0:0:0:
256,192,245086,1,0,0:0:0:0:
329,192,245086,1,0,0:0:0:0:
402,192,245086,1,0,0:0:0:0:
36,192,245195,1,0,0:0:0:0:
475,192,245195,1,0,0:0:0:0:
109,192,245303,1,0,0:0:0:0:
329,192,245303,1,0,0:0:0:0:
402,192,245412,1,0,0:0:0:0:
36,192,245412,1,0,0:0:0:0:
256,192,245412,1,0,0:0:0:0:
475,192,245521,1,0,0:0:0:0:
329,192,245521,1,0,0:0:0:0:
182,192,245521,1,0,0:0:0:0:
36,192,245630,1,0,0:0:0:0:
402,192,245630,1,0,0:0:0:0:
109,192,245630,1,0,0:0:0:0:
329,192,245738,1,0,0:0:0:0:
182,192,245738,1,0,0:0:0:0:
256,192,245847,1,0,0:0:0:0:
475,192,245847,1,0,0:0:0:0:
109,192,245847,1,0,0:0:0:0:
256,192,245956,1,0,0:0:0:0:
402,192,245956,1,0,0:0:0:0:
36,192,245956,1,0,0:0:0:0:
109,192,246064,1,0,0:0:0:0:
475,192,246064,1,0,0:0:0:0:
182,192,246173,1,0,0:0:0:0:
329,192,246173,1,0,0:0:0:0:
402,192,246282,1,0,0:0:0:0:
256,192,246282,1,0,0:0:0:0:
109,192,246282,1,0,0:0:0:0:
329,192,246390,1,0,0:0:0:0:
182,192,246390,1,0,0:0:0:0:
36,192,246390,1,0,0:0:0:0:
475,192,246499,1,0,0:0:0:0:
109,192,246499,1,0,0:0:0:0:
256,192,246499,1,0,0:0:0:0:
329,192,246608,1,0,0:0:0:0:
402,192,246608,1,0,0:0:0:0:
36,192,246608,1,0,0:0:0:0:
182,192,246717,1,0,0:0:0:0:
256,192,246717,1,0,0:0:0:0:
475,192,246717,1,0,0:0:0:0:
329,192,246789,1,0,0:0:0:0:
109,192,246825,1,0,0:0:0:0:
36,192,246825,1,0,0:0:0:0:
402,192,246861,1,0,0:0:0:0:
475,192,246934,1,0,0:0:0:0:
182,192,246934,1,0,0:0:0:0:
256,192,247043,1,0,0:0:0:0:
329,192,247043,1,0,0:0:0:0:
36,192,247151,1,0,0:0:0:0:
109,192,247151,1,0,0:0:0:0:
182,192,247151,1,0,0:0:0:0:
329,192,247260,1,0,0:0:0:0:
402,192,247260,1,0,0:0:0:0:
475,192,247260,1,0,0:0:0:0:
256,192,247369,1,0,0:0:0:0:
182,192,247369,1,0,0:0:0:0:
109,192,247369,1,0,0:0:0:0:
329,192,247477,1,0,0:0:0:0:
402,192,247477,1,0,0:0:0:0:
36,192,247586,1,0,0:0:0:0:
109,192,247586,1,0,0:0:0:0:
182,192,247586,1,0,0:0:0:0:
182,192,247695,1,0,0:0:0:0:
256,192,247695,1,0,0:0:0:0:
329,192,247695,1,0,0:0:0:0:
402,192,247803,1,0,0:0:0:0:
475,192,247803,1,0,0:0:0:0:
256,192,247912,1,0,0:0:0:0:
329,192,247912,1,0,0:0:0:0:
182,192,248021,1,0,0:0:0:0:
109,192,248021,1,0,0:0:0:0:
36,192,248021,1,0,0:0:0:0:
256,192,248130,1,0,0:0:0:0:
329,192,248130,1,0,0:0:0:0:
402,192,248130,1,0,0:0:0:0:
36,192,248238,1,0,0:0:0:0:
109,192,248238,1,0,0:0:0:0:
182,192,248238,1,0,0:0:0:0:
36,192,248347,1,0,0:0:0:0:
109,192,248347,1,0,0:0:0:0:
182,192,248347,1,0,0:0:0:0:
329,192,248456,1,0,0:0:0:0:
402,192,248456,1,0,0:0:0:0:
475,192,248456,1,0,0:0:0:0:
329,192,248564,1,0,0:0:0:0:
402,192,248564,1,0,0:0:0:0:
475,192,248564,1,0,0:0:0:0:
36,192,248673,1,0,0:0:0:0:
182,192,248673,1,0,0:0:0:0:
256,192,248673,1,0,0:0:0:0:
109,192,248782,1,0,0:0:0:0:
329,192,248782,1,0,0:0:0:0:
402,192,248782,1,0,0:0:0:0:
475,192,248890,1,0,0:0:0:0:
36,192,248890,1,0,0:0:0:0:
256,192,248890,1,0,0:0:0:0:
329,192,248999,1,0,0:0:0:0:
402,192,248999,1,0,0:0:0:0:
182,192,248999,1,0,0:0:0:0:
36,192,249108,1,0,0:0:0:0:
256,192,249108,1,0,0:0:0:0:
475,192,249108,1,0,0:0:0:0:
109,192,249108,1,0,0:0:0:0:
182,192,249217,1,0,0:0:0:0:
329,192,249217,1,0,0:0:0:0:
402,192,249325,1,0,0:0:0:0:
256,192,249325,1,0,0:0:0:0:
36,192,249325,1,0,0:0:0:0:
475,192,249325,1,0,0:0:0:0:
475,192,249434,1,0,0:0:0:0:
402,192,249434,1,0,0:0:0:0:
256,192,249434,1,0,0:0:0:0:
36,192,249434,1,0,0:0:0:0:
109,192,249543,1,0,0:0:0:0:
182,192,249543,1,0,0:0:0:0:
329,192,249543,1,0,0:0:0:0:
475,192,249651,1,0,0:0:0:0:
256,192,249651,1,0,0:0:0:0:
36,192,249760,1,0,0:0:0:0:
109,192,249760,1,0,0:0:0:0:
329,192,249760,1,0,0:0:0:0:
402,192,249760,1,0,0:0:0:0:
475,192,249869,1,0,0:0:0:0:
182,192,249869,1,0,0:0:0:0:
36,192,249977,1,0,0:0:0:0:
402,192,249977,1,0,0:0:0:0:
256,192,249977,1,0,0:0:0:0:
109,192,250086,1,0,0:0:0:0:
329,192,250086,1,0,0:0:0:0:
329,192,250195,128,0,250412:0:0:0:0:
402,192,250195,128,0,250412:0:0:0:0:
475,192,250195,128,0,250412:0:0:0:0:
36,192,250195,1,0,0:0:0:0:
182,192,250195,1,0,0:0:0:0:
109,192,250303,1,0,0:0:0:0:
256,192,250303,1,0,0:0:0:0:
182,192,250412,128,0,257369:0:0:0:0:
36,192,250412,1,0,0:0:0:0:
329,192,250521,1,0,0:0:0:0:
475,192,250630,1,0,0:0:0:0:
402,192,250738,1,0,0:0:0:0:
36,192,250847,1,0,0:0:0:0:
329,192,250847,1,0,0:0:0:0:
475,192,250956,1,0,0:0:0:0:
329,192,251064,1,0,0:0:0:0:
475,192,251173,1,0,0:0:0:0:
36,192,251282,1,0,0:0:0:0:
402,192,251282,1,0,0:0:0:0:
475,192,251390,1,0,0:0:0:0:
329,192,251499,1,0,0:0:0:0:
402,192,251608,1,0,0:0:0:0:
36,192,251717,1,0,0:0:0:0:
256,192,251825,1,0,0:0:0:0:
256,192,252043,1,0,0:0:0:0:
475,192,252151,1,0,0:0:0:0:
329,192,252260,1,0,0:0:0:0:
109,192,252369,1,0,0:0:0:0:
256,192,252477,1,0,0:0:0:0:
475,192,252586,1,0,0:0:0:0:
36,192,252586,1,0,0:0:0:0:
402,192,252695,1,0,0:0:0:0:
109,192,252803,1,0,0:0:0:0:
329,192,252912,1,0,0:0:0:0:
475,192,253021,1,0,0:0:0:0:
36,192,253021,1,0,0:0:0:0:
256,192,253130,1,0,0:0:0:0:
402,192,253238,1,0,0:0:0:0:
109,192,253347,1,0,0:0:0:0:
475,192,253456,1,0,0:0:0:0:
256,192,253564,1,0,0:0:0:0:
256,192,253782,1,0,0:0:0:0:
329,192,253890,128,0,260847:0:0:0:0:
36,192,253890,1,0,0:0:0:0:
475,192,253890,1,0,0:0:0:0:
402,192,253999,1,0,0:0:0:0:
256,192,254108,1,0,0:0:0:0:
109,192,254217,1,0,0:0:0:0:
36,192,254325,1,0,0:0:0:0:
475,192,254325,1,0,0:0:0:0:
402,192,254434,1,0,0:0:0:0:
256,192,254543,1,0,0:0:0:0:
109,192,254651,1,0,0:0:0:0:
36,192,254760,1,0,0:0:0:0:
475,192,254760,1,0,0:0:0:0:
256,192,254869,1,0,0:0:0:0:
402,192,254977,1,0,0:0:0:0:
109,192,255086,1,0,0:0:0:0:
36,192,255195,1,0,0:0:0:0:
256,192,255303,1,0,0:0:0:0:
256,192,255521,1,0,0:0:0:0:
475,192,255630,1,0,0:0:0:0:
36,192,255847,1,0,0:0:0:0:
256,192,255956,1,0,0:0:0:0:
475,192,256064,1,0,0:0:0:0:
109,192,256282,1,0,0:0:0:0:
36,192,256390,1,0,0:0:0:0:
475,192,256499,1,0,0:0:0:0:
256,192,256717,1,0,0:0:0:0:
36,192,256825,1,0,0:0:0:0:
475,192,256934,1,0,0:0:0:0:
109,192,257151,1,0,0:0:0:0:
256,192,257260,1,0,0:0:0:0:
36,192,257369,128,0,264325:0:0:0:0:
475,192,257369,1,0,0:0:0:0:
182,192,257586,1,0,0:0:0:0:
402,192,257695,1,0,0:0:0:0:
475,192,257803,1,0,0:0:0:0:
256,192,258021,1,0,0:0:0:0:
109,192,258130,1,0,0:0:0:0:
475,192,258238,1,0,0:0:0:0:
402,192,258456,1,0,0:0:0:0:
182,192,258564,1,0,0:0:0:0:
475,192,258673,1,0,0:0:0:0:
109,192,258890,1,0,0:0:0:0:
475,192,258999,1,0,0:0:0:0:
182,192,259108,1,0,0:0:0:0:
256,192,259325,1,0,0:0:0:0:
402,192,259434,1,0,0:0:0:0:
182,192,259543,1,0,0:0:0:0:
475,192,259760,1,0,0:0:0:0:
256,192,259869,1,0,0:0:0:0:
182,192,259977,1,0,0:0:0:0:
475,192,260195,1,0,0:0:0:0:
109,192,260303,1,0,0:0:0:0:
182,192,260412,1,0,0:0:0:0:
402,192,260630,1,0,0:0:0:0:
109,192,260738,1,0,0:0:0:0:
475,192,260847,128,0,264325:0:0:0:0:
182,192,260847,1,0,0:0:0:0:
329,192,261064,1,0,0:0:0:0:
402,192,261173,1,0,0:0:0:0:
182,192,261282,1,0,0:0:0:0:
329,192,261499,1,0,0:0:0:0:
256,192,261608,1,0,0:0:0:0:
182,192,261717,1,0,0:0:0:0:
109,192,261934,1,0,0:0:0:0:
329,192,262043,1,0,0:0:0:0:
182,192,262151,1,0,0:0:0:0:
402,192,262369,1,0,0:0:0:0:
329,192,262477,1,0,0:0:0:0:
256,192,262586,1,0,0:0:0:0:
182,192,262803,1,0,0:0:0:0:
329,192,262912,1,0,0:0:0:0:
256,192,263021,1,0,0:0:0:0:
402,192,263238,1,0,0:0:0:0:
109,192,263347,1,0,0:0:0:0:
256,192,263456,1,0,0:0:0:0:
329,192,263673,1,0,0:0:0:0:
182,192,263782,1,0,0:0:0:0:
256,192,263890,1,0,0:0:0:0:
329,192,264108,1,0,0:0:0:0:
256,192,264180,1,0,0:0:0:0:
182,192,264253,1,0,0:0:0:0:
109,192,264325,128,0,264543:0:0:0:0:
402,192,264325,128,0,264543:0:0:0:0:
256,192,264760,1,0,0:0:0:0:
109,192,264977,128,0,265122:0:0:0:0:
402,192,264977,128,0,265122:0:0:0:0:
256,192,265195,1,0,0:0:0:0:
109,192,265630,128,0,265738:0:0:0:0:
402,192,265630,128,0,265738:0:0:0:0:
256,192,265630,1,0,0:0:0:0:
256,192,266064,1,0,0:0:0:0:
402,192,266282,128,0,266354:0:0:0:0:
109,192,266282,128,0,266354:0:0:0:0:
256,192,266499,1,0,0:0:0:0:
256,192,266934,1,0,0:0:0:0:
402,192,266934,128,0,266988:0:0:0:0:
109,192,266934,128,0,266988:0:0:0:0:
256,192,267369,1,0,0:0:0:0:
109,192,267586,1,0,0:0:0:0:
256,192,267659,1,0,0:0:0:0:
402,192,267731,1,0,0:0:0:0:
182,192,267803,1,0,0:0:0:0:
36,192,267803,128,0,267912:0:0:0:0:
329,192,267803,128,0,267912:0:0:0:0:
475,192,267803,1,0,0:0:0:0:
475,192,268130,1,0,0:0:0:0:
182,192,268238,1,0,0:0:0:0:
36,192,268456,128,0,268564:0:0:0:0:
329,192,268456,128,0,268564:0:0:0:0:
475,192,268456,1,0,0:0:0:0:
182,192,268673,1,0,0:0:0:0:
182,192,269108,1,0,0:0:0:0:
36,192,269108,128,0,269217:0:0:0:0:
329,192,269108,128,0,269217:0:0:0:0:
329,192,269543,1,0,0:0:0:0:
182,192,269543,128,0,269651:0:0:0:0:
475,192,269543,128,0,269651:0:0:0:0:
36,192,269543,1,0,0:0:0:0:
36,192,269869,1,0,0:0:0:0:
329,192,269977,1,0,0:0:0:0:
36,192,270195,1,0,0:0:0:0:
182,192,270412,1,0,0:0:0:0:
402,192,270412,128,0,270521:0:0:0:0:
109,192,270412,128,0,270521:0:0:0:0:
329,192,270412,1,0,0:0:0:0:
182,192,270738,1,0,0:0:0:0:
329,192,270847,1,0,0:0:0:0:
182,192,271064,1,0,0:0:0:0:
402,192,271064,1,0,0:0:0:0:
329,192,271137,1,0,0:0:0:0:
109,192,271209,1,0,0:0:0:0:
256,192,271282,1,0,0:0:0:0:
36,192,271282,128,0,271499:0:0:0:0:
475,192,271282,128,0,271499:0:0:0:0:
256,192,271717,1,0,0:0:0:0:
36,192,271934,128,0,272079:0:0:0:0:
475,192,271934,128,0,272079:0:0:0:0:
256,192,272151,1,0,0:0:0:0:
36,192,272586,128,0,272695:0:0:0:0:
475,192,272586,128,0,272695:0:0:0:0:
256,192,272586,1,0,0:0:0:0:
256,192,273021,1,0,0:0:0:0:
36,192,273238,128,0,273311:0:0:0:0:
475,192,273238,128,0,273311:0:0:0:0:
256,192,273456,1,0,0:0:0:0:
256,192,273890,1,0,0:0:0:0:
36,192,273890,128,0,273945:0:0:0:0:
475,192,273890,128,0,273945:0:0:0:0:
256,192,274325,1,0,0:0:0:0:
36,192,274543,1,0,0:0:0:0:
475,192,274543,1,0,0:0:0:0:
109,192,274615,1,0,0:0:0:0:
402,192,274615,1,0,0:0:0:0:
182,192,274688,1,0,0:0:0:0:
329,192,274688,1,0,0:0:0:0:
475,192,274760,1,0,0:0:0:0:
256,192,274760,128,0,274869:0:0:0:0:
36,192,274760,1,0,0:0:0:0:
402,192,274760,128,0,274869:0:0:0:0:
475,192,275086,1,0,0:0:0:0:
36,192,275195,1,0,0:0:0:0:
402,192,275412,128,0,275521:0:0:0:0:
256,192,275412,128,0,275521:0:0:0:0:
475,192,275412,1,0,0:0:0:0:
36,192,275630,1,0,0:0:0:0:
36,192,276064,1,0,0:0:0:0:
256,192,276064,128,0,276173:0:0:0:0:
402,192,276064,128,0,276173:0:0:0:0:
402,192,276499,1,0,0:0:0:0:
182,192,276499,128,0,276608:0:0:0:0:
329,192,276499,128,0,276608:0:0:0:0:
36,192,276499,1,0,0:0:0:0:
402,192,276825,1,0,0:0:0:0:
36,192,276934,1,0,0:0:0:0:
402,192,277151,1,0,0:0:0:0:
182,192,277369,1,0,0:0:0:0:
256,192,277369,128,0,277477:0:0:0:0:
109,192,277369,128,0,277477:0:0:0:0:
475,192,277369,1,0,0:0:0:0:
182,192,277695,1,0,0:0:0:0:
475,192,277803,1,0,0:0:0:0:
182,192,278021,1,0,0:0:0:0:
402,192,278021,1,0,0:0:0:0:
109,192,278093,1,0,0:0:0:0:
329,192,278093,1,0,0:0:0:0:
36,192,278166,1,0,0:0:0:0:
256,192,278166,1,0,0:0:0:0:
329,192,278238,128,0,278456:0:0:0:0:
475,192,278238,128,0,278456:0:0:0:0:
182,192,278238,1,0,0:0:0:0:
182,192,278673,1,0,0:0:0:0:
329,192,278890,128,0,279035:0:0:0:0:
475,192,278890,128,0,279035:0:0:0:0:
182,192,279108,1,0,0:0:0:0:
329,192,279543,128,0,279651:0:0:0:0:
475,192,279543,128,0,279651:0:0:0:0:
182,192,279543,1,0,0:0:0:0:
182,192,279977,1,0,0:0:0:0:
475,192,280195,128,0,280267:0:0:0:0:
329,192,280195,128,0,280267:0:0:0:0:
182,192,280412,1,0,0:0:0:0:
475,192,280847,128,0,280901:0:0:0:0:
329,192,280847,128,0,280901:0:0:0:0:
182,192,280847,1,0,0:0:0:0:
182,192,281282,1,0,0:0:0:0:
475,192,281499,1,0,0:0:0:0:
109,192,281499,1,0,0:0:0:0:
402,192,281572,1,0,0:0:0:0:
182,192,281572,1,0,0:0:0:0:
329,192,281644,1,0,0:0:0:0:
256,192,281644,1,0,0:0:0:0:
36,192,281717,128,0,281825:0:0:0:0:
182,192,281717,128,0,281825:0:0:0:0:
475,192,281717,1,0,0:0:0:0:
109,192,281717,1,0,0:0:0:0:
475,192,282043,1,0,0:0:0:0:
329,192,282151,1,0,0:0:0:0:
36,192,282369,128,0,282477:0:0:0:0:
182,192,282369,128,0,282477:0:0:0:0:
475,192,282369,1,0,0:0:0:0:
329,192,282586,1,0,0:0:0:0:
329,192,283021,1,0,0:0:0:0:
36,192,283021,128,0,283130:0:0:0:0:
182,192,283021,128,0,283130:0:0:0:0:
329,192,283456,1,0,0:0:0:0:
109,192,283456,128,0,283564:0:0:0:0:
256,192,283456,128,0,283564:0:0:0:0:
402,192,283456,1,0,0:0:0:0:
402,192,283782,1,0,0:0:0:0:
329,192,283890,1,0,0:0:0:0:
402,192,284108,1,0,0:0:0:0:
109,192,284325,1,0,0:0:0:0:
329,192,284325,128,0,284434:0:0:0:0:
182,192,284325,128,0,284434:0:0:0:0:
475,192,284325,1,0,0:0:0:0:
109,192,284651,1,0,0:0:0:0:
475,192,284760,1,0,0:0:0:0:
109,192,284977,1,0,0:0:0:0:
402,192,284977,1,0,0:0:0:0:
256,192,284977,1,0,0:0:0:0:
329,192,285050,1,0,0:0:0:0:
182,192,285050,1,0,0:0:0:0:
256,192,285122,1,0,0:0:0:0:
36,192,285195,128,0,285412:0:0:0:0:
475,192,285195,128,0,285412:0:0:0:0:
402,192,285195,1,0,0:0:0:0:
109,192,285630,1,0,0:0:0:0:
36,192,285847,128,0,285992:0:0:0:0:
475,192,285847,128,0,285992:0:0:0:0:
402,192,286064,1,0,0:0:0:0:
36,192,286499,128,0,286608:0:0:0:0:
475,192,286499,128,0,286608:0:0:0:0:
109,192,286499,1,0,0:0:0:0:
402,192,286934,1,0,0:0:0:0:
36,192,287151,128,0,287224:0:0:0:0:
475,192,287151,128,0,287224:0:0:0:0:
109,192,287369,1,0,0:0:0:0:
36,192,287803,128,0,287858:0:0:0:0:
475,192,287803,128,0,287858:0:0:0:0:
402,192,287803,1,0,0:0:0:0:
109,192,288238,1,0,0:0:0:0:
329,192,288456,1,0,0:0:0:0:
182,192,288528,1,0,0:0:0:0:
36,192,288601,1,0,0:0:0:0:
475,192,288673,128,0,288782:0:0:0:0:
256,192,288673,128,0,288782:0:0:0:0:
109,192,288673,1,0,0:0:0:0:
402,192,288673,1,0,0:0:0:0:
109,192,288999,1,0,0:0:0:0:
402,192,289108,1,0,0:0:0:0:
475,192,289325,128,0,289434:0:0:0:0:
256,192,289325,128,0,289434:0:0:0:0:
109,192,289325,1,0,0:0:0:0:
402,192,289543,1,0,0:0:0:0:
475,192,289977,128,0,290086:0:0:0:0:
256,192,289977,128,0,290086:0:0:0:0:
109,192,289977,1,0,0:0:0:0:
256,192,290412,1,0,0:0:0:0:
402,192,290412,128,0,290521:0:0:0:0:
182,192,290412,128,0,290521:0:0:0:0:
36,192,290412,1,0,0:0:0:0:
36,192,290738,1,0,0:0:0:0:
256,192,290847,1,0,0:0:0:0:
36,192,291064,1,0,0:0:0:0:
109,192,291282,128,0,291390:0:0:0:0:
329,192,291282,128,0,291390:0:0:0:0:
256,192,291282,1,0,0:0:0:0:
475,192,291282,1,0,0:0:0:0:
475,192,291608,1,0,0:0:0:0:
256,192,291717,1,0,0:0:0:0:
36,192,291934,1,0,0:0:0:0:
475,192,291934,1,0,0:0:0:0:
109,192,292006,1,0,0:0:0:0:
182,192,292079,1,0,0:0:0:0:
402,192,292151,1,0,0:0:0:0:
329,192,292151,1,0,0:0:0:0:
36,192,292151,128,0,292369:0:0:0:0:
256,192,292151,128,0,292369:0:0:0:0:
402,192,292586,1,0,0:0:0:0:
256,192,292803,128,0,292948:0:0:0:0:
36,192,292803,128,0,292948:0:0:0:0:
402,192,293021,1,0,0:0:0:0:
402,192,293456,1,0,0:0:0:0:
256,192,293456,128,0,293564:0:0:0:0:
36,192,293456,128,0,293564:0:0:0:0:
402,192,293890,1,0,0:0:0:0:
36,192,294108,128,0,294180:0:0:0:0:
402,192,294325,1,0,0:0:0:0:
402,192,294760,1,0,0:0:0:0:
36,192,294760,128,0,294814:0:0:0:0:
402,192,295195,1,0,0:0:0:0:
475,192,295630,128,0,295847:0:0:0:0:
182,192,295630,128,0,295847:0:0:0:0:
329,192,295630,1,0,0:0:0:0:
329,192,296064,1,0,0:0:0:0:
475,192,296282,128,0,296499:0:0:0:0:
182,192,296282,128,0,296499:0:0:0:0:
329,192,296499,1,0,0:0:0:0:
329,192,296934,1,0,0:0:0:0:
475,192,296934,128,0,297151:0:0:0:0:
182,192,296934,128,0,297151:0:0:0:0:
256,192,297369,1,0,0:0:0:0:
109,192,297369,128,0,297586:0:0:0:0:
402,192,297369,128,0,297586:0:0:0:0:
256,192,297803,1,0,0:0:0:0:
402,192,298021,128,0,298238:0:0:0:0:
109,192,298021,128,0,298238:0:0:0:0:
256,192,298238,1,0,0:0:0:0:
256,192,298673,1,0,0:0:0:0:
402,192,298673,128,0,298890:0:0:0:0:
109,192,298673,128,0,298890:0:0:0:0:
329,192,299108,128,0,299325:0:0:0:0:
36,192,299108,128,0,299325:0:0:0:0:
182,192,299108,1,0,0:0:0:0:
182,192,299543,1,0,0:0:0:0:
36,192,299760,128,0,299977:0:0:0:0:
329,192,299760,128,0,299977:0:0:0:0:
182,192,299977,1,0,0:0:0:0:
36,192,300412,128,0,300630:0:0:0:0:
329,192,300412,128,0,300630:0:0:0:0:
182,192,300412,1,0,0:0:0:0:
182,192,300847,1,0,0:0:0:0:
182,192,301282,1,0,0:0:0:0:
182,192,301717,1,0,0:0:0:0:
182,192,302151,1,0,0:0:0:0:
329,192,302586,1,0,0:0:0:0:
475,192,302586,128,0,304325:0:0:0:0:
329,192,303238,128,0,304325:0:0:0:0:
182,192,303238,1,0,0:0:0:0:
182,192,303890,128,0,304325:0:0:0:0:
36,192,303890,1,0,0:0:0:0:
256,192,304325,1,0,0:0:0:0:
402,192,304325,128,0,306064:0:0:0:0:
109,192,304977,1,0,0:0:0:0:
256,192,304977,128,0,306064:0:0:0:0:
109,192,305630,128,0,306064:0:0:0:0:
36,192,305630,1,0,0:0:0:0:
329,192,306064,128,0,309217:0:0:0:0:
182,192,306064,1,0,0:0:0:0:
182,192,306717,128,0,308564:0:0:0:0:
36,192,306717,1,0,0:0:0:0:
36,192,307369,128,0,307912:0:0:0:0:
475,192,307369,1,0,0:0:0:0:
36,192,308021,1,0,0:0:0:0:
182,192,308673,1,0,0:0:0:0:
329,192,309325,1,0,0:0:0:0:
475,192,309543,128,0,310086:0:0:0:0:
402,192,309543,128,0,310738:0:0:0:0:
475,192,310195,128,0,311282:0:0:0:0:
402,192,310847,128,0,311282:0:0:0:0:
329,192,311282,128,0,311825:0:0:0:0:
256,192,311282,128,0,312477:0:0:0:0:
329,192,311934,128,0,313021:0:0:0:0:
256,192,312586,128,0,313021:0:0:0:0:
182,192,313021,128,0,313564:0:0:0:0:
109,192,313021,128,0,314217:0:0:0:0:
36,192,313021,128,0,314869:0:0:0:0:
182,192,313673,128,0,316173:0:0:0:0:
109,192,314325,128,0,315521:0:0:0:0:
36,192,314977,1,0,0:0:0:0:
109,192,315630,1,0,0:0:0:0:
182,192,316282,1,0,0:0:0:0:
329,192,316499,128,0,317043:0:0:0:0:
182,192,316499,128,0,318238:0:0:0:0:
475,192,316499,128,0,317695:0:0:0:0:
109,192,316499,1,0,0:0:0:0:
109,192,316825,1,0,0:0:0:0:
329,192,317151,128,0,318238:0:0:0:0:
109,192,317151,1,0,0:0:0:0:
475,192,317803,128,0,318238:0:0:0:0:
256,192,318238,128,0,318782:0:0:0:0:
402,192,318238,128,0,319434:0:0:0:0:
109,192,318238,128,0,319977:0:0:0:0:
36,192,318238,1,0,0:0:0:0:
36,192,318564,1,0,0:0:0:0:
256,192,318890,128,0,319977:0:0:0:0:
36,192,318890,1,0,0:0:0:0:
402,192,319543,128,0,319977:0:0:0:0:
182,192,319977,1,0,0:0:0:0:
329,192,319977,1,0,0:0:0:0:
36,192,319977,128,0,320521:0:0:0:0:
475,192,319977,128,0,321173:0:0:0:0:
36,192,320630,128,0,321717:0:0:0:0:
475,192,321282,128,0,322260:0:0:0:0:
36,192,321934,128,0,322803:0:0:0:0:
475,192,322586,128,0,323347:0:0:0:0:
36,192,323238,128,0,323890:0:0:0:0:
475,192,323890,128,0,324434:0:0:0:0:
36,192,324543,128,0,324977:0:0:0:0:
475,192,325195,128,0,325521:0:0:0:0:
36,192,325847,128,0,326064:0:0:0:0:
475,192,326499,128,0,326608:0:0:0:0:
36,192,326934,5,0,0:0:0:0:
182,192,326934,1,0,0:0:0:0:
329,192,327151,1,0,0:0:0:0:
475,192,327151,1,0,0:0:0:0:
182,192,327260,1,0,0:0:0:0:
36,192,327369,1,0,0:0:0:0:
329,192,327369,1,0,0:0:0:0:
475,192,327477,1,0,0:0:0:0:
329,192,327586,1,0,0:0:0:0:
182,192,327695,1,0,0:0:0:0:
475,192,327803,1,0,0:0:0:0:
36,192,327803,1,0,0:0:0:0:
329,192,327803,1,0,0:0:0:0:
182,192,328021,1,0,0:0:0:0:
475,192,328130,1,0,0:0:0:0:
329,192,328130,1,0,0:0:0:0:
36,192,328238,1,0,0:0:0:0:
182,192,328238,1,0,0:0:0:0:
475,192,328456,1,0,0:0:0:0:
329,192,328456,1,0,0:0:0:0:
182,192,328564,1,0,0:0:0:0:
36,192,328673,1,0,0:0:0:0:
329,192,328673,1,0,0:0:0:0:
109,192,328890,1,0,0:0:0:0:
402,192,328890,1,0,0:0:0:0:
256,192,328999,1,0,0:0:0:0:
36,192,329108,1,0,0:0:0:0:
182,192,329108,1,0,0:0:0:0:
402,192,329217,1,0,0:0:0:0:
256,192,329325,1,0,0:0:0:0:
109,192,329434,1,0,0:0:0:0:
402,192,329543,1,0,0:0:0:0:
36,192,329543,1,0,0:0:0:0:
256,192,329543,1,0,0:0:0:0:
109,192,329760,1,0,0:0:0:0:
402,192,329869,1,0,0:0:0:0:
256,192,329869,1,0,0:0:0:0:
109,192,329977,1,0,0:0:0:0:
36,192,329977,1,0,0:0:0:0:
402,192,330195,1,0,0:0:0:0:
182,192,330195,1,0,0:0:0:0:
329,192,330303,1,0,0:0:0:0:
36,192,330412,1,0,0:0:0:0:
475,192,330412,1,0,0:0:0:0:
182,192,330630,1,0,0:0:0:0:
329,192,330630,1,0,0:0:0:0:
475,192,330738,1,0,0:0:0:0:
36,192,330847,1,0,0:0:0:0:
329,192,330847,1,0,0:0:0:0:
182,192,330956,1,0,0:0:0:0:
475,192,331064,1,0,0:0:0:0:
329,192,331173,1,0,0:0:0:0:
182,192,331282,1,0,0:0:0:0:
475,192,331282,1,0,0:0:0:0:
36,192,331282,1,0,0:0:0:0:
329,192,331499,1,0,0:0:0:0:
182,192,331608,1,0,0:0:0:0:
475,192,331608,1,0,0:0:0:0:
36,192,331717,1,0,0:0:0:0:
329,192,331717,1,0,0:0:0:0:
182,192,331934,1,0,0:0:0:0:
475,192,331934,1,0,0:0:0:0:
329,192,332043,1,0,0:0:0:0:
36,192,332151,1,0,0:0:0:0:
475,192,332151,1,0,0:0:0:0:
402,192,332369,1,0,0:0:0:0:
256,192,332477,1,0,0:0:0:0:
182,192,332586,1,0,0:0:0:0:
36,192,332586,1,0,0:0:0:0:
329,192,332803,1,0,0:0:0:0:
475,192,332912,1,0,0:0:0:0:
182,192,333021,1,0,0:0:0:0:
36,192,333021,1,0,0:0:0:0:
256,192,333238,1,0,0:0:0:0:
402,192,333347,1,0,0:0:0:0:
182,192,333456,1,0,0:0:0:0:
36,192,333456,1,0,0:0:0:0:
475,192,333673,1,0,0:0:0:0:
329,192,333782,1,0,0:0:0:0:
36,192,333890,1,0,0:0:0:0:
182,192,333890,1,0,0:0:0:0:
329,192,334108,1,0,0:0:0:0:
475,192,334108,1,0,0:0:0:0:
256,192,334217,1,0,0:0:0:0:
36,192,334325,1,0,0:0:0:0:
182,192,334325,1,0,0:0:0:0:
329,192,334434,1,0,0:0:0:0:
256,192,334543,1,0,0:0:0:0:
182,192,334651,1,0,0:0:0:0:
329,192,334760,1,0,0:0:0:0:
36,192,334760,1,0,0:0:0:0:
475,192,334760,1,0,0:0:0:0:
256,192,334977,1,0,0:0:0:0:
329,192,335086,1,0,0:0:0:0:
182,192,335086,1,0,0:0:0:0:
36,192,335195,1,0,0:0:0:0:
475,192,335195,1,0,0:0:0:0:
329,192,335412,1,0,0:0:0:0:
182,192,335412,1,0,0:0:0:0:
256,192,335521,1,0,0:0:0:0:
36,192,335630,1,0,0:0:0:0:
475,192,335630,1,0,0:0:0:0:
256,192,335847,1,0,0:0:0:0:
402,192,335847,1,0,0:0:0:0:
109,192,335956,1,0,0:0:0:0:
475,192,336064,1,0,0:0:0:0:
329,192,336064,1,0,0:0:0:0:
256,192,336173,1,0,0:0:0:0:
402,192,336282,1,0,0:0:0:0:
109,192,336390,1,0,0:0:0:0:
256,192,336499,1,0,0:0:0:0:
475,192,336499,1,0,0:0:0:0:
36,192,336499,1,0,0:0:0:0:
109,192,336717,1,0,0:0:0:0:
256,192,336825,1,0,0:0:0:0:
402,192,336825,1,0,0:0:0:0:
475,192,336934,1,0,0:0:0:0:
36,192,336934,1,0,0:0:0:0:
256,192,337151,1,0,0:0:0:0:
109,192,337151,1,0,0:0:0:0:
402,192,337260,1,0,0:0:0:0:
182,192,337369,1,0,0:0:0:0:
329,192,337369,1,0,0:0:0:0:
36,192,337586,1,0,0:0:0:0:
256,192,337586,1,0,0:0:0:0:
475,192,337695,1,0,0:0:0:0:
182,192,337803,1,0,0:0:0:0:
329,192,337803,1,0,0:0:0:0:
36,192,337912,1,0,0:0:0:0:
402,192,338021,1,0,0:0:0:0:
182,192,338130,1,0,0:0:0:0:
36,192,338238,1,0,0:0:0:0:
329,192,338238,1,0,0:0:0:0:
475,192,338238,1,0,0:0:0:0:
256,192,338456,1,0,0:0:0:0:
36,192,338564,1,0,0:0:0:0:
475,192,338564,1,0,0:0:0:0:
329,192,338673,1,0,0:0:0:0:
182,192,338673,1,0,0:0:0:0:
36,192,338890,1,0,0:0:0:0:
402,192,338890,1,0,0:0:0:0:
182,192,338999,1,0,0:0:0:0:
329,192,339108,1,0,0:0:0:0:
475,192,339108,1,0,0:0:0:0:
256,192,339325,1,0,0:0:0:0:
109,192,339434,1,0,0:0:0:0:
329,192,339543,1,0,0:0:0:0:
475,192,339543,1,0,0:0:0:0:
36,192,339760,1,0,0:0:0:0:
182,192,339869,1,0,0:0:0:0:
329,192,339977,1,0,0:0:0:0:
475,192,339977,1,0,0:0:0:0:
182,192,340195,1,0,0:0:0:0:
36,192,340303,1,0,0:0:0:0:
329,192,340412,1,0,0:0:0:0:
475,192,340412,1,0,0:0:0:0:
109,192,340630,1,0,0:0:0:0:
256,192,340738,1,0,0:0:0:0:
329,192,340847,1,0,0:0:0:0:
475,192,340847,1,0,0:0:0:0:
182,192,340847,1,0,0:0:0:0:
109,192,340956,1,0,0:0:0:0:
182,192,341064,1,0,0:0:0:0:
402,192,341064,1,0,0:0:0:0:
36,192,341064,1,0,0:0:0:0:
109,192,341173,1,0,0:0:0:0:
256,192,341173,1,0,0:0:0:0:
329,192,341282,1,0,0:0:0:0:
182,192,341282,1,0,0:0:0:0:
475,192,341282,1,0,0:0:0:0:
36,192,341282,1,0,0:0:0:0:
402,192,341390,1,0,0:0:0:0:
109,192,341390,1,0,0:0:0:0:
329,192,341499,1,0,0:0:0:0:
182,192,341499,1,0,0:0:0:0:
256,192,341608,1,0,0:0:0:0:
475,192,341608,1,0,0:0:0:0:
182,192,341717,1,0,0:0:0:0:
36,192,341717,1,0,0:0:0:0:
109,192,341717,1,0,0:0:0:0:
402,192,341717,1,0,0:0:0:0:
256,192,341825,1,0,0:0:0:0:
329,192,341934,1,0,0:0:0:0:
182,192,341934,1,0,0:0:0:0:
402,192,342043,1,0,0:0:0:0:
256,192,342043,1,0,0:0:0:0:
109,192,342043,1,0,0:0:0:0:
36,192,342151,1,0,0:0:0:0:
182,192,342151,1,0,0:0:0:0:
329,192,342151,1,0,0:0:0:0:
475,192,342151,1,0,0:0:0:0:
256,192,342260,1,0,0:0:0:0:
402,192,342369,1,0,0:0:0:0:
36,192,342369,1,0,0:0:0:0:
182,192,342369,1,0,0:0:0:0:
329,192,342477,1,0,0:0:0:0:
475,192,342477,1,0,0:0:0:0:
36,192,342586,1,0,0:0:0:0:
182,192,342586,1,0,0:0:0:0:
109,192,342586,1,0,0:0:0:0:
256,192,342695,1,0,0:0:0:0:
109,192,342803,1,0,0:0:0:0:
475,192,342803,1,0,0:0:0:0:
329,192,342803,1,0,0:0:0:0:
182,192,342912,1,0,0:0:0:0:
402,192,342912,1,0,0:0:0:0:
256,192,343021,1,0,0:0:0:0:
109,192,343021,1,0,0:0:0:0:
475,192,343021,1,0,0:0:0:0:
36,192,343021,1,0,0:0:0:0:
329,192,343130,1,0,0:0:0:0:
182,192,343130,1,0,0:0:0:0:
256,192,343238,1,0,0:0:0:0:
475,192,343238,1,0,0:0:0:0:
182,192,343347,1,0,0:0:0:0:
402,192,343347,1,0,0:0:0:0:
329,192,343456,1,0,0:0:0:0:
36,192,343456,1,0,0:0:0:0:
109,192,343456,1,0,0:0:0:0:
475,192,343456,1,0,0:0:0:0:
182,192,343564,1,0,0:0:0:0:
256,192,343673,1,0,0:0:0:0:
109,192,343673,1,0,0:0:0:0:
36,192,343782,1,0,0:0:0:0:
182,192,343782,1,0,0:0:0:0:
329,192,343782,1,0,0:0:0:0:
109,192,343890,1,0,0:0:0:0:
256,192,343890,1,0,0:0:0:0:
475,192,343890,1,0,0:0:0:0:
402,192,343890,1,0,0:0:0:0:
182,192,343999,1,0,0:0:0:0:
256,192,344108,1,0,0:0:0:0:
109,192,344108,1,0,0:0:0:0:
329,192,344108,1,0,0:0:0:0:
182,192,344217,1,0,0:0:0:0:
36,192,344217,1,0,0:0:0:0:
475,192,344325,1,0,0:0:0:0:
329,192,344325,1,0,0:0:0:0:
402,192,344325,1,0,0:0:0:0:
256,192,344434,1,0,0:0:0:0:
475,192,344543,1,0,0:0:0:0:
329,192,344543,1,0,0:0:0:0:
109,192,344543,1,0,0:0:0:0:
402,192,344651,1,0,0:0:0:0:
256,192,344651,1,0,0:0:0:0:
475,192,344760,1,0,0:0:0:0:
36,192,344760,1,0,0:0:0:0:
329,192,344760,1,0,0:0:0:0:
182,192,344760,1,0,0:0:0:0:
109,192,344869,1,0,0:0:0:0:
402,192,344869,1,0,0:0:0:0:
329,192,344977,1,0,0:0:0:0:
182,192,344977,1,0,0:0:0:0:
256,192,345086,1,0,0:0:0:0:
36,192,345086,1,0,0:0:0:0:
329,192,345195,1,0,0:0:0:0:
475,192,345195,1,0,0:0:0:0:
402,192,345195,1,0,0:0:0:0:
109,192,345195,1,0,0:0:0:0:
256,192,345303,1,0,0:0:0:0:
182,192,345412,1,0,0:0:0:0:
329,192,345412,1,0,0:0:0:0:
109,192,345521,1,0,0:0:0:0:
256,192,345521,1,0,0:0:0:0:
402,192,345521,1,0,0:0:0:0:
329,192,345630,1,0,0:0:0:0:
475,192,345630,1,0,0:0:0:0:
36,192,345630,1,0,0:0:0:0:
182,192,345630,1,0,0:0:0:0:
256,192,345738,1,0,0:0:0:0:
329,192,345847,1,0,0:0:0:0:
109,192,345847,1,0,0:0:0:0:
475,192,345847,1,0,0:0:0:0:
402,192,345956,1,0,0:0:0:0:
182,192,345956,1,0,0:0:0:0:
256,192,346064,1,0,0:0:0:0:
109,192,346064,1,0,0:0:0:0:
36,192,346064,1,0,0:0:0:0:
182,192,346173,1,0,0:0:0:0:
36,192,346282,1,0,0:0:0:0:
329,192,346282,1,0,0:0:0:0:
109,192,346390,1,0,0:0:0:0:
402,192,346390,1,0,0:0:0:0:
329,192,346499,1,0,0:0:0:0:
182,192,346499,1,0,0:0:0:0:
475,192,346499,1,0,0:0:0:0:
36,192,346499,1,0,0:0:0:0:
402,192,346608,1,0,0:0:0:0:
475,192,346717,1,0,0:0:0:0:
182,192,346717,1,0,0:0:0:0:
109,192,346825,1,0,0:0:0:0:
329,192,346825,1,0,0:0:0:0:
36,192,346934,1,0,0:0:0:0:
475,192,346934,1,0,0:0:0:0:
182,192,346934,1,0,0:0:0:0:
109,192,347043,1,0,0:0:0:0:
402,192,347151,1,0,0:0:0:0:
256,192,347151,1,0,0:0:0:0:
329,192,347260,1,0,0:0:0:0:
182,192,347260,1,0,0:0:0:0:
36,192,347369,1,0,0:0:0:0:
109,192,347369,1,0,0:0:0:0:
402,192,347369,1,0,0:0:0:0:
475,192,347369,1,0,0:0:0:0:
329,192,347477,1,0,0:0:0:0:
109,192,347586,1,0,0:0:0:0:
182,192,347586,1,0,0:0:0:0:
402,192,347695,1,0,0:0:0:0:
329,192,347695,1,0,0:0:0:0:
256,192,347803,1,0,0:0:0:0:
475,192,347803,1,0,0:0:0:0:
36,192,347803,1,0,0:0:0:0:
109,192,347912,1,0,0:0:0:0:
329,192,348021,1,0,0:0:0:0:
402,192,348021,1,0,0:0:0:0:
182,192,348021,1,0,0:0:0:0:
256,192,348130,1,0,0:0:0:0:
109,192,348130,1,0,0:0:0:0:
475,192,348238,1,0,0:0:0:0:
36,192,348238,1,0,0:0:0:0:
329,192,348238,1,0,0:0:0:0:
182,192,348238,1,0,0:0:0:0:
256,192,348347,1,0,0:0:0:0:
402,192,348347,1,0,0:0:0:0:
182,192,348456,1,0,0:0:0:0:
329,192,348456,1,0,0:0:0:0:
256,192,348564,1,0,0:0:0:0:
109,192,348564,1,0,0:0:0:0:
402,192,348673,1,0,0:0:0:0:
475,192,348673,1,0,0:0:0:0:
329,192,348673,1,0,0:0:0:0:
36,192,348673,1,0,0:0:0:0:
256,192,348782,1,0,0:0:0:0:
182,192,348890,1,0,0:0:0:0:
329,192,348890,1,0,0:0:0:0:
109,192,348999,1,0,0:0:0:0:
256,192,348999,1,0,0:0:0:0:
402,192,348999,1,0,0:0:0:0:
329,192,349108,1,0,0:0:0:0:
475,192,349108,1,0,0:0:0:0:
36,192,349108,1,0,0:0:0:0:
182,192,349108,1,0,0:0:0:0:
109,192,349217,1,0,0:0:0:0:
256,192,349325,1,0,0:0:0:0:
36,192,349325,1,0,0:0:0:0:
475,192,349325,1,0,0:0:0:0:
402,192,349434,1,0,0:0:0:0:
182,192,349434,1,0,0:0:0:0:
329,192,349543,1,0,0:0:0:0:
109,192,349543,1,0,0:0:0:0:
36,192,349543,1,0,0:0:0:0:
182,192,349651,1,0,0:0:0:0:
256,192,349760,1,0,0:0:0:0:
475,192,349760,1,0,0:0:0:0:
402,192,349760,1,0,0:0:0:0:
182,192,349869,1,0,0:0:0:0:
329,192,349869,1,0,0:0:0:0:
402,192,349977,1,0,0:0:0:0:
109,192,349977,1,0,0:0:0:0:
475,192,349977,1,0,0:0:0:0:
36,192,349977,1,0,0:0:0:0:
329,192,350086,1,0,0:0:0:0:
256,192,350086,1,0,0:0:0:0:
109,192,350195,1,0,0:0:0:0:
182,192,350195,1,0,0:0:0:0:
329,192,350303,1,0,0:0:0:0:
402,192,350303,1,0,0:0:0:0:
36,192,350412,1,0,0:0:0:0:
475,192,350412,1,0,0:0:0:0:
256,192,350412,1,0,0:0:0:0:
182,192,350412,1,0,0:0:0:0:
329,192,350521,1,0,0:0:0:0:
402,192,350630,1,0,0:0:0:0:
256,192,350630,1,0,0:0:0:0:
475,192,350738,1,0,0:0:0:0:
329,192,350738,1,0,0:0:0:0:
182,192,350738,1,0,0:0:0:0:
36,192,350847,1,0,0:0:0:0:
109,192,350847,1,0,0:0:0:0:
256,192,350847,1,0,0:0:0:0:
402,192,350847,1,0,0:0:0:0:
182,192,350956,1,0,0:0:0:0:
475,192,351064,1,0,0:0:0:0:
109,192,351064,1,0,0:0:0:0:
329,192,351064,1,0,0:0:0:0:
36,192,351173,1,0,0:0:0:0:
256,192,351173,1,0,0:0:0:0:
182,192,351282,1,0,0:0:0:0:
402,192,351282,1,0,0:0:0:0:
109,192,351499,1,0,0:0:0:0:
329,192,351499,1,0,0:0:0:0:
182,192,351608,1,0,0:0:0:0:
402,192,351608,1,0,0:0:0:0:
256,192,351717,1,0,0:0:0:0:
36,192,351717,1,0,0:0:0:0:
475,192,351717,1,0,0:0:0:0:
329,192,351825,1,0,0:0:0:0:
402,192,351934,1,0,0:0:0:0:
182,192,351934,1,0,0:0:0:0:
475,192,352043,1,0,0:0:0:0:
256,192,352043,1,0,0:0:0:0:
109,192,352151,1,0,0:0:0:0:
329,192,352151,1,0,0:0:0:0:
256,192,352369,1,0,0:0:0:0:
329,192,352477,1,0,0:0:0:0:
182,192,352477,1,0,0:0:0:0:
256,192,352586,1,0,0:0:0:0:
36,192,352586,1,0,0:0:0:0:
475,192,352586,1,0,0:0:0:0:
329,192,352803,1,0,0:0:0:0:
182,192,352803,1,0,0:0:0:0:
256,192,352912,1,0,0:0:0:0:
182,192,353021,1,0,0:0:0:0:
329,192,353130,1,0,0:0:0:0:
109,192,353238,1,0,0:0:0:0:
402,192,353347,1,0,0:0:0:0:
36,192,353456,1,0,0:0:0:0:
475,192,353456,1,0,0:0:0:0:
329,192,353673,1,0,0:0:0:0:
182,192,353782,1,0,0:0:0:0:
402,192,353890,1,0,0:0:0:0:
36,192,353890,128,0,354706:0:0:0:0:
475,192,353890,1,0,0:0:0:0:
402,192,353999,1,0,0:0:0:0:
329,192,353999,1,0,0:0:0:0:
329,192,354108,128,0,354325:0:0:0:0:
256,192,354108,128,0,354325:0:0:0:0:
182,192,354325,1,0,0:0:0:0:
109,192,354325,1,0,0:0:0:0:
475,192,354325,128,0,354706:0:0:0:0:
329,192,354543,128,0,354706:0:0:0:0:
182,192,354543,128,0,354706:0:0:0:0:
109,192,354760,1,0,0:0:0:0:
182,192,354760,1,0,0:0:0:0:
36,192,354760,1,0,0:0:0:0:
329,192,354760,128,0,354977:0:0:0:0:
402,192,354760,128,0,354977:0:0:0:0:
475,192,354760,128,0,354977:0:0:0:0:
256,192,354977,1,0,0:0:0:0:
182,192,355086,1,0,0:0:0:0:
256,192,355195,1,0,0:0:0:0:
36,192,355195,1,0,0:0:0:0:
109,192,355195,1,0,0:0:0:0:
329,192,355412,128,0,355630:0:0:0:0:
402,192,355412,128,0,355630:0:0:0:0:
475,192,355412,128,0,355630:0:0:0:0:
256,192,355630,1,0,0:0:0:0:
36,192,355630,1,0,0:0:0:0:
182,192,355630,1,0,0:0:0:0:
256,192,355847,1,0,0:0:0:0:
182,192,355847,1,0,0:0:0:0:
36,192,356064,1,0,0:0:0:0:
109,192,356064,1,0,0:0:0:0:
329,192,356064,128,0,356282:0:0:0:0:
402,192,356064,128,0,356282:0:0:0:0:
475,192,356064,128,0,356282:0:0:0:0:
256,192,356282,1,0,0:0:0:0:
475,192,356499,1,0,0:0:0:0:
182,192,356499,128,0,356717:0:0:0:0:
109,192,356499,128,0,356717:0:0:0:0:
36,192,356499,128,0,356717:0:0:0:0:
256,192,356717,1,0,0:0:0:0:
329,192,356825,1,0,0:0:0:0:
256,192,356934,1,0,0:0:0:0:
475,192,356934,1,0,0:0:0:0:
402,192,356934,1,0,0:0:0:0:
182,192,357043,1,0,0:0:0:0:
36,192,357043,1,0,0:0:0:0:
182,192,357151,128,0,357369:0:0:0:0:
109,192,357151,128,0,357369:0:0:0:0:
36,192,357151,128,0,357369:0:0:0:0:
256,192,357369,1,0,0:0:0:0:
475,192,357369,1,0,0:0:0:0:
329,192,357369,1,0,0:0:0:0:
36,192,357586,1,0,0:0:0:0:
182,192,357586,1,0,0:0:0:0:
256,192,357586,128,0,357803:0:0:0:0:
402,192,357586,128,0,357803:0:0:0:0:
36,192,357803,1,0,0:0:0:0:
109,192,357803,1,0,0:0:0:0:
329,192,357803,128,0,358021:0:0:0:0:
475,192,357803,128,0,358021:0:0:0:0:
182,192,357803,128,0,358021:0:0:0:0:
256,192,358021,1,0,0:0:0:0:
36,192,358238,1,0,0:0:0:0:
329,192,358238,128,0,358456:0:0:0:0:
402,192,358238,128,0,358456:0:0:0:0:
475,192,358238,128,0,358456:0:0:0:0:
256,192,358456,1,0,0:0:0:0:
36,192,358673,1,0,0:0:0:0:
256,192,358673,1,0,0:0:0:0:
109,192,358673,1,0,0:0:0:0:
329,192,358890,128,0,359108:0:0:0:0:
402,192,358890,128,0,359108:0:0:0:0:
475,192,358890,128,0,359108:0:0:0:0:
256,192,359108,1,0,0:0:0:0:
36,192,359108,1,0,0:0:0:0:
182,192,359108,1,0,0:0:0:0:
256,192,359325,1,0,0:0:0:0:
182,192,359325,1,0,0:0:0:0:
36,192,359543,1,0,0:0:0:0:
109,192,359543,1,0,0:0:0:0:
329,192,359543,128,0,359760:0:0:0:0:
402,192,359543,128,0,359760:0:0:0:0:
475,192,359543,128,0,359760:0:0:0:0:
256,192,359760,1,0,0:0:0:0:
36,192,359977,1,0,0:0:0:0:
329,192,359977,128,0,360195:0:0:0:0:
402,192,359977,128,0,360195:0:0:0:0:
475,192,359977,128,0,360195:0:0:0:0:
256,192,360195,1,0,0:0:0:0:
36,192,360412,1,0,0:0:0:0:
256,192,360412,1,0,0:0:0:0:
109,192,360412,1,0,0:0:0:0:
329,192,360630,1,0,0:0:0:0:
475,192,360630,1,0,0:0:0:0:
402,192,360630,128,0,360847:0:0:0:0:
36,192,360847,1,0,0:0:0:0:
475,192,360847,1,0,0:0:0:0:
329,192,360847,1,0,0:0:0:0:
182,192,361064,1,0,0:0:0:0:
256,192,361064,1,0,0:0:0:0:
109,192,361064,128,0,361717:0:0:0:0:
256,192,361282,1,0,0:0:0:0:
329,192,361282,1,0,0:0:0:0:
36,192,361282,1,0,0:0:0:0:
475,192,361282,1,0,0:0:0:0:
182,192,361282,128,0,361717:0:0:0:0:
402,192,361499,1,0,0:0:0:0:
329,192,361499,1,0,0:0:0:0:
256,192,361499,128,0,361717:0:0:0:0:
329,192,361717,1,0,0:0:0:0:
36,192,361717,1,0,0:0:0:0:
402,192,361717,128,0,361934:0:0:0:0:
475,192,361717,128,0,361934:0:0:0:0:
182,192,361934,1,0,0:0:0:0:
329,192,361934,1,0,0:0:0:0:
256,192,362043,1,0,0:0:0:0:
329,192,362151,1,0,0:0:0:0:
182,192,362151,1,0,0:0:0:0:
36,192,362151,1,0,0:0:0:0:
109,192,362151,1,0,0:0:0:0:
256,192,362369,1,0,0:0:0:0:
329,192,362369,128,0,362586:0:0:0:0:
402,192,362369,128,0,362586:0:0:0:0:
475,192,362369,128,0,362586:0:0:0:0:
36,192,362586,1,0,0:0:0:0:
182,192,362586,1,0,0:0:0:0:
256,192,362586,1,0,0:0:0:0:
182,192,362803,1,0,0:0:0:0:
256,192,362803,1,0,0:0:0:0:
36,192,363021,1,0,0:0:0:0:
109,192,363021,1,0,0:0:0:0:
329,192,363021,1,0,0:0:0:0:
402,192,363021,128,0,363238:0:0:0:0:
475,192,363021,128,0,363238:0:0:0:0:
329,192,363238,1,0,0:0:0:0:
182,192,363238,1,0,0:0:0:0:
36,192,363456,1,0,0:0:0:0:
475,192,363456,1,0,0:0:0:0:
402,192,363456,128,0,363673:0:0:0:0:
109,192,363456,128,0,363673:0:0:0:0:
256,192,363673,1,0,0:0:0:0:
182,192,363782,1,0,0:0:0:0:
329,192,363782,1,0,0:0:0:0:
256,192,363890,1,0,0:0:0:0:
36,192,363890,1,0,0:0:0:0:
109,192,363890,1,0,0:0:0:0:
329,192,363999,1,0,0:0:0:0:
475,192,363999,1,0,0:0:0:0:
329,192,364108,128,0,364325:0:0:0:0:
402,192,364108,128,0,364325:0:0:0:0:
475,192,364108,128,0,364325:0:0:0:0:
36,192,364325,1,0,0:0:0:0:
109,192,364325,1,0,0:0:0:0:
182,192,364325,1,0,0:0:0:0:
475,192,364543,1,0,0:0:0:0:
256,192,364543,1,0,0:0:0:0:
109,192,364543,128,0,364760:0:0:0:0:
402,192,364543,128,0,364760:0:0:0:0:
256,192,364760,1,0,0:0:0:0:
182,192,364760,1,0,0:0:0:0:
329,192,364760,1,0,0:0:0:0:
36,192,364760,128,0,364977:0:0:0:0:
475,192,364760,128,0,364977:0:0:0:0:
329,192,364977,1,0,0:0:0:0:
182,192,364977,1,0,0:0:0:0:
256,192,365195,1,0,0:0:0:0:
475,192,365195,1,0,0:0:0:0:
109,192,365195,128,0,365412:0:0:0:0:
36,192,365195,128,0,365412:0:0:0:0:
182,192,365412,1,0,0:0:0:0:
329,192,365412,1,0,0:0:0:0:
256,192,365630,1,0,0:0:0:0:
402,192,365630,1,0,0:0:0:0:
475,192,365630,1,0,0:0:0:0:
109,192,365630,1,0,0:0:0:0:
182,192,365847,128,0,366064:0:0:0:0:
109,192,365847,128,0,366064:0:0:0:0:
36,192,365847,128,0,366064:0:0:0:0:
329,192,366064,1,0,0:0:0:0:
256,192,366064,1,0,0:0:0:0:
475,192,366064,1,0,0:0:0:0:
402,192,366064,1,0,0:0:0:0:
256,192,366282,1,0,0:0:0:0:
329,192,366282,1,0,0:0:0:0:
402,192,366282,1,0,0:0:0:0:
402,192,366499,1,0,0:0:0:0:
475,192,366499,1,0,0:0:0:0:
109,192,366499,128,0,366717:0:0:0:0:
36,192,366499,128,0,366717:0:0:0:0:
182,192,366499,128,0,366717:0:0:0:0:
256,192,366717,1,0,0:0:0:0:
329,192,366717,1,0,0:0:0:0:
475,192,366934,1,0,0:0:0:0:
109,192,366934,128,0,367151:0:0:0:0:
36,192,366934,128,0,367151:0:0:0:0:
182,192,366934,128,0,367151:0:0:0:0:
256,192,367151,1,0,0:0:0:0:
329,192,367151,1,0,0:0:0:0:
475,192,367369,1,0,0:0:0:0:
402,192,367369,1,0,0:0:0:0:
256,192,367369,1,0,0:0:0:0:
109,192,367369,1,0,0:0:0:0:
402,192,367586,1,0,0:0:0:0:
182,192,367586,128,0,367803:0:0:0:0:
109,192,367586,128,0,367803:0:0:0:0:
36,192,367586,128,0,367803:0:0:0:0:
475,192,367803,1,0,0:0:0:0:
329,192,367803,1,0,0:0:0:0:
402,192,367803,1,0,0:0:0:0:
36,192,368021,1,0,0:0:0:0:
329,192,368021,1,0,0:0:0:0:
109,192,368021,128,0,368238:0:0:0:0:
256,192,368021,128,0,368238:0:0:0:0:
402,192,368238,1,0,0:0:0:0:
36,192,368238,1,0,0:0:0:0:
475,192,368238,1,0,0:0:0:0:
182,192,368238,128,0,368456:0:0:0:0:
329,192,368238,128,0,368456:0:0:0:0:
109,192,368456,1,0,0:0:0:0:
256,192,368456,128,0,368673:0:0:0:0:
402,192,368456,128,0,368673:0:0:0:0:
329,192,368673,1,0,0:0:0:0:
475,192,368673,1,0,0:0:0:0:
182,192,368673,128,0,368890:0:0:0:0:
109,192,368673,128,0,368890:0:0:0:0:
36,192,368673,128,0,368890:0:0:0:0:
256,192,368890,1,0,0:0:0:0:
402,192,368890,1,0,0:0:0:0:
475,192,368890,1,0,0:0:0:0:
329,192,368999,1,0,0:0:0:0:
182,192,368999,1,0,0:0:0:0:
256,192,369108,1,0,0:0:0:0:
109,192,369108,1,0,0:0:0:0:
36,192,369108,1,0,0:0:0:0:
182,192,369325,1,0,0:0:0:0:
329,192,369325,1,0,0:0:0:0:
475,192,369325,128,0,369543:0:0:0:0:
402,192,369434,1,0,0:0:0:0:
36,192,369543,1,0,0:0:0:0:
182,192,369543,1,0,0:0:0:0:
329,192,369543,1,0,0:0:0:0:
402,192,369651,1,0,0:0:0:0:
329,192,369760,1,0,0:0:0:0:
182,192,369760,1,0,0:0:0:0:
36,192,369760,1,0,0:0:0:0:
475,192,369977,1,0,0:0:0:0:
402,192,369977,128,0,370195:0:0:0:0:
256,192,369977,128,0,370195:0:0:0:0:
109,192,369977,128,0,370195:0:0:0:0:
182,192,370195,1,0,0:0:0:0:
329,192,370195,1,0,0:0:0:0:
36,192,370195,1,0,0:0:0:0:
475,192,370303,1,0,0:0:0:0:
329,192,370412,128,0,370630:0:0:0:0:
256,192,370412,128,0,370630:0:0:0:0:
109,192,370412,128,0,370630:0:0:0:0:
36,192,370412,128,0,370630:0:0:0:0:
475,192,370630,1,0,0:0:0:0:
402,192,370630,1,0,0:0:0:0:
109,192,370738,1,0,0:0:0:0:
182,192,370738,1,0,0:0:0:0:
256,192,370847,1,0,0:0:0:0:
329,192,370847,1,0,0:0:0:0:
402,192,370847,1,0,0:0:0:0:
475,192,370847,1,0,0:0:0:0:
109,192,370956,1,0,0:0:0:0:
36,192,370956,1,0,0:0:0:0:
182,192,370956,1,0,0:0:0:0:
329,192,371064,128,0,371282:0:0:0:0:
402,192,371064,128,0,371282:0:0:0:0:
475,192,371064,128,0,371282:0:0:0:0:
256,192,371173,1,0,0:0:0:0:
182,192,371282,1,0,0:0:0:0:
36,192,371282,1,0,0:0:0:0:
109,192,371282,1,0,0:0:0:0:
475,192,371390,1,0,0:0:0:0:
256,192,371499,1,0,0:0:0:0:
329,192,371499,1,0,0:0:0:0:
402,192,371499,1,0,0:0:0:0:
182,192,371499,128,0,371717:0:0:0:0:
475,192,371717,1,0,0:0:0:0:
109,192,371717,1,0,0:0:0:0:
256,192,371717,128,0,371934:0:0:0:0:
329,192,371717,128,0,371934:0:0:0:0:
402,192,371717,128,0,371934:0:0:0:0:
475,192,371934,1,0,0:0:0:0:
182,192,371934,1,0,0:0:0:0:
36,192,371934,1,0,0:0:0:0:
256,192,372043,1,0,0:0:0:0:
329,192,372151,1,0,0:0:0:0:
475,192,372151,1,0,0:0:0:0:
109,192,372151,128,0,372369:0:0:0:0:
402,192,372151,128,0,372369:0:0:0:0:
329,192,372369,1,0,0:0:0:0:
256,192,372369,1,0,0:0:0:0:
182,192,372369,1,0,0:0:0:0:
36,192,372369,1,0,0:0:0:0:
36,192,372586,1,0,0:0:0:0:
475,192,372586,1,0,0:0:0:0:
182,192,372586,1,0,0:0:0:0:
329,192,372586,1,0,0:0:0:0:
109,192,372803,1,0,0:0:0:0:
402,192,372803,128,0,373021:0:0:0:0:
256,192,372803,1,0,0:0:0:0:
182,192,372912,1,0,0:0:0:0:
109,192,373021,1,0,0:0:0:0:
36,192,373021,1,0,0:0:0:0:
329,192,373021,1,0,0:0:0:0:
475,192,373021,1,0,0:0:0:0:
182,192,373130,1,0,0:0:0:0:
109,192,373238,1,0,0:0:0:0:
329,192,373238,1,0,0:0:0:0:
475,192,373238,1,0,0:0:0:0:
402,192,373456,1,0,0:0:0:0:
256,192,373456,1,0,0:0:0:0:
182,192,373456,1,0,0:0:0:0:
36,192,373456,128,0,373673:0:0:0:0:
475,192,373456,128,0,373673:0:0:0:0:
329,192,373564,1,0,0:0:0:0:
256,192,373673,1,0,0:0:0:0:
109,192,373673,1,0,0:0:0:0:
182,192,373673,1,0,0:0:0:0:
329,192,373782,1,0,0:0:0:0:
402,192,373890,1,0,0:0:0:0:
256,192,373890,1,0,0:0:0:0:
475,192,373890,128,0,374108:0:0:0:0:
36,192,373890,128,0,374108:0:0:0:0:
329,192,374108,1,0,0:0:0:0:
182,192,374108,1,0,0:0:0:0:
109,192,374108,1,0,0:0:0:0:
402,192,374108,1,0,0:0:0:0:
475,192,374325,1,0,0:0:0:0:
36,192,374325,1,0,0:0:0:0:
109,192,374325,1,0,0:0:0:0:
256,192,374325,1,0,0:0:0:0:
182,192,374543,1,0,0:0:0:0:
402,192,374543,128,0,374760:0:0:0:0:
329,192,374543,128,0,374760:0:0:0:0:
256,192,374651,1,0,0:0:0:0:
182,192,374760,1,0,0:0:0:0:
36,192,374760,1,0,0:0:0:0:
475,192,374760,1,0,0:0:0:0:
256,192,374869,1,0,0:0:0:0:
402,192,374977,1,0,0:0:0:0:
109,192,374977,1,0,0:0:0:0:
329,192,374977,128,0,375630:0:0:0:0:
36,192,375195,1,0,0:0:0:0:
475,192,375195,1,0,0:0:0:0:
109,192,375195,1,0,0:0:0:0:
182,192,375195,1,0,0:0:0:0:
256,192,375195,128,0,375630:0:0:0:0:
402,192,375412,1,0,0:0:0:0:
182,192,375412,128,0,375630:0:0:0:0:
109,192,375521,1,0,0:0:0:0:
402,192,375630,128,0,375847:0:0:0:0:
475,192,375630,128,0,375847:0:0:0:0:
36,192,375630,128,0,375847:0:0:0:0:
109,192,375847,1,0,0:0:0:0:
182,192,375847,1,0,0:0:0:0:
256,192,375847,1,0,0:0:0:0:
329,192,375956,1,0,0:0:0:0:
402,192,375956,1,0,0:0:0:0:
36,192,376064,1,0,0:0:0:0:
109,192,376064,1,0,0:0:0:0:
182,192,376064,1,0,0:0:0:0:
256,192,376064,1,0,0:0:0:0:
329,192,376282,1,0,0:0:0:0:
402,192,376282,1,0,0:0:0:0:
256,192,376282,128,0,376499:0:0:0:0:
475,192,376390,1,0,0:0:0:0:
36,192,376499,1,0,0:0:0:0:
182,192,376499,1,0,0:0:0:0:
402,192,376499,1,0,0:0:0:0:
475,192,376608,1,0,0:0:0:0:
182,192,376717,1,0,0:0:0:0:
36,192,376717,1,0,0:0:0:0:
329,192,376717,1,0,0:0:0:0:
402,192,376934,1,0,0:0:0:0:
256,192,376934,1,0,0:0:0:0:
109,192,376934,1,0,0:0:0:0:
329,192,376934,128,0,377151:0:0:0:0:
475,192,376934,128,0,377151:0:0:0:0:
182,192,377043,1,0,0:0:0:0:
36,192,377151,1,0,0:0:0:0:
402,192,377151,1,0,0:0:0:0:
256,192,377151,1,0,0:0:0:0:
109,192,377151,1,0,0:0:0:0:
329,192,377260,1,0,0:0:0:0:
402,192,377369,1,0,0:0:0:0:
475,192,377369,128,0,377586:0:0:0:0:
182,192,377369,128,0,377586:0:0:0:0:
36,192,377369,128,0,377586:0:0:0:0:
109,192,377586,1,0,0:0:0:0:
402,192,377586,1,0,0:0:0:0:
256,192,377586,1,0,0:0:0:0:
329,192,377695,1,0,0:0:0:0:
182,192,377695,1,0,0:0:0:0:
36,192,377803,1,0,0:0:0:0:
109,192,377803,1,0,0:0:0:0:
402,192,377803,1,0,0:0:0:0:
256,192,377803,1,0,0:0:0:0:
475,192,377912,1,0,0:0:0:0:
329,192,377912,1,0,0:0:0:0:
475,192,378021,1,0,0:0:0:0:
182,192,378021,128,0,378238:0:0:0:0:
329,192,378021,128,0,378238:0:0:0:0:
109,192,378130,1,0,0:0:0:0:
36,192,378238,1,0,0:0:0:0:
256,192,378238,1,0,0:0:0:0:
402,192,378238,1,0,0:0:0:0:
475,192,378238,1,0,0:0:0:0:
475,192,378456,1,0,0:0:0:0:
182,192,378456,128,0,378673:0:0:0:0:
36,192,378456,128,0,378673:0:0:0:0:
109,192,378456,128,0,378673:0:0:0:0:
256,192,378673,1,0,0:0:0:0:
329,192,378673,128,0,378890:0:0:0:0:
475,192,378673,128,0,378890:0:0:0:0:
402,192,378673,128,0,378890:0:0:0:0:
36,192,378890,1,0,0:0:0:0:
182,192,378890,1,0,0:0:0:0:
256,192,378999,1,0,0:0:0:0:
109,192,379108,1,0,0:0:0:0:
329,192,379108,128,0,379325:0:0:0:0:
402,192,379108,128,0,379325:0:0:0:0:
475,192,379108,128,0,379325:0:0:0:0:
182,192,379325,1,0,0:0:0:0:
36,192,379325,1,0,0:0:0:0:
109,192,379543,1,0,0:0:0:0:
256,192,379543,1,0,0:0:0:0:
402,192,379543,1,0,0:0:0:0:
182,192,379651,1,0,0:0:0:0:
329,192,379760,128,0,379977:0:0:0:0:
402,192,379760,128,0,379977:0:0:0:0:
475,192,379760,128,0,379977:0:0:0:0:
109,192,379760,1,0,0:0:0:0:
256,192,379869,1,0,0:0:0:0:
182,192,379977,1,0,0:0:0:0:
36,192,379977,1,0,0:0:0:0:
109,192,379977,1,0,0:0:0:0:
256,192,380086,1,0,0:0:0:0:
182,192,380195,1,0,0:0:0:0:
36,192,380195,1,0,0:0:0:0:
109,192,380195,1,0,0:0:0:0:
475,192,380412,128,0,380630:0:0:0:0:
402,192,380412,128,0,380630:0:0:0:0:
329,192,380412,128,0,380630:0:0:0:0:
256,192,380412,1,0,0:0:0:0:
182,192,380412,1,0,0:0:0:0:
109,192,380412,1,0,0:0:0:0:
182,192,380630,1,0,0:0:0:0:
36,192,380630,1,0,0:0:0:0:
256,192,380738,1,0,0:0:0:0:
182,192,380847,128,0,381064:0:0:0:0:
109,192,380847,128,0,381064:0:0:0:0:
36,192,380847,128,0,381064:0:0:0:0:
402,192,380847,1,0,0:0:0:0:
329,192,381064,1,0,0:0:0:0:
475,192,381064,1,0,0:0:0:0:
475,192,381282,1,0,0:0:0:0:
402,192,381282,1,0,0:0:0:0:
256,192,381282,1,0,0:0:0:0:
329,192,381390,1,0,0:0:0:0:
182,192,381499,128,0,381717:0:0:0:0:
109,192,381499,128,0,381717:0:0:0:0:
36,192,381499,128,0,381717:0:0:0:0:
402,192,381499,1,0,0:0:0:0:
329,192,381608,1,0,0:0:0:0:
475,192,381717,1,0,0:0:0:0:
256,192,381717,1,0,0:0:0:0:
402,192,381825,1,0,0:0:0:0:
182,192,381934,1,0,0:0:0:0:
109,192,381934,128,0,382151:0:0:0:0:
329,192,381934,1,0,0:0:0:0:
329,192,382151,1,0,0:0:0:0:
256,192,382151,128,0,382369:0:0:0:0:
475,192,382151,1,0,0:0:0:0:
36,192,382151,1,0,0:0:0:0:
109,192,382260,1,0,0:0:0:0:
475,192,382369,1,0,0:0:0:0:
402,192,382369,128,0,382586:0:0:0:0:
182,192,382369,1,0,0:0:0:0:
109,192,382477,1,0,0:0:0:0:
36,192,382586,1,0,0:0:0:0:
256,192,382586,1,0,0:0:0:0:
182,192,382586,1,0,0:0:0:0:
475,192,382586,1,0,0:0:0:0:
402,192,382640,1,0,0:0:0:0:
329,192,382695,1,0,0:0:0:0:
109,192,382803,1,0,0:0:0:0:
256,192,382803,1,0,0:0:0:0:
329,192,382912,1,0,0:0:0:0:
182,192,382912,1,0,0:0:0:0:
36,192,383021,1,0,0:0:0:0:
109,192,383021,1,0,0:0:0:0:
256,192,383021,1,0,0:0:0:0:
402,192,383021,1,0,0:0:0:0:
475,192,383238,1,0,0:0:0:0:
182,192,383238,1,0,0:0:0:0:
402,192,383293,1,0,0:0:0:0:
329,192,383347,1,0,0:0:0:0:
256,192,383401,1,0,0:0:0:0:
36,192,383456,1,0,0:0:0:0:
109,192,383456,1,0,0:0:0:0:
182,192,383456,1,0,0:0:0:0:
36,192,383673,1,0,0:0:0:0:
109,192,383673,1,0,0:0:0:0:
182,192,383890,1,0,0:0:0:0:
475,192,383890,1,0,0:0:0:0:
402,192,383945,1,0,0:0:0:0:
329,192,383999,1,0,0:0:0:0:
256,192,384053,1,0,0:0:0:0:
109,192,384108,1,0,0:0:0:0:
36,192,384108,1,0,0:0:0:0:
475,192,384325,1,0,0:0:0:0:
36,192,384325,1,0,0:0:0:0:
182,192,384325,1,0,0:0:0:0:
256,192,384380,1,0,0:0:0:0:
402,192,384434,1,0,0:0:0:0:
329,192,384434,1,0,0:0:0:0:
109,192,384543,1,0,0:0:0:0:
256,192,384543,1,0,0:0:0:0:
182,192,384651,1,0,0:0:0:0:
329,192,384651,1,0,0:0:0:0:
475,192,384760,1,0,0:0:0:0:
36,192,384760,1,0,0:0:0:0:
109,192,384760,1,0,0:0:0:0:
329,192,384869,1,0,0:0:0:0:
402,192,384869,1,0,0:0:0:0:
402,192,384977,1,0,0:0:0:0:
329,192,384977,1,0,0:0:0:0:
256,192,385032,1,0,0:0:0:0:
182,192,385086,1,0,0:0:0:0:
109,192,385140,1,0,0:0:0:0:
36,192,385195,1,0,0:0:0:0:
475,192,385195,1,0,0:0:0:0:
329,192,385195,1,0,0:0:0:0:
475,192,385412,1,0,0:0:0:0:
109,192,385412,1,0,0:0:0:0:
182,192,385412,1,0,0:0:0:0:
402,192,385485,1,0,0:0:0:0:
329,192,385557,1,0,0:0:0:0:
182,192,385630,1,0,0:0:0:0:
36,192,385630,1,0,0:0:0:0:
475,192,385630,1,0,0:0:0:0:
256,192,385684,1,0,0:0:0:0:
329,192,385738,1,0,0:0:0:0:
109,192,385793,1,0,0:0:0:0:
182,192,385847,1,0,0:0:0:0:
256,192,385901,1,0,0:0:0:0:
475,192,386064,1,0,0:0:0:0:
329,192,386064,1,0,0:0:0:0:
36,192,386064,1,0,0:0:0:0:
402,192,386064,1,0,0:0:0:0:
256,192,386119,1,0,0:0:0:0:
182,192,386173,1,0,0:0:0:0:
109,192,386227,1,0,0:0:0:0:
36,192,386282,1,0,0:0:0:0:
402,192,386499,1,0,0:0:0:0:
256,192,386499,1,0,0:0:0:0:
109,192,386499,1,0,0:0:0:0:
329,192,386717,1,0,0:0:0:0:
256,192,386771,1,0,0:0:0:0:
182,192,386825,1,0,0:0:0:0:
109,192,386880,1,0,0:0:0:0:
36,192,386934,1,0,0:0:0:0:
475,192,386934,1,0,0:0:0:0:
36,192,387151,1,0,0:0:0:0:
475,192,387151,1,0,0:0:0:0:
36,192,387369,1,0,0:0:0:0:
182,192,387369,1,0,0:0:0:0:
475,192,387369,1,0,0:0:0:0:
402,192,387423,1,0,0:0:0:0:
256,192,387477,1,0,0:0:0:0:
109,192,387532,1,0,0:0:0:0:
329,192,387586,1,0,0:0:0:0:
182,192,387659,1,0,0:0:0:0:
475,192,387803,1,0,0:0:0:0:
329,192,387803,1,0,0:0:0:0:
36,192,387803,1,0,0:0:0:0:
109,192,387876,1,0,0:0:0:0:
256,192,387912,1,0,0:0:0:0:
402,192,387967,1,0,0:0:0:0:
182,192,388021,1,0,0:0:0:0:
329,192,388093,1,0,0:0:0:0:
36,192,388238,1,0,0:0:0:0:
475,192,388238,1,0,0:0:0:0:
256,192,388238,1,0,0:0:0:0:
402,192,388456,1,0,0:0:0:0:
329,192,388510,1,0,0:0:0:0:
182,192,388564,1,0,0:0:0:0:
109,192,388619,1,0,0:0:0:0:
36,192,388673,1,0,0:0:0:0:
475,192,388673,1,0,0:0:0:0:
109,192,388890,1,0,0:0:0:0:
182,192,388963,1,0,0:0:0:0:
256,192,389035,1,0,0:0:0:0:
475,192,389108,1,0,0:0:0:0:
36,192,389108,1,0,0:0:0:0:
109,192,389108,1,0,0:0:0:0:
402,192,389162,1,0,0:0:0:0:
329,192,389217,1,0,0:0:0:0:
256,192,389253,1,0,0:0:0:0:
36,192,389325,1,0,0:0:0:0:
109,192,389398,1,0,0:0:0:0:
182,192,389470,1,0,0:0:0:0:
475,192,389543,1,0,0:0:0:0:
402,192,389597,1,0,0:0:0:0:
329,192,389651,1,0,0:0:0:0:
36,192,389760,1,0,0:0:0:0:
109,192,389760,1,0,0:0:0:0:
402,192,389869,1,0,0:0:0:0:
475,192,389869,1,0,0:0:0:0:
36,192,389977,1,0,0:0:0:0:
109,192,389977,1,0,0:0:0:0:
256,192,389977,1,0,0:0:0:0:
182,192,389977,1,0,0:0:0:0:
475,192,390195,1,0,0:0:0:0:
402,192,390249,1,0,0:0:0:0:
329,192,390303,1,0,0:0:0:0:
256,192,390358,1,0,0:0:0:0:
182,192,390412,1,0,0:0:0:0:
36,192,390412,1,0,0:0:0:0:
475,192,390412,1,0,0:0:0:0:
182,192,390630,1,0,0:0:0:0:
36,192,390630,1,0,0:0:0:0:
475,192,390847,1,0,0:0:0:0:
402,192,390847,1,0,0:0:0:0:
329,192,390847,1,0,0:0:0:0:
109,192,390847,1,0,0:0:0:0:
182,192,390901,1,0,0:0:0:0:
256,192,390956,1,0,0:0:0:0:
36,192,391010,1,0,0:0:0:0:
109,192,391064,1,0,0:0:0:0:
182,192,391119,1,0,0:0:0:0:
329,192,391173,1,0,0:0:0:0:
402,192,391282,1,0,0:0:0:0:
475,192,391282,1,0,0:0:0:0:
256,192,391282,1,0,0:0:0:0:
182,192,391336,1,0,0:0:0:0:
109,192,391390,1,0,0:0:0:0:
36,192,391445,1,0,0:0:0:0:
256,192,391499,1,0,0:0:0:0:
402,192,391499,1,0,0:0:0:0:
329,192,391608,1,0,0:0:0:0:
182,192,391608,1,0,0:0:0:0:
109,192,391717,1,0,0:0:0:0:
402,192,391717,1,0,0:0:0:0:
475,192,391717,1,0,0:0:0:0:
36,192,391717,1,0,0:0:0:0:
182,192,391825,1,0,0:0:0:0:
329,192,391825,1,0,0:0:0:0:
182,192,391934,1,0,0:0:0:0:
256,192,391988,1,0,0:0:0:0:
329,192,392043,1,0,0:0:0:0:
402,192,392097,1,0,0:0:0:0:
36,192,392151,1,0,0:0:0:0:
475,192,392151,1,0,0:0:0:0:
109,192,392151,1,0,0:0:0:0:
109,192,392369,1,0,0:0:0:0:
182,192,392369,1,0,0:0:0:0:
475,192,392369,1,0,0:0:0:0:
402,192,392441,1,0,0:0:0:0:
329,192,392514,1,0,0:0:0:0:
402,192,392586,1,0,0:0:0:0:
36,192,392586,1,0,0:0:0:0:
109,192,392586,1,0,0:0:0:0:
329,192,392640,1,0,0:0:0:0:
256,192,392695,1,0,0:0:0:0:
182,192,392749,1,0,0:0:0:0:
36,192,392803,1,0,0:0:0:0:
109,192,392858,1,0,0:0:0:0:
475,192,393021,1,0,0:0:0:0:
402,192,393021,1,0,0:0:0:0:
256,192,393021,1,0,0:0:0:0:
109,192,393075,1,0,0:0:0:0:
329,192,393130,1,0,0:0:0:0:
182,192,393184,1,0,0:0:0:0:
36,192,393238,1,0,0:0:0:0:
475,192,393293,1,0,0:0:0:0:
109,192,393456,1,0,0:0:0:0:
36,192,393456,1,0,0:0:0:0:
256,192,393456,1,0,0:0:0:0:
329,192,393673,1,0,0:0:0:0:
402,192,393727,1,0,0:0:0:0:
475,192,393782,1,0,0:0:0:0:
256,192,393836,1,0,0:0:0:0:
36,192,393890,1,0,0:0:0:0:
329,192,393890,1,0,0:0:0:0:
109,192,393890,1,0,0:0:0:0:
402,192,393963,1,0,0:0:0:0:
36,192,394108,1,0,0:0:0:0:
109,192,394108,1,0,0:0:0:0:
475,192,394325,1,0,0:0:0:0:
402,192,394325,1,0,0:0:0:0:
329,192,394325,1,0,0:0:0:0:
182,192,394380,1,0,0:0:0:0:
36,192,394434,1,0,0:0:0:0:
256,192,394488,1,0,0:0:0:0:
109,192,394543,1,0,0:0:0:0:
182,192,394597,1,0,0:0:0:0:
475,192,394760,1,0,0:0:0:0:
402,192,394760,1,0,0:0:0:0:
256,192,394814,1,0,0:0:0:0:
109,192,394869,1,0,0:0:0:0:
329,192,394977,1,0,0:0:0:0:
182,192,395032,1,0,0:0:0:0:
256,192,395086,1,0,0:0:0:0:
36,192,395195,1,0,0:0:0:0:
109,192,395195,1,0,0:0:0:0:
475,192,395195,1,0,0:0:0:0:
182,192,395412,1,0,0:0:0:0:
402,192,395412,1,0,0:0:0:0:
475,192,395412,1,0,0:0:0:0:
329,192,395467,1,0,0:0:0:0:
256,192,395521,1,0,0:0:0:0:
402,192,395630,1,0,0:0:0:0:
36,192,395630,1,0,0:0:0:0:
109,192,395630,1,0,0:0:0:0:
475,192,395630,1,0,0:0:0:0:
329,192,395684,1,0,0:0:0:0:
256,192,395738,1,0,0:0:0:0:
36,192,395847,1,0,0:0:0:0:
329,192,395847,1,0,0:0:0:0:
182,192,395847,1,0,0:0:0:0:
402,192,395919,1,0,0:0:0:0:
475,192,395992,1,0,0:0:0:0:
256,192,396064,1,0,0:0:0:0:
36,192,396064,1,0,0:0:0:0:
109,192,396064,1,0,0:0:0:0:
329,192,396137,1,0,0:0:0:0:
402,192,396209,1,0,0:0:0:0:
182,192,396282,1,0,0:0:0:0:
256,192,396354,1,0,0:0:0:0:
329,192,396427,1,0,0:0:0:0:
475,192,396499,1,0,0:0:0:0:
182,192,396499,1,0,0:0:0:0:
109,192,396553,1,0,0:0:0:0:
36,192,396608,1,0,0:0:0:0:
329,192,396644,1,0,0:0:0:0:
182,192,396789,1,0,0:0:0:0:
329,192,396934,1,0,0:0:0:0:
36,192,397151,1,0,0:0:0:0:
475,192,397151,1,0,0:0:0:0:
256,192,397151,1,0,0:0:0:0:
182,192,397369,1,0,0:0:0:0:
329,192,397369,1,0,0:0:0:0:
182,192,397586,1,0,0:0:0:0:
329,192,397586,1,0,0:0:0:0:
36,192,397803,1,0,0:0:0:0:
256,192,397803,1,0,0:0:0:0:
475,192,397803,1,0,0:0:0:0:
182,192,398021,1,0,0:0:0:0:
109,192,398238,1,0,0:0:0:0:
256,192,398238,1,0,0:0:0:0:
402,192,398238,1,0,0:0:0:0:
475,192,398456,1,0,0:0:0:0:
329,192,398564,1,0,0:0:0:0:
329,192,398782,1,0,0:0:0:0:
109,192,398890,1,0,0:0:0:0:
256,192,398890,1,0,0:0:0:0:
402,192,398890,1,0,0:0:0:0:
182,192,399108,1,0,0:0:0:0:
256,192,399325,1,0,0:0:0:0:
402,192,399325,1,0,0:0:0:0:
182,192,399398,1,0,0:0:0:0:
109,192,399470,1,0,0:0:0:0:
475,192,399543,1,0,0:0:0:0:
329,192,399543,1,0,0:0:0:0:
36,192,399543,1,0,0:0:0:0:
256,192,399615,1,0,0:0:0:0:
182,192,399688,1,0,0:0:0:0:
109,192,399760,1,0,0:0:0:0:
256,192,399977,1,0,0:0:0:0:
36,192,399977,1,0,0:0:0:0:
475,192,399977,1,0,0:0:0:0:
182,192,400195,1,0,0:0:0:0:
182,192,400412,1,0,0:0:0:0:
36,192,400630,1,0,0:0:0:0:
475,192,400630,1,0,0:0:0:0:
329,192,400847,1,0,0:0:0:0:
329,192,401064,1,0,0:0:0:0:
36,192,401282,1,0,0:0:0:0:
475,192,401282,1,0,0:0:0:0:
256,192,401499,1,0,0:0:0:0:
475,192,401717,1,0,0:0:0:0:
36,192,401717,1,0,0:0:0:0:
182,192,401934,1,0,0:0:0:0:
182,192,402151,1,0,0:0:0:0:
475,192,402369,1,0,0:0:0:0:
36,192,402369,1,0,0:0:0:0:
329,192,402586,1,0,0:0:0:0:
109,192,402803,1,0,0:0:0:0:
256,192,402803,1,0,0:0:0:0:
182,192,403021,1,0,0:0:0:0:
329,192,403021,1,0,0:0:0:0:
256,192,403238,1,0,0:0:0:0:
402,192,403238,1,0,0:0:0:0:
329,192,403456,1,0,0:0:0:0:
475,192,403456,1,0,0:0:0:0:
36,192,403456,128,0,405195:0:0:0:0:
402,192,403673,1,0,0:0:0:0:
329,192,403782,1,0,0:0:0:0:
402,192,403890,1,0,0:0:0:0:
329,192,404108,1,0,0:0:0:0:
475,192,404108,1,0,0:0:0:0:
402,192,404325,1,0,0:0:0:0:
402,192,404543,1,0,0:0:0:0:
329,192,404760,1,0,0:0:0:0:
475,192,404760,1,0,0:0:0:0:
256,192,404977,1,0,0:0:0:0:
109,192,404977,1,0,0:0:0:0:
475,192,405195,128,0,406934:0:0:0:0:
182,192,405195,1,0,0:0:0:0:
329,192,405195,1,0,0:0:0:0:
36,192,405412,1,0,0:0:0:0:
36,192,405521,1,0,0:0:0:0:
182,192,405738,1,0,0:0:0:0:
182,192,405847,1,0,0:0:0:0:
109,192,406064,1,0,0:0:0:0:
36,192,406282,1,0,0:0:0:0:
182,192,406282,1,0,0:0:0:0:
402,192,406499,1,0,0:0:0:0:
256,192,406499,1,0,0:0:0:0:
109,192,406717,1,0,0:0:0:0:
36,192,406717,1,0,0:0:0:0:
182,192,406934,128,0,408673:0:0:0:0:
402,192,406934,1,0,0:0:0:0:
329,192,406934,1,0,0:0:0:0:
475,192,407151,1,0,0:0:0:0:
475,192,407369,1,0,0:0:0:0:
402,192,407586,1,0,0:0:0:0:
329,192,407586,1,0,0:0:0:0:
475,192,407803,1,0,0:0:0:0:
475,192,408021,1,0,0:0:0:0:
329,192,408238,1,0,0:0:0:0:
475,192,408456,1,0,0:0:0:0:
329,192,408673,128,0,410412:0:0:0:0:
36,192,408673,1,0,0:0:0:0:
182,192,408890,1,0,0:0:0:0:
182,192,409108,1,0,0:0:0:0:
36,192,409325,1,0,0:0:0:0:
182,192,409543,1,0,0:0:0:0:
36,192,409760,1,0,0:0:0:0:
109,192,409977,1,0,0:0:0:0:
182,192,410195,1,0,0:0:0:0:
256,192,410412,1,0,0:0:0:0:
182,192,410630,1,0,0:0:0:0:
36,192,410738,1,0,0:0:0:0:
182,192,410847,1,0,0:0:0:0:
36,192,410956,1,0,0:0:0:0:
256,192,411064,1,0,0:0:0:0:
182,192,411282,1,0,0:0:0:0:
36,192,411390,1,0,0:0:0:0:
182,192,411499,1,0,0:0:0:0:
256,192,411717,1,0,0:0:0:0:
329,192,412151,1,0,0:0:0:0:
256,192,412369,1,0,0:0:0:0:
109,192,412477,1,0,0:0:0:0:
256,192,412586,1,0,0:0:0:0:
109,192,412695,1,0,0:0:0:0:
329,192,412803,1,0,0:0:0:0:
256,192,413021,1,0,0:0:0:0:
109,192,413130,1,0,0:0:0:0:
256,192,413238,1,0,0:0:0:0:
329,192,413456,1,0,0:0:0:0:
402,192,413890,1,0,0:0:0:0:
329,192,414108,1,0,0:0:0:0:
182,192,414217,1,0,0:0:0:0:
329,192,414325,1,0,0:0:0:0:
182,192,414434,1,0,0:0:0:0:
402,192,414543,1,0,0:0:0:0:
329,192,414760,1,0,0:0:0:0:
182,192,414869,1,0,0:0:0:0:
329,192,414977,1,0,0:0:0:0:
402,192,415195,1,0,0:0:0:0:
475,192,415630,1,0,0:0:0:0:
402,192,415847,1,0,0:0:0:0:
256,192,415956,1,0,0:0:0:0:
402,192,416064,1,0,0:0:0:0:
256,192,416173,1,0,0:0:0:0:
475,192,416282,1,0,0:0:0:0:
402,192,416499,1,0,0:0:0:0:
256,192,416608,1,0,0:0:0:0:
402,192,416717,1,0,0:0:0:0:
475,192,416934,1,0,0:0:0:0:
36,192,417369,1,0,0:0:0:0:
475,192,417586,1,0,0:0:0:0:
329,192,417695,1,0,0:0:0:0:
182,192,417803,1,0,0:0:0:0:
36,192,417912,1,0,0:0:0:0:
475,192,418021,1,0,0:0:0:0:
402,192,418238,1,0,0:0:0:0:
256,192,418347,1,0,0:0:0:0:
109,192,418456,1,0,0:0:0:0:
475,192,418673,1,0,0:0:0:0:
475,192,419108,1,0,0:0:0:0:
36,192,419325,1,0,0:0:0:0:
182,192,419434,1,0,0:0:0:0:
329,192,419543,1,0,0:0:0:0:
475,192,419651,1,0,0:0:0:0:
36,192,419760,1,0,0:0:0:0:
109,192,419977,1,0,0:0:0:0:
256,192,420086,1,0,0:0:0:0:
402,192,420195,1,0,0:0:0:0:
36,192,420412,1,0,0:0:0:0:
109,192,420847,1,0,0:0:0:0:
402,192,421064,1,0,0:0:0:0:
182,192,421173,1,0,0:0:0:0:
329,192,421282,1,0,0:0:0:0:
109,192,421390,1,0,0:0:0:0:
256,192,421499,1,0,0:0:0:0:
182,192,421717,1,0,0:0:0:0:
329,192,421825,1,0,0:0:0:0:
109,192,421934,1,0,0:0:0:0:
402,192,422151,1,0,0:0:0:0:
402,192,422586,1,0,0:0:0:0:
109,192,422803,1,0,0:0:0:0:
329,192,422912,1,0,0:0:0:0:
182,192,423021,1,0,0:0:0:0:
402,192,423130,1,0,0:0:0:0:
256,192,423238,1,0,0:0:0:0:
329,192,423456,1,0,0:0:0:0:
182,192,423564,1,0,0:0:0:0:
402,192,423673,1,0,0:0:0:0:
109,192,423890,1,0,0:0:0:0:
36,192,424325,1,0,0:0:0:0:
475,192,424325,1,0,0:0:0:0:
182,192,424543,1,0,0:0:0:0:
329,192,424651,1,0,0:0:0:0:
329,192,424760,1,0,0:0:0:0:
182,192,424869,1,0,0:0:0:0:
475,192,424977,1,0,0:0:0:0:
36,192,424977,1,0,0:0:0:0:
109,192,425195,1,0,0:0:0:0:
256,192,425195,1,0,0:0:0:0:
402,192,425303,1,0,0:0:0:0:
109,192,425412,1,0,0:0:0:0:
256,192,425412,1,0,0:0:0:0:
475,192,425630,1,0,0:0:0:0:
36,192,425630,1,0,0:0:0:0:
256,192,425847,1,0,0:0:0:0:
475,192,426064,1,0,0:0:0:0:
36,192,426064,1,0,0:0:0:0:
329,192,426282,1,0,0:0:0:0:
182,192,426390,1,0,0:0:0:0:
182,192,426499,1,0,0:0:0:0:
329,192,426608,1,0,0:0:0:0:
475,192,426717,1,0,0:0:0:0:
36,192,426717,1,0,0:0:0:0:
402,192,426934,1,0,0:0:0:0:
256,192,426934,1,0,0:0:0:0:
109,192,427043,1,0,0:0:0:0:
256,192,427151,1,0,0:0:0:0:
402,192,427151,1,0,0:0:0:0:
36,192,427369,1,0,0:0:0:0:
475,192,427369,1,0,0:0:0:0:
256,192,427586,1,0,0:0:0:0:
36,192,427803,1,0,0:0:0:0:
329,192,427803,1,0,0:0:0:0:
475,192,427803,1,0,0:0:0:0:
109,192,428021,1,0,0:0:0:0:
256,192,428021,1,0,0:0:0:0:
402,192,428130,1,0,0:0:0:0:
402,192,428238,1,0,0:0:0:0:
256,192,428347,1,0,0:0:0:0:
109,192,428347,1,0,0:0:0:0:
329,192,428456,1,0,0:0:0:0:
475,192,428456,1,0,0:0:0:0:
36,192,428456,1,0,0:0:0:0:
402,192,428673,1,0,0:0:0:0:
182,192,428673,1,0,0:0:0:0:
256,192,428782,1,0,0:0:0:0:
109,192,428890,1,0,0:0:0:0:
329,192,428890,1,0,0:0:0:0:
256,192,428999,1,0,0:0:0:0:
36,192,429108,1,0,0:0:0:0:
182,192,429108,1,0,0:0:0:0:
475,192,429108,1,0,0:0:0:0:
256,192,429325,1,0,0:0:0:0:
475,192,429543,1,0,0:0:0:0:
36,192,429543,1,0,0:0:0:0:
182,192,429543,1,0,0:0:0:0:
402,192,429760,1,0,0:0:0:0:
256,192,429760,1,0,0:0:0:0:
109,192,429869,1,0,0:0:0:0:
109,192,429977,1,0,0:0:0:0:
256,192,430086,1,0,0:0:0:0:
402,192,430086,1,0,0:0:0:0:
475,192,430195,1,0,0:0:0:0:
182,192,430195,1,0,0:0:0:0:
36,192,430195,1,0,0:0:0:0:
329,192,430412,1,0,0:0:0:0:
109,192,430412,1,0,0:0:0:0:
256,192,430521,1,0,0:0:0:0:
402,192,430630,1,0,0:0:0:0:
182,192,430630,1,0,0:0:0:0:
256,192,430738,1,0,0:0:0:0:
475,192,430847,1,0,0:0:0:0:
329,192,430847,1,0,0:0:0:0:
36,192,430847,1,0,0:0:0:0:
256,192,431064,1,0,0:0:0:0:
329,192,431282,1,0,0:0:0:0:
475,192,431282,1,0,0:0:0:0:
36,192,431282,1,0,0:0:0:0:
402,192,431499,1,0,0:0:0:0:
109,192,431499,1,0,0:0:0:0:
256,192,431608,1,0,0:0:0:0:
256,192,431717,1,0,0:0:0:0:
109,192,431825,1,0,0:0:0:0:
402,192,431825,1,0,0:0:0:0:
256,192,431934,1,0,0:0:0:0:
36,192,431934,1,0,0:0:0:0:
475,192,431934,1,0,0:0:0:0:
329,192,432151,1,0,0:0:0:0:
182,192,432151,1,0,0:0:0:0:
256,192,432260,1,0,0:0:0:0:
182,192,432369,1,0,0:0:0:0:
329,192,432369,1,0,0:0:0:0:
256,192,432477,1,0,0:0:0:0:
475,192,432586,1,0,0:0:0:0:
36,192,432586,1,0,0:0:0:0:
182,192,432586,1,0,0:0:0:0:
329,192,432586,1,0,0:0:0:0:
256,192,432803,1,0,0:0:0:0:
475,192,433021,1,0,0:0:0:0:
402,192,433021,1,0,0:0:0:0:
256,192,433021,1,0,0:0:0:0:
109,192,433021,1,0,0:0:0:0:
402,192,433238,1,0,0:0:0:0:
256,192,433238,1,0,0:0:0:0:
329,192,433347,1,0,0:0:0:0:
182,192,433347,1,0,0:0:0:0:
109,192,433456,1,0,0:0:0:0:
256,192,433456,1,0,0:0:0:0:
329,192,433564,1,0,0:0:0:0:
182,192,433564,1,0,0:0:0:0:
402,192,433673,1,0,0:0:0:0:
475,192,433673,1,0,0:0:0:0:
256,192,433673,1,0,0:0:0:0:
109,192,433673,1,0,0:0:0:0:
36,192,433890,1,0,0:0:0:0:
182,192,433890,1,0,0:0:0:0:
109,192,433999,1,0,0:0:0:0:
256,192,433999,1,0,0:0:0:0:
36,192,434108,1,0,0:0:0:0:
182,192,434108,1,0,0:0:0:0:
329,192,434217,1,0,0:0:0:0:
475,192,434325,1,0,0:0:0:0:
402,192,434325,1,0,0:0:0:0:
256,192,434325,1,0,0:0:0:0:
109,192,434325,1,0,0:0:0:0:
182,192,434543,1,0,0:0:0:0:
329,192,434543,1,0,0:0:0:0:
36,192,434760,1,0,0:0:0:0:
182,192,434760,1,0,0:0:0:0:
329,192,434760,1,0,0:0:0:0:
402,192,434760,1,0,0:0:0:0:
109,192,434869,1,0,0:0:0:0:
256,192,434869,1,0,0:0:0:0:
182,192,434977,1,0,0:0:0:0:
36,192,434977,1,0,0:0:0:0:
329,192,435086,1,0,0:0:0:0:
475,192,435086,1,0,0:0:0:0:
329,192,435195,1,0,0:0:0:0:
475,192,435195,1,0,0:0:0:0:
256,192,435303,1,0,0:0:0:0:
402,192,435412,1,0,0:0:0:0:
329,192,435412,1,0,0:0:0:0:
182,192,435412,1,0,0:0:0:0:
36,192,435412,1,0,0:0:0:0:
109,192,435521,1,0,0:0:0:0:
256,192,435521,1,0,0:0:0:0:
182,192,435630,1,0,0:0:0:0:
36,192,435630,1,0,0:0:0:0:
256,192,435847,1,0,0:0:0:0:
256,192,435956,1,0,0:0:0:0:
329,192,436064,1,0,0:0:0:0:
402,192,436064,1,0,0:0:0:0:
182,192,436064,1,0,0:0:0:0:
36,192,436064,1,0,0:0:0:0:
256,192,436282,1,0,0:0:0:0:
109,192,436282,1,0,0:0:0:0:
109,192,436499,1,0,0:0:0:0:
329,192,436499,1,0,0:0:0:0:
475,192,436499,1,0,0:0:0:0:
256,192,436499,1,0,0:0:0:0:
402,192,436717,1,0,0:0:0:0:
182,192,436717,1,0,0:0:0:0:
329,192,436825,1,0,0:0:0:0:
109,192,436825,1,0,0:0:0:0:
36,192,436934,1,0,0:0:0:0:
256,192,436934,1,0,0:0:0:0:
109,192,437043,1,0,0:0:0:0:
329,192,437043,1,0,0:0:0:0:
475,192,437151,1,0,0:0:0:0:
402,192,437151,1,0,0:0:0:0:
256,192,437151,1,0,0:0:0:0:
182,192,437151,1,0,0:0:0:0:
109,192,437369,1,0,0:0:0:0:
329,192,437369,1,0,0:0:0:0:
256,192,437477,1,0,0:0:0:0:
475,192,437477,1,0,0:0:0:0:
36,192,437586,1,0,0:0:0:0:
182,192,437586,1,0,0:0:0:0:
329,192,437695,1,0,0:0:0:0:
475,192,437803,1,0,0:0:0:0:
402,192,437803,1,0,0:0:0:0:
109,192,437803,1,0,0:0:0:0:
256,192,437803,1,0,0:0:0:0:
329,192,438021,1,0,0:0:0:0:
182,192,438021,1,0,0:0:0:0:
36,192,438238,1,0,0:0:0:0:
475,192,438238,1,0,0:0:0:0:
182,192,438456,1,0,0:0:0:0:
329,192,438564,1,0,0:0:0:0:
36,192,438673,1,0,0:0:0:0:
109,192,438673,1,0,0:0:0:0:
256,192,438782,1,0,0:0:0:0:
402,192,438890,1,0,0:0:0:0:
36,192,439108,1,0,0:0:0:0:
475,192,439108,1,0,0:0:0:0:
182,192,439325,1,0,0:0:0:0:
329,192,439434,1,0,0:0:0:0:
36,192,439543,1,0,0:0:0:0:
109,192,439543,1,0,0:0:0:0:
256,192,439651,1,0,0:0:0:0:
402,192,439760,1,0,0:0:0:0:
36,192,439977,1,0,0:0:0:0:
475,192,439977,1,0,0:0:0:0:
182,192,440195,1,0,0:0:0:0:
329,192,440303,1,0,0:0:0:0:
36,192,440412,1,0,0:0:0:0:
109,192,440412,1,0,0:0:0:0:
256,192,440521,1,0,0:0:0:0:
402,192,440630,1,0,0:0:0:0:
36,192,440847,1,0,0:0:0:0:
475,192,440847,1,0,0:0:0:0:
182,192,441064,1,0,0:0:0:0:
329,192,441173,1,0,0:0:0:0:
36,192,441282,1,0,0:0:0:0:
109,192,441282,1,0,0:0:0:0:
256,192,441390,1,0,0:0:0:0:
402,192,441499,1,0,0:0:0:0:
36,192,441717,1,0,0:0:0:0:
475,192,441717,1,0,0:0:0:0:
182,192,441934,1,0,0:0:0:0:
329,192,442043,1,0,0:0:0:0:
36,192,442151,1,0,0:0:0:0:
109,192,442151,1,0,0:0:0:0:
256,192,442260,1,0,0:0:0:0:
402,192,442369,1,0,0:0:0:0:
36,192,442586,1,0,0:0:0:0:
475,192,442586,1,0,0:0:0:0:
182,192,442803,1,0,0:0:0:0:
329,192,442912,1,0,0:0:0:0:
36,192,443021,1,0,0:0:0:0:
109,192,443021,1,0,0:0:0:0:
256,192,443130,1,0,0:0:0:0:
402,192,443238,1,0,0:0:0:0:
36,192,443456,1,0,0:0:0:0:
475,192,443456,1,0,0:0:0:0:
182,192,443673,1,0,0:0:0:0:
329,192,443782,1,0,0:0:0:0:
36,192,443890,1,0,0:0:0:0:
109,192,443890,1,0,0:0:0:0:
256,192,443999,1,0,0:0:0:0:
402,192,444108,1,0,0:0:0:0:
36,192,444325,1,0,0:0:0:0:
475,192,444325,1,0,0:0:0:0:
329,192,444543,1,0,0:0:0:0:
182,192,444651,1,0,0:0:0:0:
36,192,444760,1,0,0:0:0:0:
402,192,444760,1,0,0:0:0:0:
256,192,444869,1,0,0:0:0:0:
109,192,444977,1,0,0:0:0:0:
256,192,445086,1,0,0:0:0:0:
36,192,445195,1,0,0:0:0:0:
475,192,445195,1,0,0:0:0:0:
329,192,445195,1,0,0:0:0:0:
256,192,445412,1,0,0:0:0:0:
402,192,445412,1,0,0:0:0:0:
329,192,445521,1,0,0:0:0:0:
182,192,445521,1,0,0:0:0:0:
36,192,445630,1,0,0:0:0:0:
109,192,445630,1,0,0:0:0:0:
256,192,445630,1,0,0:0:0:0:
402,192,445738,1,0,0:0:0:0:
475,192,445738,1,0,0:0:0:0:
182,192,445847,1,0,0:0:0:0:
109,192,445847,1,0,0:0:0:0:
402,192,445956,1,0,0:0:0:0:
329,192,445956,1,0,0:0:0:0:
36,192,446064,1,0,0:0:0:0:
182,192,446064,1,0,0:0:0:0:
256,192,446064,1,0,0:0:0:0:
475,192,446282,1,0,0:0:0:0:
329,192,446282,1,0,0:0:0:0:
402,192,446390,1,0,0:0:0:0:
256,192,446390,1,0,0:0:0:0:
36,192,446499,1,0,0:0:0:0:
329,192,446499,1,0,0:0:0:0:
182,192,446499,1,0,0:0:0:0:
402,192,446608,1,0,0:0:0:0:
475,192,446608,1,0,0:0:0:0:
109,192,446717,1,0,0:0:0:0:
182,192,446717,1,0,0:0:0:0:
329,192,446825,1,0,0:0:0:0:
402,192,446825,1,0,0:0:0:0:
36,192,446934,1,0,0:0:0:0:
256,192,446934,1,0,0:0:0:0:
182,192,446934,1,0,0:0:0:0:
329,192,447151,1,0,0:0:0:0:
475,192,447151,1,0,0:0:0:0:
256,192,447260,1,0,0:0:0:0:
109,192,447260,1,0,0:0:0:0:
36,192,447369,1,0,0:0:0:0:
475,192,447369,1,0,0:0:0:0:
402,192,447369,1,0,0:0:0:0:
182,192,447477,1,0,0:0:0:0:
109,192,447477,1,0,0:0:0:0:
402,192,447586,1,0,0:0:0:0:
329,192,447586,1,0,0:0:0:0:
182,192,447695,1,0,0:0:0:0:
256,192,447695,1,0,0:0:0:0:
36,192,447803,1,0,0:0:0:0:
475,192,447803,1,0,0:0:0:0:
329,192,447803,1,0,0:0:0:0:
109,192,448021,1,0,0:0:0:0:
256,192,448021,1,0,0:0:0:0:
329,192,448130,1,0,0:0:0:0:
475,192,448130,1,0,0:0:0:0:
36,192,448238,1,0,0:0:0:0:
256,192,448238,1,0,0:0:0:0:
182,192,448238,1,0,0:0:0:0:
329,192,448347,1,0,0:0:0:0:
402,192,448347,1,0,0:0:0:0:
182,192,448456,1,0,0:0:0:0:
109,192,448456,1,0,0:0:0:0:
402,192,448564,1,0,0:0:0:0:
475,192,448564,1,0,0:0:0:0:
36,192,448673,1,0,0:0:0:0:
109,192,448673,1,0,0:0:0:0:
256,192,448673,1,0,0:0:0:0:
182,192,448890,1,0,0:0:0:0:
402,192,448890,1,0,0:0:0:0:
329,192,448999,1,0,0:0:0:0:
109,192,448999,1,0,0:0:0:0:
36,192,449108,1,0,0:0:0:0:
256,192,449108,1,0,0:0:0:0:
475,192,449108,1,0,0:0:0:0:
109,192,449217,1,0,0:0:0:0:
329,192,449217,1,0,0:0:0:0:
475,192,449325,1,0,0:0:0:0:
256,192,449325,1,0,0:0:0:0:
182,192,449434,1,0,0:0:0:0:
402,192,449434,1,0,0:0:0:0:
36,192,449543,1,0,0:0:0:0:
475,192,449543,1,0,0:0:0:0:
256,192,449543,1,0,0:0:0:0:
109,192,449760,1,0,0:0:0:0:
329,192,449760,1,0,0:0:0:0:
182,192,449869,1,0,0:0:0:0:
402,192,449869,1,0,0:0:0:0:
36,192,449977,1,0,0:0:0:0:
475,192,449977,1,0,0:0:0:0:
256,192,449977,1,0,0:0:0:0:
402,192,450086,1,0,0:0:0:0:
182,192,450086,1,0,0:0:0:0:
109,192,450195,1,0,0:0:0:0:
329,192,450195,1,0,0:0:0:0:
182,192,450303,1,0,0:0:0:0:
402,192,450303,1,0,0:0:0:0:
36,192,450412,1,0,0:0:0:0:
256,192,450412,1,0,0:0:0:0:
475,192,450412,1,0,0:0:0:0:
182,192,450630,1,0,0:0:0:0:
475,192,450630,1,0,0:0:0:0:
109,192,450738,1,0,0:0:0:0:
402,192,450738,1,0,0:0:0:0:
36,192,450847,1,0,0:0:0:0:
329,192,450847,1,0,0:0:0:0:
182,192,450847,1,0,0:0:0:0:
475,192,450956,1,0,0:0:0:0:
256,192,450956,1,0,0:0:0:0:
109,192,451064,1,0,0:0:0:0:
329,192,451064,1,0,0:0:0:0:
256,192,451173,1,0,0:0:0:0:
475,192,451173,1,0,0:0:0:0:
36,192,451282,1,0,0:0:0:0:
182,192,451282,1,0,0:0:0:0:
402,192,451282,1,0,0:0:0:0:
329,192,451499,1,0,0:0:0:0:
109,192,451499,1,0,0:0:0:0:
256,192,451608,1,0,0:0:0:0:
402,192,451608,1,0,0:0:0:0:
36,192,451717,5,0,0:0:0:0:
182,192,451717,1,0,0:0:0:0:
475,192,451717,1,0,0:0:0:0:
36,192,451825,1,0,0:0:0:0:
329,192,451825,1,0,0:0:0:0:
182,192,451934,1,0,0:0:0:0:
329,192,451934,1,0,0:0:0:0:
182,192,452043,1,0,0:0:0:0:
475,192,452043,1,0,0:0:0:0:
329,192,452151,1,0,0:0:0:0:
475,192,452151,1,0,0:0:0:0:
36,192,452151,1,0,0:0:0:0:
182,192,452260,1,0,0:0:0:0:
402,192,452369,1,0,0:0:0:0:
256,192,452369,1,0,0:0:0:0:
182,192,452477,1,0,0:0:0:0:
329,192,452477,1,0,0:0:0:0:
475,192,452586,1,0,0:0:0:0:
36,192,452586,1,0,0:0:0:0:
109,192,452586,1,0,0:0:0:0:
182,192,452695,1,0,0:0:0:0:
256,192,452695,1,0,0:0:0:0:
329,192,452803,1,0,0:0:0:0:
402,192,452803,1,0,0:0:0:0:
182,192,452912,1,0,0:0:0:0:
109,192,452912,1,0,0:0:0:0:
475,192,453021,1,0,0:0:0:0:
256,192,453021,1,0,0:0:0:0:
36,192,453021,1,0,0:0:0:0:
329,192,453130,1,0,0:0:0:0:
182,192,453238,1,0,0:0:0:0:
402,192,453238,1,0,0:0:0:0:
329,192,453347,1,0,0:0:0:0:
109,192,453347,1,0,0:0:0:0:
475,192,453456,1,0,0:0:0:0:
36,192,453456,1,0,0:0:0:0:
256,192,453456,1,0,0:0:0:0:
182,192,453564,1,0,0:0:0:0:
402,192,453564,1,0,0:0:0:0:
36,192,453673,1,0,0:0:0:0:
256,192,453673,1,0,0:0:0:0:
109,192,453782,1,0,0:0:0:0:
329,192,453782,1,0,0:0:0:0:
475,192,453890,1,0,0:0:0:0:
182,192,453890,1,0,0:0:0:0:
402,192,453890,1,0,0:0:0:0:
36,192,453999,1,0,0:0:0:0:
329,192,454108,1,0,0:0:0:0:
109,192,454108,1,0,0:0:0:0:
256,192,454217,1,0,0:0:0:0:
36,192,454217,1,0,0:0:0:0:
475,192,454325,1,0,0:0:0:0:
329,192,454325,1,0,0:0:0:0:
182,192,454325,1,0,0:0:0:0:
109,192,454434,1,0,0:0:0:0:
256,192,454434,1,0,0:0:0:0:
182,192,454543,1,0,0:0:0:0:
36,192,454543,1,0,0:0:0:0:
109,192,454651,1,0,0:0:0:0:
256,192,454651,1,0,0:0:0:0:
475,192,454760,1,0,0:0:0:0:
402,192,454760,1,0,0:0:0:0:
329,192,454760,1,0,0:0:0:0:
182,192,454869,1,0,0:0:0:0:
36,192,454977,1,0,0:0:0:0:
329,192,454977,1,0,0:0:0:0:
109,192,455086,1,0,0:0:0:0:
256,192,455086,1,0,0:0:0:0:
475,192,455195,1,0,0:0:0:0:
182,192,455195,1,0,0:0:0:0:
329,192,455195,1,0,0:0:0:0:
256,192,455303,1,0,0:0:0:0:
402,192,455303,1,0,0:0:0:0:
329,192,455412,1,0,0:0:0:0:
182,192,455412,1,0,0:0:0:0:
256,192,455521,1,0,0:0:0:0:
109,192,455521,1,0,0:0:0:0:
475,192,455630,1,0,0:0:0:0:
36,192,455630,1,0,0:0:0:0:
329,192,455630,1,0,0:0:0:0:
182,192,455738,1,0,0:0:0:0:
402,192,455847,1,0,0:0:0:0:
256,192,455847,1,0,0:0:0:0:
182,192,455956,1,0,0:0:0:0:
36,192,455956,1,0,0:0:0:0:
475,192,456064,1,0,0:0:0:0:
329,192,456064,1,0,0:0:0:0:
402,192,456064,1,0,0:0:0:0:
109,192,456173,1,0,0:0:0:0:
182,192,456173,1,0,0:0:0:0:
256,192,456282,1,0,0:0:0:0:
329,192,456282,1,0,0:0:0:0:
109,192,456390,1,0,0:0:0:0:
36,192,456390,1,0,0:0:0:0:
475,192,456499,1,0,0:0:0:0:
402,192,456499,1,0,0:0:0:0:
182,192,456499,1,0,0:0:0:0:
329,192,456608,1,0,0:0:0:0:
256,192,456717,1,0,0:0:0:0:
36,192,456717,1,0,0:0:0:0:
109,192,456825,1,0,0:0:0:0:
329,192,456825,1,0,0:0:0:0:
475,192,456934,1,0,0:0:0:0:
36,192,456934,1,0,0:0:0:0:
182,192,456934,1,0,0:0:0:0:
256,192,457043,1,0,0:0:0:0:
402,192,457043,1,0,0:0:0:0:
36,192,457151,1,0,0:0:0:0:
182,192,457151,1,0,0:0:0:0:
109,192,457260,1,0,0:0:0:0:
256,192,457260,1,0,0:0:0:0:
475,192,457369,1,0,0:0:0:0:
329,192,457369,1,0,0:0:0:0:
182,192,457369,1,0,0:0:0:0:
36,192,457477,1,0,0:0:0:0:
402,192,457586,1,0,0:0:0:0:
256,192,457586,1,0,0:0:0:0:
329,192,457695,1,0,0:0:0:0:
182,192,457695,1,0,0:0:0:0:
475,192,457803,1,0,0:0:0:0:
36,192,457803,1,0,0:0:0:0:
109,192,457803,1,0,0:0:0:0:
256,192,457912,1,0,0:0:0:0:
329,192,457912,1,0,0:0:0:0:
109,192,458021,1,0,0:0:0:0:
182,192,458021,1,0,0:0:0:0:
329,192,458130,1,0,0:0:0:0:
402,192,458130,1,0,0:0:0:0:
475,192,458238,1,0,0:0:0:0:
36,192,458238,1,0,0:0:0:0:
256,192,458238,1,0,0:0:0:0:
329,192,458347,1,0,0:0:0:0:
402,192,458456,1,0,0:0:0:0:
182,192,458456,1,0,0:0:0:0:
109,192,458564,1,0,0:0:0:0:
329,192,458564,1,0,0:0:0:0:
36,192,458673,1,0,0:0:0:0:
182,192,458673,1,0,0:0:0:0:
256,192,458673,1,0,0:0:0:0:
475,192,458782,1,0,0:0:0:0:
402,192,458782,1,0,0:0:0:0:
329,192,458782,1,0,0:0:0:0:
402,192,458890,1,0,0:0:0:0:
475,192,458890,1,0,0:0:0:0:
329,192,458890,1,0,0:0:0:0:
475,192,458999,1,0,0:0:0:0:
402,192,458999,1,0,0:0:0:0:
329,192,458999,1,0,0:0:0:0:
36,192,459108,1,0,0:0:0:0:
182,192,459108,1,0,0:0:0:0:
109,192,459108,1,0,0:0:0:0:
256,192,459217,1,0,0:0:0:0:
329,192,459325,1,0,0:0:0:0:
402,192,459325,1,0,0:0:0:0:
475,192,459325,1,0,0:0:0:0:
256,192,459434,1,0,0:0:0:0:
36,192,459543,1,0,0:0:0:0:
182,192,459543,1,0,0:0:0:0:
329,192,459543,1,0,0:0:0:0:
475,192,459543,1,0,0:0:0:0:
109,192,459651,1,0,0:0:0:0:
256,192,459651,1,0,0:0:0:0:
402,192,459651,1,0,0:0:0:0:
182,192,459760,1,0,0:0:0:0:
329,192,459760,1,0,0:0:0:0:
475,192,459760,1,0,0:0:0:0:
402,192,459869,1,0,0:0:0:0:
36,192,459977,1,0,0:0:0:0:
109,192,459977,1,0,0:0:0:0:
256,192,459977,1,0,0:0:0:0:
329,192,460086,1,0,0:0:0:0:
182,192,460195,1,0,0:0:0:0:
402,192,460195,1,0,0:0:0:0:
475,192,460195,1,0,0:0:0:0:
329,192,460303,1,0,0:0:0:0:
36,192,460412,1,0,0:0:0:0:
109,192,460412,1,0,0:0:0:0:
256,192,460412,1,0,0:0:0:0:
402,192,460412,1,0,0:0:0:0:
182,192,460521,1,0,0:0:0:0:
329,192,460521,1,0,0:0:0:0:
475,192,460521,1,0,0:0:0:0:
402,192,460630,1,0,0:0:0:0:
109,192,460630,1,0,0:0:0:0:
36,192,460630,1,0,0:0:0:0:
256,192,460738,1,0,0:0:0:0:
475,192,460847,1,0,0:0:0:0:
329,192,460847,1,0,0:0:0:0:
182,192,460847,1,0,0:0:0:0:
109,192,460956,1,0,0:0:0:0:
182,192,461064,1,0,0:0:0:0:
256,192,461064,1,0,0:0:0:0:
402,192,461064,1,0,0:0:0:0:
109,192,461173,1,0,0:0:0:0:
36,192,461282,1,0,0:0:0:0:
256,192,461282,1,0,0:0:0:0:
475,192,461282,1,0,0:0:0:0:
329,192,461282,1,0,0:0:0:0:
182,192,461390,1,0,0:0:0:0:
402,192,461390,1,0,0:0:0:0:
109,192,461390,1,0,0:0:0:0:
329,192,461499,1,0,0:0:0:0:
475,192,461499,1,0,0:0:0:0:
256,192,461499,1,0,0:0:0:0:
182,192,461608,1,0,0:0:0:0:
402,192,461717,1,0,0:0:0:0:
256,192,461717,1,0,0:0:0:0:
36,192,461717,1,0,0:0:0:0:
329,192,461825,1,0,0:0:0:0:
402,192,461934,1,0,0:0:0:0:
182,192,461934,1,0,0:0:0:0:
36,192,461934,1,0,0:0:0:0:
256,192,462043,1,0,0:0:0:0:
475,192,462151,1,0,0:0:0:0:
329,192,462151,1,0,0:0:0:0:
109,192,462151,1,0,0:0:0:0:
402,192,462151,1,0,0:0:0:0:
36,192,462260,1,0,0:0:0:0:
182,192,462260,1,0,0:0:0:0:
256,192,462260,1,0,0:0:0:0:
109,192,462369,1,0,0:0:0:0:
329,192,462369,1,0,0:0:0:0:
475,192,462369,1,0,0:0:0:0:
402,192,462477,1,0,0:0:0:0:
36,192,462586,1,0,0:0:0:0:
182,192,462586,1,0,0:0:0:0:
329,192,462586,1,0,0:0:0:0:
402,192,462695,1,0,0:0:0:0:
256,192,462803,1,0,0:0:0:0:
109,192,462803,1,0,0:0:0:0:
475,192,462803,1,0,0:0:0:0:
329,192,462912,1,0,0:0:0:0:
402,192,463021,1,0,0:0:0:0:
182,192,463021,1,0,0:0:0:0:
36,192,463021,1,0,0:0:0:0:
475,192,463021,1,0,0:0:0:0:
109,192,463130,1,0,0:0:0:0:
256,192,463130,1,0,0:0:0:0:
329,192,463130,1,0,0:0:0:0:
182,192,463238,1,0,0:0:0:0:
36,192,463238,1,0,0:0:0:0:
475,192,463238,1,0,0:0:0:0:
256,192,463347,1,0,0:0:0:0:
402,192,463456,1,0,0:0:0:0:
329,192,463456,1,0,0:0:0:0:
109,192,463456,1,0,0:0:0:0:
182,192,463564,1,0,0:0:0:0:
256,192,463673,1,0,0:0:0:0:
36,192,463673,1,0,0:0:0:0:
475,192,463673,1,0,0:0:0:0:
182,192,463782,1,0,0:0:0:0:
109,192,463890,1,0,0:0:0:0:
256,192,463890,1,0,0:0:0:0:
475,192,463890,1,0,0:0:0:0:
329,192,463890,1,0,0:0:0:0:
36,192,463999,1,0,0:0:0:0:
182,192,463999,1,0,0:0:0:0:
402,192,463999,1,0,0:0:0:0:
329,192,464108,1,0,0:0:0:0:
475,192,464108,1,0,0:0:0:0:
109,192,464108,1,0,0:0:0:0:
256,192,464217,1,0,0:0:0:0:
36,192,464325,1,0,0:0:0:0:
182,192,464325,1,0,0:0:0:0:
402,192,464325,1,0,0:0:0:0:
256,192,464434,1,0,0:0:0:0:
329,192,464543,1,0,0:0:0:0:
475,192,464543,1,0,0:0:0:0:
109,192,464543,1,0,0:0:0:0:
256,192,464651,1,0,0:0:0:0:
36,192,464760,1,0,0:0:0:0:
182,192,464760,1,0,0:0:0:0:
329,192,464760,1,0,0:0:0:0:
475,192,464760,1,0,0:0:0:0:
109,192,464869,1,0,0:0:0:0:
256,192,464869,1,0,0:0:0:0:
402,192,464869,1,0,0:0:0:0:
182,192,464977,1,0,0:0:0:0:
36,192,464977,1,0,0:0:0:0:
329,192,464977,1,0,0:0:0:0:
109,192,465086,1,0,0:0:0:0:
475,192,465195,1,0,0:0:0:0:
402,192,465195,1,0,0:0:0:0:
256,192,465195,1,0,0:0:0:0:
329,192,465303,1,0,0:0:0:0:
402,192,465412,1,0,0:0:0:0:
36,192,465412,1,0,0:0:0:0:
182,192,465412,1,0,0:0:0:0:
256,192,465521,1,0,0:0:0:0:
36,192,465630,1,0,0:0:0:0:
182,192,465630,1,0,0:0:0:0:
329,192,465630,1,0,0:0:0:0:
475,192,465630,1,0,0:0:0:0:
402,192,465738,1,0,0:0:0:0:
109,192,465738,1,0,0:0:0:0:
36,192,465847,1,0,0:0:0:0:
182,192,465847,1,0,0:0:0:0:
329,192,465847,1,0,0:0:0:0:
475,192,465847,1,0,0:0:0:0:
109,192,465956,1,0,0:0:0:0:
256,192,465956,1,0,0:0:0:0:
402,192,465956,1,0,0:0:0:0:
475,192,466064,1,0,0:0:0:0:
182,192,466064,1,0,0:0:0:0:
36,192,466064,1,0,0:0:0:0:
329,192,466064,1,0,0:0:0:0:
402,192,466282,1,0,0:0:0:0:
256,192,466282,1,0,0:0:0:0:
109,192,466282,1,0,0:0:0:0:
36,192,466282,1,0,0:0:0:0:
182,192,466390,1,0,0:0:0:0:
329,192,466390,1,0,0:0:0:0:
475,192,466499,1,0,0:0:0:0:
402,192,466499,1,0,0:0:0:0:
256,192,466499,1,0,0:0:0:0:
109,192,466499,1,0,0:0:0:0:
329,192,466608,1,0,0:0:0:0:
36,192,466608,1,0,0:0:0:0:
182,192,466608,1,0,0:0:0:0:
475,192,466717,1,0,0:0:0:0:
256,192,466717,1,0,0:0:0:0:
109,192,466717,1,0,0:0:0:0:
402,192,466717,1,0,0:0:0:0:
36,192,466934,1,0,0:0:0:0:
182,192,466934,1,0,0:0:0:0:
329,192,466934,1,0,0:0:0:0:
475,192,466934,1,0,0:0:0:0:
475,192,467151,1,0,0:0:0:0:
402,192,467151,1,0,0:0:0:0:
256,192,467151,1,0,0:0:0:0:
109,192,467151,1,0,0:0:0:0:
329,192,467260,1,0,0:0:0:0:
182,192,467260,1,0,0:0:0:0:
36,192,467369,1,0,0:0:0:0:
109,192,467369,1,0,0:0:0:0:
402,192,467369,1,0,0:0:0:0:
256,192,467369,1,0,0:0:0:0:
182,192,467477,1,0,0:0:0:0:
329,192,467477,1,0,0:0:0:0:
475,192,467477,1,0,0:0:0:0:
256,192,467586,1,0,0:0:0:0:
36,192,467586,1,0,0:0:0:0:
402,192,467586,1,0,0:0:0:0:
109,192,467586,1,0,0:0:0:0:
475,192,467803,1,0,0:0:0:0:
329,192,467803,1,0,0:0:0:0:
182,192,467803,1,0,0:0:0:0:
36,192,467803,1,0,0:0:0:0:
329,192,468021,1,0,0:0:0:0:
475,192,468021,1,0,0:0:0:0:
256,192,468021,1,0,0:0:0:0:
109,192,468021,1,0,0:0:0:0:
182,192,468130,1,0,0:0:0:0:
402,192,468130,1,0,0:0:0:0:
36,192,468238,1,0,0:0:0:0:
109,192,468238,1,0,0:0:0:0:
329,192,468238,1,0,0:0:0:0:
256,192,468238,1,0,0:0:0:0:
182,192,468347,1,0,0:0:0:0:
402,192,468347,1,0,0:0:0:0:
475,192,468347,1,0,0:0:0:0:
329,192,468456,1,0,0:0:0:0:
256,192,468456,1,0,0:0:0:0:
36,192,468456,1,0,0:0:0:0:
109,192,468456,1,0,0:0:0:0:
402,192,468673,1,0,0:0:0:0:
475,192,468673,1,0,0:0:0:0:
256,192,468673,1,0,0:0:0:0:
36,192,468673,1,0,0:0:0:0:
109,192,468890,1,0,0:0:0:0:
329,192,468890,1,0,0:0:0:0:
182,192,468890,1,0,0:0:0:0:
475,192,468890,1,0,0:0:0:0:
256,192,468999,1,0,0:0:0:0:
402,192,468999,1,0,0:0:0:0:
36,192,469108,1,0,0:0:0:0:
109,192,469108,1,0,0:0:0:0:
329,192,469108,1,0,0:0:0:0:
182,192,469108,1,0,0:0:0:0:
256,192,469217,1,0,0:0:0:0:
402,192,469217,1,0,0:0:0:0:
475,192,469217,1,0,0:0:0:0:
329,192,469325,1,0,0:0:0:0:
182,192,469325,1,0,0:0:0:0:
36,192,469325,1,0,0:0:0:0:
109,192,469325,1,0,0:0:0:0:
475,192,469543,1,0,0:0:0:0:
329,192,469543,1,0,0:0:0:0:
256,192,469543,1,0,0:0:0:0:
36,192,469543,1,0,0:0:0:0:
402,192,469760,1,0,0:0:0:0:
182,192,469760,1,0,0:0:0:0:
109,192,469760,1,0,0:0:0:0:
256,192,469760,1,0,0:0:0:0:
329,192,469869,1,0,0:0:0:0:
36,192,469869,1,0,0:0:0:0:
475,192,469977,1,0,0:0:0:0:
402,192,469977,1,0,0:0:0:0:
182,192,469977,1,0,0:0:0:0:
109,192,469977,1,0,0:0:0:0:
329,192,470086,1,0,0:0:0:0:
256,192,470086,1,0,0:0:0:0:
36,192,470086,1,0,0:0:0:0:
109,192,470195,1,0,0:0:0:0:
182,192,470195,1,0,0:0:0:0:
402,192,470195,1,0,0:0:0:0:
475,192,470195,1,0,0:0:0:0:
329,192,470412,1,0,0:0:0:0:
256,192,470412,1,0,0:0:0:0:
36,192,470412,1,0,0:0:0:0:
475,192,470412,1,0,0:0:0:0:
182,192,470630,1,0,0:0:0:0:
402,192,470630,1,0,0:0:0:0:
109,192,470630,1,0,0:0:0:0:
329,192,470630,1,0,0:0:0:0:
256,192,470738,1,0,0:0:0:0:
475,192,470738,1,0,0:0:0:0:
36,192,470847,1,0,0:0:0:0:
109,192,470847,1,0,0:0:0:0:
402,192,470847,1,0,0:0:0:0:
329,192,470847,1,0,0:0:0:0:
256,192,470956,1,0,0:0:0:0:
475,192,470956,1,0,0:0:0:0:
182,192,470956,1,0,0:0:0:0:
402,192,471064,1,0,0:0:0:0:
109,192,471064,1,0,0:0:0:0:
36,192,471064,1,0,0:0:0:0:
329,192,471064,1,0,0:0:0:0:
182,192,471282,1,0,0:0:0:0:
36,192,471282,1,0,0:0:0:0:
256,192,471282,1,0,0:0:0:0:
475,192,471282,1,0,0:0:0:0:
402,192,471499,1,0,0:0:0:0:
329,192,471499,1,0,0:0:0:0:
109,192,471499,1,0,0:0:0:0:
256,192,471499,1,0,0:0:0:0:
182,192,471608,1,0,0:0:0:0:
475,192,471608,1,0,0:0:0:0:
36,192,471717,1,0,0:0:0:0:
402,192,471717,1,0,0:0:0:0:
256,192,471717,1,0,0:0:0:0:
329,192,471717,1,0,0:0:0:0:
182,192,471825,1,0,0:0:0:0:
475,192,471825,1,0,0:0:0:0:
109,192,471825,1,0,0:0:0:0:
402,192,471934,1,0,0:0:0:0:
329,192,471934,1,0,0:0:0:0:
36,192,471934,1,0,0:0:0:0:
256,192,471934,1,0,0:0:0:0:
475,192,472151,1,0,0:0:0:0:
329,192,472151,1,0,0:0:0:0:
182,192,472151,1,0,0:0:0:0:
36,192,472151,1,0,0:0:0:0:
109,192,472369,1,0,0:0:0:0:
182,192,472369,1,0,0:0:0:0:
329,192,472369,1,0,0:0:0:0:
402,192,472369,1,0,0:0:0:0:
256,192,472477,1,0,0:0:0:0:
36,192,472477,1,0,0:0:0:0:
475,192,472586,1,0,0:0:0:0:
329,192,472586,1,0,0:0:0:0:
182,192,472586,1,0,0:0:0:0:
109,192,472586,1,0,0:0:0:0:
256,192,472695,1,0,0:0:0:0:
402,192,472695,1,0,0:0:0:0:
36,192,472695,1,0,0:0:0:0:
109,192,472803,1,0,0:0:0:0:
182,192,472803,1,0,0:0:0:0:
329,192,472803,1,0,0:0:0:0:
475,192,472803,1,0,0:0:0:0:
36,192,473021,1,0,0:0:0:0:
182,192,473021,1,0,0:0:0:0:
402,192,473021,1,0,0:0:0:0:
256,192,473021,1,0,0:0:0:0:
109,192,473238,1,0,0:0:0:0:
256,192,473238,1,0,0:0:0:0:
402,192,473238,1,0,0:0:0:0:
475,192,473238,1,0,0:0:0:0:
329,192,473347,1,0,0:0:0:0:
182,192,473347,1,0,0:0:0:0:
109,192,473456,1,0,0:0:0:0:
36,192,473456,1,0,0:0:0:0:
475,192,473456,1,0,0:0:0:0:
402,192,473456,1,0,0:0:0:0:
182,192,473564,1,0,0:0:0:0:
329,192,473564,1,0,0:0:0:0:
256,192,473564,1,0,0:0:0:0:
402,192,473673,1,0,0:0:0:0:
109,192,473673,1,0,0:0:0:0:
36,192,473673,1,0,0:0:0:0:
475,192,473673,1,0,0:0:0:0:
109,192,473890,1,0,0:0:0:0:
329,192,473890,1,0,0:0:0:0:
256,192,473890,1,0,0:0:0:0:
475,192,473890,1,0,0:0:0:0:
402,192,474108,1,0,0:0:0:0:
256,192,474108,1,0,0:0:0:0:
36,192,474108,1,0,0:0:0:0:
182,192,474108,1,0,0:0:0:0:
329,192,474217,1,0,0:0:0:0:
109,192,474217,1,0,0:0:0:0:
475,192,474325,1,0,0:0:0:0:
402,192,474325,1,0,0:0:0:0:
256,192,474325,1,0,0:0:0:0:
182,192,474325,1,0,0:0:0:0:
36,192,474434,1,0,0:0:0:0:
109,192,474434,1,0,0:0:0:0:
329,192,474434,1,0,0:0:0:0:
256,192,474543,1,0,0:0:0:0:
402,192,474543,1,0,0:0:0:0:
182,192,474543,1,0,0:0:0:0:
475,192,474543,1,0,0:0:0:0:
36,192,474760,1,0,0:0:0:0:
109,192,474760,1,0,0:0:0:0:
329,192,474760,1,0,0:0:0:0:
402,192,474760,1,0,0:0:0:0:
475,192,474977,1,0,0:0:0:0:
402,192,474977,1,0,0:0:0:0:
182,192,474977,1,0,0:0:0:0:
109,192,474977,1,0,0:0:0:0:
329,192,475086,1,0,0:0:0:0:
256,192,475086,1,0,0:0:0:0:
36,192,475195,1,0,0:0:0:0:
182,192,475195,1,0,0:0:0:0:
109,192,475195,1,0,0:0:0:0:
475,192,475195,1,0,0:0:0:0:
402,192,475303,1,0,0:0:0:0:
329,192,475303,1,0,0:0:0:0:
256,192,475303,1,0,0:0:0:0:
475,192,475412,1,0,0:0:0:0:
182,192,475412,1,0,0:0:0:0:
109,192,475412,1,0,0:0:0:0:
36,192,475412,1,0,0:0:0:0:
475,192,475630,1,0,0:0:0:0:
36,192,475630,1,0,0:0:0:0:
182,192,475630,1,0,0:0:0:0:
256,192,475630,1,0,0:0:0:0:
109,192,475847,1,0,0:0:0:0:
402,192,475847,1,0,0:0:0:0:
329,192,475847,1,0,0:0:0:0:
475,192,475847,1,0,0:0:0:0:
256,192,475956,1,0,0:0:0:0:
36,192,475956,1,0,0:0:0:0:
329,192,476064,1,0,0:0:0:0:
402,192,476064,1,0,0:0:0:0:
475,192,476064,1,0,0:0:0:0:
182,192,476064,1,0,0:0:0:0:
36,192,476173,1,0,0:0:0:0:
109,192,476173,1,0,0:0:0:0:
256,192,476173,1,0,0:0:0:0:
182,192,476282,1,0,0:0:0:0:
329,192,476282,1,0,0:0:0:0:
475,192,476282,1,0,0:0:0:0:
402,192,476282,1,0,0:0:0:0:
36,192,476499,1,0,0:0:0:0:
109,192,476499,1,0,0:0:0:0:
256,192,476499,1,0,0:0:0:0:
402,192,476499,1,0,0:0:0:0:
182,192,476717,1,0,0:0:0:0:
329,192,476717,1,0,0:0:0:0:
475,192,476717,1,0,0:0:0:0:
402,192,476717,1,0,0:0:0:0:
256,192,476825,1,0,0:0:0:0:
109,192,476825,1,0,0:0:0:0:
36,192,476934,1,0,0:0:0:0:
182,192,476934,1,0,0:0:0:0:
329,192,476934,1,0,0:0:0:0:
475,192,476934,1,0,0:0:0:0:
256,192,477043,1,0,0:0:0:0:
109,192,477043,1,0,0:0:0:0:
402,192,477043,1,0,0:0:0:0:
36,192,477151,1,0,0:0:0:0:
182,192,477151,1,0,0:0:0:0:
329,192,477151,1,0,0:0:0:0:
475,192,477151,1,0,0:0:0:0:
256,192,477369,1,0,0:0:0:0:
329,192,477369,1,0,0:0:0:0:
475,192,477369,1,0,0:0:0:0:
36,192,477369,1,0,0:0:0:0:
182,192,477586,1,0,0:0:0:0:
256,192,477586,1,0,0:0:0:0:
402,192,477586,1,0,0:0:0:0:
109,192,477586,1,0,0:0:0:0:
329,192,477695,1,0,0:0:0:0:
475,192,477695,1,0,0:0:0:0:
182,192,477803,1,0,0:0:0:0:
36,192,477803,1,0,0:0:0:0:
256,192,477803,1,0,0:0:0:0:
402,192,477803,1,0,0:0:0:0:
109,192,477912,1,0,0:0:0:0:
329,192,477912,1,0,0:0:0:0:
475,192,477912,1,0,0:0:0:0:
402,192,478021,1,0,0:0:0:0:
256,192,478021,1,0,0:0:0:0:
182,192,478021,1,0,0:0:0:0:
36,192,478021,1,0,0:0:0:0:
475,192,478238,1,0,0:0:0:0:
329,192,478238,1,0,0:0:0:0:
402,192,478238,1,0,0:0:0:0:
109,192,478238,1,0,0:0:0:0:
36,192,478456,1,0,0:0:0:0:
109,192,478456,1,0,0:0:0:0:
182,192,478456,1,0,0:0:0:0:
402,192,478456,1,0,0:0:0:0:
256,192,478564,1,0,0:0:0:0:
329,192,478564,1,0,0:0:0:0:
36,192,478673,1,0,0:0:0:0:
109,192,478673,1,0,0:0:0:0:
182,192,478673,1,0,0:0:0:0:
402,192,478673,1,0,0:0:0:0:
256,192,478782,1,0,0:0:0:0:
329,192,478782,1,0,0:0:0:0:
475,192,478782,1,0,0:0:0:0:
109,192,478890,1,0,0:0:0:0:
36,192,478890,1,0,0:0:0:0:
182,192,478890,1,0,0:0:0:0:
402,192,478890,1,0,0:0:0:0:
402,192,479108,1,0,0:0:0:0:
329,192,479108,1,0,0:0:0:0:
256,192,479108,1,0,0:0:0:0:
182,192,479108,1,0,0:0:0:0:
329,192,479325,1,0,0:0:0:0:
256,192,479325,1,0,0:0:0:0:
109,192,479325,1,0,0:0:0:0:
182,192,479325,1,0,0:0:0:0:
36,192,479434,1,0,0:0:0:0:
475,192,479434,1,0,0:0:0:0:
109,192,479543,1,0,0:0:0:0:
182,192,479543,1,0,0:0:0:0:
329,192,479543,1,0,0:0:0:0:
402,192,479543,1,0,0:0:0:0:
256,192,479651,1,0,0:0:0:0:
36,192,479651,1,0,0:0:0:0:
475,192,479651,1,0,0:0:0:0:
109,192,479760,1,0,0:0:0:0:
182,192,479760,1,0,0:0:0:0:
329,192,479760,1,0,0:0:0:0:
402,192,479760,1,0,0:0:0:0:
402,192,479977,1,0,0:0:0:0:
475,192,479977,1,0,0:0:0:0:
256,192,479977,1,0,0:0:0:0:
402,192,480086,1,0,0:0:0:0:
475,192,480086,1,0,0:0:0:0:
256,192,480086,1,0,0:0:0:0:
402,192,480195,1,0,0:0:0:0:
475,192,480195,1,0,0:0:0:0:
256,192,480195,1,0,0:0:0:0:
475,192,480303,1,0,0:0:0:0:
402,192,480303,1,0,0:0:0:0:
256,192,480303,1,0,0:0:0:0:
109,192,480412,1,0,0:0:0:0:
329,192,480412,1,0,0:0:0:0:
182,192,480412,1,0,0:0:0:0:
109,192,480521,1,0,0:0:0:0:
329,192,480521,1,0,0:0:0:0:
182,192,480521,1,0,0:0:0:0:
109,192,480630,1,0,0:0:0:0:
182,192,480630,1,0,0:0:0:0:
329,192,480630,1,0,0:0:0:0:
109,192,480738,1,0,0:0:0:0:
329,192,480738,1,0,0:0:0:0:
182,192,480738,1,0,0:0:0:0:
475,192,480847,1,0,0:0:0:0:
36,192,480847,1,0,0:0:0:0:
256,192,480847,1,0,0:0:0:0:
475,192,480956,1,0,0:0:0:0:
256,192,480956,1,0,0:0:0:0:
36,192,480956,1,0,0:0:0:0:
475,192,481064,1,0,0:0:0:0:
256,192,481064,1,0,0:0:0:0:
36,192,481064,1,0,0:0:0:0:
475,192,481173,1,0,0:0:0:0:
256,192,481173,1,0,0:0:0:0:
36,192,481173,1,0,0:0:0:0:
182,192,481282,1,0,0:0:0:0:
329,192,481282,1,0,0:0:0:0:
402,192,481282,1,0,0:0:0:0:
182,192,481390,1,0,0:0:0:0:
329,192,481390,1,0,0:0:0:0:
402,192,481390,1,0,0:0:0:0:
182,192,481499,1,0,0:0:0:0:
329,192,481499,1,0,0:0:0:0:
402,192,481499,1,0,0:0:0:0:
182,192,481608,1,0,0:0:0:0:
329,192,481608,1,0,0:0:0:0:
402,192,481608,1,0,0:0:0:0:
36,192,481717,1,0,0:0:0:0:
109,192,481717,1,0,0:0:0:0:
256,192,481717,1,0,0:0:0:0:
109,192,481825,1,0,0:0:0:0:
36,192,481825,1,0,0:0:0:0:
256,192,481825,1,0,0:0:0:0:
36,192,481934,1,0,0:0:0:0:
109,192,481934,1,0,0:0:0:0:
256,192,481934,1,0,0:0:0:0:
109,192,482043,1,0,0:0:0:0:
36,192,482043,1,0,0:0:0:0:
256,192,482043,1,0,0:0:0:0:
329,192,482151,1,0,0:0:0:0:
402,192,482151,1,0,0:0:0:0:
475,192,482151,1,0,0:0:0:0:
475,192,482260,1,0,0:0:0:0:
402,192,482260,1,0,0:0:0:0:
329,192,482260,1,0,0:0:0:0:
329,192,482369,1,0,0:0:0:0:
402,192,482369,1,0,0:0:0:0:
475,192,482369,1,0,0:0:0:0:
475,192,482477,1,0,0:0:0:0:
402,192,482477,1,0,0:0:0:0:
329,192,482477,1,0,0:0:0:0:
256,192,482586,1,0,0:0:0:0:
182,192,482586,1,0,0:0:0:0:
109,192,482586,1,0,0:0:0:0:
109,192,482695,1,0,0:0:0:0:
182,192,482695,1,0,0:0:0:0:
256,192,482695,1,0,0:0:0:0:
256,192,482803,1,0,0:0:0:0:
182,192,482803,1,0,0:0:0:0:
109,192,482803,1,0,0:0:0:0:
109,192,482912,1,0,0:0:0:0:
182,192,482912,1,0,0:0:0:0:
256,192,482912,1,0,0:0:0:0:
402,192,483021,1,0,0:0:0:0:
329,192,483021,1,0,0:0:0:0:
36,192,483021,1,0,0:0:0:0:
402,192,483130,1,0,0:0:0:0:
329,192,483130,1,0,0:0:0:0:
36,192,483130,1,0,0:0:0:0:
402,192,483238,1,0,0:0:0:0:
329,192,483238,1,0,0:0:0:0:
36,192,483238,1,0,0:0:0:0:
402,192,483347,1,0,0:0:0:0:
329,192,483347,1,0,0:0:0:0:
36,192,483347,1,0,0:0:0:0:
182,192,483456,1,0,0:0:0:0:
475,192,483456,1,0,0:0:0:0:
109,192,483456,1,0,0:0:0:0:
182,192,483564,1,0,0:0:0:0:
475,192,483564,1,0,0:0:0:0:
109,192,483564,1,0,0:0:0:0:
182,192,483673,1,0,0:0:0:0:
475,192,483673,1,0,0:0:0:0:
109,192,483673,1,0,0:0:0:0:
182,192,483782,1,0,0:0:0:0:
475,192,483782,1,0,0:0:0:0:
109,192,483782,1,0,0:0:0:0:
256,192,483890,1,0,0:0:0:0:
329,192,483890,1,0,0:0:0:0:
402,192,483890,1,0,0:0:0:0:
402,192,483999,1,0,0:0:0:0:
329,192,483999,1,0,0:0:0:0:
256,192,483999,1,0,0:0:0:0:
256,192,484108,1,0,0:0:0:0:
329,192,484108,1,0,0:0:0:0:
402,192,484108,1,0,0:0:0:0:
402,192,484217,1,0,0:0:0:0:
329,192,484217,1,0,0:0:0:0:
256,192,484217,1,0,0:0:0:0:
182,192,484325,1,0,0:0:0:0:
109,192,484325,1,0,0:0:0:0:
36,192,484325,1,0,0:0:0:0:
36,192,484434,1,0,0:0:0:0:
109,192,484434,1,0,0:0:0:0:
182,192,484434,1,0,0:0:0:0:
182,192,484543,1,0,0:0:0:0:
109,192,484543,1,0,0:0:0:0:
36,192,484543,1,0,0:0:0:0:
36,192,484651,1,0,0:0:0:0:
109,192,484651,1,0,0:0:0:0:
182,192,484651,1,0,0:0:0:0:
329,192,484760,1,0,0:0:0:0:
256,192,484760,1,0,0:0:0:0:
475,192,484760,1,0,0:0:0:0:
329,192,484869,1,0,0:0:0:0:
256,192,484869,1,0,0:0:0:0:
475,192,484869,1,0,0:0:0:0:
256,192,484977,1,0,0:0:0:0:
329,192,484977,1,0,0:0:0:0:
475,192,484977,1,0,0:0:0:0:
329,192,485086,1,0,0:0:0:0:
256,192,485086,1,0,0:0:0:0:
475,192,485086,1,0,0:0:0:0:
402,192,485195,1,0,0:0:0:0:
182,192,485195,1,0,0:0:0:0:
36,192,485195,1,0,0:0:0:0:
402,192,485303,1,0,0:0:0:0:
182,192,485303,1,0,0:0:0:0:
36,192,485303,1,0,0:0:0:0:
402,192,485412,1,0,0:0:0:0:
182,192,485412,1,0,0:0:0:0:
36,192,485412,1,0,0:0:0:0:
402,192,485521,1,0,0:0:0:0:
182,192,485521,1,0,0:0:0:0:
36,192,485521,1,0,0:0:0:0:
256,192,485630,1,0,0:0:0:0:
475,192,485630,1,0,0:0:0:0:
109,192,485630,1,0,0:0:0:0:
475,192,485738,1,0,0:0:0:0:
256,192,485738,1,0,0:0:0:0:
109,192,485738,1,0,0:0:0:0:
256,192,485847,1,0,0:0:0:0:
475,192,485847,1,0,0:0:0:0:
109,192,485847,1,0,0:0:0:0:
475,192,485956,1,0,0:0:0:0:
256,192,485956,1,0,0:0:0:0:
109,192,485956,1,0,0:0:0:0:
36,192,486064,1,0,0:0:0:0:
182,192,486064,1,0,0:0:0:0:
402,192,486064,1,0,0:0:0:0:
329,192,486137,1,0,0:0:0:0:
36,192,486173,1,0,0:0:0:0:
182,192,486173,1,0,0:0:0:0:
256,192,486209,1,0,0:0:0:0:
475,192,486282,1,0,0:0:0:0:
402,192,486282,1,0,0:0:0:0:
109,192,486282,1,0,0:0:0:0:
182,192,486354,1,0,0:0:0:0:
475,192,486390,1,0,0:0:0:0:
402,192,486390,1,0,0:0:0:0:
256,192,486427,1,0,0:0:0:0:
109,192,486499,1,0,0:0:0:0:
329,192,486499,1,0,0:0:0:0:
36,192,486499,1,0,0:0:0:0:
402,192,486572,1,0,0:0:0:0:
109,192,486608,1,0,0:0:0:0:
36,192,486608,1,0,0:0:0:0:
256,192,486644,1,0,0:0:0:0:
475,192,486717,1,0,0:0:0:0:
329,192,486717,1,0,0:0:0:0:
182,192,486717,1,0,0:0:0:0:
109,192,486789,1,0,0:0:0:0:
475,192,486825,1,0,0:0:0:0:
329,192,486825,1,0,0:0:0:0:
36,192,486861,1,0,0:0:0:0:
109,192,486934,1,0,0:0:0:0:
256,192,486988,1,0,0:0:0:0:
36,192,487043,1,0,0:0:0:0:
182,192,487097,1,0,0:0:0:0:
329,192,487151,1,0,0:0:0:0:
109,192,487260,1,0,0:0:0:0:
182,192,487369,1,0,0:0:0:0:
36,192,487423,1,0,0:0:0:0:
256,192,487477,1,0,0:0:0:0:
402,192,487586,1,0,0:0:0:0:
182,192,487695,1,0,0:0:0:0:
329,192,487803,1,0,0:0:0:0:
36,192,487912,1,0,0:0:0:0:
182,192,487967,1,0,0:0:0:0:
402,192,488021,1,0,0:0:0:0:
256,192,488130,1,0,0:0:0:0:
109,192,488238,1,0,0:0:0:0:
256,192,488347,1,0,0:0:0:0:
402,192,488456,1,0,0:0:0:0:
256,192,488564,1,0,0:0:0:0:
402,192,488673,1,0,0:0:0:0:
109,192,488782,1,0,0:0:0:0:
256,192,488836,1,0,0:0:0:0:
402,192,488890,1,0,0:0:0:0:
109,192,488999,1,0,0:0:0:0:
329,192,489108,1,0,0:0:0:0:
182,192,489162,1,0,0:0:0:0:
402,192,489217,1,0,0:0:0:0:
475,192,489325,1,0,0:0:0:0:
329,192,489434,1,0,0:0:0:0:
475,192,489543,1,0,0:0:0:0:
182,192,489651,1,0,0:0:0:0:
329,192,489706,1,0,0:0:0:0:
475,192,489760,1,0,0:0:0:0:
256,192,489869,1,0,0:0:0:0:
329,192,489977,1,0,0:0:0:0:
402,192,490032,1,0,0:0:0:0:
256,192,490086,1,0,0:0:0:0:
182,192,490086,1,0,0:0:0:0:
109,192,490086,1,0,0:0:0:0:
36,192,490086,1,0,0:0:0:0:
475,192,490086,1,0,0:0:0:0:
36,192,490195,1,0,0:0:0:0:
182,192,490195,1,0,0:0:0:0:
256,192,490195,1,0,0:0:0:0:
109,192,490195,1,0,0:0:0:0:
36,192,490303,1,0,0:0:0:0:
109,192,490303,1,0,0:0:0:0:
256,192,490303,1,0,0:0:0:0:
182,192,490303,1,0,0:0:0:0:
256,192,490412,1,0,0:0:0:0:
475,192,490412,1,0,0:0:0:0:
182,192,490412,1,0,0:0:0:0:
109,192,490412,1,0,0:0:0:0:
402,192,490412,1,0,0:0:0:0:
36,192,490412,1,0,0:0:0:0:
329,192,490412,1,0,0:0:0:0:
402,192,490630,1,0,0:0:0:0:
475,192,490630,1,0,0:0:0:0:
109,192,490630,1,0,0:0:0:0:
256,192,490630,1,0,0:0:0:0:
329,192,490738,1,0,0:0:0:0:
182,192,490738,1,0,0:0:0:0:
36,192,490847,1,0,0:0:0:0:
402,192,490847,1,0,0:0:0:0:
475,192,490847,1,0,0:0:0:0:
109,192,490847,1,0,0:0:0:0:
256,192,490847,1,0,0:0:0:0:
109,192,490956,1,0,0:0:0:0:
329,192,490956,1,0,0:0:0:0:
182,192,490956,1,0,0:0:0:0:
402,192,491064,1,0,0:0:0:0:
256,192,491064,1,0,0:0:0:0:
182,192,491064,1,0,0:0:0:0:
475,192,491064,1,0,0:0:0:0:
36,192,491173,1,0,0:0:0:0:
329,192,491173,1,0,0:0:0:0:
109,192,491282,1,0,0:0:0:0:
402,192,491282,1,0,0:0:0:0:
475,192,491282,1,0,0:0:0:0:
182,192,491282,1,0,0:0:0:0:
402,192,491499,1,0,0:0:0:0:
109,192,491499,1,0,0:0:0:0:
36,192,491499,1,0,0:0:0:0:
256,192,491499,1,0,0:0:0:0:
329,192,491608,1,0,0:0:0:0:
182,192,491608,1,0,0:0:0:0:
475,192,491717,1,0,0:0:0:0:
402,192,491717,1,0,0:0:0:0:
256,192,491717,1,0,0:0:0:0:
109,192,491717,1,0,0:0:0:0:
36,192,491717,1,0,0:0:0:0:
402,192,491825,1,0,0:0:0:0:
329,192,491825,1,0,0:0:0:0:
182,192,491825,1,0,0:0:0:0:
329,192,491934,1,0,0:0:0:0:
256,192,491934,1,0,0:0:0:0:
109,192,491934,1,0,0:0:0:0:
36,192,491934,1,0,0:0:0:0:
475,192,492043,1,0,0:0:0:0:
182,192,492043,1,0,0:0:0:0:
36,192,492151,1,0,0:0:0:0:
109,192,492151,1,0,0:0:0:0:
256,192,492151,1,0,0:0:0:0:
402,192,492151,1,0,0:0:0:0:
182,192,492369,1,0,0:0:0:0:
402,192,492369,1,0,0:0:0:0:
475,192,492369,1,0,0:0:0:0:
36,192,492369,1,0,0:0:0:0:
256,192,492477,1,0,0:0:0:0:
329,192,492477,1,0,0:0:0:0:
36,192,492586,1,0,0:0:0:0:
182,192,492586,1,0,0:0:0:0:
109,192,492586,1,0,0:0:0:0:
402,192,492586,1,0,0:0:0:0:
475,192,492586,1,0,0:0:0:0:
182,192,492695,1,0,0:0:0:0:
256,192,492695,1,0,0:0:0:0:
329,192,492695,1,0,0:0:0:0:
109,192,492803,1,0,0:0:0:0:
475,192,492803,1,0,0:0:0:0:
329,192,492803,1,0,0:0:0:0:
402,192,492803,1,0,0:0:0:0:
36,192,492912,1,0,0:0:0:0:
256,192,492912,1,0,0:0:0:0:
475,192,493021,1,0,0:0:0:0:
402,192,493021,1,0,0:0:0:0:
329,192,493021,1,0,0:0:0:0:
182,192,493021,1,0,0:0:0:0:
36,192,493238,1,0,0:0:0:0:
109,192,493238,1,0,0:0:0:0:
182,192,493238,1,0,0:0:0:0:
329,192,493238,1,0,0:0:0:0:
109,192,493347,1,0,0:0:0:0:
182,192,493347,1,0,0:0:0:0:
182,192,493456,1,0,0:0:0:0:
36,192,493564,1,0,0:0:0:0:
109,192,493564,1,0,0:0:0:0:
329,192,493564,1,0,0:0:0:0:
256,192,493564,1,0,0:0:0:0:
402,192,493564,1,0,0:0:0:0:
475,192,493564,1,0,0:0:0:0:
475,192,493673,1,0,0:0:0:0:
402,192,493673,1,0,0:0:0:0:
256,192,493673,1,0,0:0:0:0:
329,192,493673,1,0,0:0:0:0:
109,192,493673,1,0,0:0:0:0:
36,192,493673,1,0,0:0:0:0:
36,192,493782,1,0,0:0:0:0:
109,192,493782,1,0,0:0:0:0:
329,192,493782,1,0,0:0:0:0:
256,192,493782,1,0,0:0:0:0:
402,192,493782,1,0,0:0:0:0:
475,192,493782,1,0,0:0:0:0:
475,192,493890,1,0,0:0:0:0:
402,192,493890,1,0,0:0:0:0:
329,192,493890,1,0,0:0:0:0:
182,192,493890,1,0,0:0:0:0:
256,192,494108,1,0,0:0:0:0:
109,192,494108,1,0,0:0:0:0:
36,192,494108,1,0,0:0:0:0:
182,192,494217,1,0,0:0:0:0:
329,192,494217,1,0,0:0:0:0:
256,192,494325,1,0,0:0:0:0:
402,192,494325,1,0,0:0:0:0:
475,192,494325,1,0,0:0:0:0:
109,192,494325,1,0,0:0:0:0:
36,192,494325,1,0,0:0:0:0:
36,192,494434,1,0,0:0:0:0:
182,192,494434,1,0,0:0:0:0:
329,192,494434,1,0,0:0:0:0:
109,192,494543,1,0,0:0:0:0:
256,192,494543,1,0,0:0:0:0:
402,192,494543,1,0,0:0:0:0:
475,192,494543,1,0,0:0:0:0:
329,192,494651,1,0,0:0:0:0:
182,192,494651,1,0,0:0:0:0:
36,192,494760,1,0,0:0:0:0:
475,192,494760,1,0,0:0:0:0:
402,192,494760,1,0,0:0:0:0:
109,192,494760,1,0,0:0:0:0:
329,192,494977,1,0,0:0:0:0:
402,192,494977,1,0,0:0:0:0:
182,192,494977,1,0,0:0:0:0:
256,192,495086,1,0,0:0:0:0:
109,192,495086,1,0,0:0:0:0:
36,192,495195,1,0,0:0:0:0:
182,192,495195,1,0,0:0:0:0:
329,192,495195,1,0,0:0:0:0:
402,192,495195,1,0,0:0:0:0:
475,192,495195,1,0,0:0:0:0:
109,192,495303,1,0,0:0:0:0:
256,192,495303,1,0,0:0:0:0:
402,192,495303,1,0,0:0:0:0:
329,192,495412,1,0,0:0:0:0:
475,192,495412,1,0,0:0:0:0:
109,192,495412,1,0,0:0:0:0:
182,192,495412,1,0,0:0:0:0:
256,192,495521,1,0,0:0:0:0:
36,192,495521,1,0,0:0:0:0:
475,192,495630,1,0,0:0:0:0:
329,192,495630,1,0,0:0:0:0:
182,192,495630,1,0,0:0:0:0:
402,192,495630,1,0,0:0:0:0:
36,192,495847,1,0,0:0:0:0:
109,192,495847,1,0,0:0:0:0:
329,192,495847,1,0,0:0:0:0:
182,192,495956,1,0,0:0:0:0:
402,192,495956,1,0,0:0:0:0:
475,192,496064,1,0,0:0:0:0:
256,192,496064,1,0,0:0:0:0:
36,192,496064,1,0,0:0:0:0:
109,192,496064,1,0,0:0:0:0:
329,192,496064,1,0,0:0:0:0:
329,192,496173,1,0,0:0:0:0:
402,192,496173,1,0,0:0:0:0:
182,192,496173,1,0,0:0:0:0:
182,192,496282,1,0,0:0:0:0:
36,192,496282,1,0,0:0:0:0:
256,192,496282,1,0,0:0:0:0:
475,192,496282,1,0,0:0:0:0:
109,192,496390,1,0,0:0:0:0:
402,192,496390,1,0,0:0:0:0:
36,192,496499,1,0,0:0:0:0:
329,192,496499,1,0,0:0:0:0:
475,192,496499,1,0,0:0:0:0:
182,192,496499,1,0,0:0:0:0:
256,192,496717,1,0,0:0:0:0:
402,192,496717,1,0,0:0:0:0:
329,192,496717,1,0,0:0:0:0:
256,192,496825,1,0,0:0:0:0:
329,192,496825,1,0,0:0:0:0:
256,192,496934,1,0,0:0:0:0:
182,192,497043,1,0,0:0:0:0:
109,192,497043,1,0,0:0:0:0:
36,192,497043,1,0,0:0:0:0:
329,192,497043,1,0,0:0:0:0:
402,192,497043,1,0,0:0:0:0:
475,192,497043,1,0,0:0:0:0:
36,192,497151,1,0,0:0:0:0:
109,192,497151,1,0,0:0:0:0:
182,192,497151,1,0,0:0:0:0:
475,192,497151,1,0,0:0:0:0:
402,192,497151,1,0,0:0:0:0:
329,192,497151,1,0,0:0:0:0:
109,192,497260,1,0,0:0:0:0:
36,192,497260,1,0,0:0:0:0:
182,192,497260,1,0,0:0:0:0:
329,192,497260,1,0,0:0:0:0:
475,192,497260,1,0,0:0:0:0:
402,192,497260,1,0,0:0:0:0:
36,192,497369,1,0,0:0:0:0:
109,192,497369,1,0,0:0:0:0:
182,192,497369,1,0,0:0:0:0:
256,192,497369,1,0,0:0:0:0:
329,192,497586,1,0,0:0:0:0:
475,192,497586,1,0,0:0:0:0:
182,192,497586,1,0,0:0:0:0:
256,192,497695,1,0,0:0:0:0:
402,192,497695,1,0,0:0:0:0:
182,192,497803,1,0,0:0:0:0:
329,192,497803,1,0,0:0:0:0:
475,192,497803,1,0,0:0:0:0:
109,192,497803,1,0,0:0:0:0:
36,192,497803,1,0,0:0:0:0:
36,192,497912,1,0,0:0:0:0:
109,192,497912,1,0,0:0:0:0:
256,192,497912,1,0,0:0:0:0:
36,192,498021,1,0,0:0:0:0:
329,192,498021,1,0,0:0:0:0:
402,192,498021,1,0,0:0:0:0:
475,192,498021,1,0,0:0:0:0:
256,192,498130,1,0,0:0:0:0:
182,192,498130,1,0,0:0:0:0:
36,192,498238,1,0,0:0:0:0:
475,192,498238,1,0,0:0:0:0:
402,192,498238,1,0,0:0:0:0:
109,192,498238,1,0,0:0:0:0:
329,192,498456,1,0,0:0:0:0:
402,192,498456,1,0,0:0:0:0:
182,192,498456,1,0,0:0:0:0:
256,192,498564,1,0,0:0:0:0:
109,192,498564,1,0,0:0:0:0:
36,192,498673,1,0,0:0:0:0:
182,192,498673,1,0,0:0:0:0:
329,192,498673,1,0,0:0:0:0:
402,192,498673,1,0,0:0:0:0:
475,192,498673,1,0,0:0:0:0:
256,192,498782,1,0,0:0:0:0:
402,192,498782,1,0,0:0:0:0:
475,192,498782,1,0,0:0:0:0:
109,192,498890,1,0,0:0:0:0:
475,192,498890,1,0,0:0:0:0:
36,192,498890,1,0,0:0:0:0:
182,192,498890,1,0,0:0:0:0:
256,192,498999,1,0,0:0:0:0:
329,192,498999,1,0,0:0:0:0:
475,192,499108,1,0,0:0:0:0:
36,192,499108,1,0,0:0:0:0:
182,192,499108,1,0,0:0:0:0:
402,192,499108,1,0,0:0:0:0:
36,192,499325,1,0,0:0:0:0:
256,192,499325,1,0,0:0:0:0:
475,192,499325,1,0,0:0:0:0:
109,192,499434,1,0,0:0:0:0:
402,192,499434,1,0,0:0:0:0:
475,192,499543,1,0,0:0:0:0:
256,192,499543,1,0,0:0:0:0:
36,192,499543,1,0,0:0:0:0:
182,192,499543,1,0,0:0:0:0:
329,192,499543,1,0,0:0:0:0:
256,192,499651,1,0,0:0:0:0:
109,192,499651,1,0,0:0:0:0:
402,192,499651,1,0,0:0:0:0:
475,192,499760,1,0,0:0:0:0:
36,192,499760,1,0,0:0:0:0:
182,192,499760,1,0,0:0:0:0:
329,192,499760,1,0,0:0:0:0:
402,192,499869,1,0,0:0:0:0:
109,192,499869,1,0,0:0:0:0:
36,192,499977,1,0,0:0:0:0:
329,192,499977,1,0,0:0:0:0:
475,192,499977,1,0,0:0:0:0:
182,192,499977,1,0,0:0:0:0:
109,192,500195,1,0,0:0:0:0:
256,192,500195,1,0,0:0:0:0:
402,192,500195,1,0,0:0:0:0:
329,192,500303,1,0,0:0:0:0:
182,192,500303,1,0,0:0:0:0:
256,192,500412,1,0,0:0:0:0:
182,192,500521,1,0,0:0:0:0:
109,192,500521,1,0,0:0:0:0:
36,192,500521,1,0,0:0:0:0:
475,192,500521,1,0,0:0:0:0:
402,192,500521,1,0,0:0:0:0:
329,192,500521,1,0,0:0:0:0:
36,192,500630,1,0,0:0:0:0:
109,192,500630,1,0,0:0:0:0:
182,192,500630,1,0,0:0:0:0:
329,192,500630,1,0,0:0:0:0:
402,192,500630,1,0,0:0:0:0:
475,192,500630,1,0,0:0:0:0:
475,192,500738,1,0,0:0:0:0:
402,192,500738,1,0,0:0:0:0:
329,192,500738,1,0,0:0:0:0:
109,192,500738,1,0,0:0:0:0:
36,192,500738,1,0,0:0:0:0:
182,192,500738,1,0,0:0:0:0:
256,192,500847,1,0,0:0:0:0:
109,192,500847,1,0,0:0:0:0:
182,192,500847,1,0,0:0:0:0:
402,192,500847,1,0,0:0:0:0:
329,192,500847,1,0,0:0:0:0:
329,192,501064,1,0,0:0:0:0:
402,192,501064,1,0,0:0:0:0:
475,192,501064,1,0,0:0:0:0:
182,192,501173,1,0,0:0:0:0:
36,192,501173,1,0,0:0:0:0:
475,192,501282,1,0,0:0:0:0:
402,192,501282,1,0,0:0:0:0:
329,192,501282,1,0,0:0:0:0:
256,192,501282,1,0,0:0:0:0:
109,192,501282,1,0,0:0:0:0:
329,192,501390,1,0,0:0:0:0:
402,192,501390,1,0,0:0:0:0:
182,192,501390,1,0,0:0:0:0:
329,192,501499,1,0,0:0:0:0:
402,192,501499,1,0,0:0:0:0:
36,192,501499,1,0,0:0:0:0:
109,192,501499,1,0,0:0:0:0:
256,192,501608,1,0,0:0:0:0:
475,192,501608,1,0,0:0:0:0:
36,192,501717,1,0,0:0:0:0:
182,192,501717,1,0,0:0:0:0:
329,192,501717,1,0,0:0:0:0:
402,192,501717,1,0,0:0:0:0:
182,192,501934,1,0,0:0:0:0:
109,192,501934,1,0,0:0:0:0:
36,192,501934,1,0,0:0:0:0:
329,192,502043,1,0,0:0:0:0:
475,192,502043,1,0,0:0:0:0:
256,192,502151,1,0,0:0:0:0:
182,192,502151,1,0,0:0:0:0:
109,192,502151,1,0,0:0:0:0:
36,192,502151,1,0,0:0:0:0:
402,192,502151,1,0,0:0:0:0:
182,192,502260,1,0,0:0:0:0:
109,192,502260,1,0,0:0:0:0:
329,192,502260,1,0,0:0:0:0:
109,192,502369,1,0,0:0:0:0:
182,192,502369,1,0,0:0:0:0:
402,192,502369,1,0,0:0:0:0:
475,192,502369,1,0,0:0:0:0:
256,192,502477,1,0,0:0:0:0:
36,192,502477,1,0,0:0:0:0:
475,192,502586,1,0,0:0:0:0:
402,192,502586,1,0,0:0:0:0:
329,192,502586,1,0,0:0:0:0:
182,192,502586,1,0,0:0:0:0:
109,192,502586,1,0,0:0:0:0:
329,192,502695,1,0,0:0:0:0:
402,192,502695,1,0,0:0:0:0:
475,192,502695,1,0,0:0:0:0:
475,192,502803,1,0,0:0:0:0:
402,192,502803,1,0,0:0:0:0:
329,192,502803,1,0,0:0:0:0:
329,192,502912,1,0,0:0:0:0:
402,192,502912,1,0,0:0:0:0:
475,192,502912,1,0,0:0:0:0:
475,192,503021,1,0,0:0:0:0:
402,192,503021,1,0,0:0:0:0:
329,192,503021,1,0,0:0:0:0:
36,192,503021,1,0,0:0:0:0:
182,192,503021,1,0,0:0:0:0:
329,192,503130,1,0,0:0:0:0:
402,192,503130,1,0,0:0:0:0:
475,192,503130,1,0,0:0:0:0:
329,192,503238,1,0,0:0:0:0:
402,192,503238,1,0,0:0:0:0:
475,192,503238,1,0,0:0:0:0:
475,192,503347,1,0,0:0:0:0:
329,192,503347,1,0,0:0:0:0:
402,192,503347,1,0,0:0:0:0:
329,192,503456,1,0,0:0:0:0:
402,192,503456,1,0,0:0:0:0:
475,192,503456,1,0,0:0:0:0:
109,192,503456,1,0,0:0:0:0:
36,192,503456,1,0,0:0:0:0:
329,192,503564,1,0,0:0:0:0:
402,192,503564,1,0,0:0:0:0:
475,192,503564,1,0,0:0:0:0:
475,192,503673,1,0,0:0:0:0:
402,192,503673,1,0,0:0:0:0:
329,192,503673,1,0,0:0:0:0:
329,192,503782,1,0,0:0:0:0:
402,192,503782,1,0,0:0:0:0:
475,192,503782,1,0,0:0:0:0:
36,192,503890,1,0,0:0:0:0:
182,192,503999,1,0,0:0:0:0:
256,192,503999,1,0,0:0:0:0:
329,192,503999,1,0,0:0:0:0:
329,192,504108,1,0,0:0:0:0:
256,192,504108,1,0,0:0:0:0:
182,192,504108,1,0,0:0:0:0:
182,192,504217,1,0,0:0:0:0:
256,192,504217,1,0,0:0:0:0:
329,192,504217,1,0,0:0:0:0:
36,192,504325,1,0,0:0:0:0:
109,192,504325,1,0,0:0:0:0:
182,192,504325,1,0,0:0:0:0:
329,192,504325,1,0,0:0:0:0:
402,192,504325,1,0,0:0:0:0:
475,192,504325,1,0,0:0:0:0:
256,192,504325,1,0,0:0:0:0:
109,192,504543,1,0,0:0:0:0:
182,192,504543,1,0,0:0:0:0:
256,192,504543,1,0,0:0:0:0:
329,192,504543,1,0,0:0:0:0:
402,192,504543,1,0,0:0:0:0:
36,192,504760,1,0,0:0:0:0:
182,192,504760,1,0,0:0:0:0:
109,192,504760,1,0,0:0:0:0:
256,192,504760,1,0,0:0:0:0:
329,192,504760,1,0,0:0:0:0:
182,192,504869,1,0,0:0:0:0:
256,192,504869,1,0,0:0:0:0:
329,192,504869,1,0,0:0:0:0:
402,192,504869,1,0,0:0:0:0:
109,192,504869,1,0,0:0:0:0:
256,192,504977,1,0,0:0:0:0:
329,192,504977,1,0,0:0:0:0:
402,192,504977,1,0,0:0:0:0:
475,192,504977,1,0,0:0:0:0:
182,192,504977,1,0,0:0:0:0:
36,192,505195,1,0,0:0:0:0:
256,192,505195,1,0,0:0:0:0:
329,192,505195,1,0,0:0:0:0:
402,192,505195,1,0,0:0:0:0:
475,192,505195,1,0,0:0:0:0:
402,192,505412,1,0,0:0:0:0:
329,192,505412,1,0,0:0:0:0:
182,192,505412,1,0,0:0:0:0:
109,192,505412,1,0,0:0:0:0:
256,192,505412,1,0,0:0:0:0:
475,192,505630,1,0,0:0:0:0:
402,192,505630,1,0,0:0:0:0:
329,192,505630,1,0,0:0:0:0:
256,192,505630,1,0,0:0:0:0:
182,192,505630,1,0,0:0:0:0:
329,192,505738,1,0,0:0:0:0:
256,192,505738,1,0,0:0:0:0:
182,192,505738,1,0,0:0:0:0:
109,192,505738,1,0,0:0:0:0:
402,192,505738,1,0,0:0:0:0:
256,192,505847,1,0,0:0:0:0:
182,192,505847,1,0,0:0:0:0:
36,192,505847,1,0,0:0:0:0:
109,192,505847,1,0,0:0:0:0:
329,192,505847,1,0,0:0:0:0:
475,192,506064,1,0,0:0:0:0:
402,192,506064,1,0,0:0:0:0:
329,192,506064,1,0,0:0:0:0:
36,192,506064,1,0,0:0:0:0:
109,192,506064,1,0,0:0:0:0:
402,192,506282,1,0,0:0:0:0:
329,192,506282,1,0,0:0:0:0:
256,192,506282,1,0,0:0:0:0:
182,192,506282,1,0,0:0:0:0:
109,192,506282,1,0,0:0:0:0:
36,192,506499,1,0,0:0:0:0:
109,192,506499,1,0,0:0:0:0:
256,192,506499,1,0,0:0:0:0:
402,192,506499,1,0,0:0:0:0:
475,192,506499,1,0,0:0:0:0:
109,192,506608,1,0,0:0:0:0:
182,192,506608,1,0,0:0:0:0:
329,192,506608,1,0,0:0:0:0:
402,192,506608,1,0,0:0:0:0:
182,192,506717,1,0,0:0:0:0:
475,192,506717,1,0,0:0:0:0:
36,192,506717,1,0,0:0:0:0:
329,192,506717,1,0,0:0:0:0:
109,192,506934,1,0,0:0:0:0:
36,192,506934,1,0,0:0:0:0:
256,192,506934,1,0,0:0:0:0:
402,192,506934,1,0,0:0:0:0:
475,192,506934,1,0,0:0:0:0:
109,192,507151,1,0,0:0:0:0:
182,192,507151,1,0,0:0:0:0:
256,192,507151,1,0,0:0:0:0:
329,192,507151,1,0,0:0:0:0:
402,192,507151,1,0,0:0:0:0:
256,192,507260,1,0,0:0:0:0:
109,192,507260,1,0,0:0:0:0:
402,192,507260,1,0,0:0:0:0:
329,192,507369,1,0,0:0:0:0:
182,192,507369,1,0,0:0:0:0:
36,192,507477,1,0,0:0:0:0:
109,192,507477,1,0,0:0:0:0:
256,192,507477,1,0,0:0:0:0:
402,192,507477,1,0,0:0:0:0:
475,192,507477,1,0,0:0:0:0:
475,192,507586,1,0,0:0:0:0:
402,192,507586,1,0,0:0:0:0:
256,192,507586,1,0,0:0:0:0:
109,192,507586,1,0,0:0:0:0:
36,192,507586,1,0,0:0:0:0:
36,192,507695,1,0,0:0:0:0:
109,192,507695,1,0,0:0:0:0:
256,192,507695,1,0,0:0:0:0:
402,192,507695,1,0,0:0:0:0:
475,192,507695,1,0,0:0:0:0:
182,192,507803,1,0,0:0:0:0:
329,192,507803,1,0,0:0:0:0:
36,192,507803,1,0,0:0:0:0:
475,192,507803,1,0,0:0:0:0:
109,192,507803,1,0,0:0:0:0:
402,192,508021,1,0,0:0:0:0:
256,192,508021,1,0,0:0:0:0:
182,192,508021,1,0,0:0:0:0:
475,192,508021,1,0,0:0:0:0:
36,192,508021,1,0,0:0:0:0:
36,192,508238,1,0,0:0:0:0:
109,192,508238,1,0,0:0:0:0:
256,192,508238,1,0,0:0:0:0:
329,192,508238,1,0,0:0:0:0:
475,192,508238,1,0,0:0:0:0:
329,192,508347,1,0,0:0:0:0:
402,192,508347,1,0,0:0:0:0:
182,192,508347,1,0,0:0:0:0:
109,192,508347,1,0,0:0:0:0:
402,192,508456,1,0,0:0:0:0:
475,192,508456,1,0,0:0:0:0:
256,192,508456,1,0,0:0:0:0:
182,192,508456,1,0,0:0:0:0:
36,192,508456,1,0,0:0:0:0:
475,192,508673,1,0,0:0:0:0:
402,192,508673,1,0,0:0:0:0:
329,192,508673,1,0,0:0:0:0:
182,192,508673,1,0,0:0:0:0:
36,192,508673,1,0,0:0:0:0:
256,192,508890,1,0,0:0:0:0:
329,192,508890,1,0,0:0:0:0:
109,192,508890,1,0,0:0:0:0:
36,192,508890,1,0,0:0:0:0:
475,192,508890,1,0,0:0:0:0:
475,192,509108,1,0,0:0:0:0:
402,192,509108,1,0,0:0:0:0:
256,192,509108,1,0,0:0:0:0:
182,192,509108,1,0,0:0:0:0:
36,192,509108,1,0,0:0:0:0:
402,192,509217,1,0,0:0:0:0:
329,192,509217,1,0,0:0:0:0:
182,192,509217,1,0,0:0:0:0:
109,192,509217,1,0,0:0:0:0:
36,192,509325,1,0,0:0:0:0:
109,192,509325,1,0,0:0:0:0:
256,192,509325,1,0,0:0:0:0:
329,192,509325,1,0,0:0:0:0:
475,192,509325,1,0,0:0:0:0:
475,192,509543,1,0,0:0:0:0:
329,192,509543,1,0,0:0:0:0:
109,192,509543,1,0,0:0:0:0:
182,192,509543,1,0,0:0:0:0:
402,192,509543,1,0,0:0:0:0:
256,192,509760,1,0,0:0:0:0:
329,192,509760,1,0,0:0:0:0:
402,192,509760,1,0,0:0:0:0:
109,192,509760,1,0,0:0:0:0:
36,192,509760,1,0,0:0:0:0:
329,192,509977,1,0,0:0:0:0:
402,192,509977,1,0,0:0:0:0:
475,192,509977,1,0,0:0:0:0:
256,192,509977,1,0,0:0:0:0:
36,192,509977,1,0,0:0:0:0:
329,192,510086,1,0,0:0:0:0:
402,192,510086,1,0,0:0:0:0:
475,192,510086,1,0,0:0:0:0:
109,192,510086,1,0,0:0:0:0:
36,192,510086,1,0,0:0:0:0:
402,192,510195,1,0,0:0:0:0:
475,192,510195,1,0,0:0:0:0:
109,192,510195,1,0,0:0:0:0:
36,192,510195,1,0,0:0:0:0:
182,192,510195,1,0,0:0:0:0:
402,192,510412,1,0,0:0:0:0:
475,192,510412,1,0,0:0:0:0:
329,192,510412,1,0,0:0:0:0:
256,192,510412,1,0,0:0:0:0:
182,192,510412,1,0,0:0:0:0:
109,192,510630,1,0,0:0:0:0:
36,192,510630,1,0,0:0:0:0:
182,192,510630,1,0,0:0:0:0:
402,192,510630,1,0,0:0:0:0:
475,192,510630,1,0,0:0:0:0:
109,192,510738,1,0,0:0:0:0:
36,192,510738,1,0,0:0:0:0:
402,192,510738,1,0,0:0:0:0:
329,192,510738,1,0,0:0:0:0:
36,192,510847,1,0,0:0:0:0:
329,192,510956,1,0,0:0:0:0:
256,192,510956,1,0,0:0:0:0:
182,192,510956,1,0,0:0:0:0:
182,192,511064,1,0,0:0:0:0:
256,192,511064,1,0,0:0:0:0:
329,192,511064,1,0,0:0:0:0:
402,192,511064,1,0,0:0:0:0:
109,192,511064,1,0,0:0:0:0:
109,192,511173,1,0,0:0:0:0:
182,192,511173,1,0,0:0:0:0:
256,192,511173,1,0,0:0:0:0:
329,192,511173,1,0,0:0:0:0:
402,192,511173,1,0,0:0:0:0:
475,192,511173,1,0,0:0:0:0:
36,192,511173,1,0,0:0:0:0:
36,192,511282,1,0,0:0:0:0:
109,192,511282,1,0,0:0:0:0:
256,192,511282,1,0,0:0:0:0:
402,192,511282,1,0,0:0:0:0:
475,192,511282,1,0,0:0:0:0:
329,192,511390,1,0,0:0:0:0:
402,192,511499,1,0,0:0:0:0:
36,192,511499,1,0,0:0:0:0:
475,192,511499,1,0,0:0:0:0:
182,192,511499,1,0,0:0:0:0:
329,192,511499,1,0,0:0:0:0:
256,192,511608,1,0,0:0:0:0:
109,192,511608,1,0,0:0:0:0:
36,192,511717,1,0,0:0:0:0:
182,192,511717,1,0,0:0:0:0:
329,192,511717,1,0,0:0:0:0:
402,192,511717,1,0,0:0:0:0:
475,192,511717,1,0,0:0:0:0:
256,192,511825,1,0,0:0:0:0:
402,192,511825,1,0,0:0:0:0:
109,192,511825,1,0,0:0:0:0:
36,192,511934,1,0,0:0:0:0:
109,192,511934,1,0,0:0:0:0:
182,192,511934,1,0,0:0:0:0:
329,192,511934,1,0,0:0:0:0:
475,192,511934,1,0,0:0:0:0:
256,192,512043,1,0,0:0:0:0:
402,192,512043,1,0,0:0:0:0:
182,192,512151,1,0,0:0:0:0:
109,192,512151,1,0,0:0:0:0:
36,192,512151,1,0,0:0:0:0:
329,192,512151,1,0,0:0:0:0:
475,192,512151,1,0,0:0:0:0:
256,192,512260,1,0,0:0:0:0:
402,192,512369,1,0,0:0:0:0:
475,192,512369,1,0,0:0:0:0:
182,192,512369,1,0,0:0:0:0:
109,192,512369,1,0,0:0:0:0:
36,192,512369,1,0,0:0:0:0:
329,192,512477,1,0,0:0:0:0:
182,192,512477,1,0,0:0:0:0:
36,192,512586,1,0,0:0:0:0:
109,192,512586,1,0,0:0:0:0:
256,192,512586,1,0,0:0:0:0:
402,192,512586,1,0,0:0:0:0:
475,192,512586,1,0,0:0:0:0:
329,192,512695,1,0,0:0:0:0:
182,192,512695,1,0,0:0:0:0:
329,192,512803,1,0,0:0:0:0:
402,192,512803,1,0,0:0:0:0:
475,192,512803,1,0,0:0:0:0:
256,192,512803,1,0,0:0:0:0:
109,192,512803,1,0,0:0:0:0:
182,192,512912,1,0,0:0:0:0:
36,192,512912,1,0,0:0:0:0:
475,192,513021,1,0,0:0:0:0:
402,192,513021,1,0,0:0:0:0:
329,192,513021,1,0,0:0:0:0:
256,192,513021,1,0,0:0:0:0:
109,192,513021,1,0,0:0:0:0:
36,192,513130,1,0,0:0:0:0:
36,192,513238,1,0,0:0:0:0:
109,192,513238,1,0,0:0:0:0:
256,192,513238,1,0,0:0:0:0:
182,192,513238,1,0,0:0:0:0:
402,192,513238,1,0,0:0:0:0:
329,192,513347,1,0,0:0:0:0:
475,192,513347,1,0,0:0:0:0:
182,192,513456,1,0,0:0:0:0:
109,192,513456,1,0,0:0:0:0:
36,192,513456,1,0,0:0:0:0:
329,192,513456,1,0,0:0:0:0:
475,192,513456,1,0,0:0:0:0:
182,192,513564,1,0,0:0:0:0:
36,192,513564,1,0,0:0:0:0:
256,192,513564,1,0,0:0:0:0:
402,192,513564,1,0,0:0:0:0:
109,192,513673,1,0,0:0:0:0:
329,192,513673,1,0,0:0:0:0:
475,192,513673,1,0,0:0:0:0:
256,192,513673,1,0,0:0:0:0:
182,192,513782,1,0,0:0:0:0:
402,192,513782,1,0,0:0:0:0:
36,192,513890,1,0,0:0:0:0:
109,192,513890,1,0,0:0:0:0:
256,192,513890,1,0,0:0:0:0:
329,192,513890,1,0,0:0:0:0:
475,192,513890,1,0,0:0:0:0:
182,192,513999,1,0,0:0:0:0:
256,192,513999,1,0,0:0:0:0:
182,192,514108,1,0,0:0:0:0:
109,192,514108,1,0,0:0:0:0:
402,192,514108,1,0,0:0:0:0:
475,192,514108,1,0,0:0:0:0:
329,192,514217,1,0,0:0:0:0:
402,192,514217,1,0,0:0:0:0:
256,192,514325,1,0,0:0:0:0:
36,192,514434,1,0,0:0:0:0:
109,192,514434,1,0,0:0:0:0:
182,192,514434,1,0,0:0:0:0:
329,192,514434,1,0,0:0:0:0:
402,192,514434,1,0,0:0:0:0:
475,192,514434,1,0,0:0:0:0:
475,192,514543,1,0,0:0:0:0:
402,192,514543,1,0,0:0:0:0:
329,192,514543,1,0,0:0:0:0:
182,192,514543,1,0,0:0:0:0:
109,192,514543,1,0,0:0:0:0:
36,192,514543,1,0,0:0:0:0:
36,192,514651,1,0,0:0:0:0:
109,192,514651,1,0,0:0:0:0:
182,192,514651,1,0,0:0:0:0:
329,192,514651,1,0,0:0:0:0:
402,192,514651,1,0,0:0:0:0:
475,192,514651,1,0,0:0:0:0:
256,192,514760,128,0,516499:0:0:0:0:
475,192,514760,1,0,0:0:0:0:
329,192,514760,1,0,0:0:0:0:
182,192,514760,1,0,0:0:0:0:
36,192,514760,1,0,0:0:0:0:
402,192,514760,1,0,0:0:0:0:
36,192,514977,1,0,0:0:0:0:
182,192,514977,1,0,0:0:0:0:
329,192,514977,1,0,0:0:0:0:
475,192,514977,1,0,0:0:0:0:
109,192,515086,1,0,0:0:0:0:
402,192,515086,1,0,0:0:0:0:
36,192,515195,1,0,0:0:0:0:
182,192,515195,1,0,0:0:0:0:
329,192,515195,1,0,0:0:0:0:
109,192,515303,1,0,0:0:0:0:
402,192,515303,1,0,0:0:0:0:
475,192,515303,1,0,0:0:0:0:
329,192,515412,1,0,0:0:0:0:
182,192,515412,1,0,0:0:0:0:
36,192,515412,1,0,0:0:0:0:
109,192,515630,1,0,0:0:0:0:
36,192,515630,1,0,0:0:0:0:
475,192,515630,1,0,0:0:0:0:
182,192,515630,1,0,0:0:0:0:
329,192,515630,1,0,0:0:0:0:
402,192,515847,1,0,0:0:0:0:
36,192,515847,1,0,0:0:0:0:
182,192,515847,1,0,0:0:0:0:
109,192,515956,1,0,0:0:0:0:
329,192,515956,1,0,0:0:0:0:
475,192,515956,1,0,0:0:0:0:
36,192,516064,1,0,0:0:0:0:
182,192,516064,1,0,0:0:0:0:
402,192,516064,1,0,0:0:0:0:
329,192,516173,1,0,0:0:0:0:
475,192,516173,1,0,0:0:0:0:
36,192,516173,1,0,0:0:0:0:
182,192,516173,1,0,0:0:0:0:
475,192,516282,1,0,0:0:0:0:
329,192,516282,1,0,0:0:0:0:
109,192,516282,1,0,0:0:0:0:
36,192,516499,5,0,0:0:0:0:
182,192,516499,1,0,0:0:0:0:
402,192,516499,1,0,0:0:0:0:
475,192,516499,1,0,0:0:0:0:
329,192,516499,1,0,0:0:0:0:
109,192,516499,1,0,0:0:0:0:
475,192,516644,1,0,0:0:0:0:
109,192,516644,1,0,0:0:0:0:
256,192,516644,1,0,0:0:0:0:
329,192,516644,1,0,0:0:0:0:
475,192,516789,1,0,0:0:0:0:
256,192,516789,1,0,0:0:0:0:
329,192,516789,1,0,0:0:0:0:
109,192,516789,1,0,0:0:0:0:
36,192,516934,1,0,0:0:0:0:
256,192,516934,1,0,0:0:0:0:
329,192,516934,1,0,0:0:0:0:
475,192,516934,1,0,0:0:0:0:
182,192,516934,1,0,0:0:0:0:
475,192,517079,1,0,0:0:0:0:
109,192,517079,1,0,0:0:0:0:
402,192,517079,1,0,0:0:0:0:
182,192,517079,1,0,0:0:0:0:
475,192,517224,1,0,0:0:0:0:
182,192,517224,1,0,0:0:0:0:
402,192,517224,1,0,0:0:0:0:
109,192,517224,1,0,0:0:0:0:
36,192,517369,1,0,0:0:0:0:
182,192,517369,1,0,0:0:0:0:
402,192,517369,1,0,0:0:0:0:
329,192,517369,1,0,0:0:0:0:
109,192,517514,1,0,0:0:0:0:
329,192,517514,1,0,0:0:0:0:
256,192,517514,1,0,0:0:0:0:
475,192,517514,1,0,0:0:0:0:
256,192,517659,1,0,0:0:0:0:
329,192,517659,1,0,0:0:0:0:
109,192,517659,1,0,0:0:0:0:
475,192,517659,1,0,0:0:0:0:
402,192,517803,128,0,518238:0:0:0:0:
182,192,517803,1,0,0:0:0:0:
36,192,517803,1,0,0:0:0:0:
475,192,517803,128,0,518238:0:0:0:0:
256,192,517948,1,0,0:0:0:0:
329,192,517948,1,0,0:0:0:0:
109,192,517948,1,0,0:0:0:0:
109,192,518093,1,0,0:0:0:0:
329,192,518093,1,0,0:0:0:0:
256,192,518093,1,0,0:0:0:0:
329,192,518238,1,0,0:0:0:0:
36,192,518238,1,0,0:0:0:0:
182,192,518238,1,0,0:0:0:0:
256,192,518238,1,0,0:0:0:0:
109,192,518238,1,0,0:0:0:0:
402,192,518383,1,0,0:0:0:0:
475,192,518383,1,0,0:0:0:0:
182,192,518383,1,0,0:0:0:0:
36,192,518528,1,0,0:0:0:0:
329,192,518528,1,0,0:0:0:0:
109,192,518528,1,0,0:0:0:0:
36,192,518673,1,0,0:0:0:0:
109,192,518673,1,0,0:0:0:0:
182,192,518673,1,0,0:0:0:0:
256,192,518818,128,0,519035:0:0:0:0:
329,192,518818,128,0,519035:0:0:0:0:
402,192,518818,128,0,519035:0:0:0:0:
475,192,518818,128,0,519035:0:0:0:0:
36,192,519108,1,0,0:0:0:0:
182,192,519108,1,0,0:0:0:0:
109,192,519108,1,0,0:0:0:0:
329,192,519253,1,0,0:0:0:0:
182,192,519253,1,0,0:0:0:0:
109,192,519253,1,0,0:0:0:0:
329,192,519398,1,0,0:0:0:0:
109,192,519398,1,0,0:0:0:0:
402,192,519398,1,0,0:0:0:0:
182,192,519398,1,0,0:0:0:0:
36,192,519543,1,0,0:0:0:0:
256,192,519543,1,0,0:0:0:0:
329,192,519543,1,0,0:0:0:0:
402,192,519543,1,0,0:0:0:0:
475,192,519543,1,0,0:0:0:0:
256,192,519688,1,0,0:0:0:0:
182,192,519688,1,0,0:0:0:0:
256,192,519832,1,0,0:0:0:0:
109,192,519832,1,0,0:0:0:0:
402,192,519977,128,0,520267:0:0:0:0:
475,192,519977,128,0,520267:0:0:0:0:
36,192,519977,128,0,520267:0:0:0:0:
329,192,519977,1,0,0:0:0:0:
256,192,520267,1,0,0:0:0:0:
329,192,520267,1,0,0:0:0:0:
182,192,520267,1,0,0:0:0:0:
109,192,520412,1,0,0:0:0:0:
36,192,520412,1,0,0:0:0:0:
402,192,520412,1,0,0:0:0:0:
109,192,520557,1,0,0:0:0:0:
475,192,520557,1,0,0:0:0:0:
256,192,520557,1,0,0:0:0:0:
329,192,520557,1,0,0:0:0:0:
256,192,520702,1,0,0:0:0:0:
402,192,520702,1,0,0:0:0:0:
182,192,520702,1,0,0:0:0:0:
36,192,520847,1,0,0:0:0:0:
329,192,520847,1,0,0:0:0:0:
36,192,520992,128,0,521209:0:0:0:0:
256,192,520992,128,0,521209:0:0:0:0:
109,192,520992,128,0,521209:0:0:0:0:
329,192,520992,128,0,521209:0:0:0:0:
182,192,521282,1,0,0:0:0:0:
109,192,521282,1,0,0:0:0:0:
475,192,521282,1,0,0:0:0:0:
402,192,521282,1,0,0:0:0:0:
329,192,521282,1,0,0:0:0:0:
256,192,521427,1,0,0:0:0:0:
402,192,521427,1,0,0:0:0:0:
256,192,521572,1,0,0:0:0:0:
36,192,521717,1,0,0:0:0:0:
182,192,521717,1,0,0:0:0:0:
402,192,521717,1,0,0:0:0:0:
329,192,521717,1,0,0:0:0:0:
256,192,521861,1,0,0:0:0:0:
475,192,521861,1,0,0:0:0:0:
256,192,522006,1,0,0:0:0:0:
475,192,522006,1,0,0:0:0:0:
109,192,522151,1,0,0:0:0:0:
36,192,522151,1,0,0:0:0:0:
182,192,522151,1,0,0:0:0:0:
256,192,522296,1,0,0:0:0:0:
475,192,522296,1,0,0:0:0:0:
329,192,522296,1,0,0:0:0:0:
402,192,522296,1,0,0:0:0:0:
109,192,522441,1,0,0:0:0:0:
182,192,522441,1,0,0:0:0:0:
256,192,522514,1,0,0:0:0:0:
36,192,522586,1,0,0:0:0:0:
475,192,522586,1,0,0:0:0:0:
402,192,522586,1,0,0:0:0:0:
329,192,522586,1,0,0:0:0:0:
256,192,522731,1,0,0:0:0:0:
109,192,522731,1,0,0:0:0:0:
256,192,522876,1,0,0:0:0:0:
109,192,522876,1,0,0:0:0:0:
182,192,523021,1,0,0:0:0:0:
36,192,523021,1,0,0:0:0:0:
475,192,523021,1,0,0:0:0:0:
329,192,523021,1,0,0:0:0:0:
402,192,523021,1,0,0:0:0:0:
109,192,523166,128,0,523383:0:0:0:0:
256,192,523166,128,0,523347:0:0:0:0:
329,192,523166,128,0,523311:0:0:0:0:
36,192,523456,1,0,0:0:0:0:
329,192,523456,1,0,0:0:0:0:
402,192,523456,1,0,0:0:0:0:
475,192,523456,1,0,0:0:0:0:
256,192,523601,128,0,523746:0:0:0:0:
182,192,523601,128,0,523782:0:0:0:0:
109,192,523601,128,0,523818:0:0:0:0:
36,192,523890,1,0,0:0:0:0:
256,192,523890,1,0,0:0:0:0:
475,192,523890,1,0,0:0:0:0:
329,192,524035,128,0,524253:0:0:0:0:
402,192,524035,128,0,524253:0:0:0:0:
182,192,524035,128,0,524253:0:0:0:0:
109,192,524035,128,0,524253:0:0:0:0:
256,192,524253,1,0,0:0:0:0:
36,192,524325,1,0,0:0:0:0:
256,192,524325,1,0,0:0:0:0:
182,192,524325,1,0,0:0:0:0:
109,192,524470,1,0,0:0:0:0:
329,192,524470,1,0,0:0:0:0:
402,192,524470,1,0,0:0:0:0:
475,192,524470,1,0,0:0:0:0:
182,192,524615,1,0,0:0:0:0:
329,192,524615,1,0,0:0:0:0:
256,192,524615,1,0,0:0:0:0:
36,192,524760,1,0,0:0:0:0:
109,192,524760,1,0,0:0:0:0:
475,192,524760,1,0,0:0:0:0:
402,192,524760,1,0,0:0:0:0:
329,192,524760,1,0,0:0:0:0:
402,192,524905,128,0,525159:0:0:0:0:
475,192,524905,128,0,525122:0:0:0:0:
109,192,524905,128,0,525159:0:0:0:0:
36,192,524905,128,0,525122:0:0:0:0:
36,192,525195,1,0,0:0:0:0:
475,192,525195,1,0,0:0:0:0:
402,192,525195,1,0,0:0:0:0:
329,192,525195,1,0,0:0:0:0:
256,192,525340,1,0,0:0:0:0:
402,192,525340,1,0,0:0:0:0:
329,192,525340,1,0,0:0:0:0:
182,192,525485,1,0,0:0:0:0:
329,192,525485,1,0,0:0:0:0:
256,192,525485,1,0,0:0:0:0:
36,192,525630,1,0,0:0:0:0:
109,192,525630,1,0,0:0:0:0:
475,192,525630,1,0,0:0:0:0:
182,192,525775,1,0,0:0:0:0:
329,192,525775,128,0,525992:0:0:0:0:
402,192,525775,128,0,525992:0:0:0:0:
475,192,525775,128,0,525992:0:0:0:0:
182,192,525919,1,0,0:0:0:0:
36,192,526064,1,0,0:0:0:0:
329,192,526064,1,0,0:0:0:0:
402,192,526064,1,0,0:0:0:0:
182,192,526209,1,0,0:0:0:0:
329,192,526209,1,0,0:0:0:0:
402,192,526209,1,0,0:0:0:0:
182,192,526354,1,0,0:0:0:0:
36,192,526354,1,0,0:0:0:0:
402,192,526354,1,0,0:0:0:0:
329,192,526354,1,0,0:0:0:0:
256,192,526499,1,0,0:0:0:0:
109,192,526499,1,0,0:0:0:0:
475,192,526499,1,0,0:0:0:0:
329,192,526499,1,0,0:0:0:0:
402,192,526499,1,0,0:0:0:0:
36,192,526644,1,0,0:0:0:0:
256,192,526644,1,0,0:0:0:0:
182,192,526644,1,0,0:0:0:0:
36,192,526789,1,0,0:0:0:0:
402,192,526789,1,0,0:0:0:0:
182,192,526789,1,0,0:0:0:0:
329,192,526934,128,0,527224:0:0:0:0:
475,192,526934,128,0,527224:0:0:0:0:
256,192,526934,128,0,527224:0:0:0:0:
109,192,526934,128,0,527224:0:0:0:0:
182,192,527224,1,0,0:0:0:0:
402,192,527224,1,0,0:0:0:0:
36,192,527224,1,0,0:0:0:0:
182,192,527369,1,0,0:0:0:0:
109,192,527369,1,0,0:0:0:0:
329,192,527369,1,0,0:0:0:0:
36,192,527514,1,0,0:0:0:0:
109,192,527514,1,0,0:0:0:0:
402,192,527514,1,0,0:0:0:0:
475,192,527514,1,0,0:0:0:0:
256,192,527586,1,0,0:0:0:0:
182,192,527659,1,0,0:0:0:0:
402,192,527659,1,0,0:0:0:0:
329,192,527659,1,0,0:0:0:0:
36,192,527803,1,0,0:0:0:0:
475,192,527803,1,0,0:0:0:0:
402,192,527948,128,0,528166:0:0:0:0:
256,192,527948,128,0,528166:0:0:0:0:
182,192,527948,128,0,528166:0:0:0:0:
109,192,527948,128,0,528166:0:0:0:0:
182,192,528238,1,0,0:0:0:0:
36,192,528238,1,0,0:0:0:0:
475,192,528238,1,0,0:0:0:0:
402,192,528238,1,0,0:0:0:0:
329,192,528238,1,0,0:0:0:0:
256,192,528383,1,0,0:0:0:0:
182,192,528383,1,0,0:0:0:0:
329,192,528383,1,0,0:0:0:0:
256,192,528528,1,0,0:0:0:0:
36,192,528673,1,0,0:0:0:0:
109,192,528673,1,0,0:0:0:0:
402,192,528673,1,0,0:0:0:0:
475,192,528673,1,0,0:0:0:0:
256,192,528818,1,0,0:0:0:0:
182,192,528818,1,0,0:0:0:0:
329,192,528818,1,0,0:0:0:0:
256,192,528963,1,0,0:0:0:0:
329,192,528963,1,0,0:0:0:0:
182,192,528963,1,0,0:0:0:0:
36,192,529108,1,0,0:0:0:0:
402,192,529108,1,0,0:0:0:0:
475,192,529108,1,0,0:0:0:0:
109,192,529253,1,0,0:0:0:0:
256,192,529253,1,0,0:0:0:0:
402,192,529253,1,0,0:0:0:0:
475,192,529253,1,0,0:0:0:0:
182,192,529398,1,0,0:0:0:0:
329,192,529398,1,0,0:0:0:0:
256,192,529470,1,0,0:0:0:0:
36,192,529543,1,0,0:0:0:0:
329,192,529543,1,0,0:0:0:0:
475,192,529543,1,0,0:0:0:0:
182,192,529543,1,0,0:0:0:0:
256,192,529688,1,0,0:0:0:0:
109,192,529688,1,0,0:0:0:0:
36,192,529688,1,0,0:0:0:0:
36,192,529832,1,0,0:0:0:0:
109,192,529832,1,0,0:0:0:0:
256,192,529832,1,0,0:0:0:0:
109,192,529977,1,0,0:0:0:0:
182,192,529977,1,0,0:0:0:0:
475,192,529977,1,0,0:0:0:0:
402,192,529977,1,0,0:0:0:0:
329,192,529977,1,0,0:0:0:0:
402,192,530122,1,0,0:0:0:0:
329,192,530122,1,0,0:0:0:0:
256,192,530122,1,0,0:0:0:0:
36,192,530159,1,0,0:0:0:0:
109,192,530195,1,0,0:0:0:0:
182,192,530231,1,0,0:0:0:0:
256,192,530267,1,0,0:0:0:0:
36,192,530412,1,0,0:0:0:0:
329,192,530412,1,0,0:0:0:0:
475,192,530412,1,0,0:0:0:0:
402,192,530412,1,0,0:0:0:0:
182,192,530412,1,0,0:0:0:0:
256,192,530485,1,0,0:0:0:0:
109,192,530557,1,0,0:0:0:0:
329,192,530557,1,0,0:0:0:0:
182,192,530557,1,0,0:0:0:0:
36,192,530557,1,0,0:0:0:0:
402,192,530630,1,0,0:0:0:0:
329,192,530702,1,0,0:0:0:0:
475,192,530702,1,0,0:0:0:0:
36,192,530847,1,0,0:0:0:0:
109,192,530847,1,0,0:0:0:0:
256,192,530847,1,0,0:0:0:0:
182,192,530992,1,0,0:0:0:0:
329,192,530992,128,0,531209:0:0:0:0:
402,192,530992,128,0,531209:0:0:0:0:
475,192,530992,128,0,531209:0:0:0:0:
109,192,531209,1,0,0:0:0:0:
182,192,531209,1,0,0:0:0:0:
256,192,531282,1,0,0:0:0:0:
329,192,531282,1,0,0:0:0:0:
402,192,531282,1,0,0:0:0:0:
475,192,531427,1,0,0:0:0:0:
36,192,531427,1,0,0:0:0:0:
109,192,531427,1,0,0:0:0:0:
182,192,531427,1,0,0:0:0:0:
182,192,531572,1,0,0:0:0:0:
402,192,531572,1,0,0:0:0:0:
329,192,531572,1,0,0:0:0:0:
109,192,531717,1,0,0:0:0:0:
36,192,531717,1,0,0:0:0:0:
475,192,531717,1,0,0:0:0:0:
402,192,531717,1,0,0:0:0:0:
329,192,531717,1,0,0:0:0:0:
256,192,531717,1,0,0:0:0:0:
256,192,531861,1,0,0:0:0:0:
475,192,531861,1,0,0:0:0:0:
109,192,531861,1,0,0:0:0:0:
402,192,531861,1,0,0:0:0:0:
36,192,532006,1,0,0:0:0:0:
329,192,532006,1,0,0:0:0:0:
182,192,532006,1,0,0:0:0:0:
36,192,532151,1,0,0:0:0:0:
109,192,532151,1,0,0:0:0:0:
475,192,532151,1,0,0:0:0:0:
402,192,532151,1,0,0:0:0:0:
329,192,532151,1,0,0:0:0:0:
256,192,532151,1,0,0:0:0:0:
182,192,532151,1,0,0:0:0:0:
256,192,532296,1,0,0:0:0:0:
109,192,532296,1,0,0:0:0:0:
402,192,532296,1,0,0:0:0:0:
36,192,532441,1,0,0:0:0:0:
182,192,532441,1,0,0:0:0:0:
329,192,532441,1,0,0:0:0:0:
402,192,532586,1,0,0:0:0:0:
329,192,532586,1,0,0:0:0:0:
475,192,532586,1,0,0:0:0:0:
256,192,532731,1,0,0:0:0:0:
402,192,532731,1,0,0:0:0:0:
475,192,532731,1,0,0:0:0:0:
329,192,532731,1,0,0:0:0:0:
109,192,532731,1,0,0:0:0:0:
256,192,532876,1,0,0:0:0:0:
109,192,532876,1,0,0:0:0:0:
36,192,533021,1,0,0:0:0:0:
329,192,533021,1,0,0:0:0:0:
402,192,533021,1,0,0:0:0:0:
182,192,533021,1,0,0:0:0:0:
36,192,533166,1,0,0:0:0:0:
329,192,533166,1,0,0:0:0:0:
402,192,533166,1,0,0:0:0:0:
182,192,533166,1,0,0:0:0:0:
182,192,533311,1,0,0:0:0:0:
402,192,533311,1,0,0:0:0:0:
475,192,533311,1,0,0:0:0:0:
329,192,533311,1,0,0:0:0:0:
36,192,533311,1,0,0:0:0:0:
109,192,533456,1,0,0:0:0:0:
36,192,533456,1,0,0:0:0:0:
475,192,533456,1,0,0:0:0:0:
329,192,533456,1,0,0:0:0:0:
182,192,533456,1,0,0:0:0:0:
256,192,533601,1,0,0:0:0:0:
402,192,533601,1,0,0:0:0:0:
475,192,533601,1,0,0:0:0:0:
109,192,533601,1,0,0:0:0:0:
256,192,533746,1,0,0:0:0:0:
402,192,533746,1,0,0:0:0:0:
109,192,533746,1,0,0:0:0:0:
36,192,533890,1,0,0:0:0:0:
329,192,533890,1,0,0:0:0:0:
402,192,533890,1,0,0:0:0:0:
475,192,533890,1,0,0:0:0:0:
182,192,533890,1,0,0:0:0:0:
256,192,534035,1,0,0:0:0:0:
109,192,534035,1,0,0:0:0:0:
256,192,534180,1,0,0:0:0:0:
329,192,534180,1,0,0:0:0:0:
402,192,534180,1,0,0:0:0:0:
109,192,534180,1,0,0:0:0:0:
36,192,534325,1,0,0:0:0:0:
109,192,534325,1,0,0:0:0:0:
329,192,534325,1,0,0:0:0:0:
182,192,534325,1,0,0:0:0:0:
256,192,534470,1,0,0:0:0:0:
402,192,534470,1,0,0:0:0:0:
329,192,534470,1,0,0:0:0:0:
475,192,534470,1,0,0:0:0:0:
182,192,534470,1,0,0:0:0:0:
256,192,534615,1,0,0:0:0:0:
402,192,534615,1,0,0:0:0:0:
109,192,534615,1,0,0:0:0:0:
36,192,534760,1,0,0:0:0:0:
329,192,534760,1,0,0:0:0:0:
182,192,534760,1,0,0:0:0:0:
329,192,534905,128,0,535122:0:0:0:0:
256,192,534905,128,0,535122:0:0:0:0:
182,192,534905,128,0,535122:0:0:0:0:
109,192,534905,128,0,535122:0:0:0:0:
36,192,534905,128,0,535122:0:0:0:0:
36,192,535195,1,0,0:0:0:0:
109,192,535195,1,0,0:0:0:0:
329,192,535195,1,0,0:0:0:0:
402,192,535195,1,0,0:0:0:0:
475,192,535195,1,0,0:0:0:0:
182,192,535195,1,0,0:0:0:0:
256,192,535340,1,0,0:0:0:0:
402,192,535340,1,0,0:0:0:0:
109,192,535340,1,0,0:0:0:0:
402,192,535485,1,0,0:0:0:0:
256,192,535485,1,0,0:0:0:0:
36,192,535630,1,0,0:0:0:0:
329,192,535630,1,0,0:0:0:0:
402,192,535630,1,0,0:0:0:0:
475,192,535630,1,0,0:0:0:0:
182,192,535630,1,0,0:0:0:0:
36,192,535775,1,0,0:0:0:0:
256,192,535775,1,0,0:0:0:0:
182,192,535775,1,0,0:0:0:0:
109,192,535919,1,0,0:0:0:0:
182,192,535919,1,0,0:0:0:0:
36,192,535919,1,0,0:0:0:0:
402,192,536064,1,0,0:0:0:0:
256,192,536064,1,0,0:0:0:0:
475,192,536064,1,0,0:0:0:0:
329,192,536064,1,0,0:0:0:0:
109,192,536209,1,0,0:0:0:0:
402,192,536209,1,0,0:0:0:0:
329,192,536209,1,0,0:0:0:0:
475,192,536209,1,0,0:0:0:0:
182,192,536209,1,0,0:0:0:0:
182,192,536354,1,0,0:0:0:0:
475,192,536354,1,0,0:0:0:0:
109,192,536354,1,0,0:0:0:0:
402,192,536354,1,0,0:0:0:0:
329,192,536427,1,0,0:0:0:0:
256,192,536427,1,0,0:0:0:0:
36,192,536499,1,0,0:0:0:0:
182,192,536499,1,0,0:0:0:0:
402,192,536499,1,0,0:0:0:0:
475,192,536499,1,0,0:0:0:0:
109,192,536499,1,0,0:0:0:0:
256,192,536644,1,0,0:0:0:0:
329,192,536644,1,0,0:0:0:0:
36,192,536644,1,0,0:0:0:0:
256,192,536789,1,0,0:0:0:0:
182,192,536789,1,0,0:0:0:0:
36,192,536789,1,0,0:0:0:0:
109,192,536934,1,0,0:0:0:0:
36,192,536934,1,0,0:0:0:0:
402,192,536934,1,0,0:0:0:0:
329,192,536934,1,0,0:0:0:0:
475,192,536934,1,0,0:0:0:0:
182,192,536934,1,0,0:0:0:0:
256,192,537079,1,0,0:0:0:0:
329,192,537079,1,0,0:0:0:0:
402,192,537079,1,0,0:0:0:0:
182,192,537079,1,0,0:0:0:0:
329,192,537224,1,0,0:0:0:0:
256,192,537224,1,0,0:0:0:0:
36,192,537369,1,0,0:0:0:0:
475,192,537369,1,0,0:0:0:0:
402,192,537369,1,0,0:0:0:0:
329,192,537369,1,0,0:0:0:0:
182,192,537369,1,0,0:0:0:0:
256,192,537514,1,0,0:0:0:0:
402,192,537514,1,0,0:0:0:0:
182,192,537514,1,0,0:0:0:0:
109,192,537514,1,0,0:0:0:0:
329,192,537659,1,0,0:0:0:0:
182,192,537659,1,0,0:0:0:0:
36,192,537803,1,0,0:0:0:0:
256,192,537803,1,0,0:0:0:0:
402,192,537803,1,0,0:0:0:0:
475,192,537803,1,0,0:0:0:0:
182,192,537948,1,0,0:0:0:0:
329,192,537948,1,0,0:0:0:0:
402,192,537948,1,0,0:0:0:0:
475,192,537948,1,0,0:0:0:0:
109,192,537948,1,0,0:0:0:0:
256,192,538093,1,0,0:0:0:0:
329,192,538166,1,0,0:0:0:0:
36,192,538238,1,0,0:0:0:0:
109,192,538238,1,0,0:0:0:0:
402,192,538238,1,0,0:0:0:0:
182,192,538238,1,0,0:0:0:0:
256,192,538383,1,0,0:0:0:0:
475,192,538383,1,0,0:0:0:0:
402,192,538383,1,0,0:0:0:0:
329,192,538383,1,0,0:0:0:0:
182,192,538383,1,0,0:0:0:0:
256,192,538528,1,0,0:0:0:0:
402,192,538528,1,0,0:0:0:0:
329,192,538528,1,0,0:0:0:0:
182,192,538528,1,0,0:0:0:0:
109,192,538528,1,0,0:0:0:0:
36,192,538673,1,0,0:0:0:0:
109,192,538673,1,0,0:0:0:0:
182,192,538673,1,0,0:0:0:0:
329,192,538673,1,0,0:0:0:0:
475,192,538673,1,0,0:0:0:0:
256,192,538818,1,0,0:0:0:0:
402,192,538818,1,0,0:0:0:0:
329,192,538818,1,0,0:0:0:0:
475,192,538818,1,0,0:0:0:0:
109,192,538818,1,0,0:0:0:0:
182,192,538963,1,0,0:0:0:0:
36,192,538963,1,0,0:0:0:0:
109,192,539108,1,0,0:0:0:0:
475,192,539108,1,0,0:0:0:0:
402,192,539108,1,0,0:0:0:0:
182,192,539108,1,0,0:0:0:0:
256,192,539108,1,0,0:0:0:0:
182,192,539253,1,0,0:0:0:0:
402,192,539253,1,0,0:0:0:0:
329,192,539253,1,0,0:0:0:0:
109,192,539253,1,0,0:0:0:0:
182,192,539398,1,0,0:0:0:0:
109,192,539398,1,0,0:0:0:0:
256,192,539543,1,0,0:0:0:0:
36,192,539543,1,0,0:0:0:0:
475,192,539543,1,0,0:0:0:0:
182,192,539688,1,0,0:0:0:0:
475,192,539688,1,0,0:0:0:0:
402,192,539688,1,0,0:0:0:0:
329,192,539688,1,0,0:0:0:0:
36,192,539688,1,0,0:0:0:0:
329,192,539832,1,0,0:0:0:0:
182,192,539832,1,0,0:0:0:0:
36,192,539977,1,0,0:0:0:0:
109,192,539977,1,0,0:0:0:0:
256,192,539977,1,0,0:0:0:0:
402,192,539977,1,0,0:0:0:0:
256,192,540122,1,0,0:0:0:0:
109,192,540122,1,0,0:0:0:0:
402,192,540122,1,0,0:0:0:0:
475,192,540122,1,0,0:0:0:0:
182,192,540267,1,0,0:0:0:0:
402,192,540267,1,0,0:0:0:0:
329,192,540267,1,0,0:0:0:0:
475,192,540267,1,0,0:0:0:0:
36,192,540267,1,0,0:0:0:0:
109,192,540412,1,0,0:0:0:0:
36,192,540412,1,0,0:0:0:0:
475,192,540412,1,0,0:0:0:0:
402,192,540412,1,0,0:0:0:0:
329,192,540412,1,0,0:0:0:0:
256,192,540412,1,0,0:0:0:0:
256,192,540557,1,0,0:0:0:0:
402,192,540557,1,0,0:0:0:0:
329,192,540557,1,0,0:0:0:0:
182,192,540557,1,0,0:0:0:0:
182,192,540702,1,0,0:0:0:0:
109,192,540702,1,0,0:0:0:0:
329,192,540702,1,0,0:0:0:0:
36,192,540847,1,0,0:0:0:0:
475,192,540847,1,0,0:0:0:0:
402,192,540847,1,0,0:0:0:0:
256,192,540847,1,0,0:0:0:0:
109,192,540847,1,0,0:0:0:0:
182,192,540992,1,0,0:0:0:0:
475,192,540992,1,0,0:0:0:0:
329,192,540992,1,0,0:0:0:0:
36,192,541137,1,0,0:0:0:0:
329,192,541137,1,0,0:0:0:0:
182,192,541137,1,0,0:0:0:0:
256,192,541282,1,0,0:0:0:0:
36,192,541282,1,0,0:0:0:0:
402,192,541282,1,0,0:0:0:0:
182,192,541427,1,0,0:0:0:0:
475,192,541427,1,0,0:0:0:0:
402,192,541427,1,0,0:0:0:0:
329,192,541427,1,0,0:0:0:0:
109,192,541427,1,0,0:0:0:0:
109,192,541572,1,0,0:0:0:0:
402,192,541572,1,0,0:0:0:0:
329,192,541572,1,0,0:0:0:0:
36,192,541572,1,0,0:0:0:0:
36,192,541717,1,0,0:0:0:0:
475,192,541717,1,0,0:0:0:0:
256,192,541717,1,0,0:0:0:0:
182,192,541717,1,0,0:0:0:0:
256,192,541861,1,0,0:0:0:0:
402,192,541861,1,0,0:0:0:0:
329,192,541861,1,0,0:0:0:0:
109,192,541861,1,0,0:0:0:0:
182,192,541861,1,0,0:0:0:0:
256,192,542006,1,0,0:0:0:0:
36,192,542151,1,0,0:0:0:0:
109,192,542151,1,0,0:0:0:0:
329,192,542151,1,0,0:0:0:0:
402,192,542151,1,0,0:0:0:0:
475,192,542151,1,0,0:0:0:0:
182,192,542151,1,0,0:0:0:0:
182,192,542296,1,0,0:0:0:0:
475,192,542296,1,0,0:0:0:0:
329,192,542296,1,0,0:0:0:0:
36,192,542296,1,0,0:0:0:0:
402,192,542441,1,0,0:0:0:0:
109,192,542441,1,0,0:0:0:0:
36,192,542586,1,0,0:0:0:0:
475,192,542586,1,0,0:0:0:0:
329,192,542586,1,0,0:0:0:0:
256,192,542586,1,0,0:0:0:0:
182,192,542586,1,0,0:0:0:0:
182,192,542731,1,0,0:0:0:0:
256,192,542731,1,0,0:0:0:0:
402,192,542731,1,0,0:0:0:0:
109,192,542731,1,0,0:0:0:0:
109,192,542876,1,0,0:0:0:0:
36,192,542876,1,0,0:0:0:0:
182,192,542876,1,0,0:0:0:0:
329,192,542876,1,0,0:0:0:0:
36,192,543021,1,0,0:0:0:0:
329,192,543021,1,0,0:0:0:0:
475,192,543021,1,0,0:0:0:0:
402,192,543021,1,0,0:0:0:0:
256,192,543166,1,0,0:0:0:0:
402,192,543166,1,0,0:0:0:0:
109,192,543166,1,0,0:0:0:0:
475,192,543166,1,0,0:0:0:0:
182,192,543166,1,0,0:0:0:0:
402,192,543311,1,0,0:0:0:0:
36,192,543311,1,0,0:0:0:0:
475,192,543311,1,0,0:0:0:0:
109,192,543311,1,0,0:0:0:0:
182,192,543383,1,0,0:0:0:0:
256,192,543383,1,0,0:0:0:0:
36,192,543456,1,0,0:0:0:0:
475,192,543456,1,0,0:0:0:0:
402,192,543456,1,0,0:0:0:0:
109,192,543456,1,0,0:0:0:0:
329,192,543456,1,0,0:0:0:0:
256,192,543601,1,0,0:0:0:0:
36,192,543601,1,0,0:0:0:0:
329,192,543601,1,0,0:0:0:0:
182,192,543601,1,0,0:0:0:0:
256,192,543746,1,0,0:0:0:0:
329,192,543746,1,0,0:0:0:0:
36,192,543746,1,0,0:0:0:0:
182,192,543746,1,0,0:0:0:0:
36,192,543890,1,0,0:0:0:0:
109,192,543890,1,0,0:0:0:0:
475,192,543890,1,0,0:0:0:0:
402,192,543890,1,0,0:0:0:0:
329,192,543890,1,0,0:0:0:0:
182,192,543890,1,0,0:0:0:0:
256,192,544035,1,0,0:0:0:0:
475,192,544035,1,0,0:0:0:0:
329,192,544035,1,0,0:0:0:0:
182,192,544035,1,0,0:0:0:0:
402,192,544180,1,0,0:0:0:0:
109,192,544180,1,0,0:0:0:0:
36,192,544325,1,0,0:0:0:0:
475,192,544325,1,0,0:0:0:0:
256,192,544325,1,0,0:0:0:0:
329,192,544325,1,0,0:0:0:0:
182,192,544325,1,0,0:0:0:0:
182,192,544470,1,0,0:0:0:0:
329,192,544470,1,0,0:0:0:0:
402,192,544470,1,0,0:0:0:0:
182,192,544615,1,0,0:0:0:0:
329,192,544615,1,0,0:0:0:0:
109,192,544615,1,0,0:0:0:0:
109,192,544760,1,0,0:0:0:0:
36,192,544760,1,0,0:0:0:0:
475,192,544760,1,0,0:0:0:0:
402,192,544760,1,0,0:0:0:0:
256,192,544760,1,0,0:0:0:0:
475,192,544905,1,0,0:0:0:0:
329,192,544905,1,0,0:0:0:0:
36,192,544905,1,0,0:0:0:0:
182,192,544905,1,0,0:0:0:0:
402,192,545050,1,0,0:0:0:0:
109,192,545050,1,0,0:0:0:0:
256,192,545122,1,0,0:0:0:0:
36,192,545195,1,0,0:0:0:0:
402,192,545195,1,0,0:0:0:0:
109,192,545195,1,0,0:0:0:0:
475,192,545195,1,0,0:0:0:0:
256,192,545340,1,0,0:0:0:0:
329,192,545340,1,0,0:0:0:0:
475,192,545340,1,0,0:0:0:0:
182,192,545340,1,0,0:0:0:0:
256,192,545485,1,0,0:0:0:0:
329,192,545485,1,0,0:0:0:0:
36,192,545485,1,0,0:0:0:0:
182,192,545485,1,0,0:0:0:0:
109,192,545630,1,0,0:0:0:0:
36,192,545630,1,0,0:0:0:0:
475,192,545630,1,0,0:0:0:0:
402,192,545630,1,0,0:0:0:0:
329,192,545630,1,0,0:0:0:0:
182,192,545630,1,0,0:0:0:0:
182,192,545775,1,0,0:0:0:0:
329,192,545775,1,0,0:0:0:0:
256,192,545775,1,0,0:0:0:0:
109,192,545775,1,0,0:0:0:0:
402,192,545775,1,0,0:0:0:0:
182,192,545919,1,0,0:0:0:0:
402,192,545919,1,0,0:0:0:0:
329,192,545919,1,0,0:0:0:0:
109,192,545919,1,0,0:0:0:0:
36,192,546064,1,0,0:0:0:0:
256,192,546064,1,0,0:0:0:0:
475,192,546064,1,0,0:0:0:0:
402,192,546064,1,0,0:0:0:0:
109,192,546064,1,0,0:0:0:0:
329,192,546209,1,0,0:0:0:0:
329,192,546354,1,0,0:0:0:0:
109,192,546499,1,0,0:0:0:0:
36,192,546499,1,0,0:0:0:0:
402,192,546644,128,0,546861:0:0:0:0:
475,192,546644,128,0,546861:0:0:0:0:
329,192,546934,1,0,0:0:0:0:
329,192,547079,1,0,0:0:0:0:
329,192,547224,1,0,0:0:0:0:
402,192,547224,1,0,0:0:0:0:
109,192,547369,1,0,0:0:0:0:
36,192,547369,1,0,0:0:0:0:
402,192,547369,128,0,547514:0:0:0:0:
475,192,547369,128,0,547514:0:0:0:0:
329,192,547514,1,0,0:0:0:0:
329,192,547659,1,0,0:0:0:0:
402,192,547803,128,0,548093:0:0:0:0:
256,192,547803,128,0,548093:0:0:0:0:
329,192,548093,1,0,0:0:0:0:
109,192,548238,1,0,0:0:0:0:
36,192,548238,1,0,0:0:0:0:
329,192,548238,1,0,0:0:0:0:
402,192,548383,1,0,0:0:0:0:
256,192,548383,1,0,0:0:0:0:
329,192,548528,1,0,0:0:0:0:
182,192,548673,1,0,0:0:0:0:
182,192,548818,1,0,0:0:0:0:
329,192,548818,128,0,549035:0:0:0:0:
109,192,549108,1,0,0:0:0:0:
36,192,549108,1,0,0:0:0:0:
329,192,549108,128,0,549253:0:0:0:0:
475,192,549108,128,0,549361:0:0:0:0:
402,192,549543,128,0,549688:0:0:0:0:
329,192,549688,1,0,0:0:0:0:
329,192,549832,1,0,0:0:0:0:
36,192,549977,1,0,0:0:0:0:
109,192,549977,1,0,0:0:0:0:
256,192,549977,1,0,0:0:0:0:
402,192,550122,1,0,0:0:0:0:
402,192,550267,1,0,0:0:0:0:
402,192,550340,1,0,0:0:0:0:
402,192,550412,128,0,550557:0:0:0:0:
256,192,550557,1,0,0:0:0:0:
256,192,550702,1,0,0:0:0:0:
109,192,550847,1,0,0:0:0:0:
36,192,550847,1,0,0:0:0:0:
402,192,550847,128,0,551137:0:0:0:0:
256,192,550992,128,0,551137:0:0:0:0:
402,192,551282,128,0,551572:0:0:0:0:
256,192,551427,128,0,551572:0:0:0:0:
109,192,551717,1,0,0:0:0:0:
36,192,551717,1,0,0:0:0:0:
256,192,551717,128,0,552079:0:0:0:0:
402,192,551861,128,0,552079:0:0:0:0:
329,192,552079,1,0,0:0:0:0:
475,192,552151,128,0,552296:0:0:0:0:
256,192,552296,1,0,0:0:0:0:
402,192,552441,1,0,0:0:0:0:
109,192,552586,1,0,0:0:0:0:
36,192,552586,1,0,0:0:0:0:
182,192,552586,1,0,0:0:0:0:
329,192,552586,128,0,552948:0:0:0:0:
475,192,552731,128,0,552948:0:0:0:0:
256,192,553021,128,0,556499:0:0:0:0:
402,192,553456,1,0,0:0:0:0:
475,192,553456,1,0,0:0:0:0:
402,192,554325,1,0,0:0:0:0:
475,192,554325,1,0,0:0:0:0:
182,192,554760,128,0,558238:0:0:0:0:
402,192,555195,1,0,0:0:0:0:
475,192,555195,1,0,0:0:0:0:
402,192,556064,1,0,0:0:0:0:
475,192,556064,1,0,0:0:0:0:
36,192,556499,128,0,559108:0:0:0:0:
402,192,556934,1,0,0:0:0:0:
475,192,556934,1,0,0:0:0:0:
402,192,557803,1,0,0:0:0:0:
475,192,557803,1,0,0:0:0:0:
109,192,558238,128,0,559977:0:0:0:0:
475,192,558673,1,0,0:0:0:0:
402,192,559108,128,0,559977:0:0:0:0:
329,192,559108,1,0,0:0:0:0:
256,192,559253,1,0,0:0:0:0:
182,192,559398,1,0,0:0:0:0:
329,192,559398,1,0,0:0:0:0:
36,192,559543,1,0,0:0:0:0:
475,192,559543,1,0,0:0:0:0:
329,192,559688,1,0,0:0:0:0:
182,192,559832,1,0,0:0:0:0:
36,192,559977,1,0,0:0:0:0:
475,192,559977,1,0,0:0:0:0:
256,192,559977,1,0,0:0:0:0:
402,192,560122,1,0,0:0:0:0:
109,192,560267,1,0,0:0:0:0:
109,192,560412,1,0,0:0:0:0:
475,192,560557,1,0,0:0:0:0:
329,192,560557,1,0,0:0:0:0:
402,192,560847,1,0,0:0:0:0:
256,192,560847,1,0,0:0:0:0:
182,192,560992,1,0,0:0:0:0:
109,192,561137,1,0,0:0:0:0:
256,192,561137,1,0,0:0:0:0:
329,192,561282,1,0,0:0:0:0:
475,192,561282,1,0,0:0:0:0:
182,192,561427,1,0,0:0:0:0:
182,192,561572,1,0,0:0:0:0:
402,192,561717,1,0,0:0:0:0:
256,192,561717,1,0,0:0:0:0:
109,192,562006,1,0,0:0:0:0:
329,192,562006,1,0,0:0:0:0:
182,192,562151,1,0,0:0:0:0:
402,192,562151,1,0,0:0:0:0:
475,192,562296,1,0,0:0:0:0:
256,192,562296,1,0,0:0:0:0:
182,192,562441,1,0,0:0:0:0:
402,192,562586,1,0,0:0:0:0:
475,192,562586,1,0,0:0:0:0:
182,192,562731,1,0,0:0:0:0:
109,192,562731,1,0,0:0:0:0:
256,192,563021,1,0,0:0:0:0:
329,192,563021,1,0,0:0:0:0:
182,192,563456,1,0,0:0:0:0:
36,192,563456,1,0,0:0:0:0:
256,192,563601,1,0,0:0:0:0:
109,192,563746,1,0,0:0:0:0:
256,192,563890,1,0,0:0:0:0:
36,192,564035,1,0,0:0:0:0:
182,192,564035,1,0,0:0:0:0:
36,192,564180,1,0,0:0:0:0:
182,192,564180,1,0,0:0:0:0:
256,192,564253,1,0,0:0:0:0:
329,192,564325,1,0,0:0:0:0:
475,192,564325,1,0,0:0:0:0:
256,192,564470,1,0,0:0:0:0:
109,192,564615,1,0,0:0:0:0:
182,192,564760,1,0,0:0:0:0:
36,192,564760,1,0,0:0:0:0:
36,192,565195,1,0,0:0:0:0:
182,192,565195,1,0,0:0:0:0:
475,192,565195,128,0,565340:0:0:0:0:
329,192,565340,128,0,565485:0:0:0:0:
256,192,565630,1,0,0:0:0:0:
109,192,565630,1,0,0:0:0:0:
256,192,565775,1,0,0:0:0:0:
402,192,565775,1,0,0:0:0:0:
475,192,566064,1,0,0:0:0:0:
329,192,566209,1,0,0:0:0:0:
109,192,566209,1,0,0:0:0:0:
109,192,566354,1,0,0:0:0:0:
182,192,566499,1,0,0:0:0:0:
402,192,566499,1,0,0:0:0:0:
256,192,566644,1,0,0:0:0:0:
475,192,566644,1,0,0:0:0:0:
329,192,566934,1,0,0:0:0:0:
109,192,566934,1,0,0:0:0:0:
475,192,566934,128,0,572876:0:0:0:0:
182,192,567079,1,0,0:0:0:0:
256,192,567224,1,0,0:0:0:0:
36,192,567224,1,0,0:0:0:0:
109,192,567369,1,0,0:0:0:0:
182,192,567514,1,0,0:0:0:0:
402,192,567514,1,0,0:0:0:0:
36,192,567803,1,0,0:0:0:0:
329,192,567803,1,0,0:0:0:0:
36,192,567948,1,0,0:0:0:0:
182,192,568093,1,0,0:0:0:0:
109,192,568093,1,0,0:0:0:0:
329,192,568238,1,0,0:0:0:0:
256,192,568238,1,0,0:0:0:0:
36,192,568383,1,0,0:0:0:0:
36,192,568528,1,0,0:0:0:0:
329,192,568673,128,0,573311:0:0:0:0:
109,192,568673,1,0,0:0:0:0:
182,192,568673,1,0,0:0:0:0:
256,192,568963,1,0,0:0:0:0:
36,192,569108,1,0,0:0:0:0:
109,192,569108,1,0,0:0:0:0:
182,192,569253,1,0,0:0:0:0:
256,192,569253,1,0,0:0:0:0:
109,192,569398,1,0,0:0:0:0:
402,192,569543,1,0,0:0:0:0:
36,192,569543,1,0,0:0:0:0:
256,192,569688,1,0,0:0:0:0:
109,192,569688,1,0,0:0:0:0:
182,192,569977,1,0,0:0:0:0:
36,192,569977,1,0,0:0:0:0:
36,192,570412,128,0,573456:0:0:0:0:
402,192,570412,1,0,0:0:0:0:
182,192,570412,1,0,0:0:0:0:
109,192,570557,1,0,0:0:0:0:
256,192,570702,1,0,0:0:0:0:
109,192,570847,1,0,0:0:0:0:
402,192,570992,1,0,0:0:0:0:
182,192,570992,1,0,0:0:0:0:
256,192,571137,1,0,0:0:0:0:
109,192,571282,1,0,0:0:0:0:
402,192,571282,1,0,0:0:0:0:
256,192,571427,1,0,0:0:0:0:
182,192,571572,1,0,0:0:0:0:
402,192,571717,1,0,0:0:0:0:
256,192,571717,1,0,0:0:0:0:
182,192,571789,1,0,0:0:0:0:
109,192,571861,5,0,0:0:0:0:
182,192,571898,1,0,0:0:0:0:
256,192,571934,1,0,0:0:0:0:
182,192,572151,128,0,573456:0:0:0:0:
109,192,572151,1,0,0:0:0:0:
402,192,572151,1,0,0:0:0:0:
256,192,572296,1,0,0:0:0:0:
256,192,572586,1,0,0:0:0:0:
402,192,572731,1,0,0:0:0:0:
256,192,572876,1,0,0:0:0:0:
475,192,573021,5,0,0:0:0:0:
109,192,573021,1,0,0:0:0:0:
256,192,573166,1,0,0:0:0:0:
109,192,573311,1,0,0:0:0:0:
329,192,573456,128,0,575195:0:0:0:0:
475,192,573456,128,0,574977:0:0:0:0:
182,192,573601,128,0,575412:0:0:0:0:
36,192,573601,128,0,575630:0:0:0:0:
