osu file format v14

[General]
AudioFilename: audio.mp3
AudioLeadIn: 0
PreviewTime: 309434
Countdown: 0
SampleSet: Normal
StackLeniency: 0.7
Mode: 1
LetterboxInBreaks: 0
WidescreenStoryboard: 0

[Editor]
Bookmarks: 25892,69778,91035,110920,138348,160291,182235,198692,237092,259034,313891,350920,374234,402813
DistanceSpacing: 1.5
BeatDivisor: 8
GridSize: 32
TimelineZoom: 4.104142

[Metadata]
Title:Blasphemian
TitleUnicode:Blasphemian
Artist:Infant Annihilator
ArtistUnicode:Infant Annihilator
Creator:Genjuro
Version:Behold These Fragile Boys
Source:
Tags:metal english technical deathcore the elysian grandeval galèriarch galeriarch egg
BeatmapID:2344143
BeatmapSetID:1121817

[Difficulty]
HPDrainRate:3
CircleSize:2
OverallDifficulty:9
ApproachRate:10
SliderMultiplier:1.4
SliderTickRate:1

[Events]
//Background and Video events
0,0,"bg.jpg",0,0
//Break Periods
2,99949,104299
2,290577,299727
2,302920,309434
//Storyboard Layer 0 (Background)
//Storyboard Layer 1 (Fail)
//Storyboard Layer 2 (Pass)
//Storyboard Layer 3 (Foreground)
//Storyboard Layer 4 (Overlay)
//Storyboard Sound Samples

[TimingPoints]
3950,685.714285714286,4,1,0,5,1,0
25850,-100,4,1,0,20,0,0
25935,-100,4,1,0,5,0,0
27221,-100,4,1,0,10,0,0
27307,-100,4,1,0,5,0,0
28250,-100,4,1,0,30,0,0
28421,-100,4,1,0,40,0,0
28592,-100,4,1,0,50,0,0
28678,-100,4,1,0,5,0,0
29964,-100,4,1,0,10,0,0
30478,-100,4,1,0,20,0,0
30992,-100,4,1,0,50,0,0
31335,-100,4,1,0,60,0,0
31421,-100,4,1,0,5,0,0
32707,-100,4,1,0,10,0,0
32792,-100,4,1,0,5,0,0
33392,-100,4,1,0,30,0,0
33907,-100,4,1,0,40,0,0
34078,-100,4,1,0,50,0,0
34164,-100,4,1,0,5,0,0
35450,-100,4,1,0,10,0,0
35535,-100,4,1,0,5,0,0
36821,-100,4,1,0,20,0,0
37250,-100,4,1,0,5,0,0
38192,-100,4,1,0,10,0,0
38278,-100,4,1,0,5,0,0
38878,-100,4,1,0,50,0,0
39564,-100,4,1,0,60,0,0
39650,-100,4,1,0,5,0,0
40935,-100,4,1,0,10,0,0
41021,-100,4,1,0,5,0,0
41964,-100,4,1,0,20,0,0
42392,-100,4,1,0,5,0,0
43335,-100,4,1,0,50,0,0
43678,-100,4,1,0,60,0,0
43764,-100,4,1,0,5,0,0
44707,-100,4,1,0,30,0,0
44878,-100,4,1,0,40,0,0
45050,-100,4,1,0,50,0,0
45135,-100,4,1,0,5,0,0
46078,-100,4,1,0,20,0,0
46421,-100,4,1,0,60,0,0
47792,-100,4,1,0,40,0,0
47964,-100,4,1,0,20,0,0
48478,-100,4,1,0,30,0,0
48650,-100,4,1,0,20,0,0
49164,-100,4,1,0,80,0,0
49250,-100,4,1,0,5,0,0
49507,-100,4,1,0,20,0,0
50192,-100,4,1,0,40,0,0
50535,-100,4,1,0,60,0,0
50621,-100,4,1,0,5,0,0
50878,-100,4,1,0,40,0,0
51050,-100,4,1,0,20,0,0
51907,-100,4,1,0,80,0,0
51992,-100,4,1,0,5,0,0
52250,-100,4,1,0,20,0,0
52421,-100,4,1,0,40,0,0
52592,-100,4,1,0,20,0,0
52935,-100,4,1,0,40,0,0
53107,-100,4,1,0,20,0,0
53278,-100,4,1,0,60,0,0
53450,-100,4,1,0,20,0,0
53792,-100,4,1,0,30,0,0
54650,-100,4,1,0,80,0,0
54735,-100,4,1,0,5,0,0
54992,-100,4,1,0,40,0,0
55164,-100,4,1,0,20,0,0
56021,-100,4,1,0,40,0,0
56192,-100,4,1,0,30,0,0
57392,-100,4,1,0,80,0,0
57478,-100,4,1,0,5,0,0
57735,-100,4,1,0,20,0,0
57992,-100,4,1,0,5,0,0
58250,-100,4,1,0,20,0,0
58335,-100,4,1,0,5,0,0
58764,-100,4,1,0,40,0,0
58935,-100,4,1,0,20,0,0
59107,-100,4,1,0,30,0,0
59278,-100,4,1,0,20,0,0
59621,-100,4,1,0,30,0,0
60135,-100,4,1,0,80,0,0
60221,-100,4,1,0,5,0,0
60478,-100,4,1,0,20,0,0
61164,-100,4,1,0,40,0,0
61507,-100,4,1,0,60,0,0
61592,-100,4,1,0,5,0,0
61850,-100,4,1,0,40,0,0
62021,-100,4,1,0,20,0,0
62878,-100,4,1,0,80,0,0
62964,-100,4,1,0,5,0,0
63221,-100,4,1,0,20,0,0
63735,-100,4,1,0,40,0,0
64250,-100,4,1,0,60,0,0
64421,-100,4,1,0,20,0,0
64935,-100,4,1,0,30,0,0
65621,-100,4,1,0,80,0,0
65964,-100,4,1,0,40,0,0
66135,-100,4,1,0,20,0,0
66992,-100,4,1,0,60,0,0
69692,-100,4,1,0,100,0,0
69778,342.857142857143,4,1,0,100,1,0
74635,-95.9999692800098,4,1,0,100,0,0
74692,-92.3077207100679,4,1,0,100,0,0
74749,-88.8888888888889,4,1,0,100,0,0
74806,-85.7142612244968,4,1,0,100,0,0
74863,-82.7586435196258,4,1,0,100,0,0
74920,-80,4,1,0,100,0,0
74978,-77.4193348595265,4,1,0,100,0,0
75035,-75.0000187500047,4,1,0,100,0,0
75092,-72.7272727272727,4,1,0,100,0,0
75149,-70.588218685125,4,1,0,100,0,0
75206,-68.5714442449015,4,1,0,100,0,0
75263,-66.6666666666667,4,1,0,100,0,1
79835,-69.2123906790289,4,1,0,100,0,1
79949,-71.9603066948271,4,1,0,100,0,1
80063,-74.9353869625915,4,1,0,100,0,1
80178,-78.1671369722741,4,1,0,100,0,1
80292,-81.6901362428092,4,1,0,100,0,1
80406,-85.5456873852619,4,1,0,100,0,1
80520,-89.7832900727514,4,1,0,100,0,1
80635,-94.462513024019,4,1,0,100,0,1
80749,-80,4,1,0,100,0,0
81092,-100,4,1,0,100,0,0
88978,342.857142857143,6,1,0,100,1,0
90349,-133.333333333333,6,1,0,100,0,0
91035,342.857142857143,4,1,0,100,1,0
93777,342.857142857143,6,1,0,100,1,8
93778,342.857142857143,6,1,0,100,1,0
97892,342.857142857143,4,1,0,100,1,0
99949,-100,4,1,0,5,0,0
100634,342.857142857143,6,1,0,5,1,8
100635,342.857142857143,6,1,0,5,1,0
104663,-100,6,1,0,100,0,0
110920,342.857142857143,4,1,0,100,1,0
137062,-96.969696969697,4,1,0,100,0,0
137148,-94.1176470588235,4,1,0,100,0,0
137234,-91.4285714285714,4,1,0,100,0,0
137320,-88.8888888888889,4,1,0,100,0,0
137405,-86.4864864864865,4,1,0,100,0,0
137491,-84.2105263157895,4,1,0,100,0,0
137577,-82.0512820512821,4,1,0,100,0,0
137662,-80,4,1,0,100,0,0
137748,-78.0487804878049,4,1,0,100,0,0
137834,-76.1904761904762,4,1,0,100,0,0
137920,-74.4186046511628,4,1,0,100,0,0
138005,-72.7272727272727,4,1,0,100,0,0
138091,-71.1111111111111,4,1,0,100,0,0
138177,-69.5652173913043,4,1,0,100,0,0
138262,-68.0851063829787,4,1,0,100,0,0
138348,-57.1428571428571,4,1,0,100,0,1
142520,-57.4832565644442,4,1,0,100,0,1
142577,-57.827702360816,4,1,0,100,0,1
142634,-58.1763347978256,4,1,0,100,0,1
142720,-58.7072200487505,4,1,0,100,0,1
142805,-59.2478836655955,4,1,0,100,0,1
142862,-59.6139045855612,4,1,0,100,0,1
142920,-59.9844760176066,4,1,0,100,0,1
142977,-60.3596469202094,4,1,0,100,0,1
143062,-60.931323087122,4,1,0,100,0,1
143148,-61.5139316752458,4,1,0,100,0,1
143205,-61.9085796005039,4,1,0,100,0,1
143262,-62.3083240182389,4,1,0,100,0,1
143320,-62.7132249648806,4,1,0,100,0,1
143405,-63.3305805640981,4,1,0,100,0,1
143491,-63.9602116315482,4,1,0,100,0,1
143548,-64.3869812099473,4,1,0,100,0,1
143605,-64.8194842184002,4,1,0,100,0,1
143662,-65.2578369767871,4,1,0,100,0,1
143748,-65.9265749364303,4,1,0,100,0,1
143834,-57.1428571428571,4,1,0,100,0,1
148034,-58.7072200487505,4,1,0,100,0,1
148120,-60.3596469202094,4,1,0,100,0,1
148205,-62.1077893105042,4,1,0,100,0,1
148291,-63.9602116315482,4,1,0,100,0,1
148377,-65.9265749364303,4,1,0,100,0,1
148462,-68.0176328911507,4,1,0,100,0,1
148548,-70.245684280772,4,1,0,100,0,1
148634,-72.6246474981172,4,1,0,100,0,1
148720,-75.1703924871703,4,1,0,100,0,1
148805,-77.9010952114976,4,1,0,100,0,1
148891,-80.8376722953938,4,1,0,100,0,1
148977,-84.004317821936,4,1,0,100,0,1
149062,-87.4292478811522,4,1,0,100,0,1
149148,-91.1452399398441,4,1,0,100,0,1
149234,-95.1911342785178,4,1,0,100,0,1
149320,-99.6129042540687,4,1,0,100,0,1
160291,-100,4,1,0,100,0,0
162691,-80,4,1,0,100,0,0
162748,-77.4193348595265,4,1,0,100,0,0
162805,-75.0000187500047,4,1,0,100,0,0
162862,-72.7272727272727,4,1,0,100,0,0
162920,-70.588218685125,4,1,0,100,0,0
162977,-68.5714442449015,4,1,0,100,0,0
163034,-66.6666666666667,4,1,0,100,0,1
180920,-67.600682766896,4,1,0,100,0,1
180977,-68.5612893361827,4,1,0,100,0,1
181034,-69.5495415294222,4,1,0,100,0,1
181091,-70.5667497942979,4,1,0,100,0,1
181148,-71.6141031085534,4,1,0,100,0,1
181205,-72.6930144920794,4,1,0,100,0,1
181262,-73.804986560112,4,1,0,100,0,1
181320,-74.9514501981342,4,1,0,100,0,1
181377,-76.1340934561224,4,1,0,100,0,1
181434,-77.3547162396944,4,1,0,100,0,1
181491,-78.6150543112103,4,1,0,100,0,1
181548,-79.9172057748173,4,1,0,100,0,1
181605,-81.2631544731303,4,1,0,100,0,1
181662,-82.6552161640541,4,1,0,100,0,1
181720,-84.0958726586658,4,1,0,100,0,1
181777,-85.5875672076372,4,1,0,100,0,1
181834,-87.1332127409669,4,1,0,100,0,1
181891,-88.735632591888,4,1,0,100,0,1
181948,-90.3980951313394,4,1,0,100,0,1
182005,-92.124124360198,4,1,0,100,0,1
182062,-93.9172607716054,4,1,0,100,0,1
182120,-95.7816790719905,4,1,0,100,0,1
182177,-97.7215249248522,4,1,0,100,0,1
182234,342.857142857143,6,1,0,100,1,9
182235,342.857142857143,6,1,0,100,1,0
198692,342.857142857143,4,1,0,100,1,0
200063,-133.333333333333,4,1,0,100,0,0
203663,-123.076923076923,4,1,0,100,0,0
203834,-114.285714285714,4,1,0,100,0,0
204006,-106.666666666667,4,1,0,100,0,0
204177,-100,4,1,0,100,0,0
237092,-100,4,1,0,100,0,1
259034,-100,4,1,0,100,0,0
276306,-100,4,1,0,50,0,0
276477,-100,4,1,0,60,0,0
276649,-100,4,1,0,70,0,0
276820,-100,4,1,0,100,0,0
280977,342.857142857143,6,1,0,100,1,8
280978,342.857142857143,6,1,0,100,1,0
280978,-133.333333333333,6,1,0,100,0,0
289206,342.857142857143,4,1,0,100,1,0
289206,-133.333333333333,4,1,0,100,0,0
290577,-133.333333333333,4,1,0,5,0,0
300091,-133.333333333333,4,1,0,100,0,0
302920,-133.333333333333,4,1,0,5,0,0
309434,-133.333333333333,4,1,0,100,0,0
311148,-100,4,1,0,100,0,0
313263,-95.9999692800098,4,1,0,100,0,0
313320,-92.3077207100679,4,1,0,100,0,0
313377,-88.8888888888889,4,1,0,100,0,0
313434,-85.7142612244968,4,1,0,100,0,0
313491,-82.7586435196258,4,1,0,100,0,0
313548,-80,4,1,0,100,0,0
313606,-77.4193348595265,4,1,0,100,0,0
313663,-75.0000187500047,4,1,0,100,0,0
313720,-72.7272727272727,4,1,0,100,0,0
313777,-70.588218685125,4,1,0,100,0,0
313834,-68.5714442449015,4,1,0,100,0,0
313891,-66.6666666666667,4,1,0,100,0,1
319120,-67.4674604438279,4,1,0,100,0,1
319206,-68.287726237237,4,1,0,100,0,1
319291,-69.1281830071866,4,1,0,100,0,1
319377,-69.9896345351253,4,1,0,100,0,1
319463,-70.8727769867588,4,1,0,100,0,1
319548,-71.7784915749995,4,1,0,100,0,1
319634,-72.7076548800287,4,1,0,100,0,1
319720,-73.6611894661553,4,1,0,100,0,1
319806,-74.640066937212,4,1,0,100,0,1
319891,-75.6453684610252,4,1,0,100,0,1
319977,-76.6780610265352,4,1,0,100,0,1
320063,-77.7393399930035,4,1,0,100,0,1
320148,-78.8304089879279,4,1,0,100,0,1
320234,-79.9525401721538,4,1,0,100,0,1
320320,-81.1070791880857,4,1,0,100,0,1
320406,-82.2954505429031,4,1,0,100,0,1
320491,-83.5192332266236,4,1,0,100,0,1
320577,-84.7798902100422,4,1,0,100,0,1
320663,-86.0791876879216,4,1,0,100,0,1
320748,-87.4189298699119,4,1,0,100,0,1
320920,-90.2275448453455,4,1,0,100,0,1
321091,-93.2227090519251,4,1,0,100,0,1
321263,-96.4234609851392,4,1,0,100,0,1
321434,-99.8518198992695,4,1,0,100,0,1
321491,-95.9999692800098,4,1,0,100,0,1
321548,-92.3077207100679,4,1,0,100,0,1
321606,-88.8888888888889,4,1,0,100,0,1
321663,-85.7142612244968,4,1,0,100,0,1
321720,-82.7586435196258,4,1,0,100,0,1
321777,-80,4,1,0,100,0,1
321834,-77.4193348595265,4,1,0,100,0,1
321891,-75.0000187500047,4,1,0,100,0,1
321948,-72.7272727272727,4,1,0,100,0,1
322006,-70.588218685125,4,1,0,100,0,1
322063,-68.5714442449015,4,1,0,100,0,1
322120,-66.6666666666667,4,1,0,100,0,1
330006,-66.6666666666667,4,1,0,100,0,0
330348,-57.1428571428571,4,1,0,100,0,1
331777,-57.4850409552174,4,1,0,100,0,1
331834,-57.8313141529997,4,1,0,100,0,1
331891,-58.1818181818182,4,1,0,100,0,1
331977,-58.7155963302752,4,1,0,100,0,1
332063,-59.2592592592593,4,1,0,100,0,1
332120,-59.6273410439436,4,1,0,100,0,1
332177,-59.9999880000024,4,1,0,100,0,1
332234,-60.377358490566,4,1,0,100,0,1
332320,-60.9523809523809,4,1,0,100,0,1
332406,-61.5384615384615,4,1,0,100,0,1
332491,-62.1359223300971,4,1,0,100,0,1
332577,-62.7450980392157,4,1,0,100,0,1
332663,-63.3663366336634,4,1,0,100,0,1
332748,-64,4,1,0,100,0,1
332834,-64.6464646464647,4,1,0,100,0,1
332920,-65.3061224489796,4,1,0,100,0,1
333006,-65.979381443299,4,1,0,100,0,1
333091,-57.1428571428571,4,1,0,100,0,1
337948,-57.8241578923326,4,1,0,100,0,1
338006,-58.5218664027721,4,1,0,100,0,1
338063,-59.2366527973917,4,1,0,100,0,1
338148,-60.3421642079246,4,1,0,100,0,1
338234,-61.4896860275142,4,1,0,100,0,1
338291,-62.2792977386387,4,1,0,100,0,1
338348,-63.0894128394526,4,1,0,100,0,1
338406,-63.9209221487913,4,1,0,100,0,1
338491,-65.2100906094209,4,1,0,100,0,1
338577,-66.5523297641319,4,1,0,100,0,1
343548,-70.5596295901685,4,1,0,100,0,1
343720,-74.9353869625915,4,1,0,100,0,1
343891,-79.8898159658199,4,1,0,100,0,1
344063,-85.5456873852619,4,1,0,100,0,1
344406,-99.6563847852604,4,1,0,100,0,1
347148,-66.6666666666667,4,1,0,100,0,1
350920,-66.6666666666667,4,1,0,100,0,0
351948,-100,4,1,0,100,0,0
374320,-100,4,1,0,25,0,0
375606,359.496704613541,4,1,0,25,1,0
377043,367.872470876763,4,1,0,25,1,0
378514,379.746835443038,4,1,0,25,1,0
380032,389.61038961039,4,1,0,25,1,0
381590,400,4,1,0,25,1,0
383190,419.58041958042,4,1,0,25,1,0
385602,-100,4,1,0,100,0,0
385707,425.531914893617,6,1,0,100,1,8
386451,-100,6,1,0,50,0,8
386558,439.560439560439,4,1,0,50,1,0
386997,-102.020308162543,4,1,0,50,0,0
387437,446.096654275093,4,1,0,50,1,8
387437,-102.598307085215,4,1,0,50,0,0
387883,-104.758389709022,4,1,0,50,0,0
388329,456.273764258556,4,1,0,50,1,0
388329,-104.624513283184,4,1,0,50,0,0
388785,-106.924203245558,4,1,0,50,0,0
389241,463.320463320463,4,1,0,50,1,8
389241,-107.664367334061,4,1,0,50,0,0
389704,-110.139561112305,4,1,0,50,0,0
390167,474.308300395257,4,1,0,50,1,0
390167,-110.119707303559,4,1,0,50,0,0
390641,-112.773363748087,4,1,0,50,0,0
391115,478.08764940239,4,1,0,50,1,8
391115,-114.644570976424,4,1,0,50,0,0
391593,-117.547159990835,4,1,0,50,0,0
392071,489.795918367347,4,1,0,50,1,0
392071,-117.717816134054,4,1,0,50,0,0
392560,-120.857184066976,4,1,0,50,0,0
393050,502.092050209205,4,1,0,50,1,8
393050,-121.127721590395,4,1,0,50,0,0
393552,-124.540029768402,4,1,0,50,0,0
394054,509.554140127389,4,1,0,50,1,0
394054,-126.273492298523,4,1,0,50,0,0
394563,-130.043154282353,4,1,0,50,0,0
395073,517.241379310345,4,1,0,50,1,8
395073,-132.052641282779,4,1,0,50,0,0
395590,-136.245148197224,4,1,0,50,0,0
396107,526.315789473684,4,1,0,50,1,0
396107,-138.286518676559,4,1,0,50,0,0
396633,-142.974871376231,4,1,0,50,0,0
397159,538.116591928251,4,1,0,50,1,8
397159,-144.746579020081,4,1,0,50,0,0
397697,-150.010617791889,4,1,0,50,0,0
398100,-150.010617791889,4,1,0,100,0,0
398235,567.644276253548,4,1,0,100,1,0
398235,-147.574248293673,4,1,0,100,0,0
400505,-173.813269756813,4,1,0,100,0,0
401640,586.79706601467,4,1,0,100,1,8
401640,-184.546237080567,4,1,0,100,0,0
402813,600,4,1,0,100,1,1
402813,-200.0002000002,4,1,0,100,0,1
420813,-200.0002000002,4,1,0,100,0,0
421338,-200.0002000002,4,1,0,50,0,0
421938,-200.0002000002,4,1,0,100,0,0
422013,-200,4,1,0,100,0,1
424413,-133.333333333333,4,1,0,100,0,1
426813,-100,4,1,0,100,0,1
429213,-66.6666666666667,4,1,0,100,0,1
431613,-50,4,1,0,100,0,1
434013,-33.3333333333333,4,1,0,100,0,1
436413,-25,4,1,0,100,0,1
440013,-25,4,1,0,100,0,0

[HitObjects]
256,192,25892,5,8,0:0:0:0:
256,192,27264,1,8,0:0:0:0:
256,192,28292,1,0,0:0:0:0:
256,192,28464,1,0,0:0:0:0:
256,192,28635,1,8,0:0:0:0:
256,192,30007,1,8,0:0:0:0:
256,192,30521,1,8,0:0:0:0:
256,192,31035,1,0,0:0:0:0:
256,192,31378,1,0,0:0:0:0:
256,192,32750,1,8,0:0:0:0:
256,192,33435,1,0,0:0:0:0:
256,192,33521,1,0,0:0:0:0:
256,192,33607,1,0,0:0:0:0:
256,192,33692,1,0,0:0:0:0:
256,192,33778,1,0,0:0:0:0:
256,192,33950,1,0,0:0:0:0:
256,192,34121,1,8,0:0:0:0:
256,192,35492,1,8,0:0:0:0:
256,192,36864,1,8,0:0:0:0:
256,192,37207,1,8,0:0:0:0:
256,192,38235,1,8,0:0:0:0:
256,192,38921,1,0,0:0:0:0:
256,192,39264,1,0,0:0:0:0:
256,192,39435,1,0,0:0:0:0:
256,192,39607,1,0,0:0:0:0:
256,192,40978,1,8,0:0:0:0:
256,192,42007,1,8,0:0:0:0:
256,192,42350,1,8,0:0:0:0:
256,192,43378,1,0,0:0:0:0:
256,192,43721,1,0,0:0:0:0:
256,192,44750,1,0,0:0:0:0:
256,192,44921,1,0,0:0:0:0:
256,192,45092,1,8,0:0:0:0:
256,192,46121,1,0,0:0:0:0:
256,192,46464,1,0,0:0:0:0:
256,192,46978,1,0,0:0:0:0:
256,192,47492,1,0,0:0:0:0:
256,192,47835,1,0,0:0:0:0:
256,192,48007,1,8,0:0:0:0:
256,192,48178,1,8,0:0:0:0:
256,192,48350,1,8,0:0:0:0:
256,192,48521,1,0,0:0:0:0:
256,192,48692,1,8,0:0:0:0:
256,192,48864,1,8,0:0:0:0:
256,192,49035,1,8,0:0:0:0:
256,192,49207,1,8,0:0:0:0:
256,192,49550,1,8,0:0:0:0:
256,192,49721,1,8,0:0:0:0:
256,192,49892,1,8,0:0:0:0:
256,192,50064,1,8,0:0:0:0:
256,192,50235,1,0,0:0:0:0:
256,192,50407,1,0,0:0:0:0:
256,192,50578,1,0,0:0:0:0:
256,192,50921,1,0,0:0:0:0:
256,192,51092,1,8,0:0:0:0:
256,192,51264,1,8,0:0:0:0:
256,192,51435,1,8,0:0:0:0:
256,192,51607,1,8,0:0:0:0:
256,192,51778,1,8,0:0:0:0:
256,192,51950,1,8,0:0:0:0:
256,192,52292,1,8,0:0:0:0:
256,192,52464,1,0,0:0:0:0:
256,192,52635,1,8,0:0:0:0:
256,192,52807,1,8,0:0:0:0:
256,192,52978,1,0,0:0:0:0:
256,192,53150,1,8,0:0:0:0:
256,192,53321,1,0,0:0:0:0:
256,192,53492,1,8,0:0:0:0:
256,192,53664,1,8,0:0:0:0:
256,192,53835,1,8,0:0:0:0:
256,192,54007,1,8,0:0:0:0:
256,192,54178,1,8,0:0:0:0:
256,192,54350,1,8,0:0:0:0:
256,192,54521,1,8,0:0:0:0:
256,192,54692,1,8,0:0:0:0:
256,192,55035,1,0,0:0:0:0:
256,192,55207,1,8,0:0:0:0:
256,192,55378,1,8,0:0:0:0:
256,192,55550,1,8,0:0:0:0:
256,192,55721,1,8,0:0:0:0:
256,192,55892,1,8,0:0:0:0:
256,192,56064,1,0,0:0:0:0:
256,192,56235,1,8,0:0:0:0:
256,192,56407,1,8,0:0:0:0:
256,192,56578,1,8,0:0:0:0:
256,192,56750,1,8,0:0:0:0:
256,192,56921,1,8,0:0:0:0:
256,192,57092,1,8,0:0:0:0:
256,192,57264,1,8,0:0:0:0:
256,192,57435,1,8,0:0:0:0:
256,192,57778,1,8,0:0:0:0:
256,192,57950,1,8,0:0:0:0:
256,192,58292,1,8,0:0:0:0:
256,192,58807,1,0,0:0:0:0:
256,192,58978,1,8,0:0:0:0:
256,192,59150,1,0,0:0:0:0:
256,192,59321,1,8,0:0:0:0:
256,192,59492,1,8,0:0:0:0:
256,192,59664,1,8,0:0:0:0:
256,192,59835,1,8,0:0:0:0:
256,192,60007,1,8,0:0:0:0:
256,192,60178,1,8,0:0:0:0:
256,192,60521,1,8,0:0:0:0:
256,192,60692,1,8,0:0:0:0:
256,192,60864,1,8,0:0:0:0:
256,192,61035,1,8,0:0:0:0:
256,192,61207,1,0,0:0:0:0:
256,192,61378,1,0,0:0:0:0:
256,192,61550,1,0,0:0:0:0:
256,192,61892,1,0,0:0:0:0:
256,192,62064,1,8,0:0:0:0:
256,192,62235,1,8,0:0:0:0:
256,192,62407,1,8,0:0:0:0:
256,192,62578,1,8,0:0:0:0:
256,192,62750,1,8,0:0:0:0:
256,192,62921,1,8,0:0:0:0:
256,192,63264,1,8,0:0:0:0:
256,192,63435,1,8,0:0:0:0:
256,192,63607,1,8,0:0:0:0:
256,192,63778,1,0,0:0:0:0:
256,192,63950,1,0,0:0:0:0:
256,192,64121,1,0,0:0:0:0:
256,192,64292,1,0,0:0:0:0:
256,192,64464,1,8,0:0:0:0:
256,192,64635,1,8,0:0:0:0:
256,192,64807,1,8,0:0:0:0:
256,192,64978,1,8,0:0:0:0:
256,192,65150,1,8,0:0:0:0:
256,192,65321,1,8,0:0:0:0:
256,192,65492,1,8,0:0:0:0:
256,192,65664,1,8,0:0:0:0:
256,192,66007,1,0,0:0:0:0:
256,192,66178,1,8,0:0:0:0:
256,192,66350,1,8,0:0:0:0:
256,192,66521,1,8,0:0:0:0:
256,192,66692,1,8,0:0:0:0:
256,192,66864,1,8,0:0:0:0:
256,192,67035,1,0,0:0:0:0:
256,192,69778,1,4,0:0:0:0:
256,192,72520,1,12,0:0:0:0:
256,192,73892,1,0,0:0:0:0:
256,192,74578,1,8,0:0:0:0:
256,192,74635,1,8,0:0:0:0:
256,192,74692,1,8,0:0:0:0:
256,192,74749,1,8,0:0:0:0:
256,192,74806,1,8,0:0:0:0:
256,192,74863,1,8,0:0:0:0:
256,192,74920,1,0,0:0:0:0:
256,192,74978,1,0,0:0:0:0:
256,192,75035,1,0,0:0:0:0:
256,192,75092,1,0,0:0:0:0:
256,192,75149,1,0,0:0:0:0:
256,192,75206,1,0,0:0:0:0:
256,192,75263,1,8,0:0:0:0:
256,192,75320,1,8,0:0:0:0:
256,192,75378,1,0,0:0:0:0:
256,192,75435,1,0,0:0:0:0:
256,192,75492,1,0,0:0:0:0:
256,192,75549,1,0,0:0:0:0:
256,192,75606,1,8,0:0:0:0:
256,192,75663,1,8,0:0:0:0:
256,192,75720,1,0,0:0:0:0:
256,192,75778,1,0,0:0:0:0:
256,192,75835,1,0,0:0:0:0:
256,192,75892,1,0,0:0:0:0:
256,192,75949,1,8,0:0:0:0:
256,192,76006,1,0,0:0:0:0:
256,192,76063,1,8,0:0:0:0:
256,192,76120,1,8,0:0:0:0:
256,192,76178,1,0,0:0:0:0:
256,192,76235,1,0,0:0:0:0:
256,192,76292,1,8,0:0:0:0:
256,192,76349,1,0,0:0:0:0:
256,192,76406,1,8,0:0:0:0:
256,192,76463,1,8,0:0:0:0:
256,192,76520,1,0,0:0:0:0:
256,192,76578,1,0,0:0:0:0:
256,192,76635,1,8,0:0:0:0:
256,192,76692,1,0,0:0:0:0:
256,192,76749,1,8,0:0:0:0:
256,192,76806,1,0,0:0:0:0:
256,192,76863,1,8,0:0:0:0:
256,192,76920,1,0,0:0:0:0:
256,192,76978,1,8,0:0:0:0:
256,192,77035,1,8,0:0:0:0:
256,192,77092,1,8,0:0:0:0:
256,192,77149,1,8,0:0:0:0:
256,192,77206,1,0,0:0:0:0:
256,192,77263,1,0,0:0:0:0:
256,192,77320,1,8,0:0:0:0:
256,192,77378,1,0,0:0:0:0:
256,192,77435,1,8,0:0:0:0:
256,192,77492,1,0,0:0:0:0:
256,192,77549,1,8,0:0:0:0:
256,192,77606,1,0,0:0:0:0:
256,192,77663,1,8,0:0:0:0:
256,192,77720,1,8,0:0:0:0:
256,192,77778,1,8,0:0:0:0:
256,192,77835,1,8,0:0:0:0:
256,192,77892,1,0,0:0:0:0:
256,192,77949,1,0,0:0:0:0:
256,192,78006,1,8,0:0:0:0:
256,192,78063,1,8,0:0:0:0:
256,192,78120,1,0,0:0:0:0:
256,192,78178,1,0,0:0:0:0:
256,192,78235,1,0,0:0:0:0:
256,192,78292,1,0,0:0:0:0:
256,192,78349,1,8,0:0:0:0:
256,192,78406,1,8,0:0:0:0:
256,192,78463,1,0,0:0:0:0:
256,192,78520,1,0,0:0:0:0:
256,192,78578,1,0,0:0:0:0:
256,192,78635,1,0,0:0:0:0:
256,192,78692,1,8,0:0:0:0:
256,192,78749,1,0,0:0:0:0:
256,192,78806,1,8,0:0:0:0:
256,192,78863,1,8,0:0:0:0:
256,192,78920,1,0,0:0:0:0:
256,192,78978,1,0,0:0:0:0:
256,192,79035,1,8,0:0:0:0:
256,192,79092,1,0,0:0:0:0:
256,192,79149,1,8,0:0:0:0:
256,192,79206,1,8,0:0:0:0:
256,192,79263,1,0,0:0:0:0:
256,192,79320,1,0,0:0:0:0:
256,192,79378,1,8,0:0:0:0:
256,192,79435,1,0,0:0:0:0:
256,192,79492,1,8,0:0:0:0:
256,192,79549,1,0,0:0:0:0:
256,192,79606,1,0,0:0:0:0:
256,192,79663,1,0,0:0:0:0:
256,192,79720,1,8,0:0:0:0:
256,192,79835,1,8,0:0:0:0:
256,192,79949,1,8,0:0:0:0:
256,192,80063,1,8,0:0:0:0:
256,192,80178,1,0,0:0:0:0:
256,192,80292,1,0,0:0:0:0:
256,192,80406,1,0,0:0:0:0:
256,192,80520,1,0,0:0:0:0:
256,192,80635,1,0,0:0:0:0:
256,192,80749,1,12,0:0:0:0:
256,192,81092,1,0,0:0:0:0:
256,192,81149,1,0,0:0:0:0:
256,192,81206,1,0,0:0:0:0:
256,192,81263,1,0,0:0:0:0:
256,192,81320,1,0,0:0:0:0:
256,192,81378,1,0,0:0:0:0:
256,192,81435,1,8,0:0:0:0:
256,192,81778,1,0,0:0:0:0:
256,192,81949,1,0,0:0:0:0:
256,192,82120,1,8,0:0:0:0:
256,192,82635,1,0,0:0:0:0:
256,192,82692,1,0,0:0:0:0:
256,192,82749,1,0,0:0:0:0:
256,192,82806,1,8,0:0:0:0:
256,192,82978,1,0,0:0:0:0:
256,192,83149,1,0,0:0:0:0:
256,192,83320,1,0,0:0:0:0:
256,192,83492,1,8,0:0:0:0:
256,192,83835,1,0,0:0:0:0:
256,192,83892,1,0,0:0:0:0:
256,192,83949,1,0,0:0:0:0:
256,192,84006,1,0,0:0:0:0:
256,192,84063,1,0,0:0:0:0:
256,192,84120,1,0,0:0:0:0:
256,192,84178,1,8,0:0:0:0:
256,192,84520,1,0,0:0:0:0:
256,192,84692,1,0,0:0:0:0:
256,192,84863,1,8,0:0:0:0:
256,192,85206,1,0,0:0:0:0:
256,192,85320,1,0,0:0:0:0:
256,192,85435,1,0,0:0:0:0:
256,192,85549,1,8,0:0:0:0:
256,192,85892,1,0,0:0:0:0:
256,192,85978,1,0,0:0:0:0:
256,192,86063,1,8,0:0:0:0:
256,192,86149,1,8,0:0:0:0:
256,192,86235,1,0,0:0:0:0:
256,192,86349,1,8,0:0:0:0:
256,192,86463,1,8,0:0:0:0:
256,192,86578,1,8,0:0:0:0:
256,192,86692,1,0,0:0:0:0:
256,192,86806,1,0,0:0:0:0:
256,192,86920,1,8,0:0:0:0:
256,192,87035,1,0,0:0:0:0:
256,192,87149,1,0,0:0:0:0:
256,192,87263,1,0,0:0:0:0:
256,192,87378,1,0,0:0:0:0:
256,192,87492,1,0,0:0:0:0:
256,192,87606,1,8,0:0:0:0:
256,192,87692,1,0,0:0:0:0:
256,192,87778,1,0,0:0:0:0:
256,192,87863,1,0,0:0:0:0:
256,192,87949,1,8,0:0:0:0:
256,192,88035,1,8,0:0:0:0:
256,192,88120,1,0,0:0:0:0:
256,192,88206,1,0,0:0:0:0:
256,192,88292,1,8,0:0:0:0:
256,192,88378,1,8,0:0:0:0:
256,192,88463,1,8,0:0:0:0:
256,192,88549,1,8,0:0:0:0:
256,192,88635,1,0,0:0:0:0:
256,192,88749,1,0,0:0:0:0:
256,192,88863,1,0,0:0:0:0:
256,192,88978,1,12,0:0:0:0:
256,192,90349,1,8,0:0:0:0:
256,192,91035,1,4,0:0:0:0:
256,192,91720,1,4,0:0:0:0:
256,192,92406,1,4,0:0:0:0:
256,192,93092,1,4,0:0:0:0:
256,192,93778,1,4,0:0:0:0:
256,192,95835,1,4,0:0:0:0:
256,192,97892,1,4,0:0:0:0:
256,192,98577,1,4,0:0:0:0:
256,192,99263,1,12,0:0:0:0:
256,192,104749,5,4,0:0:0:0:
256,192,105435,1,0,0:0:0:0:
256,192,106806,1,0,0:0:0:0:
256,192,108863,1,0,0:0:0:0:
256,192,109206,1,0,0:0:0:0:
256,192,109549,1,0,0:0:0:0:
256,192,110235,1,0,0:0:0:0:
256,192,110577,1,8,0:0:0:0:
256,192,110663,1,0,0:0:0:0:
256,192,110749,1,8,0:0:0:0:
256,192,110835,1,8,0:0:0:0:
256,192,110920,1,0,0:0:0:0:
256,192,111262,1,0,0:0:0:0:
256,192,112291,1,0,0:0:0:0:
256,192,112462,1,0,0:0:0:0:
256,192,113148,1,0,0:0:0:0:
256,192,113320,1,8,0:0:0:0:
256,192,113491,1,8,0:0:0:0:
256,192,113662,1,0,0:0:0:0:
256,192,114005,1,0,0:0:0:0:
256,192,114348,1,8,0:0:0:0:
256,192,114434,1,0,0:0:0:0:
256,192,114520,1,0,0:0:0:0:
256,192,114605,1,8,0:0:0:0:
256,192,114691,1,8,0:0:0:0:
256,192,114862,1,8,0:0:0:0:
256,192,115034,1,8,0:0:0:0:
256,192,115205,1,0,0:0:0:0:
256,192,115291,1,8,0:0:0:0:
256,192,115377,1,0,0:0:0:0:
256,192,115462,1,0,0:0:0:0:
256,192,115548,1,0,0:0:0:0:
256,192,115634,1,0,0:0:0:0:
256,192,115720,1,8,0:0:0:0:
256,192,115891,1,0,0:0:0:0:
256,192,115977,1,8,0:0:0:0:
256,192,116062,1,0,0:0:0:0:
256,192,116234,1,8,0:0:0:0:
256,192,116320,1,8,0:0:0:0:
256,192,116405,1,0,0:0:0:0:
256,192,116748,1,0,0:0:0:0:
256,192,117091,1,0,0:0:0:0:
256,192,117205,1,0,0:0:0:0:
256,192,117320,1,0,0:0:0:0:
256,192,117434,1,0,0:0:0:0:
256,192,117548,1,0,0:0:0:0:
256,192,117662,1,0,0:0:0:0:
256,192,117777,1,8,0:0:0:0:
256,192,117948,1,0,0:0:0:0:
256,192,118634,1,0,0:0:0:0:
256,192,118805,1,8,0:0:0:0:
256,192,118977,1,8,0:0:0:0:
256,192,119148,1,0,0:0:0:0:
256,192,119491,1,0,0:0:0:0:
256,192,119834,1,8,0:0:0:0:
256,192,120005,1,0,0:0:0:0:
256,192,120348,1,0,0:0:0:0:
256,192,120520,1,8,0:0:0:0:
256,192,120691,1,0,0:0:0:0:
256,192,120862,1,0,0:0:0:0:
256,192,121034,1,0,0:0:0:0:
256,192,121205,1,8,0:0:0:0:
256,192,121291,1,8,0:0:0:0:
256,192,121377,1,0,0:0:0:0:
256,192,121462,1,0,0:0:0:0:
256,192,121548,1,8,0:0:0:0:
256,192,121634,1,8,0:0:0:0:
256,192,121720,1,8,0:0:0:0:
256,192,121805,1,8,0:0:0:0:
256,192,121891,1,0,0:0:0:0:
256,192,122062,1,8,0:0:0:0:
256,192,122234,1,0,0:0:0:0:
256,192,122405,1,0,0:0:0:0:
256,192,122577,1,8,0:0:0:0:
256,192,122662,1,0,0:0:0:0:
256,192,122748,1,0,0:0:0:0:
256,192,122834,1,0,0:0:0:0:
256,192,122920,1,8,0:0:0:0:
256,192,123005,1,0,0:0:0:0:
256,192,123091,1,0,0:0:0:0:
256,192,123177,1,0,0:0:0:0:
256,192,123262,1,8,0:0:0:0:
256,192,123434,1,0,0:0:0:0:
256,192,123605,1,8,0:0:0:0:
256,192,123691,1,8,0:0:0:0:
256,192,123777,1,0,0:0:0:0:
256,192,123862,1,0,0:0:0:0:
256,192,123948,1,8,0:0:0:0:
256,192,124120,1,0,0:0:0:0:
256,192,124291,1,8,0:0:0:0:
256,192,124462,1,8,0:0:0:0:
256,192,124634,1,0,0:0:0:0:
256,192,124805,1,8,0:0:0:0:
256,192,124977,1,0,0:0:0:0:
256,192,125148,1,0,0:0:0:0:
256,192,125320,1,8,0:0:0:0:
256,192,125405,1,0,0:0:0:0:
256,192,125491,1,0,0:0:0:0:
256,192,125577,1,0,0:0:0:0:
256,192,125662,1,8,0:0:0:0:
256,192,125748,1,8,0:0:0:0:
256,192,125834,1,0,0:0:0:0:
256,192,125920,1,0,0:0:0:0:
256,192,126005,1,8,0:0:0:0:
256,192,126091,1,8,0:0:0:0:
256,192,126177,1,8,0:0:0:0:
256,192,126262,1,8,0:0:0:0:
256,192,126348,1,0,0:0:0:0:
256,192,126434,1,0,0:0:0:0:
256,192,126520,1,0,0:0:0:0:
256,192,126605,1,0,0:0:0:0:
256,192,126691,1,8,0:0:0:0:
256,192,127377,1,0,0:0:0:0:
256,192,127720,1,0,0:0:0:0:
256,192,128577,1,0,0:0:0:0:
256,192,128662,1,0,0:0:0:0:
256,192,128748,1,8,0:0:0:0:
256,192,128920,1,0,0:0:0:0:
256,192,129605,1,0,0:0:0:0:
256,192,129777,1,8,0:0:0:0:
256,192,129948,1,8,0:0:0:0:
256,192,130120,1,0,0:0:0:0:
256,192,130462,1,0,0:0:0:0:
256,192,131491,1,8,0:0:0:0:
256,192,131834,1,0,0:0:0:0:
256,192,132005,1,0,0:0:0:0:
256,192,132177,1,0,0:0:0:0:
256,192,132691,1,8,0:0:0:0:
256,192,132862,1,0,0:0:0:0:
256,192,133205,1,0,0:0:0:0:
256,192,133891,1,0,0:0:0:0:
256,192,134062,1,0,0:0:0:0:
256,192,134234,1,8,0:0:0:0:
256,192,134405,1,0,0:0:0:0:
256,192,134577,1,8,0:0:0:0:
256,192,134662,1,8,0:0:0:0:
256,192,134748,1,8,0:0:0:0:
256,192,134920,1,0,0:0:0:0:
256,192,135091,1,0,0:0:0:0:
256,192,135262,1,8,0:0:0:0:
256,192,135434,1,8,0:0:0:0:
256,192,135605,1,0,0:0:0:0:
256,192,135948,1,0,0:0:0:0:
256,192,136291,1,0,0:0:0:0:
256,192,136462,1,0,0:0:0:0:
256,192,136634,1,0,0:0:0:0:
256,192,136805,1,0,0:0:0:0:
256,192,136977,1,8,0:0:0:0:
256,192,137062,1,8,0:0:0:0:
256,192,137148,1,8,0:0:0:0:
256,192,137234,1,8,0:0:0:0:
256,192,137320,1,0,0:0:0:0:
256,192,137405,1,0,0:0:0:0:
256,192,137491,1,0,0:0:0:0:
256,192,137577,1,0,0:0:0:0:
256,192,137662,1,8,0:0:0:0:
256,192,137748,1,8,0:0:0:0:
256,192,137834,1,0,0:0:0:0:
256,192,137920,1,0,0:0:0:0:
256,192,138005,1,8,0:0:0:0:
256,192,138091,1,0,0:0:0:0:
256,192,138177,1,0,0:0:0:0:
256,192,138262,1,0,0:0:0:0:
256,192,138348,1,8,0:0:0:0:
256,192,138391,1,8,0:0:0:0:
256,192,138434,1,0,0:0:0:0:
256,192,138477,1,0,0:0:0:0:
256,192,138520,1,8,0:0:0:0:
256,192,138605,1,0,0:0:0:0:
256,192,138691,1,8,0:0:0:0:
256,192,138777,1,0,0:0:0:0:
256,192,138820,1,0,0:0:0:0:
256,192,138862,1,0,0:0:0:0:
256,192,138948,1,8,0:0:0:0:
256,192,139034,1,0,0:0:0:0:
256,192,139077,1,0,0:0:0:0:
256,192,139120,1,0,0:0:0:0:
256,192,139162,1,0,0:0:0:0:
256,192,139205,1,8,0:0:0:0:
256,192,139291,1,0,0:0:0:0:
256,192,139377,1,8,0:0:0:0:
256,192,139462,1,0,0:0:0:0:
256,192,139505,1,0,0:0:0:0:
256,192,139548,1,8,0:0:0:0:
256,192,139634,1,0,0:0:0:0:
256,192,139720,1,8,0:0:0:0:
256,192,139762,1,0,0:0:0:0:
256,192,139805,1,8,0:0:0:0:
256,192,139848,1,0,0:0:0:0:
256,192,139891,1,8,0:0:0:0:
256,192,139977,1,0,0:0:0:0:
256,192,140062,1,8,0:0:0:0:
256,192,140148,1,0,0:0:0:0:
256,192,140191,1,0,0:0:0:0:
256,192,140234,1,0,0:0:0:0:
256,192,140320,1,8,0:0:0:0:
256,192,140405,1,0,0:0:0:0:
256,192,140448,1,0,0:0:0:0:
256,192,140491,1,0,0:0:0:0:
256,192,140534,1,0,0:0:0:0:
256,192,140577,1,8,0:0:0:0:
256,192,140662,1,0,0:0:0:0:
256,192,140748,1,8,0:0:0:0:
256,192,140834,1,0,0:0:0:0:
256,192,140877,1,0,0:0:0:0:
256,192,140920,1,8,0:0:0:0:
256,192,141005,1,0,0:0:0:0:
256,192,141091,1,8,0:0:0:0:
256,192,141134,1,8,0:0:0:0:
256,192,141177,1,0,0:0:0:0:
256,192,141220,1,0,0:0:0:0:
256,192,141262,1,8,0:0:0:0:
256,192,141348,1,0,0:0:0:0:
256,192,141434,1,8,0:0:0:0:
256,192,141520,1,0,0:0:0:0:
256,192,141562,1,0,0:0:0:0:
256,192,141605,1,0,0:0:0:0:
256,192,141691,1,8,0:0:0:0:
256,192,141777,1,0,0:0:0:0:
256,192,141820,1,0,0:0:0:0:
256,192,141862,1,0,0:0:0:0:
256,192,141905,1,0,0:0:0:0:
256,192,141948,1,8,0:0:0:0:
256,192,142034,1,0,0:0:0:0:
256,192,142120,1,8,0:0:0:0:
256,192,142205,1,0,0:0:0:0:
256,192,142248,1,0,0:0:0:0:
256,192,142291,1,8,0:0:0:0:
256,192,142377,1,0,0:0:0:0:
256,192,142462,1,8,0:0:0:0:
256,192,142520,1,8,0:0:0:0:
256,192,142577,1,8,0:0:0:0:
256,192,142634,1,0,0:0:0:0:
256,192,142720,1,0,0:0:0:0:
256,192,142805,1,8,0:0:0:0:
256,192,142862,1,8,0:0:0:0:
256,192,142920,1,8,0:0:0:0:
256,192,142977,1,0,0:0:0:0:
256,192,143062,1,0,0:0:0:0:
256,192,143148,1,8,0:0:0:0:
256,192,143205,1,0,0:0:0:0:
256,192,143262,1,0,0:0:0:0:
256,192,143320,1,0,0:0:0:0:
256,192,143405,1,8,0:0:0:0:
256,192,143491,1,0,0:0:0:0:
256,192,143548,1,0,0:0:0:0:
256,192,143605,1,0,0:0:0:0:
256,192,143662,1,8,0:0:0:0:
256,192,143748,1,0,0:0:0:0:
256,192,143834,1,8,0:0:0:0:
256,192,143877,1,8,0:0:0:0:
256,192,143920,1,0,0:0:0:0:
256,192,143962,1,0,0:0:0:0:
256,192,144005,1,8,0:0:0:0:
256,192,144091,1,0,0:0:0:0:
256,192,144177,1,8,0:0:0:0:
256,192,144262,1,0,0:0:0:0:
256,192,144305,1,0,0:0:0:0:
256,192,144348,1,0,0:0:0:0:
256,192,144434,1,8,0:0:0:0:
256,192,144520,1,0,0:0:0:0:
256,192,144562,1,0,0:0:0:0:
256,192,144605,1,0,0:0:0:0:
256,192,144648,1,0,0:0:0:0:
256,192,144691,1,8,0:0:0:0:
256,192,144777,1,0,0:0:0:0:
256,192,144862,1,8,0:0:0:0:
256,192,144948,1,0,0:0:0:0:
256,192,144991,1,0,0:0:0:0:
256,192,145034,1,8,0:0:0:0:
256,192,145120,1,0,0:0:0:0:
256,192,145205,1,8,0:0:0:0:
256,192,145248,1,0,0:0:0:0:
256,192,145291,1,8,0:0:0:0:
256,192,145334,1,0,0:0:0:0:
256,192,145377,1,8,0:0:0:0:
256,192,145462,1,0,0:0:0:0:
256,192,145548,1,8,0:0:0:0:
256,192,145634,1,0,0:0:0:0:
256,192,145677,1,0,0:0:0:0:
256,192,145720,1,0,0:0:0:0:
256,192,145805,1,8,0:0:0:0:
256,192,145891,1,0,0:0:0:0:
256,192,145934,1,0,0:0:0:0:
256,192,145977,1,0,0:0:0:0:
256,192,146020,1,0,0:0:0:0:
256,192,146062,1,8,0:0:0:0:
256,192,146148,1,0,0:0:0:0:
256,192,146234,1,8,0:0:0:0:
256,192,146320,1,0,0:0:0:0:
256,192,146362,1,0,0:0:0:0:
256,192,146405,1,8,0:0:0:0:
256,192,146491,1,0,0:0:0:0:
256,192,146577,1,8,0:0:0:0:
256,192,146620,1,8,0:0:0:0:
256,192,146662,1,0,0:0:0:0:
256,192,146705,1,0,0:0:0:0:
256,192,146748,1,8,0:0:0:0:
256,192,146834,1,0,0:0:0:0:
256,192,146920,1,8,0:0:0:0:
256,192,147005,1,0,0:0:0:0:
256,192,147048,1,0,0:0:0:0:
256,192,147091,1,0,0:0:0:0:
256,192,147177,1,8,0:0:0:0:
256,192,147262,1,0,0:0:0:0:
256,192,147305,1,0,0:0:0:0:
256,192,147348,1,0,0:0:0:0:
256,192,147391,1,0,0:0:0:0:
256,192,147434,1,8,0:0:0:0:
256,192,147520,1,0,0:0:0:0:
256,192,147605,1,8,0:0:0:0:
256,192,147691,1,0,0:0:0:0:
256,192,147734,1,0,0:0:0:0:
256,192,147777,1,8,0:0:0:0:
256,192,147862,1,0,0:0:0:0:
256,192,147948,1,8,0:0:0:0:
256,192,148034,1,8,0:0:0:0:
256,192,148120,1,8,0:0:0:0:
256,192,148205,1,8,0:0:0:0:
256,192,148291,1,0,0:0:0:0:
256,192,148377,1,0,0:0:0:0:
256,192,148462,1,0,0:0:0:0:
256,192,148548,1,0,0:0:0:0:
256,192,148634,1,8,0:0:0:0:
256,192,148720,1,0,0:0:0:0:
256,192,148805,1,0,0:0:0:0:
256,192,148891,1,0,0:0:0:0:
256,192,148977,1,8,0:0:0:0:
256,192,149062,1,8,0:0:0:0:
256,192,149148,1,0,0:0:0:0:
256,192,149234,1,0,0:0:0:0:
256,192,149320,1,8,0:0:0:0:
256,192,149405,1,0,0:0:0:0:
256,192,149491,1,0,0:0:0:0:
256,192,149577,1,0,0:0:0:0:
256,192,149662,1,8,0:0:0:0:
256,192,149748,1,8,0:0:0:0:
256,192,149834,1,0,0:0:0:0:
256,192,149920,1,0,0:0:0:0:
256,192,150005,1,8,0:0:0:0:
256,192,150091,1,8,0:0:0:0:
256,192,150177,1,8,0:0:0:0:
256,192,150262,1,8,0:0:0:0:
256,192,150348,1,0,0:0:0:0:
256,192,150434,1,0,0:0:0:0:
256,192,150520,1,0,0:0:0:0:
256,192,150605,1,0,0:0:0:0:
256,192,150691,1,8,0:0:0:0:
256,192,150777,1,0,0:0:0:0:
256,192,150862,1,0,0:0:0:0:
256,192,150948,1,0,0:0:0:0:
256,192,151034,1,8,0:0:0:0:
256,192,151120,1,8,0:0:0:0:
256,192,151205,1,0,0:0:0:0:
256,192,151291,1,0,0:0:0:0:
256,192,151377,1,8,0:0:0:0:
256,192,151462,1,8,0:0:0:0:
256,192,151548,1,8,0:0:0:0:
256,192,151634,1,8,0:0:0:0:
256,192,151720,1,0,0:0:0:0:
256,192,151805,1,0,0:0:0:0:
256,192,151891,1,0,0:0:0:0:
256,192,151977,1,0,0:0:0:0:
256,192,152062,1,8,0:0:0:0:
256,192,152148,1,0,0:0:0:0:
256,192,152234,1,8,0:0:0:0:
256,192,152320,1,0,0:0:0:0:
256,192,152405,1,8,0:0:0:0:
256,192,152462,1,8,0:0:0:0:
256,192,152520,1,8,0:0:0:0:
256,192,152577,1,0,0:0:0:0:
256,192,152634,1,0,0:0:0:0:
256,192,152691,1,0,0:0:0:0:
256,192,152748,1,8,0:0:0:0:
256,192,152834,1,0,0:0:0:0:
256,192,152920,1,8,0:0:0:0:
256,192,153005,1,8,0:0:0:0:
256,192,153091,1,0,0:0:0:0:
256,192,153177,1,8,0:0:0:0:
256,192,153262,1,0,0:0:0:0:
256,192,153348,1,0,0:0:0:0:
256,192,153434,1,8,0:0:0:0:
256,192,153520,1,0,0:0:0:0:
256,192,153605,1,8,0:0:0:0:
256,192,153691,1,0,0:0:0:0:
256,192,153777,1,8,0:0:0:0:
256,192,153862,1,8,0:0:0:0:
256,192,153948,1,0,0:0:0:0:
256,192,154034,1,0,0:0:0:0:
256,192,154120,1,8,0:0:0:0:
256,192,154205,1,0,0:0:0:0:
256,192,154291,1,8,0:0:0:0:
256,192,154377,1,8,0:0:0:0:
256,192,154462,1,0,0:0:0:0:
256,192,154548,1,8,0:0:0:0:
256,192,154634,1,0,0:0:0:0:
256,192,154720,1,0,0:0:0:0:
256,192,154805,1,8,0:0:0:0:
256,192,154891,1,0,0:0:0:0:
256,192,154977,1,0,0:0:0:0:
256,192,155062,1,8,0:0:0:0:
256,192,155148,1,8,0:0:0:0:
256,192,155234,1,0,0:0:0:0:
256,192,155320,1,0,0:0:0:0:
256,192,155405,1,0,0:0:0:0:
256,192,155491,1,8,0:0:0:0:
256,192,155577,1,0,0:0:0:0:
256,192,155662,1,8,0:0:0:0:
256,192,155748,1,0,0:0:0:0:
256,192,155834,1,8,0:0:0:0:
256,192,155920,1,0,0:0:0:0:
256,192,156005,1,0,0:0:0:0:
256,192,156091,1,0,0:0:0:0:
256,192,156177,1,8,0:0:0:0:
256,192,156262,1,0,0:0:0:0:
256,192,156348,1,0,0:0:0:0:
256,192,156434,1,8,0:0:0:0:
256,192,156520,1,8,0:0:0:0:
256,192,156605,1,0,0:0:0:0:
256,192,156691,1,0,0:0:0:0:
256,192,156777,1,0,0:0:0:0:
256,192,156862,1,8,0:0:0:0:
256,192,156948,1,0,0:0:0:0:
256,192,157034,1,0,0:0:0:0:
256,192,157120,1,0,0:0:0:0:
256,192,157205,1,8,0:0:0:0:
256,192,157291,1,8,0:0:0:0:
256,192,157377,1,0,0:0:0:0:
256,192,157462,1,0,0:0:0:0:
256,192,157548,1,8,0:0:0:0:
256,192,157634,1,0,0:0:0:0:
256,192,157720,1,8,0:0:0:0:
256,192,157805,1,0,0:0:0:0:
256,192,157891,1,8,0:0:0:0:
256,192,157948,1,8,0:0:0:0:
256,192,158005,1,8,0:0:0:0:
256,192,158062,1,0,0:0:0:0:
256,192,158120,1,0,0:0:0:0:
256,192,158177,1,0,0:0:0:0:
256,192,158234,1,8,0:0:0:0:
256,192,158320,1,0,0:0:0:0:
256,192,158405,1,8,0:0:0:0:
256,192,158491,1,8,0:0:0:0:
256,192,158577,1,0,0:0:0:0:
256,192,158662,1,8,0:0:0:0:
256,192,158748,1,0,0:0:0:0:
256,192,158834,1,0,0:0:0:0:
256,192,158920,1,8,0:0:0:0:
256,192,159005,1,8,0:0:0:0:
256,192,159091,1,0,0:0:0:0:
256,192,159177,1,0,0:0:0:0:
256,192,159262,1,8,0:0:0:0:
256,192,159348,1,0,0:0:0:0:
256,192,159434,1,8,0:0:0:0:
256,192,159520,1,0,0:0:0:0:
256,192,159605,1,8,0:0:0:0:
256,192,159691,1,8,0:0:0:0:
256,192,159777,1,0,0:0:0:0:
256,192,159862,1,0,0:0:0:0:
256,192,159948,1,8,0:0:0:0:
256,192,160034,1,8,0:0:0:0:
256,192,160120,1,8,0:0:0:0:
256,192,160205,1,8,0:0:0:0:
256,192,160291,1,0,0:0:0:0:
256,192,162691,1,8,0:0:0:0:
256,192,162748,1,0,0:0:0:0:
256,192,162805,1,0,0:0:0:0:
256,192,162862,1,0,0:0:0:0:
256,192,162920,1,0,0:0:0:0:
256,192,162977,1,0,0:0:0:0:
256,192,163034,1,8,0:0:0:0:
256,192,163091,1,8,0:0:0:0:
256,192,163148,1,0,0:0:0:0:
256,192,163205,1,0,0:0:0:0:
256,192,163262,1,0,0:0:0:0:
256,192,163320,1,0,0:0:0:0:
256,192,163377,1,8,0:0:0:0:
256,192,163434,1,8,0:0:0:0:
256,192,163491,1,0,0:0:0:0:
256,192,163548,1,0,0:0:0:0:
256,192,163605,1,0,0:0:0:0:
256,192,163662,1,0,0:0:0:0:
256,192,163720,1,8,0:0:0:0:
256,192,163777,1,0,0:0:0:0:
256,192,163834,1,8,0:0:0:0:
256,192,163891,1,8,0:0:0:0:
256,192,163948,1,0,0:0:0:0:
256,192,164005,1,0,0:0:0:0:
256,192,164062,1,8,0:0:0:0:
256,192,164120,1,0,0:0:0:0:
256,192,164177,1,8,0:0:0:0:
256,192,164234,1,8,0:0:0:0:
256,192,164291,1,0,0:0:0:0:
256,192,164348,1,0,0:0:0:0:
256,192,164405,1,8,0:0:0:0:
256,192,164462,1,0,0:0:0:0:
256,192,164520,1,8,0:0:0:0:
256,192,164577,1,0,0:0:0:0:
256,192,164634,1,8,0:0:0:0:
256,192,164691,1,0,0:0:0:0:
256,192,164748,1,8,0:0:0:0:
256,192,164805,1,8,0:0:0:0:
256,192,164862,1,8,0:0:0:0:
256,192,164920,1,8,0:0:0:0:
256,192,164977,1,0,0:0:0:0:
256,192,165034,1,0,0:0:0:0:
256,192,165091,1,8,0:0:0:0:
256,192,165148,1,0,0:0:0:0:
256,192,165205,1,8,0:0:0:0:
256,192,165262,1,0,0:0:0:0:
256,192,165320,1,8,0:0:0:0:
256,192,165377,1,0,0:0:0:0:
256,192,165434,1,8,0:0:0:0:
256,192,165491,1,8,0:0:0:0:
256,192,165548,1,8,0:0:0:0:
256,192,165605,1,8,0:0:0:0:
256,192,165662,1,0,0:0:0:0:
256,192,165720,1,0,0:0:0:0:
256,192,165777,1,8,0:0:0:0:
256,192,165834,1,8,0:0:0:0:
256,192,165891,1,0,0:0:0:0:
256,192,165948,1,0,0:0:0:0:
256,192,166005,1,0,0:0:0:0:
256,192,166062,1,0,0:0:0:0:
256,192,166120,1,8,0:0:0:0:
256,192,166177,1,8,0:0:0:0:
256,192,166234,1,0,0:0:0:0:
256,192,166291,1,0,0:0:0:0:
256,192,166348,1,0,0:0:0:0:
256,192,166405,1,0,0:0:0:0:
256,192,166462,1,8,0:0:0:0:
256,192,166520,1,0,0:0:0:0:
256,192,166577,1,8,0:0:0:0:
256,192,166634,1,8,0:0:0:0:
256,192,166691,1,0,0:0:0:0:
256,192,166748,1,0,0:0:0:0:
256,192,166805,1,8,0:0:0:0:
256,192,166862,1,0,0:0:0:0:
256,192,166920,1,8,0:0:0:0:
256,192,166977,1,8,0:0:0:0:
256,192,167034,1,0,0:0:0:0:
256,192,167091,1,0,0:0:0:0:
256,192,167148,1,8,0:0:0:0:
256,192,167205,1,0,0:0:0:0:
256,192,167262,1,8,0:0:0:0:
256,192,167320,1,0,0:0:0:0:
256,192,167377,1,8,0:0:0:0:
256,192,167434,1,0,0:0:0:0:
256,192,167491,1,8,0:0:0:0:
256,192,167548,1,8,0:0:0:0:
256,192,167605,1,8,0:0:0:0:
256,192,167662,1,8,0:0:0:0:
256,192,167720,1,0,0:0:0:0:
256,192,167777,1,0,0:0:0:0:
256,192,167834,1,8,0:0:0:0:
256,192,167891,1,8,0:0:0:0:
256,192,167948,1,8,0:0:0:0:
256,192,168005,1,8,0:0:0:0:
256,192,168062,1,8,0:0:0:0:
256,192,168120,1,8,0:0:0:0:
256,192,168177,1,0,0:0:0:0:
256,192,168234,1,0,0:0:0:0:
256,192,168291,1,0,0:0:0:0:
256,192,168348,1,0,0:0:0:0:
256,192,168405,1,0,0:0:0:0:
256,192,168462,1,0,0:0:0:0:
256,192,168520,1,8,0:0:0:0:
256,192,168577,1,8,0:0:0:0:
256,192,168634,1,0,0:0:0:0:
256,192,168691,1,0,0:0:0:0:
256,192,168748,1,0,0:0:0:0:
256,192,168805,1,0,0:0:0:0:
256,192,168862,1,8,0:0:0:0:
256,192,168920,1,8,0:0:0:0:
256,192,168977,1,0,0:0:0:0:
256,192,169034,1,0,0:0:0:0:
256,192,169091,1,0,0:0:0:0:
256,192,169148,1,0,0:0:0:0:
256,192,169205,1,8,0:0:0:0:
256,192,169262,1,0,0:0:0:0:
256,192,169320,1,8,0:0:0:0:
256,192,169377,1,8,0:0:0:0:
256,192,169434,1,0,0:0:0:0:
256,192,169491,1,0,0:0:0:0:
256,192,169548,1,8,0:0:0:0:
256,192,169605,1,0,0:0:0:0:
256,192,169662,1,8,0:0:0:0:
256,192,169720,1,8,0:0:0:0:
256,192,169777,1,0,0:0:0:0:
256,192,169834,1,0,0:0:0:0:
256,192,169891,1,8,0:0:0:0:
256,192,169948,1,0,0:0:0:0:
256,192,170005,1,8,0:0:0:0:
256,192,170062,1,0,0:0:0:0:
256,192,170120,1,8,0:0:0:0:
256,192,170177,1,0,0:0:0:0:
256,192,170234,1,8,0:0:0:0:
256,192,170291,1,8,0:0:0:0:
256,192,170348,1,8,0:0:0:0:
256,192,170405,1,8,0:0:0:0:
256,192,170462,1,0,0:0:0:0:
256,192,170520,1,0,0:0:0:0:
256,192,170577,1,8,0:0:0:0:
256,192,170634,1,0,0:0:0:0:
256,192,170691,1,8,0:0:0:0:
256,192,170748,1,0,0:0:0:0:
256,192,170805,1,8,0:0:0:0:
256,192,170862,1,0,0:0:0:0:
256,192,170920,1,8,0:0:0:0:
256,192,170977,1,8,0:0:0:0:
256,192,171034,1,8,0:0:0:0:
256,192,171091,1,8,0:0:0:0:
256,192,171148,1,0,0:0:0:0:
256,192,171205,1,0,0:0:0:0:
256,192,171262,1,8,0:0:0:0:
256,192,171320,1,8,0:0:0:0:
256,192,171377,1,8,0:0:0:0:
256,192,171434,1,8,0:0:0:0:
256,192,171491,1,8,0:0:0:0:
256,192,171548,1,8,0:0:0:0:
256,192,171605,1,0,0:0:0:0:
256,192,171662,1,0,0:0:0:0:
256,192,171720,1,0,0:0:0:0:
256,192,171777,1,0,0:0:0:0:
256,192,171834,1,0,0:0:0:0:
256,192,171891,1,0,0:0:0:0:
256,192,171948,1,8,0:0:0:0:
256,192,172005,1,8,0:0:0:0:
256,192,172062,1,8,0:0:0:0:
256,192,172120,1,0,0:0:0:0:
256,192,172177,1,0,0:0:0:0:
256,192,172234,1,0,0:0:0:0:
256,192,172291,1,8,0:0:0:0:
256,192,172348,1,8,0:0:0:0:
256,192,172405,1,0,0:0:0:0:
256,192,172462,1,0,0:0:0:0:
256,192,172520,1,0,0:0:0:0:
256,192,172577,1,0,0:0:0:0:
256,192,172634,1,8,0:0:0:0:
256,192,172691,1,8,0:0:0:0:
256,192,172748,1,8,0:0:0:0:
256,192,172805,1,8,0:0:0:0:
256,192,172862,1,0,0:0:0:0:
256,192,172920,1,0,0:0:0:0:
256,192,172977,1,8,0:0:0:0:
256,192,173034,1,8,0:0:0:0:
256,192,173091,1,8,0:0:0:0:
256,192,173148,1,0,0:0:0:0:
256,192,173205,1,0,0:0:0:0:
256,192,173262,1,0,0:0:0:0:
256,192,173320,1,8,0:0:0:0:
256,192,173377,1,8,0:0:0:0:
256,192,173434,1,8,0:0:0:0:
256,192,173491,1,8,0:0:0:0:
256,192,173548,1,8,0:0:0:0:
256,192,173605,1,8,0:0:0:0:
256,192,173662,1,0,0:0:0:0:
256,192,173720,1,0,0:0:0:0:
256,192,173777,1,0,0:0:0:0:
256,192,173834,1,0,0:0:0:0:
256,192,173891,1,0,0:0:0:0:
256,192,173948,1,0,0:0:0:0:
256,192,174005,1,8,0:0:0:0:
256,192,174062,1,8,0:0:0:0:
256,192,174120,1,0,0:0:0:0:
256,192,174177,1,0,0:0:0:0:
256,192,174234,1,0,0:0:0:0:
256,192,174291,1,0,0:0:0:0:
256,192,174348,1,8,0:0:0:0:
256,192,174405,1,8,0:0:0:0:
256,192,174462,1,0,0:0:0:0:
256,192,174520,1,0,0:0:0:0:
256,192,174577,1,0,0:0:0:0:
256,192,174634,1,0,0:0:0:0:
256,192,174691,1,8,0:0:0:0:
256,192,174748,1,0,0:0:0:0:
256,192,174805,1,8,0:0:0:0:
256,192,174862,1,8,0:0:0:0:
256,192,174920,1,0,0:0:0:0:
256,192,174977,1,0,0:0:0:0:
256,192,175034,1,8,0:0:0:0:
256,192,175091,1,0,0:0:0:0:
256,192,175148,1,8,0:0:0:0:
256,192,175205,1,8,0:0:0:0:
256,192,175262,1,0,0:0:0:0:
256,192,175320,1,0,0:0:0:0:
256,192,175377,1,8,0:0:0:0:
256,192,175434,1,0,0:0:0:0:
256,192,175491,1,8,0:0:0:0:
256,192,175548,1,0,0:0:0:0:
256,192,175605,1,8,0:0:0:0:
256,192,175662,1,0,0:0:0:0:
256,192,175720,1,8,0:0:0:0:
256,192,175777,1,8,0:0:0:0:
256,192,175834,1,8,0:0:0:0:
256,192,175891,1,8,0:0:0:0:
256,192,175948,1,0,0:0:0:0:
256,192,176005,1,0,0:0:0:0:
256,192,176062,1,8,0:0:0:0:
256,192,176120,1,0,0:0:0:0:
256,192,176177,1,8,0:0:0:0:
256,192,176234,1,0,0:0:0:0:
256,192,176291,1,8,0:0:0:0:
256,192,176348,1,0,0:0:0:0:
256,192,176405,1,8,0:0:0:0:
256,192,176462,1,8,0:0:0:0:
256,192,176520,1,8,0:0:0:0:
256,192,176577,1,8,0:0:0:0:
256,192,176634,1,0,0:0:0:0:
256,192,176691,1,0,0:0:0:0:
256,192,176748,1,8,0:0:0:0:
256,192,176805,1,8,0:0:0:0:
256,192,176862,1,0,0:0:0:0:
256,192,176920,1,0,0:0:0:0:
256,192,176977,1,0,0:0:0:0:
256,192,177034,1,0,0:0:0:0:
256,192,177091,1,8,0:0:0:0:
256,192,177148,1,8,0:0:0:0:
256,192,177205,1,0,0:0:0:0:
256,192,177262,1,0,0:0:0:0:
256,192,177320,1,0,0:0:0:0:
256,192,177377,1,0,0:0:0:0:
256,192,177434,1,8,0:0:0:0:
256,192,177491,1,0,0:0:0:0:
256,192,177548,1,8,0:0:0:0:
256,192,177605,1,8,0:0:0:0:
256,192,177662,1,0,0:0:0:0:
256,192,177720,1,0,0:0:0:0:
256,192,177777,1,8,0:0:0:0:
256,192,177834,1,0,0:0:0:0:
256,192,177891,1,8,0:0:0:0:
256,192,177948,1,8,0:0:0:0:
256,192,178005,1,0,0:0:0:0:
256,192,178062,1,0,0:0:0:0:
256,192,178120,1,8,0:0:0:0:
256,192,178234,1,0,0:0:0:0:
256,192,178348,1,0,0:0:0:0:
256,192,178462,1,8,0:0:0:0:
256,192,178520,1,8,0:0:0:0:
256,192,178577,1,8,0:0:0:0:
256,192,178634,1,8,0:0:0:0:
256,192,178691,1,8,0:0:0:0:
256,192,178748,1,8,0:0:0:0:
256,192,178805,1,0,0:0:0:0:
256,192,178862,1,0,0:0:0:0:
256,192,178920,1,0,0:0:0:0:
256,192,178977,1,0,0:0:0:0:
256,192,179034,1,0,0:0:0:0:
256,192,179091,1,0,0:0:0:0:
256,192,179148,1,8,0:0:0:0:
256,192,179320,1,0,0:0:0:0:
256,192,179491,1,8,0:0:0:0:
256,192,179548,1,8,0:0:0:0:
256,192,179605,1,0,0:0:0:0:
256,192,179662,1,0,0:0:0:0:
256,192,179720,1,0,0:0:0:0:
256,192,179777,1,0,0:0:0:0:
256,192,179834,1,8,0:0:0:0:
256,192,179891,1,8,0:0:0:0:
256,192,179948,1,0,0:0:0:0:
256,192,180005,1,0,0:0:0:0:
256,192,180062,1,0,0:0:0:0:
256,192,180120,1,0,0:0:0:0:
256,192,180177,1,8,0:0:0:0:
256,192,180234,1,8,0:0:0:0:
256,192,180291,1,8,0:0:0:0:
256,192,180348,1,8,0:0:0:0:
256,192,180405,1,8,0:0:0:0:
256,192,180462,1,8,0:0:0:0:
256,192,180520,1,0,0:0:0:0:
256,192,180577,1,0,0:0:0:0:
256,192,180634,1,0,0:0:0:0:
256,192,180691,1,0,0:0:0:0:
256,192,180748,1,0,0:0:0:0:
256,192,180805,1,0,0:0:0:0:
256,192,180862,1,8,0:0:0:0:
256,192,180920,1,8,0:0:0:0:
256,192,180977,1,8,0:0:0:0:
256,192,181034,1,8,0:0:0:0:
256,192,181091,1,8,0:0:0:0:
256,192,181148,1,8,0:0:0:0:
256,192,181205,1,8,0:0:0:0:
256,192,181262,1,8,0:0:0:0:
256,192,181320,1,8,0:0:0:0:
256,192,181377,1,8,0:0:0:0:
256,192,181434,1,8,0:0:0:0:
256,192,181491,1,8,0:0:0:0:
256,192,181548,1,0,0:0:0:0:
256,192,181605,1,0,0:0:0:0:
256,192,181662,1,0,0:0:0:0:
256,192,181720,1,0,0:0:0:0:
256,192,181777,1,0,0:0:0:0:
256,192,181834,1,0,0:0:0:0:
256,192,181891,1,0,0:0:0:0:
256,192,181948,1,0,0:0:0:0:
256,192,182005,1,0,0:0:0:0:
256,192,182062,1,0,0:0:0:0:
256,192,182120,1,0,0:0:0:0:
256,192,182177,1,0,0:0:0:0:
256,192,182235,1,8,0:0:0:0:
256,192,182406,1,0,0:0:0:0:
256,192,182577,1,0,0:0:0:0:
256,192,182749,1,0,0:0:0:0:
256,192,183263,1,0,0:0:0:0:
256,192,183606,1,8,0:0:0:0:
256,192,183777,1,0,0:0:0:0:
256,192,183949,1,0,0:0:0:0:
256,192,184292,1,8,0:0:0:0:
256,192,184463,1,0,0:0:0:0:
256,192,184635,1,0,0:0:0:0:
256,192,184806,1,0,0:0:0:0:
256,192,185149,1,0,0:0:0:0:
256,192,185320,1,0,0:0:0:0:
256,192,185492,1,0,0:0:0:0:
256,192,185835,1,0,0:0:0:0:
256,192,186006,1,8,0:0:0:0:
256,192,186349,1,8,0:0:0:0:
256,192,186520,1,0,0:0:0:0:
256,192,186692,1,0,0:0:0:0:
256,192,186863,1,0,0:0:0:0:
256,192,187377,1,0,0:0:0:0:
256,192,187720,1,8,0:0:0:0:
256,192,187892,1,0,0:0:0:0:
256,192,188063,1,0,0:0:0:0:
256,192,188406,1,8,0:0:0:0:
256,192,188577,1,0,0:0:0:0:
256,192,188749,1,0,0:0:0:0:
256,192,188920,1,0,0:0:0:0:
256,192,189263,1,0,0:0:0:0:
256,192,189435,1,0,0:0:0:0:
256,192,189606,1,0,0:0:0:0:
256,192,189777,1,0,0:0:0:0:
256,192,189949,1,0,0:0:0:0:
256,192,190120,1,8,0:0:0:0:
256,192,190292,1,8,0:0:0:0:
256,192,190463,1,8,0:0:0:0:
256,192,190635,1,0,0:0:0:0:
256,192,190806,1,0,0:0:0:0:
256,192,190977,1,0,0:0:0:0:
256,192,191149,1,8,0:0:0:0:
256,192,191492,1,0,0:0:0:0:
256,192,191663,1,8,0:0:0:0:
256,192,191835,1,0,0:0:0:0:
256,192,192006,1,0,0:0:0:0:
256,192,192177,1,0,0:0:0:0:
256,192,192349,1,0,0:0:0:0:
256,192,192435,1,0,0:0:0:0:
256,192,192520,1,8,0:0:0:0:
256,192,192692,1,0,0:0:0:0:
256,192,192863,1,0,0:0:0:0:
256,192,193035,1,0,0:0:0:0:
256,192,193377,1,0,0:0:0:0:
256,192,193549,1,0,0:0:0:0:
256,192,193720,1,0,0:0:0:0:
256,192,193892,1,8,0:0:0:0:
256,192,194063,1,0,0:0:0:0:
256,192,194235,1,0,0:0:0:0:
256,192,194406,1,0,0:0:0:0:
256,192,194492,1,0,0:0:0:0:
256,192,194577,1,8,0:0:0:0:
256,192,194749,1,0,0:0:0:0:
256,192,194920,1,0,0:0:0:0:
256,192,195092,1,0,0:0:0:0:
256,192,195263,1,8,0:0:0:0:
256,192,195435,1,0,0:0:0:0:
256,192,195606,1,0,0:0:0:0:
256,192,195777,1,8,0:0:0:0:
256,192,195949,1,0,0:0:0:0:
256,192,196120,1,0,0:0:0:0:
256,192,196292,1,0,0:0:0:0:
256,192,196635,1,8,0:0:0:0:
256,192,196806,1,0,0:0:0:0:
256,192,196977,1,0,0:0:0:0:
256,192,197149,1,0,0:0:0:0:
256,192,197235,1,0,0:0:0:0:
256,192,197320,1,0,0:0:0:0:
256,192,197377,1,0,0:0:0:0:
256,192,197435,1,0,0:0:0:0:
256,192,197492,1,8,0:0:0:0:
256,192,197549,1,0,0:0:0:0:
256,192,197606,1,0,0:0:0:0:
256,192,197663,1,8,0:0:0:0:
256,192,197835,1,0,0:0:0:0:
256,192,198006,1,8,0:0:0:0:
256,192,198177,1,0,0:0:0:0:
256,192,198349,1,8,0:0:0:0:
256,192,198520,1,8,0:0:0:0:
256,192,198692,1,0,0:0:0:0:
256,192,203492,1,8,0:0:0:0:
256,192,203663,1,0,0:0:0:0:
256,192,203834,1,8,0:0:0:0:
256,192,204006,1,0,0:0:0:0:
256,192,204177,1,8,0:0:0:0:
256,192,204263,1,0,0:0:0:0:
256,192,204349,1,8,0:0:0:0:
256,192,204434,1,0,0:0:0:0:
256,192,204520,1,8,0:0:0:0:
256,192,204606,1,0,0:0:0:0:
256,192,204692,1,0,0:0:0:0:
256,192,204777,1,0,0:0:0:0:
256,192,204863,1,8,0:0:0:0:
256,192,204949,1,8,0:0:0:0:
256,192,205034,1,0,0:0:0:0:
256,192,205120,1,0,0:0:0:0:
256,192,205206,1,8,0:0:0:0:
256,192,205292,1,0,0:0:0:0:
256,192,205377,1,8,0:0:0:0:
256,192,205463,1,8,0:0:0:0:
256,192,205549,1,0,0:0:0:0:
256,192,205634,1,0,0:0:0:0:
256,192,205720,1,8,0:0:0:0:
256,192,205806,1,0,0:0:0:0:
256,192,205892,1,8,0:0:0:0:
256,192,205977,1,0,0:0:0:0:
256,192,206063,1,8,0:0:0:0:
256,192,206149,1,8,0:0:0:0:
256,192,206234,1,0,0:0:0:0:
256,192,206320,1,0,0:0:0:0:
256,192,206406,1,8,0:0:0:0:
256,192,206492,1,8,0:0:0:0:
256,192,206577,1,8,0:0:0:0:
256,192,206663,1,8,0:0:0:0:
256,192,206749,1,0,0:0:0:0:
256,192,206834,1,0,0:0:0:0:
256,192,206920,1,8,0:0:0:0:
256,192,207006,1,0,0:0:0:0:
256,192,207092,1,8,0:0:0:0:
256,192,207177,1,0,0:0:0:0:
256,192,207263,1,8,0:0:0:0:
256,192,207349,1,0,0:0:0:0:
256,192,207434,1,0,0:0:0:0:
256,192,207520,1,0,0:0:0:0:
256,192,207606,1,8,0:0:0:0:
256,192,207692,1,8,0:0:0:0:
256,192,207777,1,0,0:0:0:0:
256,192,207863,1,0,0:0:0:0:
256,192,207949,1,8,0:0:0:0:
256,192,208034,1,0,0:0:0:0:
256,192,208120,1,0,0:0:0:0:
256,192,208206,1,0,0:0:0:0:
256,192,208292,1,8,0:0:0:0:
256,192,208377,1,0,0:0:0:0:
256,192,208463,1,0,0:0:0:0:
256,192,208549,1,0,0:0:0:0:
256,192,208634,1,8,0:0:0:0:
256,192,208720,1,0,0:0:0:0:
256,192,208806,1,0,0:0:0:0:
256,192,208892,1,0,0:0:0:0:
256,192,208977,1,8,0:0:0:0:
256,192,209063,1,0,0:0:0:0:
256,192,209149,1,8,0:0:0:0:
256,192,209234,1,0,0:0:0:0:
256,192,209320,1,8,0:0:0:0:
256,192,209406,1,0,0:0:0:0:
256,192,209492,1,8,0:0:0:0:
256,192,209577,1,0,0:0:0:0:
256,192,209663,1,8,0:0:0:0:
256,192,209749,1,0,0:0:0:0:
256,192,209834,1,8,0:0:0:0:
256,192,209920,1,8,0:0:0:0:
256,192,210006,1,0,0:0:0:0:
256,192,210092,1,0,0:0:0:0:
256,192,210177,1,8,0:0:0:0:
256,192,210263,1,0,0:0:0:0:
256,192,210349,1,0,0:0:0:0:
256,192,210434,1,0,0:0:0:0:
256,192,210520,1,8,0:0:0:0:
256,192,210606,1,0,0:0:0:0:
256,192,210692,1,0,0:0:0:0:
256,192,210777,1,0,0:0:0:0:
256,192,210863,1,8,0:0:0:0:
256,192,210949,1,0,0:0:0:0:
256,192,211034,1,0,0:0:0:0:
256,192,211120,1,0,0:0:0:0:
256,192,211206,1,8,0:0:0:0:
256,192,211377,1,0,0:0:0:0:
256,192,211549,1,8,0:0:0:0:
256,192,211720,1,0,0:0:0:0:
256,192,212406,1,8,0:0:0:0:
256,192,213092,1,8,0:0:0:0:
256,192,213263,1,0,0:0:0:0:
256,192,213349,1,0,0:0:0:0:
256,192,213434,1,0,0:0:0:0:
256,192,213606,1,0,0:0:0:0:
256,192,213777,1,8,0:0:0:0:
256,192,214120,1,8,0:0:0:0:
256,192,214463,1,8,0:0:0:0:
256,192,214634,1,8,0:0:0:0:
256,192,214806,1,8,0:0:0:0:
256,192,215149,1,4,0:0:0:0:
256,192,215492,1,0,0:0:0:0:
256,192,215834,1,8,0:0:0:0:
256,192,216177,1,0,0:0:0:0:
256,192,216349,1,8,0:0:0:0:
256,192,216692,1,8,0:0:0:0:
256,192,216863,1,0,0:0:0:0:
256,192,217034,1,8,0:0:0:0:
256,192,217206,1,8,0:0:0:0:
256,192,217377,1,0,0:0:0:0:
256,192,217720,1,8,0:0:0:0:
256,192,217892,1,8,0:0:0:0:
256,192,218063,1,8,0:0:0:0:
256,192,218234,1,0,0:0:0:0:
256,192,218577,1,8,0:0:0:0:
256,192,218920,1,0,0:0:0:0:
256,192,219263,1,8,0:0:0:0:
256,192,219606,1,0,0:0:0:0:
256,192,219949,1,8,0:0:0:0:
256,192,220120,1,0,0:0:0:0:
256,192,220292,1,8,0:0:0:0:
256,192,220463,1,8,0:0:0:0:
256,192,220634,1,0,0:0:0:0:
256,192,220806,1,8,0:0:0:0:
256,192,220892,1,8,0:0:0:0:
256,192,220977,1,0,0:0:0:0:
256,192,221149,1,8,0:0:0:0:
256,192,221320,1,8,0:0:0:0:
256,192,221492,1,0,0:0:0:0:
256,192,221834,1,8,0:0:0:0:
256,192,222177,1,8,0:0:0:0:
256,192,222349,1,0,0:0:0:0:
256,192,222520,1,8,0:0:0:0:
256,192,222606,1,0,0:0:0:0:
256,192,222692,1,8,0:0:0:0:
256,192,222777,1,8,0:0:0:0:
256,192,222863,1,0,0:0:0:0:
256,192,222949,1,0,0:0:0:0:
256,192,223034,1,8,0:0:0:0:
256,192,223120,1,0,0:0:0:0:
256,192,223206,1,0,0:0:0:0:
256,192,223292,1,0,0:0:0:0:
256,192,223377,1,8,0:0:0:0:
256,192,223463,1,8,0:0:0:0:
256,192,223549,1,8,0:0:0:0:
256,192,223634,1,8,0:0:0:0:
256,192,223720,1,0,0:0:0:0:
256,192,223806,1,0,0:0:0:0:
256,192,223892,1,0,0:0:0:0:
256,192,223977,1,0,0:0:0:0:
256,192,224063,1,8,0:0:0:0:
256,192,224149,1,8,0:0:0:0:
256,192,224234,1,0,0:0:0:0:
256,192,224320,1,0,0:0:0:0:
256,192,224406,1,8,0:0:0:0:
256,192,224577,1,8,0:0:0:0:
256,192,224749,1,0,0:0:0:0:
256,192,226120,1,4,0:0:0:0:
256,192,226463,1,0,0:0:0:0:
256,192,226806,1,8,0:0:0:0:
256,192,227149,1,0,0:0:0:0:
256,192,227492,1,8,0:0:0:0:
256,192,227834,1,0,0:0:0:0:
256,192,228006,1,8,0:0:0:0:
256,192,228349,1,8,0:0:0:0:
256,192,228692,1,8,0:0:0:0:
256,192,228863,1,0,0:0:0:0:
256,192,229206,1,0,0:0:0:0:
256,192,229549,1,8,0:0:0:0:
256,192,229892,1,0,0:0:0:0:
256,192,230234,1,8,0:0:0:0:
256,192,230577,1,0,0:0:0:0:
256,192,230920,1,8,0:0:0:0:
256,192,231092,1,0,0:0:0:0:
256,192,231434,1,8,0:0:0:0:
256,192,231606,1,0,0:0:0:0:
256,192,231777,1,8,0:0:0:0:
256,192,231949,1,0,0:0:0:0:
256,192,232120,1,8,0:0:0:0:
256,192,232463,1,0,0:0:0:0:
256,192,232806,1,0,0:0:0:0:
256,192,232977,1,8,0:0:0:0:
256,192,233149,1,8,0:0:0:0:
256,192,233320,1,0,0:0:0:0:
256,192,235206,1,0,0:0:0:0:
256,192,235292,1,0,0:0:0:0:
256,192,235377,1,0,0:0:0:0:
256,192,235549,1,0,0:0:0:0:
256,192,235720,1,8,0:0:0:0:
256,192,235892,1,0,0:0:0:0:
256,192,236063,1,8,0:0:0:0:
256,192,236234,1,8,0:0:0:0:
256,192,236406,1,8,0:0:0:0:
256,192,236577,1,0,0:0:0:0:
256,192,236749,1,0,0:0:0:0:
256,192,236920,1,0,0:0:0:0:
256,192,237092,1,8,0:0:0:0:
256,192,237177,1,0,0:0:0:0:
256,192,237263,1,0,0:0:0:0:
256,192,237349,1,0,0:0:0:0:
256,192,237434,1,0,0:0:0:0:
256,192,237520,1,0,0:0:0:0:
256,192,237606,1,0,0:0:0:0:
256,192,237692,1,0,0:0:0:0:
256,192,237777,1,8,0:0:0:0:
256,192,237863,1,0,0:0:0:0:
256,192,237949,1,0,0:0:0:0:
256,192,238034,1,0,0:0:0:0:
256,192,238120,1,0,0:0:0:0:
256,192,238206,1,0,0:0:0:0:
256,192,238292,1,0,0:0:0:0:
256,192,238377,1,0,0:0:0:0:
256,192,238463,1,8,0:0:0:0:
256,192,238549,1,8,0:0:0:0:
256,192,238634,1,0,0:0:0:0:
256,192,238720,1,0,0:0:0:0:
256,192,238806,1,8,0:0:0:0:
256,192,238892,1,0,0:0:0:0:
256,192,238977,1,8,0:0:0:0:
256,192,239063,1,8,0:0:0:0:
256,192,239149,1,0,0:0:0:0:
256,192,239234,1,0,0:0:0:0:
256,192,239320,1,8,0:0:0:0:
256,192,239406,1,0,0:0:0:0:
256,192,239492,1,0,0:0:0:0:
256,192,239577,1,0,0:0:0:0:
256,192,239663,1,8,0:0:0:0:
256,192,239749,1,0,0:0:0:0:
256,192,239834,1,8,0:0:0:0:
256,192,239920,1,0,0:0:0:0:
256,192,240006,1,0,0:0:0:0:
256,192,240092,1,0,0:0:0:0:
256,192,240177,1,0,0:0:0:0:
256,192,240263,1,0,0:0:0:0:
256,192,240349,1,0,0:0:0:0:
256,192,240434,1,0,0:0:0:0:
256,192,240520,1,8,0:0:0:0:
256,192,240606,1,0,0:0:0:0:
256,192,240692,1,0,0:0:0:0:
256,192,240777,1,0,0:0:0:0:
256,192,240863,1,0,0:0:0:0:
256,192,240949,1,0,0:0:0:0:
256,192,241034,1,0,0:0:0:0:
256,192,241120,1,0,0:0:0:0:
256,192,241206,1,8,0:0:0:0:
256,192,241292,1,8,0:0:0:0:
256,192,241377,1,0,0:0:0:0:
256,192,241463,1,0,0:0:0:0:
256,192,241549,1,8,0:0:0:0:
256,192,241634,1,0,0:0:0:0:
256,192,241720,1,8,0:0:0:0:
256,192,241806,1,0,0:0:0:0:
256,192,241892,1,0,0:0:0:0:
256,192,241977,1,0,0:0:0:0:
256,192,242063,1,8,0:0:0:0:
256,192,242149,1,0,0:0:0:0:
256,192,242234,1,8,0:0:0:0:
256,192,242320,1,8,0:0:0:0:
256,192,242406,1,0,0:0:0:0:
256,192,242492,1,0,0:0:0:0:
256,192,242577,1,8,0:0:0:0:
256,192,242663,1,8,0:0:0:0:
256,192,242749,1,8,0:0:0:0:
256,192,242834,1,8,0:0:0:0:
256,192,242920,1,0,0:0:0:0:
256,192,243006,1,0,0:0:0:0:
256,192,243092,1,0,0:0:0:0:
256,192,243177,1,0,0:0:0:0:
256,192,243263,1,8,0:0:0:0:
256,192,243349,1,8,0:0:0:0:
256,192,243434,1,8,0:0:0:0:
256,192,243520,1,8,0:0:0:0:
256,192,243606,1,0,0:0:0:0:
256,192,243692,1,0,0:0:0:0:
256,192,243777,1,0,0:0:0:0:
256,192,243863,1,0,0:0:0:0:
256,192,243949,1,8,0:0:0:0:
256,192,244034,1,8,0:0:0:0:
256,192,244120,1,0,0:0:0:0:
256,192,244206,1,0,0:0:0:0:
256,192,244292,1,8,0:0:0:0:
256,192,244377,1,0,0:0:0:0:
256,192,244463,1,8,0:0:0:0:
256,192,244549,1,8,0:0:0:0:
256,192,244634,1,0,0:0:0:0:
256,192,244720,1,0,0:0:0:0:
256,192,244806,1,8,0:0:0:0:
256,192,244892,1,0,0:0:0:0:
256,192,244977,1,0,0:0:0:0:
256,192,245063,1,0,0:0:0:0:
256,192,245149,1,8,0:0:0:0:
256,192,245234,1,0,0:0:0:0:
256,192,245320,1,8,0:0:0:0:
256,192,245406,1,0,0:0:0:0:
256,192,245492,1,0,0:0:0:0:
256,192,245577,1,0,0:0:0:0:
256,192,245663,1,0,0:0:0:0:
256,192,245749,1,0,0:0:0:0:
256,192,245834,1,0,0:0:0:0:
256,192,245920,1,0,0:0:0:0:
256,192,246006,1,8,0:0:0:0:
256,192,246092,1,0,0:0:0:0:
256,192,246177,1,0,0:0:0:0:
256,192,246263,1,0,0:0:0:0:
256,192,246349,1,8,0:0:0:0:
256,192,246434,1,0,0:0:0:0:
256,192,246520,1,0,0:0:0:0:
256,192,246606,1,0,0:0:0:0:
256,192,246692,1,8,0:0:0:0:
256,192,246777,1,8,0:0:0:0:
256,192,246863,1,0,0:0:0:0:
256,192,246949,1,0,0:0:0:0:
256,192,247034,1,8,0:0:0:0:
256,192,247120,1,0,0:0:0:0:
256,192,247206,1,8,0:0:0:0:
256,192,247292,1,0,0:0:0:0:
256,192,247377,1,8,0:0:0:0:
256,192,247463,1,8,0:0:0:0:
256,192,247549,1,8,0:0:0:0:
256,192,247634,1,8,0:0:0:0:
256,192,247720,1,0,0:0:0:0:
256,192,247806,1,0,0:0:0:0:
256,192,247892,1,0,0:0:0:0:
256,192,247977,1,0,0:0:0:0:
256,192,248063,1,8,0:0:0:0:
256,192,248149,1,8,0:0:0:0:
256,192,248234,1,8,0:0:0:0:
256,192,248320,1,0,0:0:0:0:
256,192,248406,1,0,0:0:0:0:
256,192,248492,1,0,0:0:0:0:
256,192,248577,1,8,0:0:0:0:
256,192,248663,1,0,0:0:0:0:
256,192,248749,1,8,0:0:0:0:
256,192,248834,1,8,0:0:0:0:
256,192,248920,1,0,0:0:0:0:
256,192,249006,1,8,0:0:0:0:
256,192,249092,1,0,0:0:0:0:
256,192,249177,1,0,0:0:0:0:
256,192,249263,1,8,0:0:0:0:
256,192,249349,1,0,0:0:0:0:
256,192,249434,1,8,0:0:0:0:
256,192,249520,1,8,0:0:0:0:
256,192,249606,1,8,0:0:0:0:
256,192,249692,1,0,0:0:0:0:
256,192,249777,1,0,0:0:0:0:
256,192,249863,1,0,0:0:0:0:
256,192,249949,1,8,0:0:0:0:
256,192,250034,1,0,0:0:0:0:
256,192,250120,1,8,0:0:0:0:
256,192,250206,1,8,0:0:0:0:
256,192,250292,1,0,0:0:0:0:
256,192,250377,1,8,0:0:0:0:
256,192,250463,1,0,0:0:0:0:
256,192,250549,1,0,0:0:0:0:
256,192,250634,1,8,0:0:0:0:
256,192,250720,1,0,0:0:0:0:
256,192,250806,1,8,0:0:0:0:
256,192,250892,1,8,0:0:0:0:
256,192,250977,1,8,0:0:0:0:
256,192,251063,1,0,0:0:0:0:
256,192,251149,1,8,0:0:0:0:
256,192,251234,1,8,0:0:0:0:
256,192,251320,1,8,0:0:0:0:
256,192,251406,1,0,0:0:0:0:
256,192,251492,1,8,0:0:0:0:
256,192,251577,1,8,0:0:0:0:
256,192,251663,1,0,0:0:0:0:
256,192,251749,1,0,0:0:0:0:
256,192,251834,1,8,0:0:0:0:
256,192,251920,1,0,0:0:0:0:
256,192,252006,1,0,0:0:0:0:
256,192,252092,1,0,0:0:0:0:
256,192,252177,1,8,0:0:0:0:
256,192,252220,1,8,0:0:0:0:
256,192,252263,1,8,0:0:0:0:
256,192,252349,1,0,0:0:0:0:
256,192,252434,1,0,0:0:0:0:
256,192,252520,1,8,0:0:0:0:
256,192,252563,1,8,0:0:0:0:
256,192,252606,1,8,0:0:0:0:
256,192,252692,1,0,0:0:0:0:
256,192,252777,1,0,0:0:0:0:
256,192,252863,1,8,0:0:0:0:
256,192,252906,1,8,0:0:0:0:
256,192,252949,1,8,0:0:0:0:
256,192,253034,1,0,0:0:0:0:
256,192,253120,1,0,0:0:0:0:
256,192,253206,1,8,0:0:0:0:
256,192,253292,1,0,0:0:0:0:
256,192,253377,1,0,0:0:0:0:
256,192,253463,1,0,0:0:0:0:
256,192,253549,1,8,0:0:0:0:
256,192,253634,1,8,0:0:0:0:
256,192,253720,1,8,0:0:0:0:
256,192,253806,1,8,0:0:0:0:
256,192,253892,1,0,0:0:0:0:
256,192,253977,1,0,0:0:0:0:
256,192,254063,1,0,0:0:0:0:
256,192,254149,1,0,0:0:0:0:
256,192,254234,1,8,0:0:0:0:
256,192,254320,1,8,0:0:0:0:
256,192,254406,1,8,0:0:0:0:
256,192,254492,1,8,0:0:0:0:
256,192,254577,1,0,0:0:0:0:
256,192,254663,1,0,0:0:0:0:
256,192,254749,1,0,0:0:0:0:
256,192,254834,1,0,0:0:0:0:
256,192,254920,1,8,0:0:0:0:
256,192,255006,1,8,0:0:0:0:
256,192,255092,1,0,0:0:0:0:
256,192,255177,1,0,0:0:0:0:
256,192,255263,1,8,0:0:0:0:
256,192,255349,1,0,0:0:0:0:
256,192,255434,1,8,0:0:0:0:
256,192,255520,1,8,0:0:0:0:
256,192,255606,1,0,0:0:0:0:
256,192,255692,1,0,0:0:0:0:
256,192,255777,1,8,0:0:0:0:
256,192,255863,1,0,0:0:0:0:
256,192,255949,1,0,0:0:0:0:
256,192,256034,1,0,0:0:0:0:
256,192,256120,1,8,0:0:0:0:
256,192,256206,1,0,0:0:0:0:
256,192,256292,1,8,0:0:0:0:
256,192,256377,1,8,0:0:0:0:
256,192,256463,1,8,0:0:0:0:
256,192,256549,1,8,0:0:0:0:
256,192,256634,1,8,0:0:0:0:
256,192,256720,1,8,0:0:0:0:
256,192,256806,1,0,0:0:0:0:
256,192,256892,1,0,0:0:0:0:
256,192,256977,1,8,0:0:0:0:
256,192,257063,1,8,0:0:0:0:
256,192,257149,1,8,0:0:0:0:
256,192,257234,1,8,0:0:0:0:
256,192,257320,1,8,0:0:0:0:
256,192,257406,1,8,0:0:0:0:
256,192,257492,1,0,0:0:0:0:
256,192,257577,1,0,0:0:0:0:
256,192,257663,1,8,0:0:0:0:
256,192,257749,1,8,0:0:0:0:
256,192,257834,1,8,0:0:0:0:
256,192,257920,1,8,0:0:0:0:
256,192,258006,1,0,0:0:0:0:
256,192,258092,1,0,0:0:0:0:
256,192,258177,1,0,0:0:0:0:
256,192,258263,1,0,0:0:0:0:
256,192,258349,1,8,0:0:0:0:
256,192,258434,1,8,0:0:0:0:
256,192,258520,1,0,0:0:0:0:
256,192,258606,1,0,0:0:0:0:
256,192,258692,1,8,0:0:0:0:
256,192,258777,1,8,0:0:0:0:
256,192,258863,1,0,0:0:0:0:
256,192,258949,1,0,0:0:0:0:
256,192,259034,1,8,0:0:0:0:
256,192,259206,1,0,0:0:0:0:
256,192,259549,1,8,0:0:0:0:
256,192,260234,1,0,0:0:0:0:
256,192,260320,1,0,0:0:0:0:
256,192,260406,1,8,0:0:0:0:
256,192,260577,1,0,0:0:0:0:
256,192,260920,1,8,0:0:0:0:
256,192,261263,1,0,0:0:0:0:
256,192,261606,1,0,0:0:0:0:
256,192,261949,1,8,0:0:0:0:
256,192,262120,1,0,0:0:0:0:
256,192,262463,1,8,0:0:0:0:
256,192,262806,1,0,0:0:0:0:
256,192,262892,1,0,0:0:0:0:
256,192,262977,1,0,0:0:0:0:
256,192,263063,1,0,0:0:0:0:
256,192,263149,1,8,0:0:0:0:
256,192,264349,1,0,0:0:0:0:
256,192,264406,1,0,0:0:0:0:
256,192,264463,1,0,0:0:0:0:
256,192,264520,1,8,0:0:0:0:
256,192,264692,1,0,0:0:0:0:
256,192,265034,1,8,0:0:0:0:
256,192,265377,1,0,0:0:0:0:
256,192,265720,1,0,0:0:0:0:
256,192,265806,1,0,0:0:0:0:
256,192,265892,1,8,0:0:0:0:
256,192,266063,1,0,0:0:0:0:
256,192,266406,1,8,0:0:0:0:
256,192,266749,1,0,0:0:0:0:
256,192,267092,1,0,0:0:0:0:
256,192,267434,1,8,0:0:0:0:
256,192,267606,1,0,0:0:0:0:
256,192,267949,1,8,0:0:0:0:
256,192,268292,1,0,0:0:0:0:
256,192,268349,1,0,0:0:0:0:
256,192,268406,1,0,0:0:0:0:
256,192,268463,1,0,0:0:0:0:
256,192,268520,1,0,0:0:0:0:
256,192,268577,1,0,0:0:0:0:
256,192,268634,1,8,0:0:0:0:
256,192,269663,1,0,0:0:0:0:
256,192,269834,1,0,0:0:0:0:
256,192,270006,1,8,0:0:0:0:
256,192,270177,1,0,0:0:0:0:
256,192,270349,1,0,0:0:0:0:
256,192,270434,1,0,0:0:0:0:
256,192,270520,1,8,0:0:0:0:
256,192,270692,1,0,0:0:0:0:
256,192,270863,1,0,0:0:0:0:
256,192,271034,1,0,0:0:0:0:
256,192,271206,1,0,0:0:0:0:
256,192,271377,1,8,0:0:0:0:
256,192,271549,1,0,0:0:0:0:
256,192,271892,1,8,0:0:0:0:
256,192,272063,1,0,0:0:0:0:
256,192,272406,1,8,0:0:0:0:
256,192,272577,1,0,0:0:0:0:
256,192,272920,1,8,0:0:0:0:
256,192,273092,1,0,0:0:0:0:
256,192,273434,1,8,0:0:0:0:
256,192,273663,1,0,0:0:0:0:
256,192,273892,1,0,0:0:0:0:
256,192,274120,1,12,0:0:0:0:
256,192,275320,1,0,0:0:0:0:
256,192,275377,1,0,0:0:0:0:
256,192,275434,1,0,0:0:0:0:
256,192,275492,1,8,0:0:0:0:
256,192,275663,1,0,0:0:0:0:
256,192,276006,1,8,0:0:0:0:
256,192,276349,1,0,0:0:0:0:
256,192,276520,1,8,0:0:0:0:
256,192,276692,1,8,0:0:0:0:
256,192,276863,1,8,0:0:0:0:
256,192,277034,1,0,0:0:0:0:
256,192,277377,1,8,0:0:0:0:
256,192,277720,1,0,0:0:0:0:
256,192,278063,1,0,0:0:0:0:
256,192,278406,1,8,0:0:0:0:
256,192,278492,1,8,0:0:0:0:
256,192,278577,1,0,0:0:0:0:
256,192,278920,1,8,0:0:0:0:
256,192,279263,1,0,0:0:0:0:
256,192,280978,1,4,0:0:0:0:
256,192,283035,1,4,0:0:0:0:
256,192,284406,1,8,0:0:0:0:
256,192,285092,1,4,0:0:0:0:
256,192,287149,1,4,0:0:0:0:
256,192,288178,1,8,0:0:0:0:
256,192,288692,1,0,0:0:0:0:
256,192,289206,1,4,0:0:0:0:
256,192,300177,5,4,0:0:0:0:
256,192,301548,1,0,0:0:0:0:
256,192,311148,5,0,0:0:0:0:
256,192,313206,1,8,0:0:0:0:
256,192,313263,1,8,0:0:0:0:
256,192,313320,1,8,0:0:0:0:
256,192,313377,1,8,0:0:0:0:
256,192,313434,1,8,0:0:0:0:
256,192,313491,1,8,0:0:0:0:
256,192,313548,1,0,0:0:0:0:
256,192,313606,1,0,0:0:0:0:
256,192,313663,1,0,0:0:0:0:
256,192,313720,1,0,0:0:0:0:
256,192,313777,1,0,0:0:0:0:
256,192,313834,1,0,0:0:0:0:
256,192,313891,1,8,0:0:0:0:
256,192,313948,1,8,0:0:0:0:
256,192,314006,1,0,0:0:0:0:
256,192,314063,1,0,0:0:0:0:
256,192,314120,1,0,0:0:0:0:
256,192,314177,1,0,0:0:0:0:
256,192,314234,1,8,0:0:0:0:
256,192,314291,1,8,0:0:0:0:
256,192,314348,1,0,0:0:0:0:
256,192,314406,1,0,0:0:0:0:
256,192,314463,1,0,0:0:0:0:
256,192,314520,1,0,0:0:0:0:
256,192,314577,1,8,0:0:0:0:
256,192,314634,1,0,0:0:0:0:
256,192,314691,1,8,0:0:0:0:
256,192,314748,1,8,0:0:0:0:
256,192,314806,1,0,0:0:0:0:
256,192,314863,1,0,0:0:0:0:
256,192,314920,1,8,0:0:0:0:
256,192,314977,1,0,0:0:0:0:
256,192,315034,1,8,0:0:0:0:
256,192,315091,1,8,0:0:0:0:
256,192,315148,1,0,0:0:0:0:
256,192,315206,1,0,0:0:0:0:
256,192,315263,1,8,0:0:0:0:
256,192,315320,1,0,0:0:0:0:
256,192,315377,1,8,0:0:0:0:
256,192,315434,1,0,0:0:0:0:
256,192,315491,1,8,0:0:0:0:
256,192,315548,1,0,0:0:0:0:
256,192,315606,1,8,0:0:0:0:
256,192,315663,1,8,0:0:0:0:
256,192,315720,1,8,0:0:0:0:
256,192,315777,1,8,0:0:0:0:
256,192,315834,1,0,0:0:0:0:
256,192,315891,1,0,0:0:0:0:
256,192,315948,1,8,0:0:0:0:
256,192,316006,1,0,0:0:0:0:
256,192,316063,1,8,0:0:0:0:
256,192,316120,1,0,0:0:0:0:
256,192,316177,1,8,0:0:0:0:
256,192,316234,1,0,0:0:0:0:
256,192,316291,1,8,0:0:0:0:
256,192,316348,1,8,0:0:0:0:
256,192,316406,1,8,0:0:0:0:
256,192,316463,1,8,0:0:0:0:
256,192,316520,1,0,0:0:0:0:
256,192,316577,1,0,0:0:0:0:
256,192,316634,1,8,0:0:0:0:
256,192,316691,1,8,0:0:0:0:
256,192,316748,1,0,0:0:0:0:
256,192,316806,1,0,0:0:0:0:
256,192,316863,1,0,0:0:0:0:
256,192,316920,1,0,0:0:0:0:
256,192,316977,1,8,0:0:0:0:
256,192,317034,1,8,0:0:0:0:
256,192,317091,1,0,0:0:0:0:
256,192,317148,1,0,0:0:0:0:
256,192,317206,1,0,0:0:0:0:
256,192,317263,1,0,0:0:0:0:
256,192,317320,1,8,0:0:0:0:
256,192,317377,1,0,0:0:0:0:
256,192,317434,1,8,0:0:0:0:
256,192,317491,1,8,0:0:0:0:
256,192,317548,1,0,0:0:0:0:
256,192,317606,1,0,0:0:0:0:
256,192,317663,1,8,0:0:0:0:
256,192,317720,1,0,0:0:0:0:
256,192,317777,1,8,0:0:0:0:
256,192,317834,1,8,0:0:0:0:
256,192,317891,1,0,0:0:0:0:
256,192,317948,1,0,0:0:0:0:
256,192,318006,1,8,0:0:0:0:
256,192,318063,1,8,0:0:0:0:
256,192,318120,1,8,0:0:0:0:
256,192,318177,1,8,0:0:0:0:
256,192,318234,1,8,0:0:0:0:
256,192,318291,1,8,0:0:0:0:
256,192,318348,1,0,0:0:0:0:
256,192,318406,1,0,0:0:0:0:
256,192,318463,1,0,0:0:0:0:
256,192,318520,1,0,0:0:0:0:
256,192,318577,1,0,0:0:0:0:
256,192,318634,1,0,0:0:0:0:
256,192,318691,1,8,0:0:0:0:
256,192,318748,1,8,0:0:0:0:
256,192,318806,1,8,0:0:0:0:
256,192,318863,1,8,0:0:0:0:
256,192,318920,1,8,0:0:0:0:
256,192,318977,1,8,0:0:0:0:
256,192,319034,1,0,0:0:0:0:
256,192,319120,1,0,0:0:0:0:
256,192,319206,1,0,0:0:0:0:
256,192,319291,1,0,0:0:0:0:
256,192,319377,1,8,0:0:0:0:
256,192,319463,1,8,0:0:0:0:
256,192,319548,1,0,0:0:0:0:
256,192,319634,1,0,0:0:0:0:
256,192,319720,1,8,0:0:0:0:
256,192,319806,1,8,0:0:0:0:
256,192,319891,1,0,0:0:0:0:
256,192,319977,1,0,0:0:0:0:
256,192,320063,1,8,0:0:0:0:
256,192,320148,1,8,0:0:0:0:
256,192,320234,1,8,0:0:0:0:
256,192,320320,1,8,0:0:0:0:
256,192,320406,1,8,0:0:0:0:
256,192,320491,1,8,0:0:0:0:
256,192,320577,1,8,0:0:0:0:
256,192,320663,1,8,0:0:0:0:
256,192,320748,1,0,0:0:0:0:
256,192,320920,1,8,0:0:0:0:
256,192,321091,1,8,0:0:0:0:
256,192,321263,1,0,0:0:0:0:
256,192,321434,1,8,0:0:0:0:
256,192,321491,1,8,0:0:0:0:
256,192,321548,1,8,0:0:0:0:
256,192,321606,1,8,0:0:0:0:
256,192,321663,1,8,0:0:0:0:
256,192,321720,1,8,0:0:0:0:
256,192,321777,1,0,0:0:0:0:
256,192,321834,1,0,0:0:0:0:
256,192,321891,1,0,0:0:0:0:
256,192,321948,1,0,0:0:0:0:
256,192,322006,1,0,0:0:0:0:
256,192,322063,1,0,0:0:0:0:
256,192,322120,1,8,0:0:0:0:
256,192,322177,1,8,0:0:0:0:
256,192,322234,1,0,0:0:0:0:
256,192,322291,1,0,0:0:0:0:
256,192,322348,1,0,0:0:0:0:
256,192,322406,1,0,0:0:0:0:
256,192,322463,1,8,0:0:0:0:
256,192,322520,1,8,0:0:0:0:
256,192,322577,1,0,0:0:0:0:
256,192,322634,1,0,0:0:0:0:
256,192,322691,1,0,0:0:0:0:
256,192,322748,1,0,0:0:0:0:
256,192,322806,1,8,0:0:0:0:
256,192,322863,1,0,0:0:0:0:
256,192,322920,1,8,0:0:0:0:
256,192,322977,1,8,0:0:0:0:
256,192,323034,1,0,0:0:0:0:
256,192,323091,1,0,0:0:0:0:
256,192,323148,1,8,0:0:0:0:
256,192,323206,1,0,0:0:0:0:
256,192,323263,1,8,0:0:0:0:
256,192,323320,1,8,0:0:0:0:
256,192,323377,1,0,0:0:0:0:
256,192,323434,1,0,0:0:0:0:
256,192,323491,1,8,0:0:0:0:
256,192,323548,1,0,0:0:0:0:
256,192,323606,1,8,0:0:0:0:
256,192,323663,1,0,0:0:0:0:
256,192,323720,1,8,0:0:0:0:
256,192,323777,1,0,0:0:0:0:
256,192,323834,1,8,0:0:0:0:
256,192,323891,1,8,0:0:0:0:
256,192,323948,1,8,0:0:0:0:
256,192,324006,1,8,0:0:0:0:
256,192,324063,1,0,0:0:0:0:
256,192,324120,1,0,0:0:0:0:
256,192,324177,1,8,0:0:0:0:
256,192,324234,1,0,0:0:0:0:
256,192,324291,1,8,0:0:0:0:
256,192,324348,1,0,0:0:0:0:
256,192,324406,1,8,0:0:0:0:
256,192,324463,1,0,0:0:0:0:
256,192,324520,1,8,0:0:0:0:
256,192,324577,1,8,0:0:0:0:
256,192,324634,1,8,0:0:0:0:
256,192,324691,1,8,0:0:0:0:
256,192,324748,1,0,0:0:0:0:
256,192,324806,1,0,0:0:0:0:
256,192,324863,1,8,0:0:0:0:
256,192,324920,1,8,0:0:0:0:
256,192,324977,1,0,0:0:0:0:
256,192,325034,1,0,0:0:0:0:
256,192,325091,1,0,0:0:0:0:
256,192,325148,1,0,0:0:0:0:
256,192,325206,1,8,0:0:0:0:
256,192,325263,1,8,0:0:0:0:
256,192,325320,1,0,0:0:0:0:
256,192,325377,1,0,0:0:0:0:
256,192,325434,1,0,0:0:0:0:
256,192,325491,1,0,0:0:0:0:
256,192,325548,1,8,0:0:0:0:
256,192,325606,1,0,0:0:0:0:
256,192,325663,1,8,0:0:0:0:
256,192,325720,1,8,0:0:0:0:
256,192,325777,1,0,0:0:0:0:
256,192,325834,1,0,0:0:0:0:
256,192,325891,1,8,0:0:0:0:
256,192,325948,1,0,0:0:0:0:
256,192,326006,1,8,0:0:0:0:
256,192,326063,1,8,0:0:0:0:
256,192,326120,1,0,0:0:0:0:
256,192,326177,1,0,0:0:0:0:
256,192,326234,1,8,0:0:0:0:
256,192,326291,1,0,0:0:0:0:
256,192,326348,1,8,0:0:0:0:
256,192,326406,1,0,0:0:0:0:
256,192,326463,1,8,0:0:0:0:
256,192,326520,1,0,0:0:0:0:
256,192,326577,1,8,0:0:0:0:
256,192,326634,1,8,0:0:0:0:
256,192,326691,1,8,0:0:0:0:
256,192,326748,1,8,0:0:0:0:
256,192,326806,1,0,0:0:0:0:
256,192,326863,1,0,0:0:0:0:
256,192,326920,1,8,0:0:0:0:
256,192,326977,1,8,0:0:0:0:
256,192,327034,1,8,0:0:0:0:
256,192,327091,1,8,0:0:0:0:
256,192,327148,1,8,0:0:0:0:
256,192,327206,1,8,0:0:0:0:
256,192,327263,1,0,0:0:0:0:
256,192,327320,1,0,0:0:0:0:
256,192,327377,1,0,0:0:0:0:
256,192,327434,1,0,0:0:0:0:
256,192,327491,1,0,0:0:0:0:
256,192,327548,1,0,0:0:0:0:
256,192,327606,1,8,0:0:0:0:
256,192,327663,1,8,0:0:0:0:
256,192,327720,1,0,0:0:0:0:
256,192,327777,1,0,0:0:0:0:
256,192,327834,1,0,0:0:0:0:
256,192,327891,1,0,0:0:0:0:
256,192,327948,1,8,0:0:0:0:
256,192,328006,1,8,0:0:0:0:
256,192,328063,1,0,0:0:0:0:
256,192,328120,1,0,0:0:0:0:
256,192,328177,1,0,0:0:0:0:
256,192,328234,1,0,0:0:0:0:
256,192,328291,1,8,0:0:0:0:
256,192,328348,1,0,0:0:0:0:
256,192,328406,1,8,0:0:0:0:
256,192,328463,1,8,0:0:0:0:
256,192,328520,1,0,0:0:0:0:
256,192,328577,1,0,0:0:0:0:
256,192,328634,1,8,0:0:0:0:
256,192,328691,1,0,0:0:0:0:
256,192,328748,1,8,0:0:0:0:
256,192,328806,1,8,0:0:0:0:
256,192,328863,1,0,0:0:0:0:
256,192,328920,1,0,0:0:0:0:
256,192,328977,1,8,0:0:0:0:
256,192,329034,1,0,0:0:0:0:
256,192,329091,1,8,0:0:0:0:
256,192,329148,1,0,0:0:0:0:
256,192,329206,1,8,0:0:0:0:
256,192,329263,1,0,0:0:0:0:
256,192,329320,1,8,0:0:0:0:
256,192,329377,1,8,0:0:0:0:
256,192,329434,1,8,0:0:0:0:
256,192,329491,1,8,0:0:0:0:
256,192,329548,1,0,0:0:0:0:
256,192,329606,1,0,0:0:0:0:
256,192,329663,1,8,0:0:0:0:
256,192,329720,1,0,0:0:0:0:
256,192,329777,1,8,0:0:0:0:
256,192,329834,1,0,0:0:0:0:
256,192,329891,1,8,0:0:0:0:
256,192,329948,1,8,0:0:0:0:
256,192,330006,1,0,0:0:0:0:
256,192,330348,1,8,0:0:0:0:
256,192,330391,1,8,0:0:0:0:
256,192,330434,1,0,0:0:0:0:
256,192,330477,1,0,0:0:0:0:
256,192,330520,1,8,0:0:0:0:
256,192,330606,1,0,0:0:0:0:
256,192,330691,1,8,0:0:0:0:
256,192,330777,1,0,0:0:0:0:
256,192,330820,1,0,0:0:0:0:
256,192,330863,1,0,0:0:0:0:
256,192,330948,1,8,0:0:0:0:
256,192,331034,1,0,0:0:0:0:
256,192,331077,1,0,0:0:0:0:
256,192,331120,1,0,0:0:0:0:
256,192,331163,1,0,0:0:0:0:
256,192,331206,1,8,0:0:0:0:
256,192,331291,1,0,0:0:0:0:
256,192,331377,1,8,0:0:0:0:
256,192,331420,1,0,0:0:0:0:
256,192,331463,1,8,0:0:0:0:
256,192,331548,1,0,0:0:0:0:
256,192,331634,1,0,0:0:0:0:
256,192,331720,1,8,0:0:0:0:
256,192,331777,1,8,0:0:0:0:
256,192,331834,1,8,0:0:0:0:
256,192,331891,1,0,0:0:0:0:
256,192,331977,1,0,0:0:0:0:
256,192,332063,1,8,0:0:0:0:
256,192,332120,1,8,0:0:0:0:
256,192,332177,1,8,0:0:0:0:
256,192,332234,1,0,0:0:0:0:
256,192,332320,1,0,0:0:0:0:
256,192,332406,1,8,0:0:0:0:
256,192,332491,1,0,0:0:0:0:
256,192,332577,1,0,0:0:0:0:
256,192,332663,1,0,0:0:0:0:
256,192,332748,1,8,0:0:0:0:
256,192,332834,1,8,0:0:0:0:
256,192,332920,1,0,0:0:0:0:
256,192,333006,1,0,0:0:0:0:
256,192,333091,1,8,0:0:0:0:
256,192,333134,1,8,0:0:0:0:
256,192,333177,1,0,0:0:0:0:
256,192,333220,1,0,0:0:0:0:
256,192,333263,1,8,0:0:0:0:
256,192,333348,1,0,0:0:0:0:
256,192,333434,1,8,0:0:0:0:
256,192,333520,1,0,0:0:0:0:
256,192,333563,1,0,0:0:0:0:
256,192,333606,1,0,0:0:0:0:
256,192,333691,1,8,0:0:0:0:
256,192,333777,1,0,0:0:0:0:
256,192,333820,1,0,0:0:0:0:
256,192,333863,1,0,0:0:0:0:
256,192,333906,1,0,0:0:0:0:
256,192,333948,1,8,0:0:0:0:
256,192,334034,1,0,0:0:0:0:
256,192,334120,1,8,0:0:0:0:
256,192,334206,1,0,0:0:0:0:
256,192,334248,1,0,0:0:0:0:
256,192,334291,1,8,0:0:0:0:
256,192,334377,1,0,0:0:0:0:
256,192,334463,1,8,0:0:0:0:
256,192,334506,1,8,0:0:0:0:
256,192,334548,1,0,0:0:0:0:
256,192,334591,1,0,0:0:0:0:
256,192,334634,1,8,0:0:0:0:
256,192,334677,1,8,0:0:0:0:
256,192,334720,1,0,0:0:0:0:
256,192,334806,1,8,0:0:0:0:
256,192,334891,1,0,0:0:0:0:
256,192,334977,1,8,0:0:0:0:
256,192,335020,1,8,0:0:0:0:
256,192,335063,1,0,0:0:0:0:
256,192,335106,1,0,0:0:0:0:
256,192,335148,1,8,0:0:0:0:
256,192,335191,1,8,0:0:0:0:
256,192,335234,1,0,0:0:0:0:
256,192,335320,1,8,0:0:0:0:
256,192,335406,1,0,0:0:0:0:
256,192,335491,1,8,0:0:0:0:
256,192,335534,1,8,0:0:0:0:
256,192,335577,1,0,0:0:0:0:
256,192,335663,1,8,0:0:0:0:
256,192,335748,1,0,0:0:0:0:
256,192,335834,1,8,0:0:0:0:
256,192,335877,1,8,0:0:0:0:
256,192,335920,1,0,0:0:0:0:
256,192,335963,1,0,0:0:0:0:
256,192,336006,1,8,0:0:0:0:
256,192,336091,1,0,0:0:0:0:
256,192,336177,1,8,0:0:0:0:
256,192,336263,1,0,0:0:0:0:
256,192,336306,1,0,0:0:0:0:
256,192,336348,1,0,0:0:0:0:
256,192,336434,1,8,0:0:0:0:
256,192,336520,1,0,0:0:0:0:
256,192,336563,1,0,0:0:0:0:
256,192,336606,1,0,0:0:0:0:
256,192,336648,1,0,0:0:0:0:
256,192,336691,1,8,0:0:0:0:
256,192,336777,1,0,0:0:0:0:
256,192,336863,1,8,0:0:0:0:
256,192,336948,1,0,0:0:0:0:
256,192,336991,1,0,0:0:0:0:
256,192,337034,1,8,0:0:0:0:
256,192,337120,1,0,0:0:0:0:
256,192,337206,1,8,0:0:0:0:
256,192,337248,1,0,0:0:0:0:
256,192,337291,1,8,0:0:0:0:
256,192,337334,1,0,0:0:0:0:
256,192,337377,1,8,0:0:0:0:
256,192,337463,1,0,0:0:0:0:
256,192,337548,1,8,0:0:0:0:
256,192,337634,1,0,0:0:0:0:
256,192,337677,1,0,0:0:0:0:
256,192,337720,1,8,0:0:0:0:
256,192,337806,1,0,0:0:0:0:
256,192,337891,1,8,0:0:0:0:
256,192,337948,1,8,0:0:0:0:
256,192,338006,1,8,0:0:0:0:
256,192,338063,1,0,0:0:0:0:
256,192,338148,1,0,0:0:0:0:
256,192,338234,1,8,0:0:0:0:
256,192,338291,1,8,0:0:0:0:
256,192,338348,1,8,0:0:0:0:
256,192,338406,1,0,0:0:0:0:
256,192,338491,1,0,0:0:0:0:
256,192,338577,1,8,0:0:0:0:
256,192,338634,1,8,0:0:0:0:
256,192,338691,1,0,0:0:0:0:
256,192,338748,1,0,0:0:0:0:
256,192,338806,1,0,0:0:0:0:
256,192,338863,1,0,0:0:0:0:
256,192,338920,1,8,0:0:0:0:
256,192,338977,1,8,0:0:0:0:
256,192,339034,1,0,0:0:0:0:
256,192,339091,1,0,0:0:0:0:
256,192,339148,1,0,0:0:0:0:
256,192,339206,1,0,0:0:0:0:
256,192,339263,1,8,0:0:0:0:
256,192,339320,1,0,0:0:0:0:
256,192,339377,1,8,0:0:0:0:
256,192,339434,1,0,0:0:0:0:
256,192,339491,1,8,0:0:0:0:
256,192,339548,1,0,0:0:0:0:
256,192,339606,1,8,0:0:0:0:
256,192,339663,1,8,0:0:0:0:
256,192,339720,1,8,0:0:0:0:
256,192,339777,1,8,0:0:0:0:
256,192,339834,1,0,0:0:0:0:
256,192,339891,1,0,0:0:0:0:
256,192,339948,1,8,0:0:0:0:
256,192,340006,1,8,0:0:0:0:
256,192,340063,1,0,0:0:0:0:
256,192,340120,1,0,0:0:0:0:
256,192,340177,1,0,0:0:0:0:
256,192,340234,1,0,0:0:0:0:
256,192,340291,1,8,0:0:0:0:
256,192,340348,1,8,0:0:0:0:
256,192,340406,1,0,0:0:0:0:
256,192,340463,1,0,0:0:0:0:
256,192,340520,1,0,0:0:0:0:
256,192,340577,1,0,0:0:0:0:
256,192,340634,1,8,0:0:0:0:
256,192,340691,1,0,0:0:0:0:
256,192,340748,1,8,0:0:0:0:
256,192,340806,1,0,0:0:0:0:
256,192,340863,1,8,0:0:0:0:
256,192,340920,1,0,0:0:0:0:
256,192,340977,1,8,0:0:0:0:
256,192,341034,1,0,0:0:0:0:
256,192,341091,1,0,0:0:0:0:
256,192,341148,1,0,0:0:0:0:
256,192,341206,1,0,0:0:0:0:
256,192,341263,1,0,0:0:0:0:
256,192,341320,1,8,0:0:0:0:
256,192,341377,1,8,0:0:0:0:
256,192,341434,1,0,0:0:0:0:
256,192,341491,1,0,0:0:0:0:
256,192,341548,1,0,0:0:0:0:
256,192,341606,1,0,0:0:0:0:
256,192,341663,1,8,0:0:0:0:
256,192,341720,1,8,0:0:0:0:
256,192,341777,1,0,0:0:0:0:
256,192,341834,1,0,0:0:0:0:
256,192,341891,1,0,0:0:0:0:
256,192,341948,1,0,0:0:0:0:
256,192,342006,1,8,0:0:0:0:
256,192,342063,1,0,0:0:0:0:
256,192,342120,1,8,0:0:0:0:
256,192,342177,1,8,0:0:0:0:
256,192,342234,1,0,0:0:0:0:
256,192,342291,1,0,0:0:0:0:
256,192,342348,1,8,0:0:0:0:
256,192,342406,1,0,0:0:0:0:
256,192,342463,1,8,0:0:0:0:
256,192,342520,1,8,0:0:0:0:
256,192,342577,1,0,0:0:0:0:
256,192,342634,1,0,0:0:0:0:
256,192,342691,1,8,0:0:0:0:
256,192,342748,1,0,0:0:0:0:
256,192,342806,1,8,0:0:0:0:
256,192,342863,1,0,0:0:0:0:
256,192,342920,1,8,0:0:0:0:
256,192,342977,1,0,0:0:0:0:
256,192,343034,1,8,0:0:0:0:
256,192,343091,1,8,0:0:0:0:
256,192,343148,1,8,0:0:0:0:
256,192,343206,1,8,0:0:0:0:
256,192,343263,1,0,0:0:0:0:
256,192,343320,1,0,0:0:0:0:
256,192,343377,1,8,0:0:0:0:
256,192,343548,1,0,0:0:0:0:
256,192,343720,1,8,0:0:0:0:
256,192,343891,1,8,0:0:0:0:
256,192,344063,1,0,0:0:0:0:
256,192,344406,1,8,0:0:0:0:
256,192,344491,1,0,0:0:0:0:
256,192,344577,1,0,0:0:0:0:
256,192,344663,1,0,0:0:0:0:
256,192,344748,1,8,0:0:0:0:
256,192,344834,1,8,0:0:0:0:
256,192,344920,1,0,0:0:0:0:
256,192,345006,1,0,0:0:0:0:
256,192,345091,1,8,0:0:0:0:
256,192,345177,1,0,0:0:0:0:
256,192,345263,1,0,0:0:0:0:
256,192,345348,1,0,0:0:0:0:
256,192,345434,1,8,0:0:0:0:
256,192,345520,1,8,0:0:0:0:
256,192,345606,1,8,0:0:0:0:
256,192,345691,1,0,0:0:0:0:
256,192,345777,1,8,0:0:0:0:
256,192,345820,1,8,0:0:0:0:
256,192,345863,1,8,0:0:0:0:
256,192,345948,1,0,0:0:0:0:
256,192,346034,1,0,0:0:0:0:
256,192,346120,1,8,0:0:0:0:
256,192,346163,1,8,0:0:0:0:
256,192,346206,1,8,0:0:0:0:
256,192,346291,1,0,0:0:0:0:
256,192,346377,1,0,0:0:0:0:
256,192,346463,1,8,0:0:0:0:
256,192,346506,1,8,0:0:0:0:
256,192,346548,1,8,0:0:0:0:
256,192,346634,1,0,0:0:0:0:
256,192,346720,1,0,0:0:0:0:
256,192,346806,1,8,0:0:0:0:
256,192,347148,1,8,0:0:0:0:
256,192,347206,1,8,0:0:0:0:
256,192,347263,1,8,0:0:0:0:
256,192,347320,1,8,0:0:0:0:
256,192,347377,1,8,0:0:0:0:
256,192,347434,1,8,0:0:0:0:
256,192,347491,1,0,0:0:0:0:
256,192,347548,1,0,0:0:0:0:
256,192,347606,1,0,0:0:0:0:
256,192,347663,1,0,0:0:0:0:
256,192,347720,1,0,0:0:0:0:
256,192,347777,1,0,0:0:0:0:
256,192,347834,1,8,0:0:0:0:
256,192,347891,1,0,0:0:0:0:
256,192,347948,1,0,0:0:0:0:
256,192,348006,1,0,0:0:0:0:
256,192,348063,1,0,0:0:0:0:
256,192,348120,1,0,0:0:0:0:
256,192,348177,1,8,0:0:0:0:
256,192,348234,1,0,0:0:0:0:
256,192,348291,1,0,0:0:0:0:
256,192,348348,1,0,0:0:0:0:
256,192,348406,1,0,0:0:0:0:
256,192,348463,1,0,0:0:0:0:
256,192,348520,1,0,0:0:0:0:
256,192,348577,1,0,0:0:0:0:
256,192,348634,1,0,0:0:0:0:
256,192,348691,1,0,0:0:0:0:
256,192,348748,1,0,0:0:0:0:
256,192,348806,1,0,0:0:0:0:
256,192,348863,1,8,0:0:0:0:
256,192,349034,1,8,0:0:0:0:
256,192,349206,1,0,0:0:0:0:
256,192,349377,1,0,0:0:0:0:
256,192,349548,1,8,0:0:0:0:
256,192,349606,1,8,0:0:0:0:
256,192,349663,1,0,0:0:0:0:
256,192,349720,1,0,0:0:0:0:
256,192,349777,1,0,0:0:0:0:
256,192,349834,1,0,0:0:0:0:
256,192,349891,1,8,0:0:0:0:
256,192,349948,1,8,0:0:0:0:
256,192,350006,1,8,0:0:0:0:
256,192,350063,1,8,0:0:0:0:
256,192,350120,1,8,0:0:0:0:
256,192,350177,1,8,0:0:0:0:
256,192,350234,1,0,0:0:0:0:
256,192,350291,1,0,0:0:0:0:
256,192,350348,1,0,0:0:0:0:
256,192,350406,1,0,0:0:0:0:
256,192,350463,1,0,0:0:0:0:
256,192,350520,1,0,0:0:0:0:
256,192,350577,1,8,0:0:0:0:
256,192,350748,1,8,0:0:0:0:
256,192,350920,1,4,0:0:0:0:
256,192,351948,1,8,0:0:0:0:
256,192,352291,1,0,0:0:0:0:
256,192,353320,1,8,0:0:0:0:
256,192,353377,1,8,0:0:0:0:
256,192,353434,1,8,0:0:0:0:
256,192,353491,1,0,0:0:0:0:
256,192,353548,1,0,0:0:0:0:
256,192,353606,1,0,0:0:0:0:
256,192,353663,1,8,0:0:0:0:
256,192,353777,1,0,0:0:0:0:
256,192,353891,1,0,0:0:0:0:
256,192,354006,1,8,0:0:0:0:
256,192,354120,1,0,0:0:0:0:
256,192,354234,1,0,0:0:0:0:
256,192,354348,1,8,0:0:0:0:
256,192,354463,1,8,0:0:0:0:
256,192,354577,1,0,0:0:0:0:
256,192,354691,1,8,0:0:0:0:
256,192,354806,1,8,0:0:0:0:
256,192,354920,1,8,0:0:0:0:
256,192,355034,1,0,0:0:0:0:
256,192,356063,1,8,0:0:0:0:
256,192,356406,1,0,0:0:0:0:
256,192,356748,1,8,0:0:0:0:
256,192,356806,1,8,0:0:0:0:
256,192,356863,1,8,0:0:0:0:
256,192,356920,1,0,0:0:0:0:
256,192,356977,1,0,0:0:0:0:
256,192,357034,1,0,0:0:0:0:
256,192,357091,1,8,0:0:0:0:
256,192,357206,1,0,0:0:0:0:
256,192,357320,1,0,0:0:0:0:
256,192,357434,1,8,0:0:0:0:
256,192,357548,1,8,0:0:0:0:
256,192,357663,1,8,0:0:0:0:
256,192,357777,1,0,0:0:0:0:
256,192,358806,1,8,0:0:0:0:
256,192,358863,1,0,0:0:0:0:
256,192,358920,1,0,0:0:0:0:
256,192,358977,1,0,0:0:0:0:
256,192,359034,1,0,0:0:0:0:
256,192,359091,1,0,0:0:0:0:
256,192,359148,1,8,0:0:0:0:
256,192,359263,1,0,0:0:0:0:
256,192,359377,1,8,0:0:0:0:
256,192,359434,1,8,0:0:0:0:
256,192,359491,1,0,0:0:0:0:
256,192,359606,1,8,0:0:0:0:
256,192,359720,1,0,0:0:0:0:
256,192,359777,1,0,0:0:0:0:
256,192,359834,1,8,0:0:0:0:
256,192,359948,1,0,0:0:0:0:
256,192,360063,1,0,0:0:0:0:
256,192,360177,1,8,0:0:0:0:
256,192,360291,1,8,0:0:0:0:
256,192,360406,1,8,0:0:0:0:
256,192,360520,1,0,0:0:0:0:
256,192,361548,1,8,0:0:0:0:
256,192,361891,1,0,0:0:0:0:
256,192,362234,1,8,0:0:0:0:
256,192,362291,1,0,0:0:0:0:
256,192,362348,1,0,0:0:0:0:
256,192,362406,1,0,0:0:0:0:
256,192,362463,1,0,0:0:0:0:
256,192,362520,1,0,0:0:0:0:
256,192,362577,1,8,0:0:0:0:
256,192,362691,1,0,0:0:0:0:
256,192,362806,1,8,0:0:0:0:
256,192,362863,1,8,0:0:0:0:
256,192,362920,1,0,0:0:0:0:
256,192,363034,1,8,0:0:0:0:
256,192,363148,1,0,0:0:0:0:
256,192,363206,1,0,0:0:0:0:
256,192,363263,1,8,0:0:0:0:
256,192,363434,1,0,0:0:0:0:
256,192,363606,1,0,0:0:0:0:
256,192,363777,1,8,0:0:0:0:
256,192,363863,1,8,0:0:0:0:
256,192,363948,1,8,0:0:0:0:
256,192,364034,1,0,0:0:0:0:
256,192,364120,1,0,0:0:0:0:
256,192,364206,1,0,0:0:0:0:
256,192,364291,1,8,0:0:0:0:
256,192,364463,1,0,0:0:0:0:
256,192,364548,1,0,0:0:0:0:
256,192,364634,1,8,0:0:0:0:
256,192,364720,1,8,0:0:0:0:
256,192,364806,1,8,0:0:0:0:
256,192,364891,1,8,0:0:0:0:
256,192,364977,1,0,0:0:0:0:
256,192,365063,1,0,0:0:0:0:
256,192,365148,1,0,0:0:0:0:
256,192,365234,1,0,0:0:0:0:
256,192,365320,1,8,0:0:0:0:
256,192,365406,1,8,0:0:0:0:
256,192,365491,1,0,0:0:0:0:
256,192,365577,1,0,0:0:0:0:
256,192,365663,1,8,0:0:0:0:
256,192,365834,1,8,0:0:0:0:
256,192,366006,1,0,0:0:0:0:
256,192,367377,1,0,0:0:0:0:
256,192,368748,1,8,0:0:0:0:
256,192,369091,1,0,0:0:0:0:
256,192,369777,1,0,0:0:0:0:
256,192,370120,1,0,0:0:0:0:
256,192,370463,1,0,0:0:0:0:
256,192,370806,1,0,0:0:0:0:
256,192,371148,1,8,0:0:0:0:
256,192,371491,1,8,0:0:0:0:
256,192,371834,1,0,0:0:0:0:
256,192,372177,1,0,0:0:0:0:
256,192,372520,1,8,0:0:0:0:
256,192,372863,1,8,0:0:0:0:
256,192,373206,1,0,0:0:0:0:
256,192,373548,1,8,0:0:0:0:
256,192,373891,1,8,0:0:0:0:
256,192,374234,1,4,0:0:0:0:
256,192,375606,1,0,0:0:0:0:
256,192,377043,1,0,0:0:0:0:
256,192,378514,1,0,0:0:0:0:
256,192,380032,1,0,0:0:0:0:
256,192,381590,1,0,0:0:0:0:
256,192,383190,1,8,0:0:0:0:
256,192,385707,1,12,0:0:0:0:
256,192,386558,1,0,0:0:0:0:
256,192,386997,1,0,0:0:0:0:
256,192,387437,1,0,0:0:0:0:
256,192,387883,1,0,0:0:0:0:
256,192,388329,1,0,0:0:0:0:
256,192,388785,1,0,0:0:0:0:
256,192,389241,1,0,0:0:0:0:
256,192,389704,1,0,0:0:0:0:
256,192,390167,1,0,0:0:0:0:
256,192,390641,1,0,0:0:0:0:
256,192,391115,1,0,0:0:0:0:
256,192,391593,1,0,0:0:0:0:
256,192,392071,1,0,0:0:0:0:
256,192,392560,1,0,0:0:0:0:
256,192,393050,1,0,0:0:0:0:
256,192,393552,1,0,0:0:0:0:
256,192,394054,1,0,0:0:0:0:
256,192,394563,1,0,0:0:0:0:
256,192,395073,1,0,0:0:0:0:
256,192,395590,1,0,0:0:0:0:
256,192,396107,1,0,0:0:0:0:
256,192,396633,1,0,0:0:0:0:
256,192,397159,1,0,0:0:0:0:
256,192,397697,1,0,0:0:0:0:
256,192,398235,1,12,0:0:0:0:
256,192,401640,5,8,0:0:0:0:
256,192,402813,1,4,0:0:0:0:
256,192,405213,1,4,0:0:0:0:
256,192,407613,1,4,0:0:0:0:
256,192,410013,1,4,0:0:0:0:
256,192,412413,1,4,0:0:0:0:
256,192,414813,1,4,0:0:0:0:
256,192,417213,1,12,0:0:0:0:
256,192,420813,1,8,0:0:0:0:
256,192,421413,1,0,0:0:0:0:
256,192,422013,1,8,0:0:0:0:
256,192,422313,1,0,0:0:0:0:
256,192,422613,1,0,0:0:0:0:
256,192,422913,1,0,0:0:0:0:
256,192,423213,1,8,0:0:0:0:
256,192,423513,1,0,0:0:0:0:
256,192,423813,1,0,0:0:0:0:
256,192,424113,1,0,0:0:0:0:
256,192,424413,1,8,0:0:0:0:
256,192,424613,1,0,0:0:0:0:
256,192,424813,1,0,0:0:0:0:
256,192,425013,1,8,0:0:0:0:
256,192,425213,1,0,0:0:0:0:
256,192,425413,1,0,0:0:0:0:
256,192,425613,1,8,0:0:0:0:
256,192,425813,1,0,0:0:0:0:
256,192,426013,1,0,0:0:0:0:
256,192,426213,1,8,0:0:0:0:
256,192,426413,1,0,0:0:0:0:
256,192,426613,1,0,0:0:0:0:
256,192,426813,1,8,0:0:0:0:
256,192,426963,1,8,0:0:0:0:
256,192,427113,1,0,0:0:0:0:
256,192,427263,1,0,0:0:0:0:
256,192,427413,1,8,0:0:0:0:
256,192,427563,1,8,0:0:0:0:
256,192,427713,1,0,0:0:0:0:
256,192,427863,1,0,0:0:0:0:
256,192,428013,1,8,0:0:0:0:
256,192,428163,1,8,0:0:0:0:
256,192,428313,1,0,0:0:0:0:
256,192,428463,1,0,0:0:0:0:
256,192,428613,1,8,0:0:0:0:
256,192,428763,1,8,0:0:0:0:
256,192,428913,1,0,0:0:0:0:
256,192,429063,1,0,0:0:0:0:
256,192,429213,1,8,0:0:0:0:
256,192,429313,1,8,0:0:0:0:
256,192,429413,1,8,0:0:0:0:
256,192,429513,1,0,0:0:0:0:
256,192,429613,1,0,0:0:0:0:
256,192,429713,1,0,0:0:0:0:
256,192,429813,1,8,0:0:0:0:
256,192,429913,1,8,0:0:0:0:
256,192,430013,1,8,0:0:0:0:
256,192,430113,1,0,0:0:0:0:
256,192,430213,1,0,0:0:0:0:
256,192,430313,1,0,0:0:0:0:
256,192,430413,1,8,0:0:0:0:
256,192,430513,1,8,0:0:0:0:
256,192,430613,1,8,0:0:0:0:
256,192,430713,1,0,0:0:0:0:
256,192,430813,1,0,0:0:0:0:
256,192,430913,1,0,0:0:0:0:
256,192,431013,1,8,0:0:0:0:
256,192,431113,1,8,0:0:0:0:
256,192,431213,1,8,0:0:0:0:
256,192,431313,1,0,0:0:0:0:
256,192,431413,1,0,0:0:0:0:
256,192,431513,1,0,0:0:0:0:
256,192,431613,1,8,0:0:0:0:
256,192,431688,1,8,0:0:0:0:
256,192,431763,1,0,0:0:0:0:
256,192,431838,1,0,0:0:0:0:
256,192,431913,1,8,0:0:0:0:
256,192,431988,1,8,0:0:0:0:
256,192,432063,1,0,0:0:0:0:
256,192,432138,1,0,0:0:0:0:
256,192,432213,1,8,0:0:0:0:
256,192,432288,1,8,0:0:0:0:
256,192,432363,1,8,0:0:0:0:
256,192,432438,1,8,0:0:0:0:
256,192,432513,1,0,0:0:0:0:
256,192,432588,1,0,0:0:0:0:
256,192,432663,1,0,0:0:0:0:
256,192,432738,1,0,0:0:0:0:
256,192,432813,1,8,0:0:0:0:
256,192,432888,1,8,0:0:0:0:
256,192,432963,1,0,0:0:0:0:
256,192,433038,1,0,0:0:0:0:
256,192,433113,1,8,0:0:0:0:
256,192,433188,1,8,0:0:0:0:
256,192,433263,1,0,0:0:0:0:
256,192,433338,1,0,0:0:0:0:
256,192,433413,1,8,0:0:0:0:
256,192,433488,1,8,0:0:0:0:
256,192,433563,1,8,0:0:0:0:
256,192,433638,1,8,0:0:0:0:
256,192,433713,1,0,0:0:0:0:
256,192,433788,1,0,0:0:0:0:
256,192,433863,1,0,0:0:0:0:
256,192,433938,1,0,0:0:0:0:
256,192,434013,1,8,0:0:0:0:
256,192,434063,1,8,0:0:0:0:
256,192,434113,1,8,0:0:0:0:
256,192,434163,1,8,0:0:0:0:
256,192,434213,1,0,0:0:0:0:
256,192,434263,1,0,0:0:0:0:
256,192,434313,1,8,0:0:0:0:
256,192,434363,1,8,0:0:0:0:
256,192,434413,1,8,0:0:0:0:
256,192,434463,1,8,0:0:0:0:
256,192,434513,1,0,0:0:0:0:
256,192,434563,1,0,0:0:0:0:
256,192,434613,1,8,0:0:0:0:
256,192,434663,1,8,0:0:0:0:
256,192,434713,1,8,0:0:0:0:
256,192,434763,1,8,0:0:0:0:
256,192,434813,1,8,0:0:0:0:
256,192,434863,1,8,0:0:0:0:
256,192,434913,1,0,0:0:0:0:
256,192,434963,1,0,0:0:0:0:
256,192,435013,1,0,0:0:0:0:
256,192,435063,1,0,0:0:0:0:
256,192,435113,1,0,0:0:0:0:
256,192,435163,1,0,0:0:0:0:
256,192,435213,1,8,0:0:0:0:
256,192,435263,1,8,0:0:0:0:
256,192,435313,1,8,0:0:0:0:
256,192,435363,1,8,0:0:0:0:
256,192,435413,1,0,0:0:0:0:
256,192,435463,1,0,0:0:0:0:
256,192,435513,1,8,0:0:0:0:
256,192,435563,1,8,0:0:0:0:
256,192,435613,1,8,0:0:0:0:
256,192,435663,1,8,0:0:0:0:
256,192,435713,1,0,0:0:0:0:
256,192,435763,1,0,0:0:0:0:
256,192,435813,1,8,0:0:0:0:
256,192,435863,1,8,0:0:0:0:
256,192,435913,1,8,0:0:0:0:
256,192,435963,1,8,0:0:0:0:
256,192,436013,1,8,0:0:0:0:
256,192,436063,1,8,0:0:0:0:
256,192,436113,1,0,0:0:0:0:
256,192,436163,1,0,0:0:0:0:
256,192,436213,1,0,0:0:0:0:
256,192,436263,1,0,0:0:0:0:
256,192,436313,1,0,0:0:0:0:
256,192,436363,1,0,0:0:0:0:
256,192,436413,1,8,0:0:0:0:
256,192,436450,1,0,0:0:0:0:
256,192,436488,1,8,0:0:0:0:
256,192,436525,1,0,0:0:0:0:
256,192,436563,1,8,0:0:0:0:
256,192,436600,1,0,0:0:0:0:
256,192,436638,1,8,0:0:0:0:
256,192,436675,1,0,0:0:0:0:
256,192,436713,1,8,0:0:0:0:
256,192,436750,1,0,0:0:0:0:
256,192,436788,1,8,0:0:0:0:
256,192,436825,1,0,0:0:0:0:
256,192,436863,1,8,0:0:0:0:
256,192,436900,1,0,0:0:0:0:
256,192,436938,1,8,0:0:0:0:
256,192,436975,1,0,0:0:0:0:
256,192,437013,1,8,0:0:0:0:
256,192,437050,1,0,0:0:0:0:
256,192,437088,1,8,0:0:0:0:
256,192,437125,1,0,0:0:0:0:
256,192,437163,1,8,0:0:0:0:
256,192,437200,1,0,0:0:0:0:
256,192,437238,1,8,0:0:0:0:
256,192,437275,1,0,0:0:0:0:
256,192,437313,1,8,0:0:0:0:
256,192,437350,1,0,0:0:0:0:
256,192,437388,1,8,0:0:0:0:
256,192,437425,1,0,0:0:0:0:
256,192,437463,1,8,0:0:0:0:
256,192,437500,1,0,0:0:0:0:
256,192,437538,1,8,0:0:0:0:
256,192,437575,1,0,0:0:0:0:
256,192,437613,1,8,0:0:0:0:
256,192,437650,1,0,0:0:0:0:
256,192,437688,1,8,0:0:0:0:
256,192,437725,1,0,0:0:0:0:
256,192,437763,1,8,0:0:0:0:
256,192,437800,1,0,0:0:0:0:
256,192,437838,1,8,0:0:0:0:
256,192,437875,1,0,0:0:0:0:
256,192,437913,1,8,0:0:0:0:
256,192,437950,1,0,0:0:0:0:
256,192,437988,1,8,0:0:0:0:
256,192,438025,1,0,0:0:0:0:
256,192,438063,1,8,0:0:0:0:
256,192,438100,1,0,0:0:0:0:
256,192,438138,1,8,0:0:0:0:
256,192,438175,1,0,0:0:0:0:
256,192,438213,1,8,0:0:0:0:
256,192,438250,1,0,0:0:0:0:
256,192,438288,1,8,0:0:0:0:
256,192,438325,1,0,0:0:0:0:
256,192,438363,1,8,0:0:0:0:
256,192,438400,1,0,0:0:0:0:
256,192,438438,1,8,0:0:0:0:
256,192,438475,1,0,0:0:0:0:
256,192,438513,1,8,0:0:0:0:
256,192,438550,1,0,0:0:0:0:
256,192,438588,1,8,0:0:0:0:
256,192,438625,1,0,0:0:0:0:
256,192,438663,1,8,0:0:0:0:
256,192,438700,1,0,0:0:0:0:
256,192,438738,1,8,0:0:0:0:
256,192,438775,1,0,0:0:0:0:
256,192,438813,1,8,0:0:0:0:
256,192,438850,1,0,0:0:0:0:
256,192,438888,1,8,0:0:0:0:
256,192,438925,1,0,0:0:0:0:
256,192,438963,1,8,0:0:0:0:
256,192,439000,1,0,0:0:0:0:
256,192,439038,1,8,0:0:0:0:
256,192,439075,1,0,0:0:0:0:
256,192,439113,1,8,0:0:0:0:
256,192,439150,1,0,0:0:0:0:
256,192,439188,1,8,0:0:0:0:
256,192,439225,1,0,0:0:0:0:
256,192,439263,1,8,0:0:0:0:
256,192,439300,1,0,0:0:0:0:
256,192,439338,1,8,0:0:0:0:
256,192,439375,1,0,0:0:0:0:
256,192,439413,1,8,0:0:0:0:
256,192,439450,1,0,0:0:0:0:
256,192,439488,1,8,0:0:0:0:
256,192,439525,1,0,0:0:0:0:
256,192,439563,1,8,0:0:0:0:
256,192,439600,1,0,0:0:0:0:
256,192,439638,1,8,0:0:0:0:
256,192,439675,1,0,0:0:0:0:
256,192,439713,1,8,0:0:0:0:
256,192,439750,1,0,0:0:0:0:
256,192,439788,1,8,0:0:0:0:
256,192,439825,1,0,0:0:0:0:
256,192,439863,1,8,0:0:0:0:
256,192,439900,1,0,0:0:0:0:
256,192,439938,1,8,0:0:0:0:
256,192,439975,1,0,0:0:0:0:
256,192,440013,1,8,0:0:0:0:
