osu file format v14

[General]
AudioFilename: Indivision Echo Inada - Around the World.mp3
AudioLeadIn: 0
PreviewTime: 66291
Countdown: 0
SampleSet: Drum
StackLeniency: 0.7
Mode: 0
LetterboxInBreaks: 0
EpilepsyWarning: 1
WidescreenStoryboard: 0

[Editor]
DistanceSpacing: 0.6
BeatDivisor: 7
GridSize: 16
TimelineZoom: 1.1

[Metadata]
Title:Around the World
TitleUnicode:Around the World
Artist:Indivision & Echo Inada
ArtistUnicode:Indivision & Echo Inada
Creator:Seiji
Version:With You
Source:
Tags:dnb indivision ATW echo inada
BeatmapID:934067
BeatmapSetID:433300

[Difficulty]
HPDrainRate:6
CircleSize:4.6
OverallDifficulty:8.7
ApproachRate:9.4
SliderMultiplier:1.6
SliderTickRate:2

[Events]
//Background and Video events
0,0,"atw.jpg",0,0
//Break Periods
//Storyboard Layer 0 (Background)
//Storyboard Layer 1 (Fail)
//Storyboard Layer 2 (Pass)
//Storyboard Layer 3 (Foreground)
//Storyboard Layer 4 (Overlay)
//Storyboard Sound Samples

[TimingPoints]
85,344.827586206897,4,3,1,60,1,0
44222,-142.857142857143,4,3,1,60,0,0
45085,-125,4,3,1,60,0,0
55257,-100,4,3,1,60,0,0
66636,-100,4,3,1,60,0,1
77326,-100,4,3,1,60,0,1
82843,-100,4,3,1,60,0,0
88360,-100,4,3,2,60,0,0
88705,-100,4,3,1,60,0,0
99395,-100,4,3,2,60,0,0
99740,-100,4,3,1,60,0,0
104567,-100,4,3,1,60,0,0
104912,-100,4,3,1,60,0,0
109056,-125,4,3,2,60,0,0
110429,-100,4,3,1,60,0,0
110774,-100,4,3,1,60,0,0
120085,-100,4,3,1,60,0,0
126981,-100,4,3,1,60,0,0
131119,-125,4,3,1,60,0,0
132498,-100,4,3,1,60,0,0
143705,-100,4,3,2,60,0,0
143878,-100,4,3,1,60,0,0
151809,-133.333333333333,4,3,1,60,0,0
155257,-200,4,3,1,60,0,0
187671,-100,4,3,1,60,0,0
199050,-100,4,3,1,60,0,1
209740,-100,4,3,1,60,0,1
220774,-100,4,3,1,60,0,0
231809,-100,4,3,2,60,0,0
232153,-100,4,3,1,60,0,0
243188,-100,4,3,1,60,0,0
259395,-100,4,3,1,60,0,0
265257,-100,4,3,1,60,0,0
275947,-100,4,3,1,60,0,0
286981,-100,4,3,1,60,0,0
298016,-100,4,3,1,60,0,0
309050,-100,4,3,2,60,0,0

[Colours]
Combo1 : 225,0,113
Combo2 : 0,0,183
Combo3 : 174,0,0
Combo4 : 206,103,0

[HitObjects]
68,120,85,6,0,P|105:105|144:105,1,80,4|0,0:3|0:3,0:3:0:0:
187,276,429,1,8,0:3:0:0:
270,142,602,1,0,0:3:0:0:
405,83,774,2,0,P|397:122|383:160,1,80,0|4,0:3|0:3,0:3:0:0:
433,280,1119,2,8,P|397:303|357:311,1,80,8|0,0:3|0:3,0:3:0:0:
281,216,1464,2,0,P|247:194|208:185,1,80,4|0,0:3|0:3,0:3:0:0:
72,160,1809,5,8,0:3:0:0:
128,284,1981,1,0,0:3:0:0:
252,52,2153,1,0,0:3:0:0:
256,204,2326,1,4,0:3:0:0:
440,160,2498,1,8,0:3:0:0:
384,284,2670,1,0,0:3:0:0:
176,312,2843,6,2,P|203:340|242:342,1,80,4|2,0:3|0:3,0:3:0:0:
284,184,3188,1,8,0:3:0:0:
124,184,3360,1,0,0:3:0:0:
208,292,3533,1,0,0:3:0:0:
284,184,3705,1,4,0:3:0:0:
124,184,3878,1,8,0:3:0:0:
208,84,4050,1,0,0:0:0:0:
92,304,4222,6,0,L|168:336,1,80,0|2,0:3|0:3,0:3:0:0:
408,304,4567,2,2,L|334:335,1,80,10|2,0:3|0:3,0:3:0:0:
218,170,4912,5,0,0:3:0:0:
144,256,5085,1,4,0:3:0:0:
58,172,5257,1,8,0:3:0:0:
141,85,5429,1,0,0:3:0:0:
284,32,5602,6,2,P|324:40|348:72,1,80,6|2,0:3|0:3,0:3:0:0:
448,144,5947,1,8,0:3:0:0:
380,264,6119,1,0,0:3:0:0:
188,160,6291,1,0,0:3:0:0:
264,252,6464,1,4,0:3:0:0:
136,104,6636,1,8,0:3:0:0:
236,312,6809,1,0,0:3:0:0:
232,120,6981,6,2,P|200:144|184:184,1,80,4|2,0:3|0:3,0:3:0:0:
336,120,7326,2,2,P|368:144|384:184,1,80,8|2,0:3|0:3,0:3:0:0:
261,312,7671,1,0,0:3:0:0:
236,144,7843,1,4,0:3:0:0:
344,296,8016,1,8,0:3:0:0:
336,96,8188,1,0,0:3:0:0:
240,244,8360,5,4,0:3:0:0:
148,48,8533,1,0,0:3:0:0:
228,144,8705,2,0,P|188:160|152:152,1,80,8|0,0:3|0:3,0:3:0:0:
60,244,9050,2,0,P|84:280|112:304,1,80,0|4,0:3|0:3,0:3:0:0:
236,148,9395,1,8,0:3:0:0:
231,331,9567,1,0,0:3:0:0:
384,336,9740,5,0,0:3:0:0:
412,308,9826,1,0,0:3:0:0:
434,275,9912,1,4,0:3:0:0:
448,237,9998,1,0,0:3:0:0:
450,197,10085,1,12,0:3:0:0:
441,159,10171,5,0,0:3:0:0:
419,125,10257,1,0,0:3:0:0:
388,100,10343,1,0,0:3:0:0:
350,88,10429,1,0,0:3:0:0:
311,88,10516,1,0,0:3:0:0:
273,101,10602,5,4,0:3:0:0:
238,101,10688,1,0,0:3:0:0:
201,86,10774,1,12,0:3:0:0:
162,81,10860,1,0,0:3:0:0:
122,87,10947,1,0,0:3:0:0:
87,105,11033,1,0,0:3:0:0:
59,133,11119,2,0,P|36:164|40:204,1,80,4|0,0:3|0:3,0:3:0:0:
60,312,11464,6,2,L|108:244,1,80,10|2,0:3|0:3,0:3:0:0:
200,264,11809,2,2,L|172:188,1,80,2|6,0:3|0:3,0:3:0:0:
156,40,12153,2,2,L|204:104,1,80,10|2,0:3|0:3,0:3:0:0:
296,88,12498,2,2,L|272:164,1,80,6|2,0:3|0:3,0:3:0:0:
292,248,12843,5,8,0:3:0:0:
340,312,13016,1,0,0:3:0:0:
472,184,13188,1,0,0:3:0:0:
424,248,13360,1,4,0:3:0:0:
288,104,13533,1,8,0:3:0:0:
328,172,13705,1,0,0:3:0:0:
464,56,13878,1,0,0:3:0:0:
412,116,14050,1,0,0:3:0:0:
216,52,14222,6,2,B|176:32|136:52,1,80,8|2,0:3|0:3,0:3:0:0:
240,176,14567,1,0,0:3:0:0:
84,144,14740,1,4,0:3:0:0:
144,296,14912,1,8,0:3:0:0:
168,104,15085,1,0,0:0:0:0:
32,188,15257,2,2,P|32:223|62:255,1,80,4|2,0:3|0:3,0:3:0:0:
136,112,15602,2,0,P|164:132|184:172,1,80,10|0,0:3|0:3,0:3:0:0:
376,112,15947,2,0,P|348:132|328:172,1,80,0|4,0:3|0:3,0:3:0:0:
480,188,16291,2,2,P|479:223|449:255,1,80,8|2,0:3|0:3,0:3:0:0:
292,320,16636,6,2,P|256:332|216:320,1,80,4|2,0:3|0:3,0:3:0:0:
168,248,16981,1,8,0:3:0:0:
276,208,17153,1,0,0:3:0:0:
380,160,17326,2,2,P|392:124|380:84,1,80,2|4,0:3|0:3,0:3:0:0:
268,88,17671,1,8,0:3:0:0:
424,232,17843,2,0,L|408:272,1,40,0|0,0:3|0:3,0:3:0:0:
288,316,18016,5,4,0:3:0:0:
200,240,18188,2,0,L|216:200,1,40,0|0,0:3|0:3,0:3:0:0:
308,148,18360,1,8,0:3:0:0:
228,48,18533,1,0,0:3:0:0:
108,20,18705,2,0,P|72:39|66:75,1,80,0|4,0:3|0:3,0:3:0:0:
117,196,19050,1,8,0:3:0:0:
244,233,19222,5,0,0:3:0:0:
299,339,19395,2,0,P|331:327|355:287,1,80,4|0,0:3|0:3,0:3:0:0:
308,129,19740,1,8,0:3:0:0:
448,84,19912,1,0,0:3:0:0:
449,250,20085,5,0,0:3:0:0:
362,63,20257,1,4,0:3:0:0:
341,310,20429,1,8,0:3:0:0:
205,242,20602,1,0,0:3:0:0:
156,104,20774,1,8,0:3:0:0:
336,140,21119,5,4,0:3:0:0:
256,336,21291,1,8,0:3:0:0:
143,191,21636,1,4,0:3:0:0:
256,48,21809,1,8,0:3:0:0:
400,91,22153,6,2,P|440:99|464:127,1,80,6|2,0:3|0:3,0:3:0:0:
443,270,22498,1,8,0:3:0:0:
256,148,22671,1,0,0:3:0:0:
356,212,22843,1,0,0:3:0:0:
236,224,23016,1,4,0:3:0:0:
332,296,23188,1,8,0:3:0:0:
212,300,23360,1,0,0:3:0:0:
256,148,23533,5,4,0:3:0:0:
156,212,23705,1,0,0:3:0:0:
212,32,23878,1,8,0:3:0:0:
94,48,24050,1,0,0:0:0:0:
44,156,24222,2,0,L|72:232,1,80,0|4,0:3|0:3,0:3:0:0:
96,324,24567,6,0,L|148:264,1,80,8|0,0:3|0:3,0:3:0:0:
232,236,24912,2,0,L|176:180,1,80,4|0,0:3|0:3,0:3:0:0:
340,148,25257,1,8,0:3:0:0:
404,48,25429,1,0,0:3:0:0:
480,140,25602,6,0,P|476:184|452:208,1,80,0|4,0:3|0:3,0:3:0:0:
429,331,25947,1,8,0:3:0:0:
352,192,26119,1,0,0:3:0:0:
256,300,26291,5,4,0:3:0:0:
80,320,26464,1,0,0:3:0:0:
160,192,26636,1,8,0:0:0:0:
256,64,26809,1,0,0:3:0:0:
352,192,26981,1,0,0:3:0:0:
400,48,27153,1,4,0:0:0:0:
256,64,27326,2,0,P|223:46|182:62,1,80,8|0,0:3|0:3,0:3:0:0:
42,175,27671,5,4,0:3:0:0:
160,249,27843,1,0,0:3:0:0:
180,105,28016,1,8,0:3:0:0:
43,159,28188,1,0,0:3:0:0:
173,253,28360,1,0,0:3:0:0:
173,93,28533,1,4,0:3:0:0:
48,327,28705,6,0,P|80:344|120:328,1,80,8|0,0:3|0:3,0:3:0:0:
140,188,29050,2,0,P|173:172|209:192,1,80,4|0,0:3|0:3,0:3:0:0:
287,328,29395,2,0,P|319:345|359:329,1,80,8|0,0:3|0:3,0:3:0:0:
379,189,29740,2,0,P|412:173|448:193,1,80,0|4,0:3|0:3,0:3:0:0:
351,292,30085,1,8,0:3:0:0:
412,144,30257,1,0,0:3:0:0:
472,292,30429,1,4,0:3:0:0:
324,232,30602,1,0,0:3:0:0:
176,292,30774,1,8,0:3:0:0:
28,232,30947,1,0,0:3:0:0:
28,112,31119,5,0,0:3:0:0:
104,31,31291,1,4,0:3:0:0:
199,91,31464,1,8,0:3:0:0:
140,185,31636,1,0,0:3:0:0:
104,280,31809,5,0,0:3:0:0:
132,304,31895,1,0,0:3:0:0:
166,323,31981,1,4,0:3:0:0:
204,337,32067,1,0,0:3:0:0:
243,344,32153,1,8,0:3:0:0:
283,342,32240,1,0,0:3:0:0:
321,330,32326,1,0,0:3:0:0:
355,309,32412,1,0,0:3:0:0:
383,281,32498,1,0,0:3:0:0:
403,246,32585,5,0,0:3:0:0:
416,209,32671,1,4,0:3:0:0:
421,169,32757,1,0,0:3:0:0:
419,129,32843,1,8,0:3:0:0:
412,90,32929,1,0,0:3:0:0:
388,63,33016,1,0,0:3:0:0:
356,43,33102,1,0,0:3:0:0:
264,24,33188,6,0,P|268:66|261:113,1,80,4|0,0:3|0:3,0:3:0:0:
214,207,33533,1,8,0:3:0:0:
112,64,33705,1,0,0:3:0:0:
66,191,33878,2,0,P|79:231|112:259,1,80,0|4,0:3|0:3,0:3:0:0:
230,194,34222,1,8,0:3:0:0:
184,352,34395,1,0,0:0:0:0:
352,288,34567,6,0,P|386:270|396:233,1,80,4|0,0:3|0:3,0:3:0:0:
288,96,34912,2,0,P|253:115|244:153,1,80,8|0,0:3|0:3,0:3:0:0:
232,352,35257,1,0,0:3:0:0:
372,184,35429,1,4,0:3:0:0:
300,272,35602,1,8,0:3:0:0:
148,88,35774,1,0,0:3:0:0:
208,200,35947,1,4,0:3:0:0:
272,32,36119,1,0,0:3:0:0:
360,116,36291,6,0,P|392:92|432:100,1,80,8|0,0:3|0:3,0:3:0:0:
416,216,36636,1,0,0:3:0:0:
416,208,36809,1,4,0:3:0:0:
340,56,36981,2,0,P|372:32|412:40,1,80,8|0,0:3|0:3,0:3:0:0:
398,280,37326,1,4,0:3:0:0:
232,204,37498,1,0,0:3:0:0:
371,90,37671,1,8,0:3:0:0:
396,275,37843,1,0,0:3:0:0:
239,227,38016,6,0,P|213:255|173:259,1,80,0|4,0:3|0:3,0:3:0:0:
52,108,38360,1,8,0:3:0:0:
72,256,38533,1,0,0:3:0:0:
188,149,38705,1,4,0:3:0:0:
284,48,39050,1,4,0:3:0:0:
384,92,39395,1,4,0:3:0:0:
448,176,39740,1,4,0:3:0:0:
380,264,40085,5,4,0:3:0:0:
280,336,40429,1,4,0:3:0:0:
184,272,40774,1,4,0:3:0:0:
72,252,41119,1,4,0:3:0:0:
136,152,41464,5,4,0:3:0:0:
300,240,41636,1,12,0:3:0:0:
236,140,41809,5,4,0:3:0:0:
308,288,41981,1,8,0:3:0:0:
228,92,42153,5,4,0:3:0:0:
368,312,42326,1,8,0:3:0:0:
176,68,42498,5,4,0:3:0:0:
360,248,42671,1,8,0:3:0:0:
96,176,42843,5,4,0:3:0:0:
102,215,42929,1,4,0:3:0:0:
122,249,43016,1,4,0:3:0:0:
153,274,43102,1,4,0:3:0:0:
191,287,43188,1,4,0:3:0:0:
231,288,43274,1,4,0:3:0:0:
269,278,43360,1,4,0:3:0:0:
304,256,43447,1,4,0:3:0:0:
331,229,43533,5,4,0:3:0:0:
348,193,43619,1,4,0:3:0:0:
353,153,43705,1,4,0:3:0:0:
343,115,43791,1,4,0:3:0:0:
320,82,43878,1,4,0:3:0:0:
288,58,43964,1,4,0:3:0:0:
251,44,44050,1,4,0:3:0:0:
211,40,44136,1,4,0:3:0:0:
168,44,44222,6,2,B|223:126|108:180|160:256,1,223.999993164063,2|2,0:3|0:3,0:3:0:0:
232,260,45085,1,2,0:3:0:0:
420,180,45257,1,2,0:3:0:0:
288,140,45429,1,2,0:3:0:0:
332,260,45602,2,2,B|359:297|359:297|308:364|308:364|252:364|252:364|200:296|200:296|232:256,1,320,2|2,0:3|0:3,0:3:0:0:
44,72,46981,6,2,B|45:192|45:192|117:185|104:256|104:256|256:224,1,384,2|2,0:3|0:3,0:3:0:0:
336,260,48188,1,2,0:3:0:0:
268,308,48360,1,2,0:3:0:0:
188,336,48533,1,2,0:3:0:0:
112,304,48705,1,2,0:3:0:0:
52,244,48878,2,2,B|84:172|84:172|192:132,1,192,2|2,0:3|0:3,0:3:0:0:
308,58,49740,6,2,B|381:57|381:57|444:88|395:136|395:136|316:153,1,256,2|2,0:3|0:3,0:3:0:0:
95,234,50602,1,2,0:3:0:0:
112,64,50774,1,2,0:3:0:0:
256,128,50947,1,2,0:3:0:0:
188,225,51119,2,2,B|220:321|220:321|132:361|132:361|92:245,1,320,2|2,0:3|0:3,0:3:0:0:
120,16,52498,6,2,B|184:120|60:112|60:112|104:200|104:200|16:204|68:280,1,384,2|2,0:3|0:3,0:3:0:0:
161,280,53705,1,2,0:3:0:0:
232,364,53878,1,2,0:3:0:0:
305,134,54050,1,2,0:3:0:0:
204,212,54222,1,2,0:3:0:0:
100,52,54395,1,2,0:3:0:0:
192,128,54567,2,2,P|256:156|312:128,1,128,2|2,0:3|0:3,0:3:0:0:
448,76,55257,5,4,0:3:0:0:
480,184,55602,1,4,0:3:0:0:
436,288,55947,1,4,0:3:0:0:
340,348,56291,1,4,0:3:0:0:
232,312,56636,5,4,0:3:0:0:
148,236,56981,1,4,0:3:0:0:
232,164,57326,1,4,0:3:0:0:
144,96,57671,1,4,0:3:0:0:
232,24,58016,5,6,0:3:0:0:
356,60,58360,1,4,0:3:0:0:
436,160,58705,1,4,0:3:0:0:
324,220,59050,1,4,0:3:0:0:
240,120,59395,5,4,0:3:0:0:
136,192,59740,1,4,0:3:0:0:
240,268,60085,1,4,0:3:0:0:
140,348,60429,1,4,0:3:0:0:
12,272,60774,5,6,0:3:0:0:
4,184,60947,1,4,0:3:0:0:
80,228,61119,1,4,0:3:0:0:
64,140,61291,1,4,0:3:0:0:
148,192,61464,5,6,0:3:0:0:
128,92,61636,1,4,0:3:0:0:
220,192,61809,1,4,0:3:0:0:
212,48,61981,1,4,0:3:0:0:
292,192,62153,5,6,0:3:0:0:
300,48,62325,1,4,0:3:0:0:
364,192,62498,1,4,0:3:0:0:
384,92,62670,1,4,0:3:0:0:
432,228,62843,5,6,0:3:0:0:
448,140,63015,1,4,0:3:0:0:
500,272,63188,1,4,0:3:0:0:
508,184,63360,1,4,0:3:0:0:
364,192,63533,5,6,0:3:0:0:
300,48,63705,1,4,0:3:0:0:
148,192,63878,1,4,0:3:0:0:
208,52,64050,1,4,0:3:0:0:
364,200,64222,5,6,0:3:0:0:
300,48,64395,1,4,0:3:0:0:
256,244,64567,1,4,0:3:0:0:
208,52,64740,1,4,0:3:0:0:
360,288,64912,5,6,0:3:0:0:
392,256,64998,1,4,0:3:0:0:
406,228,65085,1,4,0:3:0:0:
407,188,65171,1,4,0:3:0:0:
395,150,65257,1,4,0:3:0:0:
365,125,65343,1,4,0:3:0:0:
325,121,65429,1,4,0:3:0:0:
287,131,65516,1,4,0:3:0:0:
251,149,65602,5,6,0:3:0:0:
216,136,65688,1,4,0:3:0:0:
178,123,65774,1,4,0:3:0:0:
139,121,65860,1,4,0:3:0:0:
103,138,65947,1,4,0:3:0:0:
76,172,66033,1,4,0:3:0:0:
64,212,66119,1,4,0:3:0:0:
72,248,66205,1,4,0:3:0:0:
90,276,66291,1,6,0:3:0:0:
169,336,66636,6,2,B|205:352|205:352|317:283,1,160,8|2,0:3|0:3,0:3:0:0:
396,221,67153,1,0,0:0:0:0:
372,113,67326,2,0,B|353:86|303:61,1,80,8|0,0:3|0:3,0:3:0:0:
145,219,67671,1,4,0:3:0:0:
298,108,67843,1,0,0:3:0:0:
259,251,68016,1,8,0:3:0:0:
128,64,68188,1,0,0:3:0:0:
24,186,68360,6,0,P|59:216|80:246,1,80,0|4,0:3|0:3,0:3:0:0:
190,348,68705,1,8,0:3:0:0:
281,244,68878,1,0,0:3:0:0:
171,184,69050,2,0,P|184:141|211:118,1,80,4|0,0:0|0:0,0:0:0:0:
347,45,69395,1,8,0:3:0:0:
366,209,69567,1,0,0:3:0:0:
204,113,69740,6,2,P|175:135|165:180,1,80,2|4,0:3|0:3,0:3:0:0:
312,240,70085,2,0,P|340:262|350:307,1,80,8|0,0:3|0:3,0:3:0:0:
145,287,70429,2,0,P|183:279|208:248,1,80,4|0,0:3|0:3,0:3:0:0:
44,108,70774,2,0,P|52:146|82:171,1,80,8|0,0:3|0:3,0:3:0:0:
112,300,71119,1,0,0:3:0:0:
260,344,71291,1,4,0:3:0:0:
464,216,71464,5,8,0:3:0:0:
360,304,71636,1,0,0:3:0:0:
304,168,71809,2,2,P|288:132|300:96,1,80,4|0,0:3|0:3,0:3:0:0:
442,95,72153,1,8,0:3:0:0:
306,253,72326,1,0,0:3:0:0:
226,74,72498,1,0,0:3:0:0:
76,132,72671,5,4,0:3:0:0:
224,256,72843,1,8,0:3:0:0:
32,300,73016,1,0,0:3:0:0:
208,264,73188,1,4,0:3:0:0:
68,152,73360,1,0,0:3:0:0:
220,280,73533,1,8,0:3:0:0:
32,324,73705,1,0,0:3:0:0:
246,344,73878,6,2,B|274:364|298:328|322:348,1,80,0|4,0:3|0:3,0:3:0:0:
321,190,74222,1,8,0:3:0:0:
388,111,74395,1,0,0:3:0:0:
465,182,74567,1,4,0:3:0:0:
395,259,74740,1,0,0:3:0:0:
336,92,74912,5,8,0:3:0:0:
476,132,75085,1,0,0:3:0:0:
440,280,75257,1,0,0:3:0:0:
296,236,75429,1,4,0:3:0:0:
253,132,75602,1,8,0:3:0:0:
177,45,75774,1,0,0:3:0:0:
68,68,75947,5,0,0:3:0:0:
24,176,76033,1,0,0:3:0:0:
26,215,76119,1,4,0:3:0:0:
39,253,76205,1,0,0:3:0:0:
60,287,76291,1,8,0:3:0:0:
90,314,76378,1,0,0:3:0:0:
125,332,76464,1,0,0:3:0:0:
160,348,76550,1,0,0:3:0:0:
198,357,76636,5,0,0:3:0:0:
236,347,76722,1,0,0:3:0:0:
265,319,76808,1,4,0:3:0:0:
277,282,76895,1,0,0:3:0:0:
270,243,76981,1,8,0:3:0:0:
244,212,77067,1,0,0:3:0:0:
208,196,77153,1,0,0:3:0:0:
164,188,77240,1,0,0:3:0:0:
124,188,77326,2,0,P|88:188|48:164,1,80,4|0,0:3|0:3,0:3:0:0:
45,33,77671,6,2,P|49:73|89:89,1,80,8|2,0:3|0:3,0:3:0:0:
23,239,78016,2,0,P|63:239|91:211,1,80,0|4,0:3|0:3,0:3:0:0:
264,140,78360,2,0,P|228:121|190:134,1,80,8|0,0:3|0:3,0:3:0:0:
112,252,78705,1,4,0:3:0:0:
80,112,78878,1,0,0:3:0:0:
220,148,79050,2,0,P|257:162|293:147,1,80,8|0,0:3|0:3,0:3:0:0:
364,60,79395,5,0,0:3:0:0:
452,132,79567,1,4,0:3:0:0:
364,204,79740,1,8,0:3:0:0:
276,132,79912,1,0,0:3:0:0:
452,132,80085,1,4,0:3:0:0:
276,132,80257,1,0,0:3:0:0:
420,246,80429,2,0,P|394:275|355:274,1,80,8|0,0:3|0:3,0:3:0:0:
336,133,80774,5,0,0:3:0:0:
208,64,80947,1,4,0:3:0:0:
209,249,81119,1,8,0:3:0:0:
73,128,81291,1,0,0:3:0:0:
37,273,81464,2,0,P|36:315|62:340,1,80,4|0,0:3|0:3,0:3:0:0:
188,276,81809,1,8,0:3:0:0:
301,343,81981,1,0,0:3:0:0:
416,256,82153,6,0,P|424:218|400:188,1,80,0|4,0:3|0:3,0:3:0:0:
256,144,82498,1,8,0:3:0:0:
117,196,82671,1,0,0:3:0:0:
133,68,82843,1,4,0:3:0:0:
257,23,83188,5,4,0:3:0:0:
366,70,83533,1,4,0:3:0:0:
408,180,83878,1,4,0:3:0:0:
348,292,84222,1,4,0:3:0:0:
220,292,84567,1,4,0:3:0:0:
256,168,84912,1,4,0:3:0:0:
128,172,85257,1,4,0:3:0:0:
200,288,85602,5,4,0:3:0:0:
180,56,85774,1,8,0:3:0:0:
304,288,85947,5,4,0:3:0:0:
320,72,86119,1,8,0:3:0:0:
184,312,86291,5,4,0:3:0:0:
208,96,86464,1,8,0:3:0:0:
356,280,86636,5,4,0:3:0:0:
332,64,86809,5,8,0:3:0:0:
440,268,86981,5,4,0:3:0:0:
408,292,87067,1,4,0:3:0:0:
370,303,87153,1,4,0:3:0:0:
331,298,87240,1,4,0:3:0:0:
295,281,87326,1,4,0:3:0:0:
262,260,87412,1,4,0:3:0:0:
223,271,87498,1,4,0:3:0:0:
183,275,87585,1,4,0:3:0:0:
144,270,87671,5,4,0:3:0:0:
108,254,87757,1,4,0:3:0:0:
77,228,87843,1,4,0:3:0:0:
64,196,87929,1,4,0:3:0:0:
69,161,88016,1,4,0:3:0:0:
95,130,88102,1,4,0:3:0:0:
127,108,88188,1,4,0:3:0:0:
166,99,88274,1,4,0:3:0:0:
208,108,88360,6,0,P|248:120|272:148,1,80,4|0,0:3|0:3,0:3:0:0:
371,134,88705,2,2,L|439:90,1,80,8|2,0:3|0:3,0:3:0:0:
503,202,89050,1,0,0:0:0:0:
479,234,89136,1,0,0:0:0:0:
455,266,89222,1,0,0:0:0:0:
378,340,89395,2,0,L|334:272,1,80,8|0,0:3|0:3,0:3:0:0:
156,136,89740,1,4,0:3:0:0:
229,280,89912,1,0,0:3:0:0:
313,146,90085,1,8,0:3:0:0:
152,133,90257,1,0,0:3:0:0:
227,295,90429,5,0,0:3:0:0:
388,332,90602,1,4,0:3:0:0:
476,228,90774,2,0,P|482:189|465:153,1,80,10|2,0:3|0:3,0:3:0:0:
284,88,91119,2,2,P|302:51|334:32,1,80,4|2,0:3|0:3,0:3:0:0:
480,80,91464,1,8,0:3:0:0:
334,31,91636,1,0,0:3:0:0:
204,96,91809,1,0,0:3:0:0:
364,208,91981,6,0,P|345:172|305:140,2,80,4|8|0,0:3|0:3|0:3,0:3:0:0:
272,320,92498,1,4,0:3:0:0:
144,344,92671,1,0,0:3:0:0:
120,228,92843,1,8,0:3:0:0:
248,204,93016,1,0,0:3:0:0:
272,320,93188,1,0,0:3:0:0:
144,344,93360,1,4,0:3:0:0:
120,228,93533,2,0,P|88:204|80:164,1,80,10|0,0:3|0:3,0:3:0:0:
112,52,93878,5,4,0:3:0:0:
232,130,94050,1,0,0:3:0:0:
365,56,94222,2,0,P|381:99|374:140,1,80,8|0,0:0|0:0,0:0:0:0:
230,150,94567,2,0,P|214:193|221:234,1,80,0|4,0:0|0:0,0:0:0:0:
357,277,94912,1,8,0:0:0:0:
425,187,95085,1,0,0:0:0:0:
256,320,95257,1,0,0:0:0:0:
87,187,95429,1,0,0:0:0:0:
75,325,95602,6,0,B|117:344|154:330,1,80,8|0,0:3|0:3,0:3:0:0:
119,204,95947,1,0,0:3:0:0:
228,124,96119,1,4,0:3:0:0:
257,326,96291,1,8,0:3:0:0:
367,259,96464,1,0,0:3:0:0:
424,149,96636,5,4,0:3:0:0:
340,24,96809,1,0,0:3:0:0:
268,156,96981,1,8,0:3:0:0:
180,28,97153,1,0,0:3:0:0:
88,140,97326,2,0,P|80:180|104:208,1,80,0|4,0:3|0:3,0:3:0:0:
156,296,97671,1,8,0:3:0:0:
268,336,97843,1,0,0:3:0:0:
380,324,98016,5,0,0:3:0:0:
406,316,98102,1,0,0:3:0:0:
428,299,98188,1,4,0:3:0:0:
441,274,98274,1,0,0:3:0:0:
443,246,98360,1,8,0:3:0:0:
432,220,98447,1,0,0:3:0:0:
415,200,98533,1,0,0:3:0:0:
389,189,98619,1,0,0:3:0:0:
360,180,98705,1,0,0:3:0:0:
336,168,98791,5,0,0:3:0:0:
317,151,98878,1,4,0:3:0:0:
303,129,98964,1,0,0:3:0:0:
299,103,99050,1,8,0:3:0:0:
305,78,99136,1,0,0:3:0:0:
320,56,99222,1,0,0:3:0:0:
342,44,99309,1,0,0:3:0:0:
368,44,99395,6,0,P|408:52|424:84,1,80,4|0,0:3|0:3,0:3:0:0:
452,204,99740,2,0,P|467:241|450:272,1,80,8|0,0:3|0:3,0:3:0:0:
359,316,100085,1,0,0:3:0:0:
320,329,100171,1,0,0:0:0:0:
283,326,100257,1,4,0:3:0:0:
136,332,100429,2,0,P|103:356|69:348,1,80,8|0,0:3|0:3,0:3:0:0:
79,214,100774,1,0,0:3:0:0:
196,126,100947,1,0,0:3:0:0:
320,244,101119,6,0,P|301:209|266:193,1,80,8|0,0:3|0:3,0:3:0:0:
180,278,101464,1,0,0:3:0:0:
376,165,101636,1,4,0:3:0:0:
308,311,101809,1,8,0:3:0:0:
452,269,101981,5,0,0:3:0:0:
379,358,102153,1,4,0:3:0:0:
258,356,102326,1,0,0:3:0:0:
160,264,102498,5,8,0:3:0:0:
52,332,102671,1,0,0:3:0:0:
32,208,102843,1,0,0:1:0:0:
65,164,102929,1,0,0:0:0:0:
112,143,103016,1,4,0:3:0:0:
264,168,103188,2,0,P|296:145|335:150,1,80,8|0,0:3|0:3,0:3:0:0:
476,224,103533,1,4,0:3:0:0:
313,226,103705,5,0,0:3:0:0:
464,32,103878,1,8,0:3:0:0:
476,224,104050,1,0,0:3:0:0:
320,32,104222,1,0,0:3:0:0:
313,226,104395,1,4,0:3:0:0:
193,331,104567,2,0,P|160:303|155:269,1,80,8|0,0:3|0:3,0:3:0:0:
260,156,104912,1,4,0:3:0:0:
260,336,105085,5,0,0:3:0:0:
95,238,105257,2,0,P|106:276|140:296,1,80,8|0,0:3|0:3,0:3:0:0:
268,332,105602,1,0,0:3:0:0:
416,288,105774,1,4,0:3:0:0:
292,184,105947,2,8,B|280:160|228:168|220:148,1,80,8|0,0:3|0:3,0:3:0:0:
317,44,106291,1,4,0:3:0:0:
420,107,106464,2,0,P|457:126|475:161,2,80,0|8|0,0:3|0:3|0:3,0:3:0:0:
304,168,106981,5,0,0:3:0:0:
216,84,107153,1,4,0:3:0:0:
272,312,107326,1,8,0:3:0:0:
168,216,107498,1,2,0:3:0:0:
64,348,107671,1,4,0:3:0:0:
28,212,107843,1,0,0:3:0:0:
192,344,108016,6,0,P|228:360|264:344,1,80,8|0,0:3|0:3,0:3:0:0:
372,260,108360,1,0,0:3:0:0:
400,168,108533,1,4,0:3:0:0:
372,76,108705,1,8,0:3:0:0:
284,32,108878,1,0,0:3:0:0:
158,62,109050,2,0,B|69:111|12:193|158:273|223:240|230:193|223:127|158:110|12:193|69:283|158:323,1,480,0|4,0:3|0:3,0:3:0:0:
136,304,110429,5,4,0:3:0:0:
286,341,110774,1,8,0:3:0:0:
401,182,110947,1,0,0:3:0:0:
256,224,111119,1,0,0:3:0:0:
427,304,111291,1,4,0:3:0:0:
390,172,111464,2,0,P|365:134|326:130,1,80,8|0,0:3|0:3,0:3:0:0:
192,208,111809,5,4,0:3:0:0:
96,131,111981,1,0,0:3:0:0:
176,46,112153,2,0,P|204:19|243:11,1,80,8|0,0:0|0:0,0:0:0:0:
317,169,112498,1,0,0:3:0:0:
173,120,112671,1,0,0:3:0:0:
125,321,112843,1,8,0:3:0:0:
242,247,113016,6,0,P|282:267|318:251,2,80,0|4|0,0:3|0:3|0:3,0:3:0:0:
256,136,113533,1,8,0:3:0:0:
372,352,113705,1,0,0:3:0:0:
396,120,113878,1,0,0:3:0:0:
224,348,114050,1,4,0:3:0:0:
356,281,114222,6,0,P|391:263|403:226,1,80,8|0,0:3|0:3,0:3:0:0:
398,32,114567,1,0,0:3:0:0:
331,212,114740,1,0,0:0:0:0:
276,31,114912,1,8,0:3:0:0:
421,161,115085,1,0,0:3:0:0:
244,130,115257,1,0,0:3:0:0:
432,90,115429,1,4,0:3:0:0:
339,218,115602,2,2,P|323:259|286:272,1,80,10|2,0:3|0:3,0:3:0:0:
121,182,115947,5,4,0:3:0:0:
220,350,116119,1,0,0:3:0:0:
256,176,116291,1,8,0:3:0:0:
95,350,116464,1,0,0:3:0:0:
65,133,116636,2,0,P|98:110|141:110,1,80,0|4,0:3|0:3,0:3:0:0:
284,218,116981,2,0,P|251:241|208:241,1,80,8|4,0:3|0:3,0:3:0:0:
176,64,117326,1,4,0:3:0:0:
82,254,117498,1,0,0:3:0:0:
228,188,117671,2,0,P|266:184|291:213,1,80,8|0,0:3|0:3,0:3:0:0:
212,316,118016,1,0,0:3:0:0:
200,164,118188,5,4,0:3:0:0:
173,264,118360,1,8,0:3:0:0:
275,239,118533,1,0,0:3:0:0:
143,201,118705,1,4,0:3:0:0:
268,168,118878,1,0,0:3:0:0:
233,295,119050,1,8,0:3:0:0:
184,116,119222,1,0,0:3:0:0:
134,299,119395,1,0,0:3:0:0:
321,253,119567,1,4,0:3:0:0:
440,160,119740,6,2,B|436:124|403:90,1,80,10|2,0:3|0:3,0:3:0:0:
348,48,120085,1,0,0:3:0:0:
324,52,120171,1,0,0:3:0:0:
320,80,120257,1,4,0:3:0:0:
288,80,120343,1,0,0:3:0:0:
284,104,120429,1,8,0:3:0:0:
252,104,120516,1,0,0:3:0:0:
248,132,120602,1,0,0:3:0:0:
216,128,120688,5,0,0:3:0:0:
212,156,120774,1,0,0:3:0:0:
180,156,120860,1,0,0:3:0:0:
176,180,120947,1,4,0:3:0:0:
144,180,121033,1,0,0:3:0:0:
140,208,121119,1,8,0:3:0:0:
112,204,121205,1,0,0:3:0:0:
112,232,121291,1,0,0:3:0:0:
217,266,121464,6,2,L|261:334,1,80,6|0,0:3|0:3,0:3:0:0:
392,171,121809,2,0,L|344:235,1,80,8|0,0:3|0:3,0:3:0:0:
232,76,122153,1,0,0:3:0:0:
388,160,122326,1,4,0:3:0:0:
234,197,122498,1,8,0:3:0:0:
428,52,122671,1,0,0:3:0:0:
288,48,122843,6,0,L|241:113,1,80,4|0,0:3|0:3,0:3:0:0:
140,44,123188,1,8,0:3:0:0:
56,144,123360,1,0,0:3:0:0:
144,244,123533,1,0,0:3:0:0:
224,144,123705,1,4,0:3:0:0:
80,212,123878,6,0,P|64:248|88:296,1,80,8|0,0:3|0:3,0:3:0:0:
200,292,124222,2,0,P|220:258|212:220,1,80,4|0,0:3|0:3,0:3:0:0:
272,112,124567,1,8,0:3:0:0:
336,16,124740,1,0,0:3:0:0:
480,208,124912,1,0,0:3:0:0:
400,112,125085,1,4,0:3:0:0:
308,306,125257,5,8,0:3:0:0:
373,219,125429,1,0,0:3:0:0:
168,103,125602,2,0,L|222:161,1,80,4|0,0:3|0:3,0:3:0:0:
336,272,125947,2,0,L|282:331,1,80,8|0,0:3|0:3,0:3:0:0:
128,328,126291,1,0,0:3:0:0:
44,224,126464,1,4,0:3:0:0:
128,120,126636,1,8,0:3:0:0:
208,224,126809,1,0,0:3:0:0:
319,223,126981,6,0,P|390:199|392:124,1,160,4|8,0:3|0:3,0:3:0:0:
297,45,127498,1,0,0:3:0:0:
145,158,127671,1,0,0:3:0:0:
331,122,127843,1,4,0:3:0:0:
149,75,128016,1,8,0:3:0:0:
292,196,128188,1,0,0:3:0:0:
215,24,128360,1,4,0:3:0:0:
210,213,128533,1,0,0:3:0:0:
338,72,128705,6,0,B|374:96|374:96|392:128,1,80,8|0,0:3|0:3,0:3:0:0:
234,84,129050,1,0,0:3:0:0:
36,24,129222,1,4,0:3:0:0:
234,84,129395,1,8,0:3:0:0:
8,128,129567,1,0,0:3:0:0:
234,84,129740,1,4,0:3:0:0:
32,224,129912,1,0,0:3:0:0:
236,91,130085,5,8,0:3:0:0:
100,296,130257,1,0,0:3:0:0:
228,88,130429,2,0,P|228:128|260:148,1,80,0|4,0:3|0:3,0:3:0:0:
460,40,130774,1,8,0:3:0:0:
448,144,130947,1,0,0:3:0:0:
364,199,131119,2,2,B|242:243|372:243|248:200,1,128,6|2,0:3|0:3,0:3:0:0:
90,130,131636,2,2,B|212:174|82:174|206:131,1,128,6|2,0:3|0:3,0:3:0:0:
370,171,132153,1,8,0:3:0:0:
220,251,132326,1,4,0:3:0:0:
260,36,132498,2,0,P|300:56|316:88,1,80,6|0,0:3|0:3,0:3:0:0:
156,144,132843,6,0,P|168:180|208:192,1,80,8|0,0:3|0:3,0:3:0:0:
344,264,133188,1,4,0:3:0:0:
328,132,133360,1,0,0:3:0:0:
206,198,133533,1,8,0:3:0:0:
344,264,133705,1,0,0:3:0:0:
247,345,133878,2,0,P|223:317|183:309,1,80,4|0,0:3|0:3,0:3:0:0:
28,292,134222,2,0,P|52:264|92:252,1,80,8|0,0:3|0:3,0:3:0:0:
56,160,134567,5,4,0:3:0:0:
136,40,134740,1,0,0:3:0:0:
216,164,134912,1,8,0:3:0:0:
288,40,135085,1,0,0:3:0:0:
440,32,135257,1,4,0:3:0:0:
368,168,135429,5,0,0:3:0:0:
442,316,135602,1,8,0:3:0:0:
282,293,135774,1,0,0:3:0:0:
368,168,135947,1,0,0:3:0:0:
442,316,136119,5,4,0:3:0:0:
282,293,136291,1,8,0:3:0:0:
368,168,136464,1,0,0:3:0:0:
328,24,136636,2,0,P|292:40|252:36,1,80,4|0,0:3|0:3,0:3:0:0:
32,248,136981,1,8,0:3:0:0:
224,180,137153,1,0,0:3:0:0:
80,87,137326,1,0,0:3:0:0:
263,31,137498,1,4,0:3:0:0:
79,95,137671,5,8,0:3:0:0:
224,191,137843,1,0,0:3:0:0:
32,260,138016,1,4,0:3:0:0:
184,360,138188,1,0,0:3:0:0:
360,312,138360,1,8,0:3:0:0:
184,260,138533,5,0,0:3:0:0:
360,216,138705,1,0,0:3:0:0:
188,164,138878,1,4,0:3:0:0:
360,116,139050,1,8,0:3:0:0:
192,72,139222,1,0,0:3:0:0:
268,200,139395,2,0,P|276:164|248:136,1,80,4|0,0:3|0:3,0:3:0:0:
152,172,139740,1,8,0:3:0:0:
72,80,139912,5,0,0:3:0:0:
196,272,140085,1,0,0:3:0:0:
171,39,140257,1,4,0:3:0:0:
88,256,140429,1,8,0:3:0:0:
264,104,140602,1,0,0:3:0:0:
72,80,140774,1,0,0:3:0:0:
196,272,140947,1,0,0:3:0:0:
294,340,141119,6,0,P|326:356|366:344,1,80,8|0,0:3|0:3,0:3:0:0:
491,164,141464,1,0,0:3:0:0:
441,310,141636,1,4,0:3:0:0:
296,328,141809,1,8,0:3:0:0:
363,157,141981,1,0,0:0:0:0:
264,28,142153,1,0,0:3:0:0:
230,32,142240,1,0,0:3:0:0:
196,39,142326,1,4,0:3:0:0:
164,51,142412,1,0,0:3:0:0:
134,69,142498,1,8,0:3:0:0:
109,93,142585,1,0,0:3:0:0:
89,121,142671,1,0,0:3:0:0:
76,154,142757,1,0,0:3:0:0:
71,188,142843,5,0,0:3:0:0:
73,222,142929,1,0,0:3:0:0:
84,256,143016,1,4,0:3:0:0:
100,286,143102,1,0,0:3:0:0:
123,312,143188,1,8,0:3:0:0:
150,334,143274,1,0,0:3:0:0:
181,350,143360,1,0,0:3:0:0:
214,361,143447,1,0,0:3:0:0:
248,367,143533,2,0,P|280:368|336:336,1,80,6|0,0:3|0:3,0:3:0:0:
392,280,143878,5,8,0:3:0:0:
472,192,144050,1,0,0:3:0:0:
392,104,144222,1,0,0:3:0:0:
311,192,144395,1,4,0:3:0:0:
472,192,144567,1,8,0:3:0:0:
392,104,144740,1,0,0:3:0:0:
392,280,144912,6,2,B|372:328|332:320,1,80,4|2,0:3|0:3,0:3:0:0:
148,324,145257,1,8,0:3:0:0:
46,238,145429,1,0,0:3:0:0:
32,104,145602,1,0,0:3:0:0:
236,302,145774,1,4,0:3:0:0:
140,204,145947,1,8,0:3:0:0:
178,73,146119,5,0,0:3:0:0:
280,162,146291,1,4,0:3:0:0:
140,204,146464,1,0,0:3:0:0:
178,73,146636,1,8,0:3:0:0:
280,162,146809,1,0,0:3:0:0:
404,216,146981,2,0,P|390:258|362:276,1,80,0|6,0:3|0:3,0:3:0:0:
255,272,147326,1,8,0:0:0:0:
166,336,147498,1,0,0:3:0:0:
65,268,147671,1,0,0:3:0:0:
162,198,147843,1,4,0:3:0:0:
65,125,148016,5,8,0:3:0:0:
160,52,148188,1,0,0:3:0:0:
254,115,148360,2,0,B|273:160|302:181,1,80,0|4,0:3|0:3,0:3:0:0:
348,48,148705,1,8,0:3:0:0:
438,127,148878,1,0,0:3:0:0:
436,246,149050,1,4,0:3:0:0:
362,340,149222,1,0,0:3:0:0:
316,168,149395,1,8,0:3:0:0:
244,268,149567,1,0,0:0:0:0:
160,348,149740,6,2,P|120:356|84:344,1,80,2|6,0:3|0:3,0:3:0:0:
52,200,150085,2,0,P|38:161|45:124,1,80,8|0,0:3|0:3,0:3:0:0:
224,184,150429,1,4,0:3:0:0:
328,80,150602,1,0,0:3:0:0:
440,196,150774,6,0,B|440:240|424:276,1,80,8|0,0:3|0:3,0:3:0:0:
264,296,151119,1,0,0:3:0:0:
316,144,151291,1,4,0:3:0:0:
420,268,151464,1,8,0:3:0:0:
308,148,151636,1,0,0:3:0:0:
256,300,151809,2,0,B|224:84|52:100|60:268|156:332|336:184|296:128,2,480.000018310548,6|0|8,0:3|0:3|0:3,0:3:0:0:
256,269,155386,2,2,B|290:209|359:277|385:192|359:112|290:129|281:129|264:147|264:147|246:147|246:147|228:129|219:129|150:112|124:192|150:277|219:209|239:248,1,480,6|2,0:3|0:3,0:3:0:0:
256,280,159740,5,6,0:3:0:0:
256,208,160085,2,0,B|279:153|340:178|340:178|412:118|328:93|328:93|256:11|170:93|170:93|98:118|170:178|170:178|231:153|240:182,1,600,2|2,0:3|0:3,0:3:0:0:
59,172,165257,5,6,0:3:0:0:
48,80,165602,2,2,B|112:80|112:80|160:192|160:192|208:144|208:144|256:192|256:192|304:144|304:144|336:192|336:192|384:272|384:272|444:272,1,600,2|2,0:3|0:3,0:3:0:0:
408,141,169740,6,2,B|274:214|233:81|98:157,2,320,2|6|2,0:3|0:3|0:3,0:3:0:0:
256,192,173878,12,2,176291,0:3:0:0:
393,102,176636,6,2,P|436:176|408:248,1,160,4|0,0:3|0:3,0:3:0:0:
324,192,177498,1,2,0:3:0:0:
244,232,177671,1,2,0:3:0:0:
168,192,177843,1,2,0:3:0:0:
100,248,178016,2,2,B|70:266|70:266|84:329|84:329|138:341|138:341|171:304,1,200,2|2,0:3|0:3,0:3:0:0:
415,101,179395,6,2,B|436:200|384:268|332:184|272:212,1,240,2|2,0:3|0:3,0:3:0:0:
260,288,180602,1,2,0:3:0:0:
188,304,180774,1,2,0:3:0:0:
136,252,180947,1,2,0:3:0:0:
67,267,181119,1,2,0:3:0:0:
32,204,181291,2,2,B|64:146|64:146|134:135,1,120,2|2,0:3|0:3,0:3:0:0:
384,180,182153,6,2,P|404:112|336:76,1,160,2|2,0:3|0:3,0:3:0:0:
250,227,183016,1,2,0:3:0:0:
184,69,183188,1,2,0:3:0:0:
72,153,183360,1,2,0:3:0:0:
119,265,183533,2,2,B|103:302|103:302|128:353|128:353|161:339|161:339|239:343,1,200,2|2,0:3|0:3,0:3:0:0:
325,73,184912,6,2,B|232:117|232:232|300:275,1,240,2|2,0:3|0:3,0:3:0:0:
440,188,186119,1,2,0:3:0:0:
316,288,186291,2,0,P|296:283|280:268,1,40,0|2,0:3|0:3,0:3:0:0:
336,112,186636,1,2,0:3:0:0:
140,160,186809,1,2,0:3:0:0:
224,24,186981,1,0,0:3:0:0:
336,220,187153,1,2,0:0:0:0:
83,294,187326,2,0,P|91:312|108:324,1,40,2|4,0:3|0:3,0:3:0:0:
255,314,187671,5,4,0:3:0:0:
133,191,188016,1,4,0:3:0:0:
256,69,188360,1,4,0:3:0:0:
378,192,188705,1,4,0:3:0:0:
194,298,189050,1,4,0:3:0:0:
149,130,189395,1,4,0:3:0:0:
317,85,189740,1,4,0:3:0:0:
362,253,190085,1,4,0:3:0:0:
149,253,190429,5,4,0:3:0:0:
194,85,190774,1,4,0:3:0:0:
362,130,191119,1,4,0:3:0:0:
317,298,191464,1,4,0:3:0:0:
133,191,191809,1,4,0:3:0:0:
256,69,192153,1,4,0:3:0:0:
378,192,192498,1,4,0:3:0:0:
255,314,192843,1,4,0:3:0:0:
468,260,193188,5,4,0:3:0:0:
480,188,193360,1,4,0:3:0:0:
472,116,193533,1,4,0:3:0:0:
416,68,193705,1,4,0:3:0:0:
348,44,193878,5,4,0:3:0:0:
280,72,194050,1,4,0:3:0:0:
228,120,194222,1,4,0:3:0:0:
192,180,194395,1,4,0:3:0:0:
200,252,194567,1,4,0:3:0:0:
236,312,194740,5,4,0:3:0:0:
164,316,194912,1,4,0:3:0:0:
116,260,195085,1,4,0:3:0:0:
92,192,195257,1,4,0:3:0:0:
116,124,195429,1,4,0:3:0:0:
160,68,195602,1,4,0:3:0:0:
228,40,195774,5,4,0:3:0:0:
300,36,195947,1,4,0:3:0:0:
364,68,196119,1,4,0:3:0:0:
404,128,196291,1,4,0:3:0:0:
412,200,196464,1,4,0:3:0:0:
384,268,196636,1,4,0:3:0:0:
344,328,196809,1,4,0:3:0:0:
276,348,196981,1,4,0:3:0:0:
208,328,197153,1,4,0:3:0:0:
124,272,197326,5,4,0:3:0:0:
118,261,197412,1,4,0:3:0:0:
112,251,197498,1,4,0:3:0:0:
106,240,197585,1,4,0:3:0:0:
100,230,197671,1,4,0:3:0:0:
94,219,197757,1,4,0:3:0:0:
89,209,197843,1,4,0:3:0:0:
84,200,197929,1,4,0:3:0:0:
80,188,198016,1,4,0:0:0:0:
64,151,198102,1,4,0:0:0:0:
67,111,198188,1,4,0:0:0:0:
86,77,198274,1,4,0:0:0:0:
118,54,198360,1,4,0:0:0:0:
158,49,198447,1,4,0:0:0:0:
195,63,198533,1,4,0:0:0:0:
224,90,198619,1,4,0:0:0:0:
246,123,198705,1,4,0:0:0:0:
388,204,199050,6,2,B|348:220|348:220|312:209,1,80,8|2,0:3|0:3,0:3:0:0:
224,344,199395,2,0,B|212:300|212:300|188:274,1,80,0|4,0:3|0:3,0:3:0:0:
152,148,199740,2,0,B|172:112|172:112|204:91,1,80,8|0,0:3|0:3,0:3:0:0:
248,204,200085,1,4,0:3:0:0:
328,60,200257,1,0,0:3:0:0:
392,196,200429,1,8,0:3:0:0:
480,64,200602,1,0,0:3:0:0:
488,240,200774,6,0,L|432:184,1,80,0|4,0:3|0:3,0:3:0:0:
360,324,201119,1,8,0:3:0:0:
232,296,201291,1,0,0:3:0:0:
288,168,201464,1,4,0:3:0:0:
144,168,201636,1,0,0:3:0:0:
52,272,201809,1,8,0:3:0:0:
16,80,201981,1,0,0:3:0:0:
204,28,202153,6,0,L|264:80,1,80,0|4,0:3|0:3,0:3:0:0:
168,156,202498,2,0,L|112:216,1,80,8|0,0:3|0:3,0:3:0:0:
288,184,202843,2,0,L|344:240,1,80,4|0,0:3|0:3,0:3:0:0:
460,292,203188,2,0,L|408:352,1,80,8|0,0:3|0:3,0:3:0:0:
288,184,203533,1,0,0:3:0:0:
208,336,203705,1,4,0:3:0:0:
56,136,203878,5,8,0:3:0:0:
132,264,204050,1,0,0:3:0:0:
241,162,204222,2,0,P|257:122|249:86,1,80,4|0,0:3|0:3,0:3:0:0:
130,70,204567,1,8,0:3:0:0:
228,229,204740,1,0,0:3:0:0:
349,72,204912,1,0,0:3:0:0:
451,223,205085,5,4,0:3:0:0:
351,349,205257,1,8,0:3:0:0:
228,229,205429,1,0,0:3:0:0:
409,262,205602,1,4,0:3:0:0:
252,332,205774,1,0,0:3:0:0:
331,175,205947,5,8,0:3:0:0:
351,349,206119,1,0,0:3:0:0:
252,332,206291,6,0,B|224:352|200:316|176:336,1,80,0|4,0:3|0:3,0:3:0:0:
152,238,206636,1,8,0:3:0:0:
204,157,206809,1,0,0:3:0:0:
178,77,206981,1,4,0:3:0:0:
83,66,207153,1,0,0:3:0:0:
27,142,207326,1,8,0:3:0:0:
58,222,207498,1,0,0:3:0:0:
152,238,207671,1,0,0:3:0:0:
204,157,207843,1,4,0:3:0:0:
268,88,208016,5,8,0:3:0:0:
352,56,208188,1,0,0:3:0:0:
432,108,208360,1,0,0:3:0:0:
441,147,208447,1,0,0:3:0:0:
439,186,208533,1,4,0:3:0:0:
426,224,208619,1,0,0:3:0:0:
405,258,208705,1,8,0:3:0:0:
375,285,208791,1,0,0:3:0:0:
340,303,208878,5,0,0:3:0:0:
301,311,208964,1,0,0:3:0:0:
256,312,209050,1,0,0:3:0:0:
218,299,209136,1,0,0:3:0:0:
178,275,209222,1,4,0:3:0:0:
148,244,209309,1,0,0:3:0:0:
130,208,209395,1,8,0:3:0:0:
120,168,209481,1,0,0:3:0:0:
125,128,209567,1,0,0:3:0:0:
146,93,209653,1,0,0:3:0:0:
184,68,209740,1,6,2:3:0:0:
298,116,209912,5,2,0:0:0:0:
448,72,210085,2,0,P|432:112|400:128,1,80,8|0,0:3|0:3,0:3:0:0:
380,240,210429,2,0,P|338:233|316:204,1,80,0|4,0:3|0:3,0:3:0:0:
240,124,210774,2,0,P|282:111|316:124,1,80,10|2,0:3|0:3,0:3:0:0:
380,252,211119,1,4,0:3:0:0:
444,80,211291,1,0,0:3:0:0:
302,131,211464,2,0,P|260:144|226:131,1,80,8|0,0:3|0:3,0:3:0:0:
128,52,211809,5,0,0:3:0:0:
43,103,211981,1,4,0:3:0:0:
95,188,212153,1,8,0:3:0:0:
181,137,212326,1,0,0:3:0:0:
128,52,212498,1,4,0:3:0:0:
96,181,212671,1,0,0:3:0:0:
272,52,212843,6,0,P|308:68|340:96,1,80,8|0,0:3|0:3,0:3:0:0:
212,209,213188,1,0,0:3:0:0:
212,209,213360,1,4,0:0:0:0:
378,175,213533,2,0,P|397:209|407:250,1,80,8|0,0:3|0:3,0:3:0:0:
204,196,213878,5,4,0:3:0:0:
102,132,214050,1,0,0:3:0:0:
84,250,214222,1,8,0:3:0:0:
186,313,214395,1,0,0:3:0:0:
300,268,214567,2,0,P|324:236|320:196,1,80,0|4,0:3|0:3,0:3:0:0:
164,64,214912,6,0,P|140:96|144:136,1,80,8|0,0:3|0:3,0:3:0:0:
240,236,215257,2,0,P|264:204|260:164,1,80,4|0,0:3|0:3,0:3:0:0:
300,64,215602,2,0,P|340:68|376:88,1,80,8|0,0:3|0:3,0:3:0:0:
392,192,215947,1,0,0:3:0:0:
248,232,216119,1,4,0:3:0:0:
364,328,216291,5,8,0:3:0:0:
224,360,216464,1,0,0:3:0:0:
100,272,216636,2,0,P|64:260|40:228,1,80,4|0,0:3|0:3,0:3:0:0:
144,132,216981,2,0,P|180:144|204:176,1,80,8|0,0:3|0:3,0:3:0:0:
264,284,217326,5,0,0:3:0:0:
257,164,217498,1,4,0:3:0:0:
144,119,217671,1,8,0:3:0:0:
64,208,217843,1,0,0:3:0:0:
149,293,218016,1,4,0:3:0:0:
144,119,218188,1,0,0:3:0:0:
257,164,218360,6,2,P|293:148|313:112,1,80,10|2,0:3|0:3,0:3:0:0:
218,36,218705,1,0,0:3:0:0:
138,126,218878,1,4,0:3:0:0:
47,204,219050,1,8,0:3:0:0:
65,322,219222,1,0,0:3:0:0:
168,232,219395,6,0,P|200:252|244:248,1,80,10|0,0:3|0:3,0:3:0:0:
352,244,219740,1,4,0:3:0:0:
152,266,219912,1,8,0:0:0:0:
412,306,220085,2,0,P|380:326|336:322,1,80,0|4,0:3|0:3,0:3:0:0:
153,323,220429,2,0,P|185:343|229:339,1,80,8|0,0:3|0:3,0:3:0:0:
416,224,220774,1,4,0:3:0:0:
282,328,220947,1,0,0:0:0:0:
176,212,221119,6,0,P|152:188|144:144,1,80,8|0,0:3|0:3,0:3:0:0:
336,212,221464,2,0,P|360:188|368:144,1,80,0|4,0:3|0:3,0:3:0:0:
88,144,221809,2,0,P|93:183|119:212,1,80,8|0,0:3|0:3,0:3:0:0:
424,144,222153,2,0,P|418:183|392:212,1,80,4|0,0:3|0:3,0:3:0:0:
164,295,222498,1,8,0:3:0:0:
356,242,222671,1,0,0:3:0:0:
164,168,222843,5,0,0:3:0:0:
356,230,223016,1,4,0:0:0:0:
95,192,223188,2,0,P|103:160|139:132,1,80,8|0,0:3|0:3,0:3:0:0:
350,149,223533,2,0,P|382:171|394:209,1,80,4|0,0:3|0:3,0:3:0:0:
164,168,223878,6,0,P|192:144|196:100,1,80,8|0,0:3|0:3,0:3:0:0:
315,102,224222,2,0,P|318:141|348:168,1,80,0|4,0:3|0:3,0:3:0:0:
436,248,224567,2,0,P|432:288|400:312,1,80,8|0,0:3|0:3,0:3:0:0:
224,242,224912,1,4,0:3:0:0:
324,346,225085,1,0,0:3:0:0:
252,176,225257,1,8,0:3:0:0:
252,176,225429,1,0,0:0:0:0:
168,296,225602,6,2,P|132:280|108:248,1,80,2|6,0:3|0:3,0:3:0:0:
146,47,225947,1,8,0:3:0:0:
216,172,226119,1,0,0:3:0:0:
160,40,226291,1,4,0:3:0:0:
56,144,226464,1,0,0:3:0:0:
80,280,226636,6,0,P|104:312|144:324,1,80,8|0,0:3|0:3,0:3:0:0:
324,228,226981,2,0,P|300:260|260:272,1,80,0|4,0:3|0:3,0:3:0:0:
136,136,227326,1,8,0:3:0:0:
200,280,227498,1,0,0:3:0:0:
216,24,227671,1,4,0:3:0:0:
256,176,227843,1,0,0:3:0:0:
168,336,228016,6,0,L|248:344,1,80,8|0,0:3|0:3,0:3:0:0:
376,336,228360,2,0,L|296:344,1,80,0|4,0:3|0:3,0:3:0:0:
168,336,228705,1,8,0:3:0:0:
376,336,228878,1,0,0:3:0:0:
188,268,229050,6,0,P|156:244|140:204,1,80,4|0,0:3|0:3,0:3:0:0:
216,176,229395,2,0,P|200:139|206:96,1,80,8|0,0:3|0:3,0:3:0:0:
280,120,229740,2,0,P|284:80|311:46,1,80,0|4,0:3|0:3,0:3:0:0:
400,32,230085,1,8,0:3:0:0:
212,61,230257,1,0,0:3:0:0:
176,180,230429,5,0,0:3:0:0:
169,219,230515,1,0,0:3:0:0:
178,257,230601,1,4,0:3:0:0:
201,290,230687,1,0,0:3:0:0:
233,313,230773,1,8,0:3:0:0:
271,326,230860,1,0,0:3:0:0:
311,327,230946,1,0,0:3:0:0:
349,317,231032,1,0,0:3:0:0:
381,294,231118,5,0,0:3:0:0:
400,260,231205,1,0,0:3:0:0:
400,220,231291,1,4,0:3:0:0:
378,192,231377,1,0,0:3:0:0:
350,163,231463,1,8,0:3:0:0:
329,130,231549,1,0,0:3:0:0:
323,91,231636,1,0,0:3:0:0:
345,58,231722,1,0,0:3:0:0:
389,47,231809,2,6,P|420:53|453:89,1,80,6|2,0:3|0:3,0:3:0:0:
404,222,232153,6,0,P|376:206|356:162,1,80,8|0,0:3|0:3,0:3:0:0:
212,76,232498,2,0,P|240:92|260:136,1,80,0|4,0:3|0:3,0:3:0:0:
208,224,232843,1,8,0:3:0:0:
212,76,233016,1,0,0:3:0:0:
208,224,233188,2,0,P|222:260|255:281,1,80,4|0,0:3|0:3,0:3:0:0:
212,76,233533,1,8,0:3:0:0:
341,120,233705,1,0,0:3:0:0:
455,196,233878,6,0,P|427:222|388:222,1,80,0|4,0:3|0:3,0:3:0:0:
344,112,234222,1,8,0:3:0:0:
368,308,234395,1,0,0:3:0:0:
455,196,234567,2,0,P|467:160|455:120,1,80,4|0,0:3|0:3,0:3:0:0:
312,272,234912,6,0,P|280:296|240:292,1,80,8|0,0:3|0:3,0:3:0:0:
224,216,235257,2,0,P|184:220|151:197,1,80,0|4,0:3|0:3,0:3:0:0:
188,132,235602,2,0,P|151:116|134:79,1,80,8|0,0:3|0:3,0:3:0:0:
16,96,235947,1,4,0:3:0:0:
32,244,236119,1,0,0:3:0:0:
160,324,236291,1,8,0:3:0:0:
143,157,236464,1,0,0:0:0:0:
268,224,236636,6,0,P|296:196|296:156,1,80,0|4,0:3|0:3,0:3:0:0:
143,157,236981,2,0,P|144:196|172:224,1,80,8|0,0:3|0:3,0:3:0:0:
290,267,237326,1,4,0:0:0:0:
155,241,237671,1,4,0:3:0:0:
184,68,238016,5,0,0:3:0:0:
296,56,238360,1,4,0:3:0:0:
396,104,238705,1,4,0:3:0:0:
456,200,239050,1,4,0:3:0:0:
412,304,239395,1,4,0:3:0:0:
324,232,239740,1,4,0:3:0:0:
416,82,240085,5,4,0:3:0:0:
142,50,240257,1,8,0:3:0:0:
416,89,240429,5,4,0:3:0:0:
112,104,240602,1,8,0:3:0:0:
416,96,240774,5,4,0:3:0:0:
116,166,240947,1,8,0:3:0:0:
416,104,241119,5,4,0:3:0:0:
149,218,241291,1,8,0:3:0:0:
340,256,241464,5,4,0:3:0:0:
314,286,241550,1,4,0:3:0:0:
279,306,241636,1,4,0:3:0:0:
240,313,241722,1,4,0:3:0:0:
201,310,241808,1,4,0:3:0:0:
164,295,241895,1,4,0:3:0:0:
135,268,241981,1,4,0:3:0:0:
120,244,242067,5,4,0:3:0:0:
105,207,242153,1,4,0:3:0:0:
105,167,242239,1,4,0:3:0:0:
117,129,242325,1,4,0:3:0:0:
139,96,242411,1,4,0:3:0:0:
170,70,242498,1,4,0:3:0:0:
208,58,242584,1,4,0:3:0:0:
236,64,242671,1,4,0:3:0:0:
264,84,242757,1,4,0:3:0:0:
280,116,242843,6,2,P|304:144|348:148,1,80,6|2,0:3|0:3,0:3:0:0:
416,156,243188,2,0,P|447:179|454:217,1,80,8|0,0:3|0:3,0:3:0:0:
378,245,243533,2,0,P|372:283|341:308,1,80,0|4,0:3|0:3,0:3:0:0:
281,254,243878,2,0,P|244:267|208:251,1,80,8|0,0:3|0:3,0:3:0:0:
168,92,244222,6,0,P|130:104|112:139,1,80,4|0,0:3|0:3,0:3:0:0:
124,224,244567,2,0,L|164:296,1,80,8|0,0:3|0:3,0:3:0:0:
252,308,244912,2,0,L|213:238,1,80,0|4,0:3|0:3,0:3:0:0:
304,248,245257,2,0,L|344:320,1,80,8|0,0:3|0:3,0:3:0:0:
432,332,245602,2,0,L|393:262,1,80,4|0,0:3|0:3,0:3:0:0:
124,224,245947,1,8,0:3:0:0:
304,248,246119,5,0,0:3:0:0:
124,224,246291,1,0,0:3:0:0:
304,248,246464,1,4,0:3:0:0:
232,112,246636,2,0,P|256:80|296:68,1,80,8|0,0:3|0:3,0:3:0:0:
304,172,246981,2,0,P|280:204|240:216,1,80,4|0,0:3|0:3,0:3:0:0:
228,84,247326,2,0,P|252:52|292:40,1,80,8|0,0:3|0:3,0:3:0:0:
308,204,247671,2,0,P|284:236|244:248,1,80,0|4,0:3|0:3,0:3:0:0:
188,76,248016,5,8,0:3:0:0:
208,256,248188,1,0,0:3:0:0:
336,44,248360,1,4,0:3:0:0:
308,204,248533,1,0,0:3:0:0:
200,292,248705,6,0,L|260:348,1,80,8|0,0:3|0:3,0:3:0:0:
460,268,249050,2,0,L|400:324,1,80,0|4,0:3|0:3,0:3:0:0:
320,216,249395,2,0,L|379:162,1,80,8|0,0:3|0:3,0:3:0:0:
452,68,249740,1,4,0:3:0:0:
304,211,249912,1,0,0:3:0:0:
296,75,250085,2,0,P|269:45|231:38,1,80,8|0,0:3|0:3,0:3:0:0:
80,77,250429,6,2,P|106:47|144:40,1,80,2|6,0:3|0:3,0:3:0:0:
144,197,250774,1,8,0:3:0:0:
144,197,250947,1,0,0:0:0:0:
320,204,251119,2,0,L|288:280,1,80,4|0,0:3|0:3,0:3:0:0:
184,224,251463,2,0,L|216:300,1,80,8|0,0:3|0:3,0:3:0:0:
404,208,251808,2,0,L|372:284,1,80,0|4,0:3|0:3,0:3:0:0:
131,265,252153,2,0,L|100:192,1,80,8|0,0:3|0:3,0:3:0:0:
256,104,252498,5,0,0:3:0:0:
269,118,252584,1,0,0:3:0:0:
282,133,252670,1,4,0:3:0:0:
296,148,252756,1,0,0:3:0:0:
309,163,252842,1,8,0:3:0:0:
322,178,252929,1,0,0:3:0:0:
336,193,253015,1,0,0:3:0:0:
349,208,253101,1,0,0:3:0:0:
363,222,253187,5,0,0:3:0:0:
376,240,253274,1,0,0:3:0:0:
375,279,253360,1,4,0:3:0:0:
354,313,253446,1,0,0:3:0:0:
322,336,253532,1,8,0:3:0:0:
283,343,253618,1,0,0:3:0:0:
245,332,253705,1,0,0:3:0:0:
214,308,253791,1,0,0:3:0:0:
192,274,253878,2,2,P|184:236|140:220,1,80,6|2,0:3|0:3,0:3:0:0:
86,127,254222,6,0,P|94:88|138:72,1,80,8|0,0:3|0:3,0:3:0:0:
348,64,254567,1,0,0:3:0:0:
176,192,254740,1,4,0:3:0:0:
189,42,254912,1,8,0:3:0:0:
304,232,255085,1,0,0:3:0:0:
448,191,255257,2,0,P|439:154|405:136,1,80,4|0,0:3|0:3,0:3:0:0:
328,282,255602,1,8,0:3:0:0:
257,77,255774,1,0,0:3:0:0:
156,148,255947,6,0,L|196:220,1,80,0|4,0:3|0:3,0:3:0:0:
344,316,256291,2,0,L|304:244,1,80,8|0,0:3|0:3,0:3:0:0:
356,140,256636,2,0,L|316:212,1,80,4|0,0:3|0:3,0:3:0:0:
160,320,256981,2,0,L|200:248,1,80,8|0,0:3|0:3,0:3:0:0:
324,168,257326,1,2,0:3:0:0:
256,80,257498,1,6,0:3:0:0:
188,172,257671,6,0,L|132:112,1,80,8|0,0:3|0:3,0:3:0:0:
88,204,258016,2,0,L|144:264,1,80,4|0,0:3|0:3,0:3:0:0:
324,172,258360,2,0,L|380:112,1,80,8|0,0:3|0:3,0:3:0:0:
424,204,258705,2,0,L|368:264,1,80,0|4,0:3|0:3,0:3:0:0:
188,172,259050,1,8,0:3:0:0:
324,172,259222,1,0,0:3:0:0:
256,268,259395,5,4,0:3:0:0:
148,292,259740,1,4,0:3:0:0:
52,232,260085,1,4,0:3:0:0:
20,124,260429,1,4,0:3:0:0:
88,36,260774,1,4,0:3:0:0:
176,104,261119,1,4,0:3:0:0:
276,52,261464,1,4,0:3:0:0:
360,124,261809,1,4,0:3:0:0:
368,188,262153,5,8,0:3:0:0:
368,204,262498,5,8,0:3:0:0:
368,220,262843,5,8,0:3:0:0:
368,236,263188,5,4,0:3:0:0:
344,252,263360,1,4,0:3:0:0:
212,240,263533,1,4,0:3:0:0:
204,228,263619,1,4,0:3:0:0:
197,213,263705,1,4,0:3:0:0:
190,198,263791,1,4,0:3:0:0:
183,184,263877,1,4,0:3:0:0:
177,169,263963,1,4,0:3:0:0:
170,155,264050,5,4,0:3:0:0:
163,140,264136,1,4,0:3:0:0:
156,126,264222,1,4,0:3:0:0:
148,112,264309,1,4,0:3:0:0:
152,92,264395,1,4,0:3:0:0:
185,70,264481,1,4,0:3:0:0:
224,65,264567,1,4,0:3:0:0:
263,75,264653,1,4,0:3:0:0:
296,97,264740,1,4,0:3:0:0:
320,129,264826,1,4,0:3:0:0:
324,172,264912,2,0,P|336:216|360:240,1,80,6|0,0:3|0:3,0:3:0:0:
464,280,265257,6,0,P|452:324|428:348,1,80,8|0,0:3|0:3,0:3:0:0:
240,344,265602,2,0,P|213:314|204:276,1,80,4|0,0:3|0:3,0:3:0:0:
352,152,265947,1,8,0:3:0:0:
256,48,266119,1,0,0:3:0:0:
184,148,266291,1,4,0:3:0:0:
80,68,266464,1,0,0:3:0:0:
64,220,266636,2,0,P|64:256|97:279,1,80,8|0,0:3|0:3,0:3:0:0:
248,184,266981,1,0,0:3:0:0:
120,68,267153,5,4,0:3:0:0:
160,252,267326,1,8,0:3:0:0:
320,128,267498,1,0,0:3:0:0:
108,108,267671,1,4,0:3:0:0:
188,280,267843,1,0,0:3:0:0:
312,100,268016,1,8,0:3:0:0:
112,148,268188,1,0,0:3:0:0:
236,272,268360,6,0,P|260:300|300:308,1,80,0|4,0:3|0:3,0:3:0:0:
440,156,268705,2,0,P|466:184|468:222,1,80,8|0,0:3|0:3,0:3:0:0:
392,332,269050,1,4,0:3:0:0:
264,120,269222,1,0,0:3:0:0:
276,280,269395,1,8,0:3:0:0:
120,160,269567,1,0,0:3:0:0:
168,332,269740,6,4,P|132:336|100:308,1,80,4|0,0:3|0:3,0:3:0:0:
32,177,270085,1,8,0:3:0:0:
32,177,270257,1,0,0:3:0:0:
124,84,270429,2,0,P|162:80|191:107,1,80,4|0,0:3|0:3,0:3:0:0:
163,297,270774,1,8,0:3:0:0:
360,188,270947,5,0,0:3:0:0:
240,252,271119,1,0,0:3:0:0:
271,77,271291,1,4,0:3:0:0:
432,108,271464,1,8,0:3:0:0:
432,252,271636,2,0,P|416:288|380:312,2,80,0|4|0,0:3|0:3|0:3,0:3:0:0:
267,131,272153,5,8,0:3:0:0:
328,280,272326,1,0,0:3:0:0:
255,128,272498,1,0,0:3:0:0:
204,349,272671,1,4,0:3:0:0:
408,296,272843,2,0,P|381:325|344:339,1,80,8|0,0:3|0:3,0:3:0:0:
162,336,273188,6,0,P|122:320|98:292,1,80,4|0,0:3|0:3,0:3:0:0:
144,168,273533,1,8,0:3:0:0:
84,56,273705,1,0,0:3:0:0:
224,64,273878,1,0,0:3:0:0:
122,162,274050,1,4,0:3:0:0:
99,37,274222,1,8,0:3:0:0:
230,88,274395,1,0,0:3:0:0:
96,152,274567,5,0,0:3:0:0:
86,190,274653,1,0,0:3:0:0:
91,230,274739,1,4,0:3:0:0:
113,263,274825,1,0,0:3:0:0:
149,280,274912,1,8,0:3:0:0:
188,274,274998,1,0,0:3:0:0:
220,260,275084,1,0,0:3:0:0:
256,278,275171,1,0,0:3:0:0:
295,278,275256,1,0,0:3:0:0:
331,260,275342,1,0,0:3:0:0:
355,229,275429,1,4,0:3:0:0:
364,191,275515,1,0,0:3:0:0:
359,151,275601,1,8,0:3:0:0:
344,128,275688,1,0,0:3:0:0:
320,112,275774,1,0,0:3:0:0:
288,104,275860,1,0,0:3:0:0:
256,104,275947,6,2,P|216:104|192:136,1,80,6|2,0:3|0:3,0:3:0:0:
199,265,276291,2,0,P|239:265|263:233,1,80,8|0,0:3|0:3,0:3:0:0:
152,112,276636,1,0,0:3:0:0:
192,264,276809,1,4,0:3:0:0:
288,104,276981,1,8,0:3:0:0:
140,108,277153,1,0,0:3:0:0:
56,152,277326,6,0,P|64:188|100:216,1,80,4|0,0:3|0:3,0:3:0:0:
115,308,277671,2,0,P|150:316|191:296,1,80,8|0,0:3|0:3,0:3:0:0:
295,173,278016,1,0,0:3:0:0:
112,136,278188,1,4,0:3:0:0:
236,39,278360,1,8,0:3:0:0:
144,316,278533,1,0,0:3:0:0:
280,276,278705,6,0,P|320:276|348:248,1,80,4|0,0:3|0:3,0:3:0:0:
284,116,279050,2,0,P|312:89|351:89,1,80,8|0,0:3|0:3,0:3:0:0:
412,184,279395,2,0,P|452:184|480:156,1,80,0|4,0:3|0:3,0:3:0:0:
248,112,279739,1,8,0:3:0:0:
472,188,279912,1,0,0:3:0:0:
242,291,280084,1,4,0:3:0:0:
370,121,280257,1,0,0:0:0:0:
178,94,280429,6,0,P|142:78|106:94,1,80,12|0,0:3|0:3,0:3:0:0:
19,238,280774,1,0,0:3:0:0:
178,94,280947,1,4,0:3:0:0:
125,335,281119,1,8,0:3:0:0:
255,220,281291,1,0,0:3:0:0:
117,112,281464,6,0,L|193:84,1,80,4|0,0:3|0:3,0:3:0:0:
356,188,281809,2,0,L|280:216,1,80,8|0,0:3|0:3,0:3:0:0:
128,320,282153,2,0,L|208:333,1,80,0|4,0:3|0:3,0:3:0:0:
380,200,282498,2,0,L|300:187,1,80,8|0,0:3|0:3,0:3:0:0:
152,232,282843,5,4,0:3:0:0:
86,113,283016,1,0,0:3:0:0:
220,116,283188,1,8,0:3:0:0:
112,221,283360,1,0,0:3:0:0:
115,85,283533,1,0,0:3:0:0:
229,154,283705,1,4,0:3:0:0:
220,280,283878,2,0,L|144:304,1,80,8|0,0:3|0:3,0:3:0:0:
256,192,284222,12,0,286636,0:3:0:0:
52,160,286981,6,0,B|72:196|72:196|108:208,1,80,4|0,0:3|0:3,0:3:0:0:
212,208,287326,1,8,0:3:0:0:
336,140,287498,1,0,0:3:0:0:
336,140,287585,1,0,0:3:0:0:
336,140,287671,1,0,0:3:0:0:
336,140,287757,1,0,0:0:0:0:
336,140,287843,1,4,0:0:0:0:
348,268,288016,6,8,P|328:304|284:312,1,80,8|0,0:3|0:3,0:3:0:0:
143,315,288360,1,4,0:3:0:0:
88,204,288533,1,0,0:3:0:0:
80,188,288619,1,0,0:3:0:0:
76,172,288705,1,8,0:3:0:0:
76,156,288791,1,0,0:3:0:0:
84,140,288878,1,0,0:3:0:0:
255,40,289050,6,8,L|319:96,1,80,0|4,0:3|0:3,0:3:0:0:
344,196,289395,1,8,0:3:0:0:
240,288,289567,1,0,0:3:0:0:
141,202,289740,2,0,P|168:172|184:136,1,80,4|0,0:3|0:3,0:3:0:0:
96,40,290085,1,8,0:3:0:0:
48,152,290257,1,0,0:3:0:0:
76,280,290429,5,0,0:3:0:0:
104,296,290516,1,0,0:3:0:0:
136,300,290602,1,4,0:3:0:0:
168,292,290688,1,0,0:3:0:0:
200,272,290774,1,8,0:3:0:0:
312,272,290947,1,0,0:3:0:0:
368,188,291119,6,0,P|336:168|296:172,1,80,4|0,0:3|0:3,0:3:0:0:
192,112,291464,1,8,0:3:0:0:
64,172,291636,1,0,0:3:0:0:
36,128,291722,1,0,0:3:0:0:
40,80,291809,1,0,0:3:0:0:
68,44,291895,1,0,0:3:0:0:
111,27,291981,1,4,0:0:0:0:
157,39,292067,1,0,0:0:0:0:
206,30,292153,2,0,P|234:22|286:35,1,80,8|0,0:0|0:0,0:0:0:0:
412,126,292498,5,4,0:3:0:0:
332,256,292671,1,0,0:0:0:0:
191,144,292843,1,8,0:3:0:0:
183,182,292929,1,0,0:3:0:0:
193,220,293015,1,0,0:3:0:0:
216,252,293102,1,0,0:3:0:0:
264,284,293188,1,0,0:3:0:0:
316,292,293274,1,0,0:3:0:0:
368,276,293360,1,4,0:3:0:0:
473,154,293533,2,0,P|433:162|397:150,1,80,8|0,0:3|0:3,0:3:0:0:
267,219,293878,1,4,0:3:0:0:
128,164,294050,5,0,0:0:0:0:
128,172,294136,1,0,0:0:0:0:
128,172,294222,1,8,0:0:0:0:
260,88,294395,5,0,0:0:0:0:
260,96,294481,1,0,0:0:0:0:
260,96,294567,1,0,0:0:0:0:
400,168,294740,5,4,0:0:0:0:
400,176,294826,1,0,0:0:0:0:
400,176,294912,1,8,0:0:0:0:
256,292,295085,5,0,0:0:0:0:
256,300,295171,1,0,0:0:0:0:
256,300,295257,1,4,0:0:0:0:
252,76,295429,5,0,0:3:0:0:
196,192,295602,1,8,0:3:0:0:
252,64,295774,1,0,0:3:0:0:
320,188,295947,1,0,0:3:0:0:
252,52,296119,1,4,0:3:0:0:
152,280,296291,1,8,0:3:0:0:
252,40,296464,1,0,0:3:0:0:
368,280,296636,1,4,0:3:0:0:
320,188,296809,5,0,0:3:0:0:
304,151,296895,1,0,0:3:0:0:
276,123,296981,1,8,0:3:0:0:
240,106,297067,1,0,0:3:0:0:
200,103,297153,1,0,0:3:0:0:
72,172,297326,6,0,P|44:200|52:240,1,80,0|4,0:3|0:3,0:3:0:0:
89,274,297585,1,0,0:0:0:0:
125,290,297671,1,8,0:0:0:0:
164,289,297757,1,0,0:0:0:0:
200,271,297843,1,0,0:0:0:0:
224,240,297929,1,0,0:0:0:0:
255,209,298016,1,4,0:3:0:0:
387,88,298188,5,0,0:3:0:0:
425,284,298360,1,8,0:3:0:0:
312,196,298533,1,0,0:3:0:0:
273,186,298619,1,0,0:3:0:0:
234,177,298705,1,0,0:3:0:0:
195,168,298791,1,0,0:3:0:0:
152,160,298878,1,4,0:3:0:0:
112,148,298964,1,0,0:3:0:0:
72,136,299050,1,8,0:3:0:0:
168,52,299222,5,0,0:3:0:0:
112,276,299395,1,4,0:3:0:0:
288,112,299567,1,0,0:3:0:0:
176,304,299740,1,8,0:3:0:0:
228,88,299912,1,0,0:3:0:0:
240,320,300085,1,0,0:3:0:0:
163,229,300257,5,4,0:3:0:0:
146,216,300343,1,0,0:3:0:0:
138,193,300429,1,8,0:3:0:0:
140,64,300602,1,0,0:3:0:0:
244,128,300774,2,0,L|264:208,1,80,4|0,0:3|0:3,0:3:0:0:
255,353,301119,1,8,0:3:0:0:
254,347,301291,1,0,0:0:0:0:
425,326,301464,2,0,L|405:246,1,80,0|4,0:3|0:3,0:3:0:0:
332,72,301809,5,8,0:3:0:0:
292,64,301895,1,0,0:3:0:0:
253,56,301981,1,0,0:3:0:0:
214,49,302067,1,0,0:3:0:0:
168,44,302153,2,0,L|84:60,1,80,4|0,0:3|0:3,0:3:0:0:
216,164,302498,1,8,0:3:0:0:
116,280,302671,5,0,0:0:0:0:
155,279,302757,1,0,0:0:0:0:
195,282,302843,1,0,0:0:0:0:
235,284,302929,1,0,0:0:0:0:
275,281,303016,1,4,0:0:0:0:
314,272,303102,1,0,0:0:0:0:
356,252,303188,2,0,P|384:244|412:196,1,80,8|0,0:0|0:0,0:0:0:0:
292,84,303533,2,0,P|284:56|236:28,1,80,4|0,0:0|0:0,0:0:0:0:
76,104,303878,5,8,0:0:0:0:
115,111,303964,1,0,0:0:0:0:
143,138,304050,1,0,0:0:0:0:
150,177,304136,1,0,0:0:0:0:
151,217,304222,1,0,0:0:0:0:
161,256,304309,1,0,0:0:0:0:
191,282,304395,1,4,0:0:0:0:
229,291,304481,1,0,0:0:0:0:
269,293,304567,1,8,0:0:0:0:
400,152,304740,5,0,0:3:0:0:
296,320,304912,1,4,0:3:0:0:
136,80,305085,1,0,0:3:0:0:
220,208,305257,1,8,0:3:0:0:
406,27,305429,1,0,0:3:0:0:
294,147,305602,1,0,0:3:0:0:
490,184,305774,1,4,0:3:0:0:
398,324,305947,1,8,0:3:0:0:
272,256,306119,2,0,B|40:200|40:24|264:24|264:200|48:248|48:248|-8:96|152:-88|312:96|272:256|272:256|228:336|168:332,1,1200,0|0,0:3|0:3,0:3:0:0:
256,192,309050,12,0,313188,3:3:0:0:
