osu file format v14

[General]
AudioFilename: audio.ogg
AudioLeadIn: 0
PreviewTime: 86343
Countdown: 0
SampleSet: Soft
StackLeniency: 0.4
Mode: 0
LetterboxInBreaks: 0
WidescreenStoryboard: 0

[Editor]
DistanceSpacing: 1.11
BeatDivisor: 4
GridSize: 32
TimelineZoom: 1

[Metadata]
Title:Tourner Dans Le Vide
TitleUnicode:Tourner Dans Le Vide
Artist:Indila
ArtistUnicode:Indila
Creator:PaRaDogi
Version:Spin Revolve Rotate
Source:
Tags:mini world français francais cptsqbany french female vocal pop dance skubi paradogi nv -eNVy- muya-
BeatmapID:4005681
BeatmapSetID:1937777

[Difficulty]
HPDrainRate:6
CircleSize:4.5
OverallDifficulty:8
ApproachRate:8.5
SliderMultiplier:2.3
SliderTickRate:1

[Events]
//Background and Video events
0,0,"wp8137412.jpg",0,0
Video,-90,"m (1).mp4"
//Break Periods
2,198543,213668
//Storyboard Layer 0 (Background)
//Storyboard Layer 1 (Fail)
//Storyboard Layer 2 (Pass)
//Storyboard Layer 3 (Foreground)
//Storyboard Layer 4 (Overlay)
//Storyboard Sound Samples

[TimingPoints]
22343,500,4,2,1,55,1,0
38343,-181.818181818181,4,2,1,55,0,0
86343,-133.333333333333,4,2,1,65,0,0
102343,-83.3333333333333,4,2,1,75,0,1
118343,-181.818181818181,4,2,1,55,0,0
134343,-133.333333333333,4,2,1,65,0,0
166343,-100,4,2,1,65,0,0
182343,-83.3333333333333,4,2,1,75,0,1
198343,-181.818181818181,4,2,1,55,0,0
214343,-100,4,2,1,65,0,0
230343,-181.818181818181,4,2,1,55,0,0
248843,-181.818181818181,4,2,1,5,0,0
250343,-181.818181818181,4,2,1,5,0,0

[Colours]
Combo1 : 157,157,255
Combo2 : 255,166,210
Combo3 : 157,201,255
Combo4 : 255,185,185

[HitObjects]
154,52,22343,5,2,0:0:0:0:
275,16,22593,1,0,0:0:0:0:
247,83,22843,1,0,0:0:0:0:
272,153,23093,1,0,0:0:0:0:
395,188,23343,5,2,0:0:0:0:
233,220,23593,1,0,0:0:0:0:
183,274,23843,1,0,0:0:0:0:
199,345,24093,1,0,0:0:0:0:
325,372,24343,5,2,0:0:0:0:
127,318,24593,1,0,0:0:0:0:
183,274,24843,1,0,0:0:0:0:
253,294,25093,1,0,0:0:0:0:
212,175,25343,5,2,0:0:0:0:
321,326,25593,1,0,0:0:0:0:
387,299,25843,1,0,0:0:0:0:
405,230,26093,1,0,0:0:0:0:
508,308,26343,5,2,0:0:0:0:
366,164,26593,1,0,0:0:0:0:
296,151,26843,1,0,0:0:0:0:
242,202,27093,1,0,0:0:0:0:
156,112,27343,5,2,0:0:0:0:
173,232,27593,1,0,0:0:0:0:
105,207,27843,1,0,0:0:0:0:
81,141,28093,1,0,0:0:0:0:
188,22,28343,5,2,0:0:0:0:
296,92,28593,1,2,0:0:0:0:
275,185,28843,1,2,0:0:0:0:
348,205,29093,1,2,0:0:0:0:
379,358,29343,5,2,0:0:0:0:
274,285,29593,1,2,0:0:0:0:
195,337,29843,1,2,0:0:0:0:
129,299,30093,1,2,0:0:0:0:
53,192,30343,5,4,0:0:0:0:
129,299,30593,1,0,0:0:0:0:
185,252,30843,1,0,0:0:0:0:
189,180,31093,1,0,0:0:0:0:
282,142,31343,5,2,0:0:0:0:
146,121,31593,1,0,0:0:0:0:
149,50,31843,1,0,0:0:0:0:
209,7,32093,1,0,0:0:0:0:
77,7,32343,5,2,0:0:0:0:
285,26,32593,1,0,0:0:0:0:
322,91,32843,1,0,0:0:0:0:
300,158,33093,1,0,0:0:0:0:
350,237,33343,5,2,0:0:0:0:
228,183,33593,1,0,0:0:0:0:
192,246,33843,1,0,0:0:0:0:
221,312,34093,1,0,0:0:0:0:
103,366,34343,5,2,0:0:0:0:
296,337,34593,1,0,0:0:0:0:
356,293,34843,1,0,0:0:0:0:
346,222,35093,1,0,0:0:0:0:
467,177,35343,5,2,0:0:0:0:
286,174,35593,1,0,0:0:0:0:
275,103,35843,1,0,0:0:0:0:
330,56,36093,1,0,0:0:0:0:
219,2,36343,5,2,0:0:0:0:
149,109,36593,1,2,0:0:0:0:
197,190,36843,1,2,0:0:0:0:
157,251,37093,1,2,0:0:0:0:
266,368,37343,5,2,0:0:0:0:
376,304,37593,1,2,0:0:0:0:
213,308,37843,1,2,0:0:0:0:
352,378,38093,1,2,0:0:0:0:
434,364,38343,6,0,P|468:328|458:276,1,94.8750028953553,4|0,0:0|0:0,0:0:0:0:
458,271,38843,1,2,0:0:0:0:
415,210,39093,1,2,0:0:0:0:
512,111,39343,2,0,B|462:125|431:86|437:72|447:55|407:5|340:43,1,189.750005790711,2|0,0:0|0:0,0:0:0:0:
240,4,40343,5,2,0:0:0:0:
178,49,40593,2,0,P|151:87|165:122,1,63.2500019302369,2|0,0:0|0:0,0:0:0:0:
247,207,41093,2,0,L|239:166,1,31.6250009651184,2|2,0:0|0:0,0:0:0:0:
235,159,41343,2,0,B|185:144|163:181|165:203|167:222|123:262|64:220,1,189.750005790711,2|0,0:0|0:0,0:0:0:0:
11,341,42343,5,2,0:0:0:0:
75,376,42593,1,0,0:0:0:0:
184,316,42843,2,0,P|220:328|233:359,1,63.2500019302369,2|2,0:0|0:0,0:0:0:0:
368,377,43343,2,0,P|336:364|312:272,1,126.500003860474,2|0,0:0|0:0,0:0:0:0:
409,204,44093,1,2,0:0:0:0:
469,161,44343,6,0,P|491:117|443:62,1,126.500003860474,2|2,0:0|0:0,0:0:0:0:
335,0,45093,2,0,L|262:13,1,63.2500019302369,2|2,0:0|0:0,0:0:0:0:
228,73,45593,2,0,B|221:64|221:64|92:34,1,126.500003860474,2|2,0:0|0:0,0:0:0:0:
1,111,46343,5,2,0:0:0:0:
62,156,46593,2,0,L|35:259,1,94.8750028953553,2|0,0:0|0:0,0:0:0:0:
33,265,47093,1,2,0:0:0:0:
118,359,47343,2,0,B|165:393|202:332|193:327|185:321|199:256|279:284,1,189.750005790711,2|0,0:0|0:0,0:0:0:0:
354,368,48343,6,0,P|396:351|408:326,1,63.2500019302369,2|0,0:0|0:0,0:0:0:0:
401,324,48718,1,0,0:0:0:0:
396,313,48843,1,2,0:0:0:0:
446,255,49093,1,2,0:0:0:0:
327,202,49343,2,0,B|305:168|324:114|355:118|387:129|414:75|373:22,1,189.750005790711,2|0,0:0|0:0,0:0:0:0:
197,88,50593,6,0,L|186:52,2,31.6250009651184,2|2|2,0:0|0:0|0:0,0:0:0:0:
143,140,51093,1,2,0:0:0:0:
234,238,51343,2,0,B|184:223|162:271|169:276|178:281|160:361|88:330,1,189.750005790711,2|0,0:0|0:0,0:0:0:0:
0,256,52343,6,0,P|7:219|61:195,1,94.8750028953553,2|0,0:0|0:0,0:0:0:0:
74,177,52843,2,0,P|109:178|141:232,1,94.8750028953553,2|0,0:0|0:0,0:0:0:0:
140,239,53343,1,2,0:0:0:0:
215,355,53593,2,0,P|250:375|312:326,1,126.500003860474,2|2,0:0|0:0,0:0:0:0:
459,271,54343,6,0,P|488:295|488:335,1,63.2500019302369,4|0,1:2|0:0,0:0:0:0:
439,370,54843,1,2,0:0:0:0:
377,298,55093,1,0,0:0:0:0:
413,179,55343,2,0,B|388:138|338:142|330:155|323:165|269:200|232:128,1,189.750005790711,2|2,0:0|0:0,0:0:0:0:
111,30,56343,6,0,B|97:-1|97:-1|60:-6|-11:36|20:121,1,189.750005790711,4|0,1:2|0:0,0:0:0:0:
1,214,57343,2,0,P|37:259|21:309,1,94.8750028953553,2|0,0:0|0:0,0:0:0:0:
44,312,57843,2,0,P|78:347|109:344,1,63.2500019302369,4|0,0:2|0:0,0:0:0:0:
354,265,58343,6,0,P|292:270|253:317,1,126.500003860474,4|2,1:2|0:0,0:0:0:0:
378,365,59093,1,2,0:0:0:0:
482,290,59343,2,0,B|525:243|501:176|501:176|482:222|429:232,1,189.750005790711,2|2,0:0|0:0,0:0:0:0:
376,112,60343,6,0,P|411:122|422:144,1,63.2500019302369,4|0,1:2|0:0,0:0:0:0:
294,241,60843,2,0,B|301:231|301:231|251:45,1,189.750005790711,2|0,0:0|0:0,0:0:0:0:
140,7,61843,1,2,0:0:0:0:
28,81,62093,1,4,0:2:0:0:
131,237,62343,6,0,B|177:271|219:228|222:210|223:193|247:158|314:184,1,189.750005790711,4|0,1:2|0:0,0:0:0:0:
333,25,63343,1,0,0:0:0:0:
401,49,63593,1,2,0:0:0:0:
411,122,63843,2,0,L|427:185,1,63.2500019302369,2|0,0:0|0:0,0:0:0:0:
505,373,64343,6,0,B|497:379|497:379|320:315,1,189.750005790711,4|0,1:2|0:0,0:0:0:0:
242,360,65343,2,0,L|178:376,1,63.2500019302369,2|0,0:0|0:0,0:0:0:0:
54,309,65843,1,0,0:0:0:0:
187,177,66093,2,0,L|175:142,1,31.6250009651184,4|0,0:2|0:0,0:0:0:0:
167,123,66343,5,4,1:2:0:0:
16,88,66593,2,0,P|27:51|54:40,1,63.2500019302369,2|0,0:0|0:0,0:0:0:0:
110,2,67093,2,0,P|158:13|169:38,1,63.2500019302369,0|2,0:0|0:0,0:0:0:0:
252,115,67593,2,0,L|265:51,2,63.2500019302369,2|2|0,0:0|0:0|0:0,0:0:0:0:
204,169,68218,1,2,0:0:0:0:
199,173,68343,6,0,L|213:221,1,31.6250009651184,2|0,0:0|0:0,0:0:0:0:
164,260,68593,2,0,P|176:295|260:311,1,126.500003860474,2|0,0:0|0:0,0:0:0:0:
353,384,69343,1,2,0:0:0:0:
424,369,69593,2,0,B|431:365|431:365|454:262,1,94.8750028953553,2|0,0:0|0:0,0:0:0:0:
453,261,70093,1,2,0:0:0:0:
292,158,70343,6,0,B|286:151|286:151|271:64,1,94.8750028953553,4|0,1:2|0:0,0:0:0:0:
269,54,70843,1,2,0:0:0:0:
206,6,71093,1,8,0:1:0:0:
163,66,71343,2,0,B|114:48|90:85|90:97|92:109|65:162|-1:131,1,189.750005790711,2|0,0:0|0:0,0:0:0:0:
66,300,72343,6,0,L|57:334,2,31.6250009651184,4|2|2,1:2|0:0|0:0,0:0:0:0:
124,247,72843,1,2,0:0:0:0:
194,281,73093,1,8,0:1:0:0:
319,236,73343,2,0,P|344:208|327:154,1,94.8750028953553,2|0,0:0|0:0,0:0:0:0:
325,139,73843,1,0,0:0:0:0:
394,36,74093,1,0,0:0:0:0:
411,30,74218,1,8,0:1:0:0:
426,24,74343,6,0,P|459:34|465:118,1,126.500003860474,4|0,1:2|0:0,0:0:0:0:
511,232,75093,1,8,0:1:0:0:
467,293,75343,2,0,P|437:314|361:264,1,126.500003860474,2|0,0:0|0:0,0:0:0:0:
275,368,76093,1,2,0:0:0:0:
256,362,76218,1,2,0:0:0:0:
239,354,76343,6,0,B|229:350|229:350|206:220,1,126.500003860474,4|0,1:2|0:0,0:0:0:0:
280,131,77093,1,8,0:1:0:0:
234,70,77343,1,2,0:0:0:0:
122,3,77593,2,0,P|83:22|80:73,1,94.8750028953553,8|0,0:1|0:0,0:0:0:0:
91,85,78093,1,2,0:0:0:0:
46,202,78343,6,0,B|28:216|28:216|-17:230,2,63.2500019302369,4|2|2,1:2|0:0|0:0,0:0:0:0:
135,290,79093,1,8,0:1:0:0:
193,244,79343,2,0,B|202:262|202:262|368:324,1,189.750005790711,2|0,0:0|0:0,0:0:0:0:
501,243,80343,6,0,L|513:175,1,63.2500019302369,4|2,1:2|0:0,0:0:0:0:
448,142,80843,1,2,0:0:0:0:
486,79,81093,1,8,0:1:0:0:
416,0,81343,2,0,P|363:-8|320:46,1,126.500003860474,2|0,0:0|0:0,0:0:0:0:
213,146,82093,2,0,L|181:137,1,31.6250009651184,2|0,0:0|0:0,0:0:0:0:
166,69,82343,6,0,L|180:2,2,63.2500019302369,4|2|2,1:2|0:0|0:0,0:0:0:0:
60,135,83093,1,8,0:1:0:0:
111,188,83343,2,0,L|121:252,1,63.2500019302369,2|0,0:0|0:0,0:0:0:0:
60,363,83843,2,0,L|24:353,2,31.6250009651184,2|0|0,0:0|0:0|0:0,0:0:0:0:
177,299,84343,6,0,B|189:305|189:305|311:268,1,126.500003860474,4|0,0:2|0:0,0:0:0:0:
394,360,85093,1,8,0:1:0:0:
454,317,85343,1,2,0:0:0:0:
384,213,85593,1,8,0:1:0:0:
362,145,85843,1,2,0:0:0:0:
451,56,86093,2,0,L|414:45,1,31.6250009651184
274,0,86343,6,0,P|224:7|206:99,1,129.375004935265,4|0,1:0|0:0,0:0:0:0:
205,90,86843,1,2,1:2:0:0:
296,175,87093,1,2,0:0:0:0:
286,336,87343,2,0,L|273:273,1,43.1250016450883,2|0,1:2|0:0,0:0:0:0:
272,266,87593,1,2,0:0:0:0:
113,190,87843,2,0,L|126:127,1,43.1250016450883,2|0,1:2|0:0,0:0:0:0:
127,120,88093,1,2,0:0:0:0:
290,22,88343,6,0,P|340:43|349:121,1,129.375004935265,4|0,1:2|0:0,0:0:0:0:
350,119,88843,1,2,1:2:0:0:
243,197,89093,1,2,0:0:0:0:
353,335,89343,2,0,L|366:272,1,43.1250016450883,2|0,1:2|0:0,0:0:0:0:
367,265,89593,1,2,0:0:0:0:
174,246,89843,2,0,L|161:183,1,43.1250016450883,2|0,1:2|0:0,0:0:0:0:
160,176,90093,1,2,0:0:0:0:
6,47,90343,6,0,B|13:25|-5:3|-5:3|42:5|90:31|75:99,1,172.500006580353,4|2,1:2|1:2,0:0:0:0:
8,189,91093,1,2,0:0:0:0:
109,355,91343,2,0,P|157:350|169:241,1,172.500006580353,2|0,1:2|1:2,0:0:0:0:
240,98,92093,1,2,0:0:0:0:
244,110,92218,1,2,0:0:0:0:
248,122,92343,6,0,B|295:95|329:122|330:144|331:162|352:196|421:173,2,172.500006580353,4|0|2,1:2|1:2|1:2,0:0:0:0:
137,9,93593,1,0,0:0:0:0:
24,70,93843,2,0,P|10:120|36:151,1,86.2500032901765,2|2,1:2|0:0,0:0:0:0:
134,317,94343,6,0,L|147:254,1,43.1250016450883,4|0,1:1|0:0,0:0:0:0:
148,247,94593,1,2,0:0:0:0:
279,383,94843,2,0,L|266:320,1,43.1250016450883,2|0,1:2|0:0,0:0:0:0:
265,313,95093,1,2,0:0:0:0:
396,322,95343,2,0,L|409:259,1,43.1250016450883,2|0,1:2|0:0,0:0:0:0:
410,252,95593,1,2,0:0:0:0:
286,103,95843,1,2,1:2:0:0:
242,164,96093,1,2,0:0:0:0:
492,208,96343,6,0,B|487:198|487:198|362:161,1,129.375004935265,4|0,1:2|0:0,0:0:0:0:
364,169,96843,1,2,1:2:0:0:
271,31,97093,1,2,0:0:0:0:
102,69,97343,2,0,B|97:93|73:108|73:108|109:120|158:98|170:34,1,172.500006580353,2|0,1:2|1:2,0:0:0:0:
32,47,98093,1,0,0:0:0:0:
172,162,98343,6,0,P|126:207|134:272,1,129.375004935265,4|0,1:2|0:0,0:0:0:0:
136,278,98843,1,0,1:2:0:0:
232,369,99093,1,2,0:0:0:0:
359,259,99343,2,0,L|312:269,1,43.1250016450883,0|0,1:2|0:0,0:0:0:0:
288,273,99593,1,2,0:0:0:0:
151,354,99843,1,0,1:2:0:0:
32,303,100093,1,2,0:0:0:0:
28,290,100218,1,2,0:0:0:0:
23,278,100343,1,2,0:0:0:0:
256,192,100468,12,0,102093,0:0:0:0:
394,27,102343,6,0,P|295:38|270:144,1,206.999993682861,4|8,1:0|0:0,0:0:0:0:
219,188,102843,2,0,P|245:253|241:269,1,68.9999978942872,2|0,1:2|0:0,0:0:0:0:
221,317,103093,1,2,0:0:0:0:
17,169,103343,2,0,P|98:146|106:92,1,137.999995788574,2|2,1:2|0:0,0:0:0:0:
38,84,103718,1,8,0:0:0:0:
36,95,103843,1,2,1:2:0:0:
110,301,104093,2,0,P|142:240|158:239,1,68.9999978942872,8|0,0:0|0:0,0:0:0:0:
133,29,104343,6,0,P|203:33|229:159,1,206.999993682861,4|8,1:2|0:0,0:0:0:0:
288,199,104843,2,0,P|262:269|268:285,1,68.9999978942872,2|0,1:2|0:0,0:0:0:0:
219,320,105093,1,2,0:0:0:0:
453,258,105343,2,0,P|407:183|344:193,1,137.999995788574,2|2,1:2|0:0,0:0:0:0:
377,257,105718,1,8,0:0:0:0:
380,268,105843,1,2,1:2:0:0:
490,73,106093,2,0,P|492:146|505:149,1,68.9999978942872,8|0,0:0|0:0,0:0:0:0:
505,332,106343,6,0,B|503:341|503:341|285:381,1,206.999993682861,4|8,1:2|0:0,0:0:0:0:
248,342,106843,2,0,B|243:337|243:337|170:315,1,68.9999978942872,2|0,1:2|0:0,0:0:0:0:
120,355,107093,1,2,0:0:0:0:
8,245,107343,2,0,P|60:157|101:162,1,137.999995788574,2|2,1:2|0:0,0:0:0:0:
138,102,107718,1,8,0:0:0:0:
147,107,107843,1,2,1:2:0:0:
363,1,108093,2,0,P|330:67|338:85,1,68.9999978942872,8|0,0:0|0:0,0:0:0:0:
156,11,108343,6,0,P|243:65|212:194,1,206.999993682861,4|8,1:2|0:0,0:0:0:0:
287,219,108843,2,0,P|256:280|264:299,1,68.9999978942872,2|0,1:2|0:0,0:0:0:0:
214,339,109093,1,2,0:0:0:0:
445,362,109343,2,0,L|470:290,1,68.9999978942872,2|0,1:2|0:0,0:0:0:0:
356,140,109593,1,2,0:0:0:0:
359,147,109718,1,8,0:0:0:0:
361,153,109843,2,0,L|386:226,1,68.9999978942872,2|0,1:2|0:0,0:0:0:0:
332,368,110093,1,8,0:0:0:0:
498,138,110343,6,0,P|478:52|351:41,1,206.999993682861,4|8,1:0|0:0,0:0:0:0:
305,3,110843,2,0,P|245:36|231:33,1,68.9999978942872,2|0,1:2|0:0,0:0:0:0:
181,10,111093,1,2,0:0:0:0:
21,147,111343,2,0,L|99:125,1,68.9999978942872,2|0,1:2|0:0,0:0:0:0:
230,233,111593,1,2,0:0:0:0:
221,228,111718,1,8,0:0:0:0:
212,223,111843,2,0,L|188:76,1,137.999995788574,2|8,1:2|0:0,0:0:0:0:
15,266,112343,6,0,P|116:260|156:352,1,206.999993682861,4|8,1:2|0:0,0:0:0:0:
229,338,112843,2,0,P|294:368|305:364,1,68.9999978942872,2|0,1:2|0:0,0:0:0:0:
350,339,113093,1,2,0:0:0:0:
502,247,113343,2,0,L|417:216,1,68.9999978942872,2|0,1:2|0:0,0:0:0:0:
275,104,113593,1,2,0:0:0:0:
272,113,113718,1,8,0:0:0:0:
269,120,113843,2,0,L|282:195,1,68.9999978942872,2|0,1:2|0:0,0:0:0:0:
421,367,114093,1,8,0:0:0:0:
512,103,114343,6,0,B|503:107|503:107|301:37,1,206.999993682861,4|8,1:2|0:0,0:0:0:0:
259,1,114843,2,0,B|249:-1|249:-1|164:27,1,68.9999978942872,2|0,1:2|0:0,0:0:0:0:
122,10,115093,1,2,0:0:0:0:
15,173,115343,2,0,B|24:176|24:176|157:125,1,137.999995788574,2|2,1:2|0:0,0:0:0:0:
201,179,115718,1,8,0:0:0:0:
209,184,115843,1,2,1:2:0:0:
46,8,116093,2,0,B|43:15|43:15|72:89,1,68.9999978942872,8|0,0:0|0:0,0:0:0:0:
175,259,116343,6,0,B|187:255|187:255|319:305,1,137.999995788574,4|0,1:2|0:0,0:0:0:0:
351,354,116718,1,8,0:0:0:0:
348,364,116843,1,2,1:2:0:0:
472,219,117093,1,2,0:0:0:0:
404,20,117343,2,0,P|298:45|296:142,1,206.999993682861,2|8,1:2|0:0,0:0:0:0:
351,177,117843,2,0,B|358:180|358:180|426:152,2,68.9999978942872,2|0|8,1:2|0:0|0:0,0:0:0:0:
297,291,118343,6,0,L|236:273,1,63.2500019302369,4|0,1:2|0:0,0:0:0:0:
166,337,118843,2,0,B|160:347|160:347|36:375,2,126.500003860474,2|2|0,1:2|1:2|1:2,0:0:0:0:
118,274,120093,1,2,0:0:0:0:
168,194,120343,6,0,P|190:162|139:89,1,126.500003860474,2|2,1:2|1:2,0:0:0:0:
200,30,121093,2,0,B|204:23|204:23|267:12,1,63.2500019302369,2|0,0:0|1:2,0:0:0:0:
321,58,121593,2,0,B|330:67|330:67|448:93,1,126.500003860474
505,201,122343,6,0,B|502:208|502:208|439:216,1,63.2500019302369,2|0,1:2|0:0,0:0:0:0:
386,257,122843,2,0,L|378:322,1,63.2500019302369,0|2,1:2|0:0,0:0:0:0:
294,258,123343,2,0,B|278:200|278:200|280:192|280:192|264:124,1,126.500003860474,2|2,1:2|1:2,0:0:0:0:
304,73,124093,1,2,0:0:0:0:
198,3,124343,6,0,P|151:21|148:93,1,126.500003860474,2|2,1:2|1:2,0:0:0:0:
97,148,125093,1,2,0:0:0:0:
146,208,125343,2,0,B|128:237|128:237|151:333,1,126.500003860474,2|2,1:2|1:2,0:0:0:0:
300,374,126343,5,4,1:2:0:0:
351,317,126593,2,0,L|360:278,1,31.6250009651184,2|2,0:0|0:0,0:0:0:0:
387,255,126843,2,0,L|371:189,1,63.2500019302369,2|2,1:2|0:0,0:0:0:0:
423,141,127343,2,0,P|444:98|381:52,1,126.500003860474,2|0,1:2|1:2,0:0:0:0:
312,3,128093,2,0,L|277:12,1,31.6250009651184,2|2,0:0|0:0,0:0:0:0:
253,45,128343,6,0,L|188:25,1,63.2500019302369,2|0,1:2|0:0,0:0:0:0:
96,55,128843,1,2,1:2:0:0:
129,119,129093,1,2,0:0:0:0:
88,184,129343,2,0,B|44:178|27:203|32:225|4:254|-32:226,2,126.500003860474,2|0|0,1:2|1:2|1:2,0:0:0:0:
140,264,130593,6,0,P|175:278|184:310,1,63.2500019302369,2|2,0:0|1:2,0:0:0:0:
278,277,131093,1,0,0:0:0:0:
335,229,131343,2,0,L|315:100,1,126.500003860474,2|0,1:2|1:2,0:0:0:0:
354,42,132093,1,2,0:0:0:0:
476,79,132343,6,0,B|479:85|479:85|450:191,1,94.8750028953553,2|0,1:2|0:0,0:0:0:0:
438,184,132843,2,0,L|452:247,1,63.2500019302369,2|2,1:2|0:0,0:0:0:0:
399,360,133343,2,0,L|291:377,1,94.8750028953553,2|0,1:2|0:0,0:0:0:0:
274,369,133843,2,0,P|248:335|253:309,1,63.2500019302369,2|2,1:2|0:0,0:0:0:0:
169,221,134343,6,0,P|224:185|225:142,1,86.2500032901765,4|0,1:1|0:0,0:0:0:0:
220,151,134718,1,8,0:1:0:0:
203,143,134843,1,10,0:0:0:0:
89,205,135093,1,8,0:1:0:0:
164,344,135343,2,0,B|170:338|170:338|294:372,1,129.375004935265,0|8,1:2|0:1,0:0:0:0:
300,368,135843,1,8,0:0:0:0:
395,282,136093,1,8,0:1:0:0:
312,151,136343,6,0,L|341:21,1,129.375004935265,4|8,1:2|0:1,0:0:0:0:
344,13,136843,1,8,0:0:0:0:
223,50,137093,1,8,0:1:0:0:
252,198,137343,2,0,P|224:236|150:226,1,129.375004935265,0|8,1:2|0:1,0:0:0:0:
141,217,137843,1,8,0:0:0:0:
70,115,138093,1,8,0:1:0:0:
196,13,138343,6,0,B|234:15|234:15|264:103,1,129.375004935265,4|8,1:2|0:1,0:0:0:0:
269,113,138843,1,8,0:0:0:0:
381,176,139093,1,10,0:1:0:0:
322,330,139343,2,0,P|279:306|281:225,1,129.375004935265,2|8,1:2|0:1,0:0:0:0:
284,221,139843,1,8,0:0:0:0:
413,252,140093,1,10,0:1:0:0:
506,124,140343,6,0,B|500:60|500:60|412:52,1,129.375004935265,4|8,1:2|0:1,0:0:0:0:
414,58,140843,2,0,B|377:81|377:81|328:57,1,86.2500032901765,10|8,0:0|0:1,0:0:0:0:
197,2,141343,2,0,P|149:26|148:66,1,86.2500032901765,0|0,1:2|0:0,0:0:0:0:
148,65,141718,1,8,0:1:0:0:
162,72,141843,1,10,0:0:0:0:
265,154,142093,1,10,0:1:0:0:
169,284,142343,6,0,P|95:278|76:219,1,129.375004935265,4|8,1:2|0:1,0:0:0:0:
75,219,142843,1,8,0:0:0:0:
13,111,143093,1,8,0:1:0:0:
132,3,143343,2,0,B|149:8|149:8|121:122,1,129.375004935265,0|8,1:2|0:1,0:0:0:0:
125,124,143843,1,10,0:0:0:0:
233,204,144093,1,8,0:1:0:0:
342,90,144343,6,0,B|379:80|401:101|396:129|412:151|467:137,1,129.375004935265,4|8,1:2|0:1,0:0:0:0:
474,133,144843,2,0,P|496:90|469:54,1,86.2500032901765,8|8,0:0|0:1,0:0:0:0:
344,191,145343,2,0,P|364:271|365:296,1,86.2500032901765,0|0,1:2|0:0,0:0:0:0:
364,283,145718,1,8,0:1:0:0:
362,291,145843,1,8,0:0:0:0:
258,370,146093,1,10,0:1:0:0:
128,272,146343,6,0,P|104:210|134:172,1,86.2500032901765,4|2,1:2|0:0,0:0:0:0:
114,190,146718,1,8,0:1:0:0:
121,188,146843,1,10,0:0:0:0:
222,110,147093,1,10,0:1:0:0:
91,18,147343,2,0,B|46:35|46:35|67:119,1,129.375004935265,2|8,1:2|0:1,0:0:0:0:
63,126,147843,1,10,0:0:0:0:
1,241,148093,1,8,0:1:0:0:
5,252,148218,1,2,0:0:0:0:
9,264,148343,6,0,L|120:286,1,86.2500032901765,4|2,1:2|0:0,0:0:0:0:
99,286,148718,1,8,0:1:0:0:
104,291,148843,1,8,0:0:0:0:
210,212,149093,1,10,0:1:0:0:
308,350,149343,2,0,B|345:360|369:341|371:328|371:316|383:290|433:301,1,129.375004935265,2|0,1:2|0:0,0:0:0:0:
437,294,149843,2,0,P|474:262|461:222,1,86.2500032901765,10|8,0:0|0:1,0:0:0:0:
367,146,150343,6,0,P|339:111|342:62,1,86.2500032901765,4|2,1:1|0:0,0:0:0:0:
340,62,150718,1,8,0:1:0:0:
346,57,150843,1,10,0:0:0:0:
264,205,151093,1,10,0:1:0:0:
124,77,151343,2,0,P|82:84|68:169,1,129.375004935265,2|8,1:2|0:1,0:0:0:0:
68,164,151843,1,8,0:0:0:0:
167,240,152093,1,8,0:1:0:0:
77,377,152343,5,4,1:2:0:0:
74,365,152468,1,2,0:0:0:0:
71,354,152593,1,2,0:0:0:0:
229,281,152843,1,10,0:0:0:0:
291,324,153093,1,10,0:1:0:0:
397,257,153343,2,0,P|435:216|410:146,1,129.375004935265,2|8,1:2|0:1,0:0:0:0:
409,145,153843,1,8,0:0:0:0:
457,62,154093,1,8,0:1:0:0:
312,3,154343,6,0,B|293:2|293:2|245:114,1,129.375004935265,4|10,1:2|0:1,0:0:0:0:
254,111,154843,1,10,0:0:0:0:
310,226,155093,1,10,0:1:0:0:
307,236,155218,1,2,0:0:0:0:
305,243,155343,2,0,L|281:333,1,86.2500032901765,2|0,1:2|0:0,0:0:0:0:
286,333,155718,1,10,0:1:0:0:
287,341,155843,1,10,0:0:0:0:
186,217,156093,1,10,0:1:0:0:
171,256,156218,1,2,0:0:0:0:
138,260,156343,6,0,P|98:243|106:161,1,129.375004935265,4|8,1:2|0:1,0:0:0:0:
98,157,156843,1,8,0:0:0:0:
189,68,157093,1,10,0:1:0:0:
7,8,157343,2,0,B|-5:20|-5:20|16:131,1,129.375004935265,2|8,1:2|0:1,0:0:0:0:
9,141,157843,1,10,0:0:0:0:
101,54,158093,1,8,0:1:0:0:
243,126,158343,5,4,1:0:0:0:
331,39,158593,1,2,0:0:0:0:
342,44,158718,1,10,0:1:0:0:
351,48,158843,1,10,0:0:0:0:
421,14,159093,1,10,0:1:0:0:
507,109,159343,2,0,B|491:163|491:163|492:169|492:169|474:238,1,129.375004935265,2|8,1:2|0:1,0:0:0:0:
453,253,159843,2,0,L|474:342,1,86.2500032901765,8|8,0:0|0:1,0:0:0:0:
338,379,160343,6,0,P|308:352|313:298,1,86.2500032901765,4|2,1:2|0:0,0:0:0:0:
313,304,160718,1,8,0:1:0:0:
319,300,160843,1,10,0:0:0:0:
250,235,161093,1,8,0:1:0:0:
330,137,161343,2,0,B|336:131|336:131|358:5,1,129.375004935265,2|8,1:2|0:1,0:0:0:0:
352,4,161843,1,8,0:0:0:0:
264,44,162093,1,10,0:1:0:0:
139,9,162343,6,0,P|87:36|100:104,1,129.375004935265,4|8,1:2|0:1,0:0:0:0:
104,110,162843,1,10,0:0:0:0:
187,162,163093,1,10,0:1:0:0:
125,274,163343,2,0,P|61:243|64:220,1,86.2500032901765,2|0,1:2|0:0,0:0:0:0:
58,230,163718,1,8,0:1:0:0:
61,220,163843,2,0,L|49:157,2,57.500002193451,10|0|0,0:0|0:0|0:0,0:0:0:0:
3,309,164343,5,4,1:2:0:0:
486,103,166343,6,0,B|480:106|480:106|296:50,1,172.5,4|8,1:0|0:1,0:0:0:0:
310,67,166843,1,2,1:2:0:0:
160,8,167093,1,2,0:0:0:0:
4,122,167343,2,0,L|18:186,1,57.5,2|0,1:2|0:0,0:0:0:0:
35,247,167593,1,2,0:0:0:0:
191,179,167843,2,0,L|171:254,1,57.5,2|0,1:2|0:0,0:0:0:0:
155,303,168093,1,2,0:0:0:0:
284,368,168343,6,0,P|343:348|345:248,1,172.5,4|8,1:2|0:1,0:0:0:0:
345,235,168843,1,2,1:2:0:0:
451,114,169093,1,0,0:0:0:0:
279,8,169343,2,0,L|290:69,1,57.5,2|0,1:2|0:0,0:0:0:0:
300,136,169593,1,2,0:0:0:0:
174,84,169843,2,0,L|163:145,1,57.5,2|0,1:2|0:0,0:0:0:0:
153,212,170093,1,2,0:0:0:0:
56,359,170343,6,0,B|50:357|50:357|8:179,1,172.5,4|8,1:2|0:1,0:0:0:0:
13,178,170843,1,2,1:2:0:0:
119,288,171093,1,2,0:0:0:0:
233,223,171343,1,2,1:2:0:0:
314,280,171593,1,2,0:0:0:0:
309,294,171718,1,0,0:0:0:0:
303,310,171843,2,0,L|283:370,1,57.5,0|0,1:2|0:0,0:0:0:0:
368,138,172093,1,2,0:0:0:0:
375,157,172218,1,2,0:0:0:0:
382,173,172343,6,0,B|380:182|380:182|439:357,1,172.5,4|8,1:2|0:1,0:0:0:0:
436,349,172843,1,0,1:2:0:0:
501,205,173093,1,8,0:1:0:0:
289,125,173343,1,2,1:2:0:0:
187,206,173593,1,8,0:1:0:0:
180,189,173718,1,8,0:1:0:0:
173,173,173843,2,0,L|149:109,1,57.5,2|0,1:2|0:0,0:0:0:0:
60,186,174093,2,0,L|42:247,1,57.5,2|0,0:0|0:0,0:0:0:0:
164,382,174343,6,0,L|145:321,1,57.5,4|0,1:1|0:0,0:0:0:0:
124,257,174593,1,2,0:0:0:0:
281,304,174843,2,0,L|295:239,1,57.5,2|0,1:2|0:0,0:0:0:0:
312,180,175093,1,2,0:0:0:0:
424,355,175343,2,0,L|410:294,1,57.5,2|0,1:2|0:0,0:0:0:0:
395,227,175593,1,2,0:0:0:0:
275,115,175843,1,2,1:2:0:0:
323,33,176093,1,2,0:0:0:0:
152,77,176343,6,0,B|162:85|162:85|206:246,1,172.5,4|8,1:2|0:1,0:0:0:0:
209,253,176843,1,2,1:2:0:0:
91,366,177093,1,2,0:0:0:0:
3,226,177343,2,0,P|85:233|96:267,1,115,2|2,1:2|0:0,0:0:0:0:
94,260,177718,1,0,0:0:0:0:
89,266,177843,1,0,1:2:0:0:
206,372,178093,1,8,0:1:0:0:
362,270,178343,6,0,B|376:189|376:189|375:185|375:185|391:96,1,172.5,4|8,1:2|0:1,0:0:0:0:
394,83,178843,1,0,1:2:0:0:
248,6,179093,1,2,0:0:0:0:
147,93,179343,2,0,L|161:158,1,57.5,0|0,1:2|0:0,0:0:0:0:
177,218,179593,1,2,0:0:0:0:
56,120,179843,2,0,L|66:52,1,57.5,0|0,1:2|0:0,0:0:0:0:
234,109,180093,1,2,0:0:0:0:
244,106,180218,1,2,0:0:0:0:
254,103,180343,6,0,L|293:219,1,115,2|0,0:0|0:0,0:0:0:0:
298,213,180718,1,8,0:1:0:0:
305,213,180843,1,0,1:2:0:0:
224,350,181093,1,8,0:1:0:0:
321,376,181343,1,2,1:2:0:0:
499,129,182343,6,0,P|407:30|319:58,1,206.999993682861,4|8,1:0|0:0,0:0:0:0:
279,5,182843,2,0,P|224:54|212:53,1,68.9999978942872,4|0,1:2|0:0,0:0:0:0:
168,17,183093,1,2,0:0:0:0:
43,122,183343,2,0,L|82:258,1,137.999995788574,2|2,1:2|0:0,0:0:0:0:
141,298,183718,1,8,0:0:0:0:
138,308,183843,1,4,1:2:0:0:
249,191,184093,2,0,L|174:170,1,68.9999978942872,8|0,0:0|0:0,0:0:0:0:
202,352,184343,6,0,B|212:354|212:354|410:295,1,206.999993682861,0|8,1:2|0:0,0:0:0:0:
444,237,184843,2,0,B|451:234|451:234|519:306,1,68.9999978942872,4|0,1:2|0:0,0:0:0:0:
460,349,185093,1,2,0:0:0:0:
371,226,185343,1,2,1:2:0:0:
512,74,185593,1,2,0:0:0:0:
508,90,185718,1,8,0:0:0:0:
504,105,185843,2,0,L|484:184,1,68.9999978942872,4|0,1:2|0:0,0:0:0:0:
323,284,186093,1,8,0:0:0:0:
429,92,186343,6,0,B|427:83|427:83|209:43,1,206.999993682861,0|8,1:2|0:0,0:0:0:0:
178,97,186843,2,0,B|173:102|173:102|100:124,1,68.9999978942872,4|0,1:2|0:0,0:0:0:0:
52,83,187093,1,2,0:0:0:0:
0,237,187343,2,0,P|52:325|93:320,1,137.999995788574,2|2,1:2|0:0,0:0:0:0:
126,268,187718,1,8,0:0:0:0:
117,263,187843,1,4,1:2:0:0:
262,384,188093,2,0,P|229:318|237:300,1,68.9999978942872,8|0,0:0|0:0,0:0:0:0:
477,226,188343,6,0,B|416:206|389:253|392:270|396:287|365:348|273:298,1,206.999993682861,0|8,1:2|0:0,0:0:0:0:
260,258,188843,2,0,P|292:206|331:226,1,68.9999978942872,4|0,1:2|0:0,0:0:0:0:
361,185,189093,1,2,0:0:0:0:
224,17,189343,2,0,L|246:114,1,68.9999978942872,2|0,1:2|0:0,0:0:0:0:
105,228,189593,1,2,0:0:0:0:
110,207,189718,1,8,0:0:0:0:
114,189,189843,2,0,L|132:118,1,68.9999978942872,4|0,1:2|0:0,0:0:0:0:
320,41,190093,1,8,0:0:0:0:
496,213,190343,6,0,P|397:181|413:91,1,206.999993682861,4|8,1:0|0:0,0:0:0:0:
444,35,190843,2,0,P|482:72|478:80,1,68.9999978942872,4|0,1:2|0:0,0:0:0:0:
461,146,191093,1,2,0:0:0:0:
352,317,191343,2,0,L|331:236,1,68.9999978942872,2|0,1:2|0:0,0:0:0:0:
226,132,191593,1,2,0:0:0:0:
220,148,191718,1,8,0:0:0:0:
214,163,191843,2,0,L|189:237,1,68.9999978942872,4|0,1:2|0:0,0:0:0:0:
272,370,192093,1,8,0:0:0:0:
19,377,192343,6,0,P|106:337|66:230,1,206.999993682861,0|8,1:2|0:0,0:0:0:0:
112,173,192843,2,0,P|91:101|104:87,1,68.9999978942872,4|0,1:2|0:0,0:0:0:0:
48,56,193093,1,2,0:0:0:0:
229,2,193343,2,0,L|207:91,1,68.9999978942872,2|0,1:2|0:0,0:0:0:0:
328,185,193593,1,2,0:0:0:0:
323,168,193718,1,8,0:0:0:0:
318,153,193843,2,0,L|302:86,1,68.9999978942872,4|0,1:2|0:0,0:0:0:0:
129,20,194093,1,8,0:0:0:0:
139,238,194343,6,0,B|191:214|233:253|231:272|229:294|265:335|346:297,1,206.999993682861,0|8,1:2|0:0,0:0:0:0:
378,349,194843,2,0,P|415:281|409:273,1,68.9999978942872,4|0,1:2|0:0,0:0:0:0:
390,238,195093,1,2,0:0:0:0:
490,92,195343,2,0,L|473:160,1,68.9999978942872,2|0,1:2|0:0,0:0:0:0:
320,99,195593,1,2,0:0:0:0:
314,80,195718,1,8,0:0:0:0:
307,61,195843,2,0,L|288:-10,1,68.9999978942872,4|0,1:2|0:0,0:0:0:0:
480,19,196093,1,8,0:0:0:0:
314,189,196343,6,0,P|228:170|208:71,1,137.999995788574,0|0,1:2|0:0,0:0:0:0:
149,84,196718,1,8,0:0:0:0:
154,71,196843,1,4,1:2:0:0:
8,210,197093,1,2,0:0:0:0:
198,374,197343,2,0,L|211:297,1,68.9999978942872,2|0,1:2|0:0,0:0:0:0:
76,135,197593,1,2,0:0:0:0:
84,158,197718,1,8,0:0:0:0:
92,183,197843,2,0,L|119:257,1,68.9999978942872,4|0,1:2|0:0,0:0:0:0:
318,354,198093,1,8,0:0:0:0:
389,77,198343,5,4,1:0:0:0:
313,24,214343,6,0,P|246:40|232:101,1,115,4|0,1:0|0:0,0:0:0:0:
232,82,214718,1,8,0:1:0:0:
235,86,214843,1,0,1:2:0:0:
170,155,215093,1,0,0:0:0:0:
235,264,215343,1,0,1:2:0:0:
177,345,215593,1,0,0:0:0:0:
66,273,215843,2,0,P|103:230|156:243,1,115,0|0,1:2|0:0,0:0:0:0:
254,369,216343,6,0,P|320:349|323:254,1,172.5,4|8,1:2|0:1,0:0:0:0:
328,252,216843,1,0,1:2:0:0:
384,174,217093,1,0,0:0:0:0:
307,33,217343,1,0,1:2:0:0:
213,118,217593,1,0,0:0:0:0:
140,60,217843,2,0,B|131:58|131:58|16:92,1,115,0|0,1:2|0:0,0:0:0:0:
132,151,218343,6,0,B|127:160|127:160|158:277,1,115,4|0,1:2|0:0,0:0:0:0:
156,266,218718,1,8,0:1:0:0:
158,271,218843,1,0,1:2:0:0:
230,340,219093,1,0,0:0:0:0:
303,238,219343,2,0,P|362:263|366:317,1,115,0|0,1:2|0:0,0:0:0:0:
462,214,219843,1,0,1:2:0:0:
408,139,220093,1,0,0:0:0:0:
491,34,220343,6,0,B|485:37|485:37|373:14,1,115,4|0,1:2|0:0,0:0:0:0:
374,17,220718,1,8,0:1:0:0:
368,19,220843,1,0,1:2:0:0:
295,88,221093,1,8,0:1:0:0:
209,52,221343,1,0,1:2:0:0:
100,126,221593,2,0,L|113:184,1,57.5,8|8,0:1|0:1,0:0:0:0:
203,211,221843,2,0,L|191:273,1,57.5,0|0,1:2|0:0,0:0:0:0:
303,177,222093,1,0,0:0:0:0:
389,275,222343,6,0,P|463:250|471:187,1,115,4|0,1:2|0:0,0:0:0:0:
470,216,222718,1,8,0:1:0:0:
466,211,222843,1,0,1:2:0:0:
413,132,223093,1,0,0:0:0:0:
464,16,223343,1,0,1:2:0:0:
314,72,223593,1,0,0:0:0:0:
208,5,223843,2,0,P|151:44|160:100,1,115,0|0,1:2|0:0,0:0:0:0:
147,88,224218,1,0,0:0:0:0:
144,93,224343,5,4,1:2:0:0:
237,184,224593,1,0,0:0:0:0:
239,189,224718,1,8,0:1:0:0:
239,194,224843,2,0,L|266:305,1,115,0|0,1:2|0:0,0:0:0:0:
150,375,225343,1,0,1:2:0:0:
27,272,225593,1,0,0:0:0:0:
84,200,225843,2,0,L|57:86,1,115,0|8,1:2|0:1,0:0:0:0:
197,12,226343,6,0,L|170:136,1,115,4|0,1:2|0:0,0:0:0:0:
176,128,226718,1,8,0:1:0:0:
179,132,226843,1,0,1:2:0:0:
266,223,227093,1,0,0:0:0:0:
405,145,227343,2,0,P|463:192|447:242,1,115,0|0,1:2|0:0,0:0:0:0:
485,351,227843,1,0,1:2:0:0:
353,256,228093,1,0,0:0:0:0:
196,371,228343,6,0,B|189:367|189:367|153:199,1,172.5,4|8,0:0|0:1,0:0:0:0:
159,203,228843,1,0,1:2:0:0:
84,142,229093,1,8,0:1:0:0:
145,34,229343,2,0,L|266:16,1,115,0|8,1:2|0:1,0:0:0:0:
378,74,229843,2,0,L|366:132,1,57.5,0|0,1:2|0:0,0:0:0:0:
464,21,230093,2,0,L|479:94,1,57.5,8|0,0:1|0:0,0:0:0:0:
389,207,230343,6,0,B|394:212|394:212|493:229,2,94.8750028953553,4|2|2,0:0|0:0|0:0,0:0:0:0:
307,262,231343,1,2,0:0:0:0:
250,210,231593,1,2,0:0:0:0:
185,249,231843,1,2,0:0:0:0:
124,208,232093,1,2,0:0:0:0:
145,140,232343,6,0,B|150:136|150:136|163:33,1,94.8750028953553,0|2,0:0|0:0,0:0:0:0:
164,48,232843,1,2,0:0:0:0:
234,13,233093,1,2,0:0:0:0:
297,55,233343,1,2,0:0:0:0:
364,19,233593,1,2,0:0:0:0:
432,55,233843,2,0,L|442:132,1,63.2500019302369,2|2,0:0|0:0,0:0:0:0:
505,225,234343,6,0,L|472:325,2,94.8750028953553,4|2|2,0:0|0:0|0:0,0:0:0:0:
408,270,235343,1,2,0:0:0:0:
342,230,235593,1,2,0:0:0:0:
282,271,235843,1,2,0:0:0:0:
216,237,236093,1,2,0:0:0:0:
159,287,236343,6,0,P|109:280|91:235,1,94.8750028953553,0|2,0:0|0:0,0:0:0:0:
91,240,236843,1,2,0:0:0:0:
125,178,237093,1,2,0:0:0:0:
70,133,237343,1,2,0:0:0:0:
107,72,237593,2,0,L|173:58,2,63.2500019302369,2|2|2,0:0|0:0|0:0,0:0:0:0:
229,7,238343,5,4,0:0:0:0:
341,121,238718,1,2,0:0:0:0:
338,135,238843,1,2,0:0:0:0:
373,203,239093,1,2,0:0:0:0:
311,248,239343,2,0,L|233:228,1,63.2500019302369,2|2,0:0|0:0,0:0:0:0:
196,283,239843,2,0,L|133:296,1,63.2500019302369,2|2,0:0|0:0,0:0:0:0:
71,254,240343,5,0,0:0:0:0:
135,148,240718,1,2,0:0:0:0:
130,133,240843,1,2,0:0:0:0:
179,76,241093,1,2,0:0:0:0:
248,100,241343,1,2,0:0:0:0:
299,46,241593,1,2,0:0:0:0:
373,59,241843,2,0,L|388:128,1,63.2500019302369,2|2,0:0|0:0,0:0:0:0:
501,189,242343,5,4,0:0:0:0:
429,293,242718,1,2,0:0:0:0:
424,285,242843,1,2,0:0:0:0:
356,254,243093,1,2,0:0:0:0:
298,303,243343,1,2,0:0:0:0:
233,272,243593,1,2,0:0:0:0:
227,203,243843,2,0,L|238:134,1,63.2500019302369,2|2,0:0|0:0,0:0:0:0:
295,40,244343,5,0,0:0:0:0:
170,7,244718,1,2,0:0:0:0:
160,18,244843,1,2,0:0:0:0:
140,94,245093,1,2,0:0:0:0:
73,125,245343,1,2,0:0:0:0:
111,190,245593,1,2,0:0:0:0:
51,235,245843,1,2,0:0:0:0:
78,305,246093,5,4,0:0:0:0:
256,192,246218,12,0,250343,0:0:0:0:
