osu file format v14

[General]
AudioFilename: 01 - Derniere Danse.ogg
AudioLeadIn: 0
PreviewTime: 100046
Countdown: 0
SampleSet: Normal
StackLeniency: 0.7
Mode: 1
LetterboxInBreaks: 0
WidescreenStoryboard: 1

[Editor]
Bookmarks: 3,16698,33394,50089,66785,83481,100176,116872,133568,150263,166959,183655,200350
DistanceSpacing: 1.4
BeatDivisor: 4
GridSize: 32
TimelineZoom: 1

[Metadata]
Title:Derniere Danse
TitleUnicode:Dernière Danse
Artist:Indila
ArtistUnicode:Indila
Creator:Slyme
Version:Sen's Kantan
Source:
Tags:pop french france francais français sad dancing dance paris sensenko hap roxorotto mari_0hara mari 0hara mini world
BeatmapID:3930817
BeatmapSetID:1899277

[Difficulty]
HPDrainRate:9
CircleSize:5
OverallDifficulty:3
ApproachRate:5
SliderMultiplier:1.4
SliderTickRate:1

[Events]
//Background and Video events
0,0,"wp7313986.jpg",0,70
//Break Periods
//Storyboard Layer 0 (Background)
//Storyboard Layer 1 (Fail)
//Storyboard Layer 2 (Pass)
//Storyboard Layer 3 (Foreground)
//Storyboard Layer 4 (Overlay)
//Storyboard Sound Samples

[TimingPoints]
483,521.739130434783,4,1,0,30,1,0
33352,-100,4,1,0,37,0,0
33874,-100,4,1,0,50,0,0
46917,-100,4,1,0,51,0,0
47961,-100,4,1,0,54,0,0
49004,-100,4,1,0,56,0,0
49526,-100,4,1,0,58,0,0
50569,-100,4,1,0,60,0,0
80309,-100,4,1,0,59,0,0
80830,-100,4,1,0,57,0,0
81352,-100,4,1,0,56,0,0
81874,-100,4,1,0,55,0,0
82396,-100,4,1,0,54,0,0
83961,-100,4,1,0,50,0,0
98569,-100,4,1,0,57,0,0
99874,-100,4,1,0,65,0,0
100656,-100,4,1,0,70,0,1
113700,-100,4,1,0,67,0,1
114222,-100,4,1,0,65,0,1
114743,-100,4,1,0,63,0,1
115265,-100,4,1,0,60,0,1
115787,-100,4,1,0,57,0,1
116309,-100,4,1,0,55,0,1
117352,-100,4,1,0,70,0,1
130396,-100,4,1,0,67,0,1
130917,-100,4,1,0,65,0,1
131439,-100,4,1,0,63,0,1
131961,-100,4,1,0,60,0,1
132483,-100,4,1,0,57,0,1
133004,-100,4,1,0,55,0,1
134048,-100,4,1,0,50,0,0
149700,-100,4,1,0,54,0,0
150743,-100,4,1,0,70,0,0
161700,-100,4,1,0,69,0,0
162222,-100,4,1,0,67,0,0
162743,-100,4,1,0,65,0,0
163265,-100,4,1,0,63,0,0
164309,-100,4,1,0,58,0,0
165352,-100,4,1,0,54,0,0
166396,-100,4,1,0,50,0,0
166917,-100,4,1,0,60,0,0
167439,-100,4,1,0,70,0,0
170569,-100,4,1,0,60,0,0
171613,-100,4,1,0,70,0,1
180483,-100,4,1,0,67,0,1
181004,-100,4,1,0,65,0,1
182048,-100,4,1,0,60,0,1
182569,-100,4,1,0,57,0,1
183091,-100,4,1,0,55,0,1
183613,-100,4,1,0,53,0,1
184135,-100,4,1,0,70,0,1
197178,-100,4,1,0,67,0,1
197700,-100,4,1,0,65,0,1
198222,-100,4,1,0,62,0,1
198743,-100,4,1,0,60,0,1
199265,-100,4,1,0,57,0,1
199787,-100,4,1,0,55,0,1
200830,-100,4,1,0,50,0,0

[HitObjects]
97,166,483,5,0,1:0:0:0:
97,166,1526,1,8,1:0:0:0:
97,166,2569,1,0,1:0:0:0:
186,121,3091,1,0,1:0:0:0:
97,166,3613,1,8,1:0:0:0:
97,166,4656,1,0,1:0:0:0:
97,166,5700,1,8,1:0:0:0:
97,166,6743,1,0,1:0:0:0:
273,149,7265,1,8,1:0:0:0:
97,166,7787,1,0,1:0:0:0:
97,166,8830,1,0,1:0:0:0:
97,166,9874,1,0,1:0:0:0:
97,166,10917,1,0,1:0:0:0:
187,134,11439,1,8,1:0:0:0:
98,171,11961,1,8,1:0:0:0:
98,171,13004,1,0,1:0:0:0:
98,171,14048,1,8,1:0:0:0:
98,171,15091,1,0,1:0:0:0:
223,121,15613,1,8,1:0:0:0:
148,160,16135,1,0,1:0:0:0:
120,180,17178,1,0,1:0:0:0:
115,174,18222,1,8,1:0:0:0:
115,174,19265,1,0,1:0:0:0:
92,180,19787,1,8,1:0:0:0:
92,180,20309,1,0,1:0:0:0:
92,180,21352,1,0,1:0:0:0:
92,180,22396,1,8,1:0:0:0:
178,126,23439,1,0,1:0:0:0:
215,155,23961,1,8,1:0:0:0:
92,180,24483,1,8,1:0:0:0:
123,184,25004,1,8,1:0:0:0:
92,180,25526,1,0,1:0:0:0:
93,180,26569,1,8,1:0:0:0:
184,114,27613,1,0,1:0:0:0:
116,130,28135,1,0,1:0:0:0:
93,180,28656,1,8,1:0:0:0:
93,180,29700,1,0,1:0:0:0:
93,177,30743,1,0,1:0:0:0:
195,84,31787,1,0,1:0:0:0:
195,155,32309,1,8,1:0:0:0:
195,156,33352,1,8,1:0:0:0:
195,156,33874,1,0,1:0:0:0:
208,99,34396,1,8,1:0:0:0:
195,156,35439,1,8,1:0:0:0:
231,127,36483,1,0,1:0:0:0:
183,131,37004,1,0,1:0:0:0:
195,156,37526,1,8,1:0:0:0:
195,156,38569,1,8,1:0:0:0:
257,73,39613,1,8,1:0:0:0:
195,157,40656,1,0,1:0:0:0:
195,157,41178,1,8,1:0:0:0:
166,106,41700,1,8,1:0:0:0:
166,106,42743,1,0,1:0:0:0:
195,157,43787,1,8,1:0:0:0:
195,157,44309,1,0,1:0:0:0:
195,157,44830,1,8,1:0:0:0:
196,119,45874,1,8,1:0:0:0:
200,80,46396,1,0,1:0:0:0:
195,157,46917,1,8,1:0:0:0:
195,157,47961,1,8,1:0:0:0:
133,117,49004,1,8,1:0:0:0:
132,106,49526,1,0,1:0:0:0:
285,160,50569,5,0,1:0:0:0:
277,161,51091,1,8,1:0:0:0:
277,161,52135,1,8,1:0:0:0:
123,134,52656,1,0,1:0:0:0:
277,161,53178,1,8,1:0:0:0:
140,128,54222,1,8,1:0:0:0:
189,100,55265,1,0,1:0:0:0:
106,126,56309,1,8,1:0:0:0:
203,74,56830,1,8,1:0:0:0:
203,74,57352,1,0,1:0:0:0:
289,166,58396,1,8,1:0:0:0:
104,163,58917,1,0,1:0:0:0:
184,96,59439,1,0,1:0:0:0:
289,166,60483,1,8,1:0:0:0:
183,96,61526,1,8,1:0:0:0:
183,96,62048,1,0,1:0:0:0:
289,166,63091,1,0,1:0:0:0:
53,103,63613,1,8,1:0:0:0:
289,166,64135,1,0,1:0:0:0:
289,166,64656,1,8,1:0:0:0:
289,166,65178,1,0,1:0:0:0:
289,166,65700,1,8,1:0:0:0:
289,166,66222,1,0,1:0:0:0:
96,137,67787,1,8,1:0:0:0:
53,103,68830,1,8,1:0:0:0:
53,103,69352,1,0,1:0:0:0:
53,103,69874,1,8,1:0:0:0:
257,93,70917,1,8,1:0:0:0:
51,106,71961,1,8,1:0:0:0:
51,106,72483,1,0,1:0:0:0:
166,146,73004,1,0,1:0:0:0:
51,106,73526,1,8,1:0:0:0:
46,107,74569,1,0,1:0:0:0:
46,107,75613,1,8,1:0:0:0:
46,107,76135,1,0,1:0:0:0:
46,107,76656,1,8,1:0:0:0:
46,107,77700,1,0,1:0:0:0:
218,72,78222,1,0,1:0:0:0:
46,107,78743,1,8,1:0:0:0:
46,107,79787,1,0,1:0:0:0:
46,107,80309,1,8,1:0:0:0:
46,107,80830,1,0,1:0:0:0:
46,107,81352,1,8,1:0:0:0:
46,107,81874,1,0,1:0:0:0:
46,107,82396,1,8,1:0:0:0:
45,107,83961,1,0,1:0:0:0:
109,118,85004,1,8,1:0:0:0:
109,118,86048,1,0,1:0:0:0:
109,118,87091,1,8,1:0:0:0:
109,118,88135,1,0,1:0:0:0:
99,119,89178,1,8,1:0:0:0:
252,102,90222,1,0,1:0:0:0:
140,131,90743,1,8,1:0:0:0:
99,118,91265,1,0,1:0:0:0:
142,129,92309,1,0,1:0:0:0:
142,129,93352,1,8,1:0:0:0:
103,115,94396,1,8,1:0:0:0:
142,129,95439,1,8,1:0:0:0:
96,107,95961,1,8,1:0:0:0:
142,129,96483,1,0,1:0:0:0:
142,129,97526,1,8,1:0:0:0:
142,129,98569,1,0,1:0:0:0:
83,138,99874,1,0,1:0:0:0:
272,184,100656,5,4,1:0:0:0:
272,184,101178,1,8,1:0:0:0:
310,197,101700,1,8,1:0:0:0:
310,197,102222,1,0,1:0:0:0:
310,197,102743,1,0,1:0:0:0:
310,197,103265,1,8,1:0:0:0:
310,197,104830,1,0,1:0:0:0:
310,197,105352,1,8,1:0:0:0:
153,158,105874,1,0,1:0:0:0:
310,197,106917,1,0,1:0:0:0:
310,197,107439,1,8,1:0:0:0:
310,197,109004,1,8,1:0:0:0:
148,96,109526,1,0,1:0:0:0:
128,24,110048,1,8,1:0:0:0:
213,142,110569,1,8,1:0:0:0:
213,142,111091,1,0,1:0:0:0:
310,197,112135,1,8,1:0:0:0:
310,197,113178,1,8,1:0:0:0:
310,197,113700,1,0,1:0:0:0:
274,118,114222,1,8,1:0:0:0:
237,107,114743,1,0,1:0:0:0:
237,107,115265,1,8,1:0:0:0:
33,115,115787,1,8,1:0:0:0:
33,115,116309,1,0,1:0:0:0:
172,126,117352,1,4,1:0:0:0:
103,191,117874,1,8,1:0:0:0:
103,191,118396,1,0,1:0:0:0:
103,191,119439,1,0,1:0:0:0:
103,191,119961,1,8,1:0:0:0:
103,191,121004,1,8,1:0:0:0:
103,191,122048,1,8,1:0:0:0:
103,191,122569,1,0,1:0:0:0:
103,191,123613,1,0,1:0:0:0:
175,117,124656,1,8,1:0:0:0:
201,78,125700,1,0,1:0:0:0:
103,191,126222,1,8,1:0:0:0:
103,191,126743,1,0,1:0:0:0:
105,192,127787,1,0,1:0:0:0:
105,192,128830,1,8,1:0:0:0:
105,192,129874,1,0,1:0:0:0:
105,192,130396,1,8,1:0:0:0:
105,192,130917,1,0,1:0:0:0:
105,192,131439,1,8,1:0:0:0:
105,192,131961,1,0,1:0:0:0:
105,192,132483,1,8,1:0:0:0:
105,192,133004,1,0,1:0:0:0:
105,192,134048,1,0,1:0:0:0:
186,118,135091,1,8,1:0:0:0:
184,118,136135,1,8,1:0:0:0:
287,77,137178,1,0,1:0:0:0:
184,118,138222,1,8,1:0:0:0:
184,118,138743,1,0,1:0:0:0:
184,118,139265,1,8,1:0:0:0:
287,77,140309,1,8,1:0:0:0:
287,77,141352,1,0,1:0:0:0:
273,80,142396,1,0,1:0:0:0:
273,80,142917,1,0,1:0:0:0:
273,80,143439,1,8,1:0:0:0:
269,80,144483,1,8,1:0:0:0:
269,80,145526,1,0,1:0:0:0:
265,79,146569,1,0,1:0:0:0:
265,79,147091,1,0,1:0:0:0:
265,79,147613,1,8,1:0:0:0:
265,79,148656,1,0,1:0:0:0:
265,79,149700,1,8,1:0:0:0:
278,148,150743,1,4,1:0:0:0:
257,140,151265,1,8,1:0:0:0:
248,140,152309,1,0,1:0:0:0:
248,140,153352,1,0,1:0:0:0:
248,140,153874,1,8,1:0:0:0:
248,140,154396,1,8,1:0:0:0:
248,140,154917,1,0,1:0:0:0:
248,140,155961,1,8,1:0:0:0:
88,115,157004,1,0,1:0:0:0:
248,140,158048,1,8,1:0:0:0:
248,140,158569,1,0,1:0:0:0:
248,140,159091,1,8,1:0:0:0:
248,140,160135,1,0,1:0:0:0:
248,141,161178,1,0,1:0:0:0:
248,141,161700,1,8,1:0:0:0:
248,141,162222,1,0,1:0:0:0:
248,141,162743,1,8,1:0:0:0:
248,141,163265,1,0,1:0:0:0:
248,141,164309,1,8,1:0:0:0:
248,141,165352,1,0,1:0:0:0:
247,80,166396,1,0,1:0:0:0:
190,132,166917,1,0,1:0:0:0:
248,141,167439,1,12,1:0:0:0:
248,141,169526,1,4,1:0:0:0:
248,141,170569,1,4,1:0:0:0:
248,141,171613,1,4,1:0:0:0:
248,141,172135,1,8,1:0:0:0:
248,141,172656,1,0,1:0:0:0:
248,141,173700,1,0,1:0:0:0:
248,141,174222,1,8,1:0:0:0:
178,94,175787,1,8,1:0:0:0:
70,152,176309,1,8,1:0:0:0:
70,152,176830,1,0,1:0:0:0:
70,152,177352,1,0,1:0:0:0:
70,152,177874,1,8,1:0:0:0:
137,51,178917,1,8,1:0:0:0:
312,141,179961,1,8,1:0:0:0:
102,133,180483,1,0,1:0:0:0:
183,96,181004,1,8,1:0:0:0:
251,134,182048,1,0,1:0:0:0:
251,134,182569,1,0,1:0:0:0:
251,134,183091,1,0,1:0:0:0:
70,152,183613,1,0,1:0:0:0:
251,134,184135,1,8,1:0:0:0:
196,125,184656,1,8,1:0:0:0:
92,114,185700,1,8,1:0:0:0:
196,125,186222,1,0,1:0:0:0:
196,125,186743,1,8,1:0:0:0:
196,125,187787,1,8,1:0:0:0:
150,30,188830,1,8,1:0:0:0:
262,134,189352,1,0,1:0:0:0:
196,125,190396,1,8,1:0:0:0:
196,125,191439,1,0,1:0:0:0:
160,215,191961,1,8,1:0:0:0:
196,125,192483,1,0,1:0:0:0:
192,103,193004,1,0,1:0:0:0:
191,111,193526,1,8,1:0:0:0:
196,125,194569,1,0,1:0:0:0:
187,128,195613,1,8,1:0:0:0:
215,115,196656,1,0,1:0:0:0:
215,115,197178,1,8,1:0:0:0:
215,115,197700,1,0,1:0:0:0:
215,115,198222,1,8,1:0:0:0:
215,115,198743,1,0,1:0:0:0:
215,115,199265,1,8,1:0:0:0:
247,115,199787,1,0,1:0:0:0:
263,129,200830,1,8,1:0:0:0:
