osu file format v14

[General]
AudioFilename: audio.mp3
AudioLeadIn: 0
PreviewTime: 100046
Countdown: 0
SampleSet: Soft
StackLeniency: 0.4
Mode: 0
LetterboxInBreaks: 0
WidescreenStoryboard: 1

[Editor]
Bookmarks: 116872
DistanceSpacing: 1
BeatDivisor: 4
GridSize: 32
TimelineZoom: 1.3

[Metadata]
Title:Derniere Danse
TitleUnicode:Dernière Danse
Artist:Indila
ArtistUnicode:Indila
Creator:PaRaDogi
Version:Collab Hard feat. Nachmark
Source:
Tags:pop french france sad dancing dance morrighan skubi bluirre paris cptsqbany Nachmark
BeatmapID:3971575
BeatmapSetID:1755670

[Difficulty]
HPDrainRate:4
CircleSize:3.8
OverallDifficulty:7
ApproachRate:7.5
SliderMultiplier:1.4
SliderTickRate:1

[Events]
//Background and Video events
0,0,"wp7313986.jpg",0,0
//Break Periods
2,167677,168739
//Storyboard Layer 0 (Background)
//Storyboard Layer 1 (Fail)
//Storyboard Layer 2 (Pass)
//Storyboard Layer 3 (Foreground)
//Storyboard Layer 4 (Overlay)
//Storyboard Sound Samples

[TimingPoints]
521,521.739130434783,4,2,1,66,1,0
9390,-100,4,2,1,45,0,0
50607,-100,4,2,1,66,0,0
67303,-90.9090909090909,4,2,1,66,0,0
83999,-133.333333333333,4,2,1,45,0,0
100694,-83.3333333333333,4,2,1,75,0,0
135129,-100,4,2,1,45,0,0
149477,-100,4,2,1,55,0,0
150781,-83.3333333333333,4,2,1,66,0,0
171651,-83.3333333333333,4,2,1,75,0,0

[Colours]
Combo1 : 255,156,108
Combo2 : 255,149,255
Combo3 : 176,211,255
Combo4 : 179,179,255

[HitObjects]
42,25,521,5,0,0:0:0:0:
139,117,1042,2,0,L|124:191,2,70,2|0|0,0:0|0:0|0:0,0:0:0:0:
261,72,2086,2,0,L|271:-2,2,70,2|0|0,0:0|0:0|0:0,0:0:0:0:
382,122,3129,2,0,L|394:203,2,70,2|0|0,0:0|0:0|0:0,0:0:0:0:
503,69,4173,1,2,0:0:0:0:
473,199,4694,5,0,0:0:0:0:
412,311,5216,2,0,L|426:390,2,70,2|0|0,0:0|0:0|0:0,0:0:0:0:
294,258,6260,2,0,L|307:179,2,70,2|0|0,0:0|0:0|0:0,0:0:0:0:
172,309,7303,2,0,L|189:394,2,70,2|0|0,0:0|0:0|0:0,0:0:0:0:
51,265,8347,2,0,L|60:191,1,70
16,130,8868,5,0,0:0:0:0:
101,33,9390,2,0,L|170:24,1,70,2|0,0:0|0:0,0:0:0:0:
224,81,9912,1,0,0:0:0:0:
328,1,10434,2,0,L|400:16,1,70,2|0,0:0|0:0,0:0:0:0:
449,73,10955,5,0,0:0:0:0:
364,171,11477,2,0,L|382:243,1,70,2|0,0:0|0:0,0:0:0:0:
338,304,11999,1,0,0:0:0:0:
224,372,12521,1,2,0:0:0:0:
130,286,13042,5,0,0:0:0:0:
32,204,13564,1,2,0:0:0:0:
32,204,13825,2,0,L|42:123,1,70
146,58,14607,1,2,0:0:0:0:
146,58,14868,2,0,L|162:145,1,70
274,187,15651,1,2,0:0:0:0:
274,187,15912,2,0,L|287:102,1,70
345,68,16434,2,0,L|332:27,2,35,2|2|2,3:0|3:0|3:0,0:0:0:0:
422,94,16955,1,2,0:3:0:0:
422,94,17216,6,0,L|397:239,1,140,2|2,0:3|0:0,0:0:0:0:
447,299,17999,1,2,0:0:0:0:
447,299,18260,2,0,P|429:357|352:359,1,140,2|2,0:3|0:0,0:0:0:0:
249,299,19303,6,0,L|263:214,1,70,0|2,0:0|0:3,0:0:0:0:
313,170,19825,1,2,0:3:0:0:
313,170,20086,1,2,0:3:0:0:
270,102,20347,2,0,P|218:74|149:113,1,140,2|2,0:3|0:3,0:0:0:0:
78,84,21129,1,2,0:3:0:0:
78,84,21390,6,0,B|40:99|40:99|63:205,1,140,2|2,0:3|0:0,0:0:0:0:
115,257,22173,1,2,0:3:0:0:
115,257,22434,2,0,L|261:284,1,140,0|2,0:0|0:0,0:0:0:0:
361,360,23477,6,0,L|445:337,1,70
481,282,23999,2,0,P|478:228|447:208,1,70,2|2,0:3|0:3,0:0:0:0:
498,147,24521,1,2,0:3:0:0:
417,43,25042,1,2,0:3:0:0:
417,43,25303,1,2,0:3:0:0:
356,92,25564,6,0,P|287:94|264:10,1,140,2|2,0:3|0:0,0:0:0:0:
186,9,26347,1,0,0:0:0:0:
186,9,26607,2,0,P|137:9|99:83,1,140,2|2,0:3|0:0,0:0:0:0:
12,184,27651,5,0,0:0:0:0:
82,291,28173,2,0,L|156:303,1,70,2|2,0:3|0:3,0:0:0:0:
221,262,28694,2,0,P|243:234|207:141,1,140,2|2,0:3|0:3,0:0:0:0:
245,73,29477,1,2,0:3:0:0:
245,73,29738,6,0,P|295:32|366:54,1,140,2|2,0:3|0:3,0:0:0:0:
439,34,30521,1,2,0:3:0:0:
439,34,30781,2,0,P|490:47|505:136,1,140,2|2,0:3|0:3,0:0:0:0:
397,193,31825,6,0,L|415:269,1,70,2|2,0:3|0:3,0:0:0:0:
378,328,32347,2,0,L|306:345,1,70,2|0,0:3|0:0,0:0:0:0:
243,383,32868,1,0,0:0:0:0:
190,326,33129,2,0,L|199:292,2,35,2|2|2,0:3|0:3|0:3,0:0:0:0:
119,360,33651,1,2,0:3:0:0:
119,360,33912,6,0,L|45:347,1,70,2|0,0:3|0:0,0:0:0:0:
9,283,34434,1,2,0:0:0:0:
9,283,34694,1,0,0:0:0:0:
53,216,34955,1,2,0:3:0:0:
1,94,35477,1,2,0:0:0:0:
1,94,35738,1,0,0:0:0:0:
65,46,35999,6,0,L|142:63,1,70
193,113,36521,1,2,0:0:0:0:
193,113,36781,1,2,0:3:0:0:
261,75,37042,2,0,L|346:58,1,70,0|0,0:3|0:0,0:0:0:0:
401,94,37564,1,2,0:0:0:0:
489,194,38086,6,0,L|480:281,1,70,2|0,0:3|0:0,0:0:0:0:
418,307,38607,1,2,0:0:0:0:
418,307,38868,1,2,0:3:0:0:
349,265,39129,1,2,0:3:0:0:
380,141,39651,1,2,0:0:0:0:
380,141,39912,1,0,0:0:0:0:
326,82,40173,6,0,L|253:76,1,70
203,22,40694,1,2,0:0:0:0:
203,22,40955,1,2,0:3:0:0:
141,71,41216,2,0,L|154:146,1,70,2|0,0:3|0:0,0:0:0:0:
106,202,41738,2,0,L|94:281,1,70,2|2,0:0|0:3,0:0:0:0:
138,337,42260,5,2,0:3:0:0:
264,377,42781,1,2,0:0:0:0:
264,377,43042,1,0,0:0:0:0:
320,322,43303,2,0,L|281:179,1,140,2|2,0:3|0:0,0:0:0:0:
324,121,44086,1,0,0:0:0:0:
324,121,44347,5,0,0:0:0:0:
404,22,44868,1,2,0:0:0:0:
404,22,45129,1,2,0:3:0:0:
469,68,45390,2,0,L|486:145,1,70,2|0,0:3|0:0,0:0:0:0:
446,204,45912,1,2,0:0:0:0:
486,333,46434,6,0,P|451:361|417:357,1,70,2|0,0:3|0:0,0:0:0:0:
363,317,46955,1,2,0:0:0:0:
363,317,47216,1,0,0:0:0:0:
306,371,47477,1,2,0:3:0:0:
214,279,47999,1,2,0:0:0:0:
214,279,48260,1,0,0:0:0:0:
275,224,48521,6,0,P|308:190|283:102,1,140,0|2,0:0|0:0,0:0:0:0:
250,40,49303,1,0,0:0:0:0:
250,40,49564,1,0,0:0:0:0:
128,83,50086,1,2,0:0:0:0:
18,154,50607,6,0,L|48:265,1,105,6|0,1:0|0:0,0:0:0:0:
52,280,51129,1,2,0:3:0:0:
115,329,51390,1,0,0:0:0:0:
182,291,51651,2,0,P|223:297|256:358,1,105,2|0,1:0|0:0,0:0:0:0:
293,370,52173,2,0,P|338:371|363:341,1,70,2|0,0:3|0:0,0:0:0:0:
432,340,52694,6,0,P|461:303|451:250,1,105,2|0,1:0|0:0,0:0:0:0:
429,226,53216,1,2,0:3:0:0:
464,157,53477,1,0,1:0:0:0:
410,98,53738,2,0,L|326:82,1,70,0|2,1:0|0:0,0:0:0:0:
267,57,54260,2,0,L|248:-14,2,70,0|0|0,0:3|1:0|1:0,0:0:0:0:
208,108,55042,5,2,0:0:0:0:
258,170,55303,2,0,L|244:242,1,70,2|2,0:3|1:0,0:0:0:0:
194,297,55825,2,0,P|151:320|71:272,1,140,2|0,1:0|0:3,0:0:0:0:
23,227,56607,1,2,0:0:0:0:
55,157,56868,6,0,P|87:124|158:131,1,105,2|0,1:0|0:0,0:0:0:0:
163,115,57390,1,2,0:3:0:0:
217,58,57651,1,0,1:0:0:0:
288,95,57912,2,0,L|362:114,1,70,0|2,1:0|0:0,0:0:0:0:
430,87,58434,1,8,0:3:0:0:
490,138,58694,1,0,0:0:0:0:
445,205,58955,6,0,L|470:316,1,105,6|0,1:0|0:0,0:0:0:0:
454,334,59477,2,0,P|419:364|390:361,1,70,0|2,0:3|1:0,0:0:0:0:
321,378,59999,2,0,P|308:328|259:293,1,105,2|0,1:0|0:0,0:0:0:0:
234,278,60521,2,0,P|202:239|207:194,1,70,2|0,0:3|0:0,0:0:0:0:
240,153,61042,6,0,P|267:115|246:52,1,105,2|0,1:0|0:0,0:0:0:0:
238,40,61564,1,2,0:3:0:0:
169,2,61825,1,0,1:0:0:0:
97,35,62086,2,0,B|68:56|68:56|88:131,1,105,2|0,1:0|0:0,0:0:0:0:
96,146,62607,1,2,0:3:0:0:
41,203,62868,1,0,1:0:0:0:
80,272,63129,6,0,P|110:301|172:295,1,105,6|0,1:0|0:0,0:0:0:0:
198,281,63651,2,0,P|233:263|270:275,1,70,2|0,0:3|1:0,0:0:0:0:
322,320,64173,2,0,P|359:343|421:316,1,105,2|0,1:0|0:0,0:0:0:0:
439,298,64694,2,0,L|453:229,1,70,2|0,0:3|0:0,0:0:0:0:
507,171,65216,6,0,L|475:60,1,105,2|0,1:0|0:0,0:0:0:0:
478,48,65738,1,2,0:3:0:0:
411,8,65999,1,0,1:0:0:0:
345,54,66260,2,0,P|292:53|257:0,1,105,2|0,1:0|0:0,0:0:0:0:
234,5,66781,1,10,0:3:0:0:
165,39,67042,1,2,1:0:0:0:
194,112,67303,6,0,L|178:193,1,77.0000023498536,4|2,1:0|0:0,0:0:0:0:
121,239,67825,1,2,0:3:0:0:
162,306,68086,1,2,0:0:0:0:
185,302,68216,1,2,0:0:0:0:
206,298,68347,2,0,L|289:280,1,77.0000023498536,2|0,1:0|0:0,0:0:0:0:
341,330,68868,1,0,0:3:0:0:
399,278,69129,1,2,0:0:0:0:
351,214,69390,6,0,P|317:168|332:113,1,115.50000352478,2|0,1:0|0:0,0:0:0:0:
348,101,69912,1,2,0:3:0:0:
313,30,70173,1,0,1:0:0:0:
242,67,70434,2,0,L|146:44,1,77.0000023498536,0|2,1:0|0:0,0:0:0:0:
104,2,70955,1,0,0:3:0:0:
35,41,71216,1,0,1:0:0:0:
77,111,71477,6,0,L|55:231,1,115.50000352478,0|0,1:0|0:0,0:0:0:0:
50,250,71999,1,0,0:3:0:0:
96,313,72260,1,2,1:0:0:0:
120,307,72390,1,2,0:0:0:0:
140,302,72521,2,0,L|225:280,1,77.0000023498536,2|0,1:0|0:0,0:0:0:0:
266,224,73042,2,0,L|312:234,2,38.5000011749268,2|2|2,0:3|0:0|0:0,0:0:0:0:
213,165,73564,6,0,P|188:125|253:37,1,154.000004699707,2|0,1:0|0:3,0:0:0:0:
305,5,74347,1,2,1:0:0:0:
376,42,74607,2,0,B|401:71|401:71|380:148,1,115.50000352478,2|0,1:0|0:0,0:0:0:0:
374,173,75129,1,8,0:3:0:0:
423,234,75390,1,0,0:0:0:0:
381,301,75651,6,0,L|297:314,1,77.0000023498536,0|2,0:0|0:0,0:0:0:0:
252,371,76173,1,2,0:3:0:0:
190,326,76434,1,2,1:0:0:0:
124,370,76694,2,0,P|71:362|49:302,1,115.50000352478,2|0,1:0|0:0,0:0:0:0:
43,286,77216,1,0,0:3:0:0:
79,217,77477,1,2,0:0:0:0:
33,152,77738,6,0,B|6:121|6:121|36:46,1,115.50000352478,2|0,1:0|0:0,0:0:0:0:
44,34,78260,1,2,0:3:0:0:
116,0,78521,1,0,1:0:0:0:
183,45,78781,2,0,L|266:58,1,77.0000023498536,2|2,1:0|0:0,0:0:0:0:
314,112,79303,1,2,0:3:0:0:
385,75,79564,1,2,1:0:0:0:
459,109,79825,6,0,P|493:140|487:210,1,115.50000352478,6|0,1:0|0:0,0:0:0:0:
467,239,80347,2,0,L|392:221,1,77.0000023498536,2|0,0:3|1:0,0:0:0:0:
330,177,80868,2,0,L|215:205,1,115.50000352478,2|0,1:0|0:0,0:0:0:0:
183,217,81390,2,0,P|158:254|168:299,1,77.0000023498536,2|0,0:3|0:0,0:0:0:0:
200,351,81912,6,0,L|324:375,1,115.50000352478,2|0,1:0|0:0,0:0:0:0:
340,362,82434,2,0,L|424:348,1,77.0000023498536,2|0,0:3|1:0,0:0:0:0:
477,302,82955,1,2,1:0:0:0:
423,245,83216,1,2,0:0:0:0:
427,225,83347,1,2,0:0:0:0:
432,206,83477,1,2,0:0:0:0:
481,145,83738,1,2,1:0:0:0:
429,85,83999,5,6,1:0:0:0:
328,8,84521,2,0,L|269:17,1,52.5000020027161,2|2,0:0|0:0,0:0:0:0:
217,70,85042,2,0,L|112:41,1,105.000004005432,2|0,0:0|0:0,0:0:0:0:
8,109,86086,5,2,0:0:0:0:
95,204,86607,2,0,L|105:255,1,52.5000020027161,2|2,0:0|0:0,0:0:0:0:
153,317,87129,2,0,P|185:333|248:301,1,105.000004005432,2|0,0:0|0:0,0:0:0:0:
300,249,87912,1,2,0:0:0:0:
300,249,88173,5,2,0:0:0:0:
208,160,88694,2,0,L|220:101,1,52.5000020027161,2|2,0:0|0:0,0:0:0:0:
268,47,89216,2,0,B|294:28|294:28|373:50,1,105.000004005432,2|0,0:0|0:0,0:0:0:0:
480,117,90260,5,0,0:0:0:0:
394,213,90781,2,0,L|410:269,1,52.5000020027161,2|2,0:0|0:0,0:0:0:0:
391,338,91303,2,0,P|359:362|299:349,1,105.000004005432,2|2,0:0|0:0,0:0:0:0:
239,299,92086,1,2,0:0:0:0:
229,304,92216,1,2,0:0:0:0:
222,308,92347,6,0,L|146:347,1,78.7500030040742,2|0,0:0|0:0,0:0:0:0:
122,367,92868,2,0,L|65:355,1,52.5000020027161,2|0,0:0|0:0,0:0:0:0:
7,310,93390,2,0,L|21:199,1,105.000004005432,2|2,0:0|0:0,0:0:0:0:
92,101,94434,6,0,P|120:84|187:101,1,105.000004005432,2|0,0:0|0:0,0:0:0:0:
244,158,95216,1,2,0:0:0:0:
244,158,95477,1,2,0:0:0:0:
332,56,95999,2,0,L|387:68,1,52.5000020027161,2|2,0:0|0:0,0:0:0:0:
444,116,96521,6,0,L|474:222,1,105.000004005432,2|2,0:0|0:0,0:0:0:0:
403,325,97564,2,0,L|341:313,1,52.5000020027161,2|0,0:0|0:0,0:0:0:0:
296,260,98086,2,0,L|280:151,1,105.000004005432
317,32,99129,6,0,L|264:15,1,52.5000020027161
198,55,99651,1,0,0:0:0:0:
138,6,99912,1,0,1:0:0:0:
16,150,100694,6,0,P|17:210|100:242,1,125.999996154785,6|0,1:0|0:0,0:0:0:0:
80,259,101216,1,2,1:0:0:0:
164,213,101477,1,0,0:0:0:0:
241,271,101738,2,0,P|303:278|345:217,1,125.999996154785,2|0,1:0|0:0,0:0:0:0:
373,216,102260,2,0,L|352:126,1,83.9999974365235,2|0,1:0|0:0,0:0:0:0:
397,46,102781,6,0,B|368:14|368:14|266:7,1,125.999996154785,2|0,1:0|0:0,0:0:0:0:
262,37,103303,1,0,1:0:0:0:
169,7,103564,1,2,0:0:0:0:
83,52,103825,2,0,L|117:225,1,167.999994873047,0|0,1:0|1:0,0:0:0:0:
57,297,104607,1,0,0:0:0:0:
121,368,104868,6,0,L|204:343,1,83.9999974365235,0|2,1:0|0:0,0:0:0:0:
291,378,105390,1,2,1:0:0:0:
363,315,105651,1,0,0:0:0:0:
446,360,105912,2,0,P|492:346|506:264,1,125.999996154785,2|0,1:0|0:0,0:0:0:0:
494,248,106434,1,0,1:0:0:0:
432,176,106694,1,2,0:0:0:0:
488,99,106955,6,0,P|469:51|394:39,1,125.999996154785,2|0,1:0|0:0,0:0:0:0:
370,23,107477,1,2,1:0:0:0:
285,69,107738,1,0,0:0:0:0:
334,152,107999,2,0,L|322:237,1,83.9999974365235,0|0,1:0|0:0,0:0:0:0:
355,327,108521,1,2,1:0:0:0:
272,380,108781,1,0,0:0:0:0:
181,352,109042,6,0,P|148:309|165:239,1,125.999996154785,6|0,1:0|0:0,0:0:0:0:
179,221,109564,1,4,1:0:0:0:
241,151,109825,1,2,0:0:0:0:
198,67,110086,2,0,P|165:34|85:50,1,125.999996154785,6|0,1:0|0:0,0:0:0:0:
54,68,110607,2,0,L|42:164,1,83.9999974365235,6|0,1:0|0:0,0:0:0:0:
108,222,111129,6,0,L|118:320,1,83.9999974365235,6|0,1:0|0:0,0:0:0:0:
191,371,111651,2,0,P|238:371|270:277,1,125.999996154785,6|0,1:0|0:0,0:0:0:0:
301,285,112173,2,0,L|277:200,1,83.9999974365235,6|0,1:0|0:0,0:0:0:0:
220,128,112694,2,0,L|243:36,1,83.9999974365235,6|0,1:0|0:0,0:0:0:0:
330,5,113216,6,0,P|386:7|418:76,1,125.999996154785,6|0,1:0|0:0,0:0:0:0:
447,88,113738,2,0,L|431:187,1,83.9999974365235,6|0,1:0|0:0,0:0:0:0:
491,255,114260,2,0,P|482:313|424:338,1,125.999996154785,4|0,1:0|0:0,0:0:0:0:
408,360,114781,1,6,1:0:0:0:
328,305,115042,1,0,0:0:0:0:
254,370,115303,6,0,L|128:345,1,125.999996154785,6|0,1:0|0:0,0:0:0:0:
96,349,115825,1,6,1:0:0:0:
17,291,116086,1,0,0:0:0:0:
74,215,116347,2,0,L|85:171,3,41.9999987182618,6|2|2|2,1:3|1:3|3:0|3:0,0:0:0:0:
73,153,116868,2,0,L|62:109,3,41.9999987182618,6|2|2|2,1:3|3:0|3:0|3:0,0:0:0:0:
60,90,117390,6,0,P|104:66|189:116,1,125.999996154785,4|0,0:0|0:0,0:0:0:0:
195,104,117912,2,0,P|188:157|184:198,1,83.9999974365235,10|2,0:0|0:0,0:0:0:0:
276,271,118434,2,0,P|284:193|294:117,1,125.999996154785,2|0,1:0|0:0,0:0:0:0:
292,127,118955,2,0,P|336:104|378:123,1,83.9999974365235,8|2,0:0|0:0,0:0:0:0:
450,169,119477,5,2,1:0:0:0:
394,247,119738,1,0,0:0:0:0:
487,320,119999,2,0,P|438:332|393:343,1,83.9999974365235,10|0,0:0|0:0,0:0:0:0:
292,384,120521,2,0,P|251:374|210:364,1,83.9999974365235,0|0,1:0|0:0,0:0:0:0:
151,257,121042,6,0,P|106:273|84:370,1,125.999996154785,10|0,0:0|0:0,0:0:0:0:
83,353,121564,2,0,P|72:302|57:253,1,83.9999974365235,0|2,1:0|0:0,0:0:0:0:
8,189,122086,1,8,0:0:0:0:
82,121,122347,1,2,0:0:0:0:
82,121,122477,1,2,0:0:0:0:
82,121,122607,6,0,P|141:109|227:88,1,125.999996154785,2|0,1:0|0:0,0:0:0:0:
230,85,123129,1,10,0:0:0:0:
308,19,123390,1,2,0:0:0:0:
308,19,123521,1,0,0:0:0:0:
308,19,123651,6,0,B|350:11|350:11|435:68,1,125.999996154785,2|0,1:0|0:0,0:0:0:0:
433,75,124173,2,0,P|421:132|414:169,1,83.9999974365235,8|2,0:0|0:0,0:0:0:0:
424,173,124564,1,0,0:0:0:0:
434,187,124694,2,0,P|422:244|415:281,1,83.9999974365235,2|0,1:0|0:0,0:0:0:0:
402,378,125216,1,10,0:0:0:0:
321,319,125477,1,2,0:0:0:0:
494,346,125738,6,0,P|506:289|513:252,1,83.9999974365235,0|2,1:0|0:0,0:0:0:0:
434,187,126260,2,0,P|446:130|453:93,1,83.9999974365235,10|2,0:0|0:0,0:0:0:0:
454,92,126651,1,0,0:0:0:0:
457,78,126781,2,0,P|421:112|326:93,1,125.999996154785,2|0,1:0|0:0,0:0:0:0:
329,95,127303,2,0,P|306:82|237:94,1,83.9999974365235,8|2,0:0|0:0,0:0:0:0:
157,199,127825,6,0,B|180:159|180:159|137:71,1,125.999996154785,2|0,1:0|0:0,0:0:0:0:
134,73,128347,2,0,P|82:65|45:60,1,83.9999974365235,10|0,0:0|0:0,0:0:0:0:
16,143,128868,1,2,1:0:0:0:
16,143,129129,1,2,0:0:0:0:
81,212,129390,1,10,0:0:0:0:
25,291,129651,1,2,0:0:0:0:
114,353,129912,6,0,P|161:337|206:324,1,83.9999974365235,2|0,1:0|0:0,0:0:0:0:
209,248,130434,2,0,P|256:232|301:219,1,83.9999974365235,10|0,0:0|0:0,0:0:0:0:
475,232,130955,6,0,P|425:248|380:261,1,83.9999974365235,2|0,1:0|0:0,0:0:0:0:
377,337,131477,2,0,P|330:353|285:366,1,83.9999974365235,10|0,0:0|0:0,0:0:0:0:
124,358,131999,6,0,P|171:342|216:329,1,83.9999974365235,2|0,1:0|0:0,0:0:0:0:
219,253,132521,2,0,P|266:237|311:224,1,83.9999974365235,10|0,0:0|0:0,0:0:0:0:
488,217,133042,6,0,P|438:233|393:246,1,83.9999974365235,2|0,1:0|0:0,0:0:0:0:
390,322,133564,2,0,P|343:338|298:351,1,83.9999974365235,8|0,0:0|0:0,0:0:0:0:
205,379,134086,1,0,1:0:0:0:
123,283,134607,5,0,1:0:0:0:
193,232,134868,1,0,1:0:0:0:
267,269,135129,6,0,B|329:261|359:218|320:199|349:139|423:139,1,210,0|0,1:0|1:0,0:0:0:0:
460,271,136173,2,0,P|404:275|351:193,1,140,0|0,1:0|0:0,0:0:0:0:
323,122,136955,1,0,1:0:0:0:
407,133,137216,6,0,B|344:132|315:192|354:211|324:254|262:262,1,210,0|0,1:0|1:0,0:0:0:0:
170,280,138260,6,0,P|120:262|80:250,1,70,0|0,1:0|0:0,0:0:0:0:
138,171,138781,2,0,P|171:181|204:194,1,70,0|0,1:0|1:0,0:0:0:0:
244,106,139303,2,0,P|211:93|177:82,1,70,0|0,1:0|0:0,0:0:0:0:
103,256,140086,5,0,1:0:0:0:
103,256,140347,2,0,P|137:267|170:280,1,70,0|0,1:0|0:0,0:0:0:0:
448,326,141129,1,0,1:0:0:0:
447,326,141390,2,0,P|413:336|380:349,1,70,0|0,1:0|0:0,0:0:0:0:
326,24,142434,6,0,P|367:57|354:155,1,140,4|0,1:0|1:0,0:0:0:0:
302,200,143216,1,0,1:0:0:0:
302,200,143477,2,0,P|246:183|216:177,1,70,0|0,1:0|0:0,0:0:0:0:
448,326,144260,5,0,1:0:0:0:
447,326,144521,2,0,P|413:336|380:349,1,70,0|0,1:0|0:0,0:0:0:0:
103,256,145303,1,0,1:0:0:0:
103,256,145564,2,0,P|137:267|170:280,1,70,0|0,1:0|0:0,0:0:0:0:
292,22,146607,5,4,1:0:0:0:
244,98,147129,5,0,1:0:0:0:
333,109,147390,1,0,1:0:0:0:
379,32,147651,1,0,1:0:0:0:
173,141,148434,5,0,1:0:0:0:
173,141,148694,2,0,P|116:124|73:115,1,70,0|0,1:0|0:0,0:0:0:0:
413,108,149477,5,2,1:0:0:0:
413,108,149737,2,0,P|470:91|513:82,1,70,2|2,1:0|1:0,0:0:0:0:
488,86,150129,1,2,1:0:0:0:
499,82,150260,2,0,P|520:128|503:177,1,105
484,189,150781,6,0,B|457:221|457:221|348:191,1,125.999996154785,6|0,1:0|0:0,0:0:0:0:
361,191,151303,2,0,P|306:204|269:214,1,83.9999974365235,2|0,1:0|0:0,0:0:0:0:
242,297,151825,2,0,P|201:306|160:317,1,83.9999974365235,0|0,1:0|0:0,0:0:0:0:
84,374,152347,1,0,1:0:0:0:
2,310,152607,1,0,0:0:0:0:
2,310,152868,1,0,1:0:0:0:
81,249,153129,6,0,P|98:205|78:162,1,83.9999974365235,2|2,0:0|1:0,0:0:0:0:
21,76,153651,1,2,0:0:0:0:
21,76,153912,2,0,P|96:88|153:29,1,125.999996154785,2|0,1:0|0:0,0:0:0:0:
144,43,154434,1,2,1:0:0:0:
233,9,154694,1,2,0:0:0:0:
324,53,154955,6,0,B|373:42|403:82|374:93|429:137|491:114,2,167.999994873047,2|0|2,1:0|1:0|1:0,0:0:0:0:
401,259,156521,1,0,1:0:0:0:
459,198,156781,1,0,0:0:0:0:
373,178,157042,2,0,P|313:168|269:158,1,83.9999974365235,0|2,1:0|0:0,0:0:0:0:
206,114,157564,5,2,1:0:0:0:
143,188,157825,1,0,0:0:0:0:
207,263,158086,2,0,P|248:271|289:277,1,83.9999974365235,2|0,1:0|0:0,0:0:0:0:
457,312,158607,1,2,1:0:0:0:
398,248,158868,1,2,0:0:0:0:
329,377,159129,6,0,P|249:356|136:335,1,167.999994873047,2|2,1:0|1:0,0:0:0:0:
56,356,159912,1,0,0:0:0:0:
105,273,160173,2,0,P|133:223|100:143,1,125.999996154785,0|0,1:0|0:0,0:0:0:0:
104,141,160694,1,0,1:0:0:0:
177,73,160955,1,0,0:0:0:0:
262,130,161216,2,0,P|325:142|363:152,1,83.9999974365235,0|0,1:0|0:0,0:0:0:0:
467,58,161738,6,0,P|414:60|386:91,1,83.9999974365235,2|2,1:0|0:0,0:0:0:0:
408,225,162260,2,0,P|439:182|434:144,1,83.9999974365235,2|0,1:0|0:0,0:0:0:0:
336,162,162781,1,2,1:0:0:0:
290,241,163042,1,2,0:0:0:0:
363,362,163303,6,0,B|417:344|417:344|427:324|427:324|446:237|515:288,2,167.999994873047,2|0|0,1:0|1:0|1:0,0:0:0:0:
186,278,164868,1,0,1:0:0:0:
226,364,165129,1,0,0:0:0:0:
120,364,165390,2,0,P|104:308|83:255,1,83.9999974365235,0|0,1:0|0:0,0:0:0:0:
37,203,165912,5,0,1:0:0:0:
91,121,166173,1,0,0:0:0:0:
188,184,166434,2,0,P|201:128|212:94,1,83.9999974365235,2|2,3:0|3:0,0:0:0:0:
238,0,166955,1,2,3:0:0:0:
140,28,167216,1,2,3:0:0:0:
297,123,167477,5,4,1:0:0:0:
211,343,169564,5,6,1:0:0:0:
322,273,170607,1,6,1:0:0:0:
136,181,171651,6,0,B|181:157|181:157|278:197,1,125.999996154785,0|0,1:0|0:0,0:0:0:0:
266,196,172173,1,2,1:0:0:0:
339,132,172434,1,2,0:0:0:0:
431,196,172694,2,0,P|437:132|451:24,1,167.999994873047,2|2,1:0|0:0,0:0:0:0:
512,162,173477,1,2,0:0:0:0:
444,206,173738,6,0,P|436:279|433:312,1,83.9999974365235,2|0,1:0|0:0,0:0:0:0:
322,353,174260,2,0,P|326:311|330:269,1,83.9999974365235,2|0,1:0|0:0,0:0:0:0:
281,181,174781,1,0,1:0:0:0:
205,247,175042,1,2,0:0:0:0:
205,247,175173,1,0,0:0:0:0:
205,247,175303,2,0,P|151:214|151:139,1,125.999996154785,0|0,1:0|0:0,0:0:0:0:
171,129,175825,6,0,B|136:101|136:101|41:133,1,125.999996154785,6|0,1:0|0:0,0:0:0:0:
32,135,176347,1,0,1:0:0:0:
71,226,176607,1,2,0:0:0:0:
71,226,176738,1,2,0:0:0:0:
71,226,176868,2,0,P|60:278|46:366,1,125.999996154785,2|0,1:0|0:0,0:0:0:0:
45,367,177390,2,0,P|91:376|128:358,1,83.9999974365235,2|0,1:0|0:0,0:0:0:0:
199,281,177912,2,0,P|260:293|373:315,1,167.999994873047,2|2,1:0|1:0,0:0:0:0:
466,372,178955,6,0,B|493:338|493:338|453:229,1,125.999996154785,2|0,1:0|0:0,0:0:0:0:
455,242,179477,1,2,1:0:0:0:
377,171,179738,1,0,0:0:0:0:
480,75,179999,6,0,P|469:140|463:174,1,83.9999974365235,2|0,1:0|0:0,0:0:0:0:
403,0,180521,2,0,P|392:65|386:99,1,83.9999974365235,2|0,1:0|0:0,0:0:0:0:
285,83,181042,6,0,P|274:148|268:182,1,83.9999974365235,2|0,1:0|0:0,0:0:0:0:
208,8,181564,2,0,P|197:73|191:107,1,83.9999974365235,2|0,1:0|0:0,0:0:0:0:
94,108,182086,6,0,P|83:173|77:207,1,83.9999974365235,6|0,1:0|0:0,0:0:0:0:
17,33,182608,2,0,P|6:98|0:132,1,83.9999974365235,6|0,1:0|0:0,0:0:0:0:
92,203,183129,6,0,L|55:377,1,167.999994873047,6|6,1:3|1:3,0:0:0:0:
420,348,184173,6,0,P|347:326|269:305,1,125.999996154785,4|0,1:0|0:0,0:0:0:0:
281,311,184694,1,10,0:0:0:0:
234,228,184955,1,2,0:0:0:0:
321,197,185216,2,0,P|329:145|336:108,1,83.9999974365235,2|0,1:0|0:0,0:0:0:0:
356,1,185738,1,8,0:0:0:0:
422,70,185999,1,2,0:0:0:0:
270,46,186260,6,0,P|209:60|136:78,1,125.999996154785,2|0,1:0|0:0,0:0:0:0:
129,68,186781,2,0,P|109:111|126:162,1,83.9999974365235,10|0,0:0|0:0,0:0:0:0:
86,235,187303,2,0,P|133:272|196:257,1,125.999996154785,0|0,1:0|0:0,0:0:0:0:
206,243,187825,2,0,P|260:230|296:223,1,83.9999974365235,8|0,0:0|0:0,0:0:0:0:
391,274,188347,6,0,B|421:216|421:216|375:155,1,125.999996154785,0|0,1:0|0:0,0:0:0:0:
373,152,188868,1,8,0:0:0:0:
422,63,189129,1,2,0:0:0:0:
320,51,189390,2,0,P|239:31|154:7,1,167.999994873047,2|10,1:0|0:0,0:0:0:0:
123,88,190173,1,2,0:0:0:0:
123,88,190303,1,0,0:0:0:0:
123,88,190434,2,0,P|203:110|285:130,1,167.999994873047,2|8,1:0|0:0,0:0:0:0:
430,177,191216,5,2,0:0:0:0:
375,258,191477,2,0,P|340:221|344:187,1,83.9999974365235,2|0,1:0|0:0,0:0:0:0:
358,96,191999,2,0,P|372:47|403:33,1,83.9999974365235,10|2,0:0|0:0,0:0:0:0:
501,16,192521,1,0,1:0:0:0:
342,190,193042,5,10,0:0:0:0:
270,253,193303,1,2,0:0:0:0:
195,190,193564,2,0,P|150:181|103:175,1,83.9999974365235,2|0,1:0|0:0,0:0:0:0:
102,175,193955,1,0,0:0:0:0:
91,174,194086,2,0,P|66:215|75:259,1,83.9999974365235,8|2,0:0|0:0,0:0:0:0:
73,368,194607,6,0,P|134:346|211:317,1,125.999996154785,2|0,1:0|0:0,0:0:0:0:
207,318,195129,1,10,0:0:0:0:
302,366,195390,1,0,0:0:0:0:
376,287,195651,2,0,L|347:195,1,83.9999974365235,2|2,1:0|0:0,0:0:0:0:
304,68,196173,1,10,0:0:0:0:
393,104,196434,1,2,0:0:0:0:
253,146,196694,6,0,P|203:131|158:117,1,83.9999974365235,2|0,1:0|0:0,0:0:0:0:
167,38,197216,2,0,P|117:23|72:9,1,83.9999974365235,10|0,0:0|0:0,0:0:0:0:
7,125,197738,6,0,P|57:140|102:154,1,83.9999974365235,2|0,1:0|0:0,0:0:0:0:
93,233,198260,2,0,P|143:248|188:262,1,83.9999974365235,10|0,0:0|0:0,0:0:0:0:
253,146,198781,6,0,P|203:131|158:117,1,83.9999974365235,2|0,1:0|0:0,0:0:0:0:
167,38,199303,2,0,P|117:23|72:9,1,83.9999974365235,10|0,0:0|0:0,0:0:0:0:
7,125,199825,6,0,P|57:140|102:154,1,83.9999974365235,2|0,1:0|0:0,0:0:0:0:
93,233,200347,2,0,P|143:248|188:262,1,83.9999974365235,8|2,0:0|0:0,0:0:0:0:
291,290,200868,5,2,0:0:0:0:
