osu file format v14

[General]
AudioFilename: audio.mp3
AudioLeadIn: 0
PreviewTime: 122446
Countdown: 1
SampleSet: Normal
StackLeniency: 0.7
Mode: 0
LetterboxInBreaks: 0
WidescreenStoryboard: 1

[Editor]
DistanceSpacing: 0.8
BeatDivisor: 4
GridSize: 32
TimelineZoom: 1

[Metadata]
Title:Ciao Bella
TitleUnicode:Ciao Bella
Artist:Indietro
ArtistUnicode:Indietro
Creator:kristrace
Version:Hard
Source:
Tags:
BeatmapID:1350627
BeatmapSetID:611037

[Difficulty]
HPDrainRate:5
CircleSize:4
OverallDifficulty:8
ApproachRate:7.6
SliderMultiplier:1.4
SliderTickRate:1

[Events]
//Background and Video events
0,0,"SHITBACKGROUND.jpg",0,0
//Break Periods
2,151402,165175
2,202706,206914
2,244446,257349
//Storyboard Layer 0 (Background)
//Storyboard Layer 1 (Fail)
//Storyboard Layer 2 (Pass)
//Storyboard Layer 3 (Foreground)
//Storyboard Sound Samples

[TimingPoints]
333,434.782608695652,4,1,0,61,1,0
165985,-100,4,1,0,61,0,1
178593,-100,4,1,0,61,0,0
179463,-100,4,1,0,61,0,1
192072,-100,4,1,0,61,0,0
194246,-100,4,1,0,61,0,1
207724,-100,4,1,0,61,0,0
228593,-100,4,1,0,61,0,1
242506,-100,4,1,0,61,0,0

[HitObjects]
384,160,92941,6,0,P|320:160|320:96,1,140
288,256,93811,1,0,0:0:0:0:
128,256,94246,2,0,P|128:192|192:128,4,140
174,135,96419,6,8,P|192:96|288:96,1,140,8|8,2:0|2:0,2:0:0:0:
320,160,97289,2,2,P|256:224|224:192,1,140,2|2,2:0|2:0,2:0:0:0:
96,192,98159,1,0,0:0:0:0:
192,288,98593,2,8,B|224:256|224:320|320:320,1,140,8|8,2:0|2:0,2:0:0:0:
32,320,99463,1,2,2:0:0:0:
32,224,99898,6,0,L|32:64,1,140
128,96,100767,1,0,0:0:0:0:
128,320,101202,2,0,L|128:160,1,140
320,128,102072,2,0,B|320:192|352:192|384:192|416:224,1,140
192,128,102941,1,0,0:0:0:0:
64,192,103376,6,0,B|64:256|96:256|128:288|96:320|128:320|192:288|192:320|224:352|288:288,1,280
64,192,104680,1,0,0:0:0:0:
128,128,105115,2,0,B|192:96|256:96|288:128|288:192|224:224|192:224|160:256|160:320|320:320,1,420
416,128,106854,6,0,P|384:96|288:96,1,140
416,128,107724,2,0,P|416:192|352:224,1,140
192,160,108593,2,0,B|224:128|192:128|160:128|128:192|96:128,1,140
96,256,109463,2,0,L|256:256,1,140
288,128,110333,6,0,B|320:96|352:64|352:128|352:192,1,140
160,288,111202,2,0,B|96:288|64:288|160:192,1,140
256,96,112072,1,0,0:0:0:0:
352,256,112506,2,0,L|512:256,2,140
224,160,113811,6,0,P|192:192|256:192,1,140
96,32,114680,1,0,0:0:0:0:
320,32,115115,1,0,0:0:0:0:
96,288,115550,2,0,P|128:224|192:192,1,140
256,192,116419,1,0,0:0:0:0:
352,192,116854,2,0,P|384:160|384:64,1,140
224,64,117724,5,0,0:0:0:0:
64,224,118159,1,0,0:0:0:0:
224,224,118593,1,0,0:0:0:0:
160,128,119028,2,0,L|320:128,1,140
224,224,119898,1,0,0:0:0:0:
224,64,120333,1,0,0:0:0:0:
256,192,120767,12,0,122072,0:0:0:0:
96,96,122506,6,0,B|96:160|128:160|128:192|128:224|64:224,1,140
128,96,124246,2,0,L|128:256,1,140
256,192,125115,2,0,L|352:192,1,70
352,224,125985,6,0,L|352:64,1,140
224,128,126854,6,0,P|128:160|96:224,1,175
96,320,127724,1,0,0:0:0:0:
224,320,128159,1,0,0:0:0:0:
96,96,128593,1,0,0:0:0:0:
96,320,129028,1,0,0:0:0:0:
320,224,129463,1,0,0:0:0:0:
96,160,129898,6,0,B|128:128|128:128|160:160|160:160|192:128|192:128|192:160,1,140
288,224,130767,2,0,B|256:256|256:256|224:224|224:224|192:256|192:288,1,140
224,256,131638,1,0,0:0:0:0:
288,320,132072,6,0,P|352:224|384:224,2,140
96,96,133376,1,0,0:0:0:0:
160,256,133811,5,0,0:0:0:0:
256,96,134246,1,0,0:0:0:0:
352,256,134680,1,0,0:0:0:0:
352,96,135115,1,0,0:0:0:0:
64,256,135550,1,0,0:0:0:0:
64,160,135767,5,0,0:0:0:0:
96,160,135876,1,0,0:0:0:0:
128,160,135985,1,0,0:0:0:0:
192,224,136419,2,0,P|288:224|288:192,1,140
96,128,137289,5,0,0:0:0:0:
288,96,137724,1,0,0:0:0:0:
224,288,138159,1,0,0:0:0:0:
192,64,138593,1,0,0:0:0:0:
384,192,139028,5,0,0:0:0:0:
96,320,139463,1,0,0:0:0:0:
256,160,139898,1,0,0:0:0:0:
320,288,140332,1,0,0:0:0:0:
96,128,140767,2,0,P|128:96|224:96,3,140
128,256,142506,2,0,L|288:256,1,140
268,256,143376,2,0,L|288:96,1,140
96,160,144246,1,0,0:0:0:0:
96,256,144680,2,0,B|160:256|160:288|160:320|224:320,1,140
64,128,145550,1,0,0:0:0:0:
320,320,145985,2,0,P|352:256|352:160,1,140
128,192,146854,2,0,P|192:96|224:64,1,140
128,224,147724,1,0,0:0:0:0:
288,96,148159,1,0,0:0:0:0:
352,256,148593,1,0,0:0:0:0:
192,128,149028,2,0,B|192:64|192:64|128:64|96:64,1,140
192,224,149898,1,0,0:0:0:0:
320,224,150332,1,0,0:0:0:0:
320,224,150767,1,2,2:0:0:0:
320,224,151202,1,2,2:0:0:0:
128,64,165985,6,0,B|128:128|128:128|192:192,1,140
384,64,166854,2,0,B|384:128|384:128|320:192,1,140
96,192,167724,1,0,0:0:0:0:
416,192,168159,1,0,0:0:0:0:
128,128,168593,6,0,B|128:64|128:64|224:64,1,140
128,256,169463,1,0,0:0:0:0:
320,256,169898,1,0,0:0:0:0:
352,64,170332,6,0,B|416:128|416:128|416:192,1,140
96,224,171202,1,0,0:0:0:0:
224,320,171637,1,0,0:0:0:0:
224,64,172072,2,0,B|160:64|160:64|128:96|128:96|96:96,2,140
96,288,173376,5,0,0:0:0:0:
256,224,173811,1,0,0:0:0:0:
320,128,174246,1,0,0:0:0:0:
320,128,174680,2,0,B|384:192|384:192|352:224|352:224|352:256,1,140
128,192,175550,2,0,B|64:128|64:128|64:96|64:96|96:96,1,140
288,224,176419,1,0,0:0:0:0:
128,64,176854,1,0,0:0:0:0:
96,288,177289,6,0,B|160:288|192:320|224:352,1,140
96,160,178159,1,0,0:0:0:0:
224,64,178593,1,0,0:0:0:0:
384,128,179028,6,0,B|384:192|384:192|320:256,1,140
448,224,179898,2,0,B|448:288|448:288|384:352,1,140
320,96,180767,6,0,B|160:96|192:128|160:128,1,140
352,160,181637,2,0,B|416:160|448:224|416:256,1,140
192,128,182506,2,0,B|128:160|128:160|160:224,1,140
256,192,183376,2,0,B|288:224|288:224|192:288,1,140
192,64,184246,6,0,B|128:64|128:64|128:96|128:96|160:96|128:128,2,140
352,64,185550,1,0,0:0:0:0:
384,192,185985,2,0,B|384:224|384:224|352:224|352:320,2,140
256,160,187289,1,0,0:0:0:0:
128,192,187724,6,0,B|128:256|160:256|160:352,1,140
160,288,188376,1,0,0:0:0:0:
192,160,188593,2,0,B|192:96|160:96|160:0,1,140
128,256,189463,1,0,0:0:0:0:
288,160,189898,1,0,0:0:0:0:
288,160,190115,1,0,0:0:0:0:
416,288,190332,5,0,0:0:0:0:
288,160,190767,1,0,0:0:0:0:
192,288,191202,2,0,P|256:288|320:224,1,140
160,192,192072,2,0,P|192:128|256:128,1,140
128,160,192941,2,0,B|160:96|224:224|224:224|416:256|448:224|448:224|448:160,1,420
64,160,194680,5,0,0:0:0:0:
224,160,195115,1,0,0:0:0:0:
224,160,195332,1,0,0:0:0:0:
64,288,195550,1,0,0:0:0:0:
224,288,195985,1,0,0:0:0:0:
128,96,196419,6,0,L|288:96,1,140
192,192,197072,1,0,0:0:0:0:
256,256,197289,2,0,L|416:256,1,140
96,64,198159,2,0,L|96:224,1,140
96,64,198811,1,0,0:0:0:0:
192,128,199028,2,0,L|192:288,1,140
320,96,199898,5,0,0:0:0:0:
320,224,200332,1,0,0:0:0:0:
320,224,200550,1,0,0:0:0:0:
320,128,200767,2,0,B|320:64|288:64|288:64|256:64|224:32,1,140
96,192,201419,5,0,0:0:0:0:
192,288,201637,1,0,0:0:0:0:
288,224,202072,2,0,L|352:160,1,70
224,288,202506,1,0,0:0:0:0:
128,96,207724,5,0,0:0:0:0:
128,96,207941,1,0,0:0:0:0:
128,192,208159,5,0,0:0:0:0:
128,192,208376,1,0,0:0:0:0:
128,288,208593,1,0,0:0:0:0:
224,224,208811,2,0,L|320:224,1,70
384,96,209246,5,0,0:0:0:0:
224,128,209463,2,0,L|160:192,1,70
256,224,209898,2,0,L|192:288,1,70
96,128,210332,5,0,0:0:0:0:
96,256,210550,2,0,L|160:256,2,35
320,128,210985,1,0,0:0:0:0:
96,64,211202,6,0,L|64:160,1,70
192,160,211637,2,0,L|256:192,1,70
192,288,212072,2,0,L|128:352,2,70
320,160,212724,5,0,0:0:0:0:
192,64,212941,2,0,P|224:96|224:128,2,70
160,288,213593,2,0,P|192:256|192:224,2,70
320,160,214246,1,0,0:0:0:0:
320,160,214463,1,0,0:0:0:0:
96,128,214680,6,0,B|160:128|160:128|160:192|192:192,1,140
416,64,215550,2,0,L|352:128,1,70
224,64,215985,2,0,L|288:128,1,70
352,256,216419,6,0,B|288:256|288:256|288:192|288:192|256:192,1,140
96,96,217289,2,0,L|96:192,1,70
96,320,217724,2,0,L|96:224,1,70
256,96,218159,6,0,B|320:96|320:96|288:192,1,140
64,288,219028,1,0,0:0:0:0:
96,192,219246,1,0,0:0:0:0:
160,288,219463,1,0,0:0:0:0:
192,192,219680,1,0,0:0:0:0:
352,192,219898,6,0,B|320:160|320:160|320:64,1,140
128,160,220550,2,0,L|96:192,2,35
192,320,220985,1,0,0:0:0:0:
288,224,221202,1,0,0:0:0:0:
384,128,221419,1,0,0:0:0:0:
192,224,221637,6,0,P|160:160|160:64,1,140
96,288,222289,1,0,0:0:0:0:
256,320,222506,2,0,L|224:224,1,70
96,288,222941,1,0,0:0:0:0:
192,256,223159,1,0,0:0:0:0:
160,128,223376,2,0,P|224:96|288:128,1,140
128,256,224028,1,0,0:0:0:0:
128,256,224246,1,0,0:0:0:0:
128,160,224463,1,0,0:0:0:0:
224,256,224680,1,0,0:0:0:0:
320,160,224898,1,0,0:0:0:0:
96,96,225115,6,0,B|96:160|96:160|128:160|128:160|128:192|96:224,1,140
256,96,225767,1,0,0:0:0:0:
320,160,225985,1,0,0:0:0:0:
256,224,226202,1,0,0:0:0:0:
320,288,226419,1,0,0:0:0:0:
320,288,226637,1,0,0:0:0:0:
64,128,226854,5,0,0:0:0:0:
224,128,227289,1,0,0:0:0:0:
288,320,227724,2,0,P|320:224|288:192,1,140
128,256,228593,6,0,L|192:320,1,70
352,64,229028,2,0,L|288:128,1,70
352,192,229463,2,0,L|288:256,1,70
192,128,229898,1,0,0:0:0:0:
352,192,230115,1,0,0:0:0:0:
64,64,230332,6,0,L|64:160,1,70
224,224,230767,2,0,L|224:128,1,70
64,224,231202,1,0,0:0:0:0:
160,352,231419,1,0,0:0:0:0:
64,224,231637,1,0,0:0:0:0:
160,352,231854,1,0,0:0:0:0:
384,96,232072,6,0,L|320:160,1,70
96,128,232506,2,0,L|160:192,1,70
96,288,232941,1,0,0:0:0:0:
256,160,233159,1,0,0:0:0:0:
288,352,233376,1,0,0:0:0:0:
384,224,233593,1,0,0:0:0:0:
384,64,233811,6,0,L|320:128,1,70
256,160,234246,2,0,L|192:224,1,70
288,288,234680,2,0,L|352:352,1,70
416,256,235115,2,0,L|480:192,1,70
96,128,235550,5,0,0:0:0:0:
128,224,235767,2,0,L|192:288,1,70
192,160,236202,1,0,0:0:0:0:
256,96,236419,2,0,L|320:160,1,70
128,96,236854,1,0,0:0:0:0:
96,224,237072,1,0,0:0:0:0:
192,224,237289,6,0,L|288:224,1,70
416,224,237724,2,0,L|320:224,1,70
256,224,238159,1,0,0:0:0:0:
192,128,238376,1,0,0:0:0:0:
320,192,238593,6,0,L|256:128,1,70
96,128,239028,1,0,0:0:0:0:
192,256,239246,1,0,0:0:0:0:
224,64,239463,2,0,L|320:64,1,70
288,224,239898,6,0,L|384:224,1,70
256,128,240332,2,0,L|352:128,1,70
96,224,240767,1,0,0:0:0:0:
288,224,240985,1,0,0:0:0:0:
64,160,241202,2,0,L|128:96,1,70
224,256,241637,2,0,L|160:320,1,70
64,160,242072,1,0,0:0:0:0:
192,64,242289,1,0,0:0:0:0:
256,192,242506,12,0,244246,0:0:0:0:
96,128,258159,6,0,L|256:128,1,140
96,256,259028,1,0,0:0:0:0:
192,256,259463,1,0,0:0:0:0:
384,256,259680,2,0,L|288:256,1,70
192,256,260332,1,0,0:0:0:0:
192,64,260550,5,0,0:0:0:0:
192,160,260767,1,0,0:0:0:0:
384,64,260985,2,0,L|288:64,1,70
224,64,261419,1,0,0:0:0:0:
128,64,261637,1,0,0:0:0:0:
