osu file format v14

[General]
AudioFilename: Indica - Pahinta tanaan.mp3
AudioLeadIn: 0
PreviewTime: 61459
Countdown: 1
SampleSet: Normal
StackLeniency: 0.7
Mode: 0
LetterboxInBreaks: 0
WidescreenStoryboard: 0

[Editor]
DistanceSpacing: 1.25
BeatDivisor: 4
GridSize: 4
TimelineZoom: 2.1

[Metadata]
Title:Pahinta Tanaan
TitleUnicode:Pahinta Tänään
Artist:Indica
ArtistUnicode:Indica
Creator:Morbon
Version:Mene pois
Source:
Tags:
BeatmapID:907760
BeatmapSetID:419466

[Difficulty]
HPDrainRate:6
CircleSize:4
OverallDifficulty:8.5
ApproachRate:9.3
SliderMultiplier:2.1
SliderTickRate:1

[Events]
//Background and Video events
0,0,"bg.jpg",0,0
//Break Periods
2,11206,22678
2,72569,82678
//Storyboard Layer 0 (Background)
//Storyboard Layer 1 (Fail)
//Storyboard Layer 2 (Pass)
//Storyboard Layer 3 (Foreground)
//Storyboard Sound Samples

[TimingPoints]
97,340.909090909091,4,1,0,70,1,0
97,-133.333333333333,4,2,0,40,0,0
8278,-100,4,1,0,70,0,0
61460,-100,4,1,0,70,0,1
72369,-100,4,1,0,70,0,0
105097,-100,4,1,0,70,0,1
126915,-200,4,1,0,70,0,0
148733,-100,4,1,0,70,0,0
161006,-100,4,1,0,70,0,1
169187,-100,4,1,0,70,0,0
171915,-66.6666666666667,4,1,0,70,0,1
193818,-100,4,2,0,20,0,0

[Colours]
Combo1 : 176,9,9
Combo2 : 245,209,65
Combo3 : 150,157,177
Combo4 : 0,51,0

[HitObjects]
64,60,97,6,0,L|160:68,1,78.7500030040742
76,144,437,2,0,L|172:152,1,78.7500030040742
284,188,778,2,0,L|362:181,2,78.7500030040742
154,234,1290,1,0,0:0:0:0:
260,164,1460,6,0,L|272:80,1,78.7500030040742
360,208,1801,2,0,L|348:292,1,78.7500030040742
252,292,2142,1,0,0:0:0:0:
145,263,2312,1,0,0:0:0:0:
185,332,2483,1,0,0:0:0:0:
213,223,2653,1,0,0:0:0:0:
104,336,2824,6,0,P|64:344|12:328,2,78.7500030040742
125,200,3335,1,0,0:0:0:0:
272,220,3506,2,0,P|272:176|256:128,2,78.7500030040742
65,256,4017,1,0,0:0:0:0:
32,140,4187,22,0,L|40:40,1,78.7500030040742
112,24,4528,1,0,0:0:0:0:
112,24,4699,1,0,0:0:0:0:
192,128,4869,6,0,L|200:228,1,78.7500030040742
272,244,5210,1,0,0:0:0:0:
272,244,5381,1,0,0:0:0:0:
304,60,5551,6,0,L|216:56,1,78.7500030040742
84,88,5892,2,0,P|92:128|124:180,1,78.7500030040742
180,272,6233,1,0,0:0:0:0:
284,280,6403,1,0,0:0:0:0:
384,320,6574,1,0,0:0:0:0:
284,280,6744,1,0,0:0:0:0:
180,272,6915,22,0,L|168:168,1,78.7500030040742
332,112,7256,2,0,L|344:216,1,78.7500030040742
128,300,7597,2,0,L|116:192,1,78.7500030040742
384,84,7937,2,0,L|396:192,1,78.7500030040742
256,224,8278,37,2,0:0:0:0:
96,288,8449,1,0,0:0:0:0:
416,288,8619,2,0,L|432:180,1,105,2|2,0:0|0:0,0:0:0:0:
248,216,8960,21,2,0:0:0:0:
88,280,9131,1,0,0:0:0:0:
408,280,9301,2,0,L|424:172,1,105,2|2,0:0|0:0,0:0:0:0:
240,208,9642,37,2,0:0:0:0:
80,272,9812,1,0,0:0:0:0:
400,272,9983,2,0,L|416:164,1,105,2|2,0:0|0:0,0:0:0:0:
232,200,10324,37,2,0:0:0:0:
192,352,10494,1,2,0:0:0:0:
400,272,10665,1,0,0:0:0:0:
80,272,10835,1,2,0:0:0:0:
424,348,11006,21,6,0:0:0:0:
60,236,23278,6,0,P|52:184|60:132,1,105
208,176,23619,2,0,P|216:228|208:280,1,105
188,28,23960,2,0,P|272:40|348:148,1,210
416,292,24472,1,0,0:0:0:0:
416,292,24642,22,0,P|364:304|308:292,1,105
160,244,24983,2,0,P|108:232|52:244,1,105
104,336,25324,1,0,0:0:0:0:
264,256,25494,1,0,0:0:0:0:
108,144,25665,1,0,0:0:0:0:
200,340,25835,1,0,0:0:0:0:
340,164,26006,6,0,L|236:148,1,105
312,348,26347,2,0,L|416:364,1,105
164,224,26687,1,0,0:0:0:0:
160,100,26858,1,0,0:0:0:0:
432,64,27028,1,0,0:0:0:0:
412,184,27199,6,0,P|336:144|316:24,1,210
248,188,27710,1,0,0:0:0:0:
268,352,27881,1,0,0:0:0:0:
164,224,28051,2,0,P|108:228|52:212,1,105
12,32,28392,2,0,P|62:19|114:24,1,105
280,28,28733,22,0,P|320:72|336:144,1,105
368,256,29074,2,0,P|415:235|440:190,1,105
256,160,29415,1,0,0:0:0:0:
256,160,29585,1,0,0:0:0:0:
144,256,29756,2,0,P|97:235|72:190,1,105
192,64,30097,5,0,0:0:0:0:
320,44,30267,1,0,0:0:0:0:
216,144,30437,5,0,0:0:0:0:
377,114,30608,1,0,0:0:0:0:
248,220,30778,21,0,0:0:0:0:
441,180,30949,1,0,0:0:0:0:
284,296,31119,5,0,0:0:0:0:
509,246,31290,1,0,0:0:0:0:
284,296,31460,6,0,P|236:312|156:296,1,105
256,148,31801,2,0,P|308:140|376:168,1,105
104,284,32142,2,0,P|64:236|56:188,1,105
148,12,32483,2,0,P|188:60|196:108,1,105
216,294,32824,21,0,0:0:0:0:
116,156,32994,1,0,0:0:0:0:
277,209,33165,1,0,0:0:0:0:
116,261,33335,1,0,0:0:0:0:
224,132,33506,2,0,P|276:120|336:136,1,105
476,240,33847,2,0,P|424:252|364:236,1,105
224,132,34187,5,4,0:0:0:0:
124,108,34358,1,0,0:0:0:0:
296,200,34528,1,0,0:0:0:0:
328,72,34699,1,0,0:0:0:0:
48,100,34869,2,0,P|56:148|112:188,1,105
268,280,35210,2,0,P|328:280|368:240,1,105
458,109,35551,6,0,P|484:209|440:312,1,210
367,156,36062,2,0,P|284:211|192:170,1,210
246,7,36574,2,0,L|276:108,1,105
228,280,36915,21,0,0:0:0:0:
132,296,37085,1,0,0:0:0:0:
56,232,37256,1,0,0:0:0:0:
52,128,37426,1,0,0:0:0:0:
144,180,37597,1,0,0:0:0:0:
56,232,37767,1,0,0:0:0:0:
52,128,37937,2,0,P|96:88|152:76,1,105
240,72,38278,6,0,P|280:168|260:268,1,210
192,320,38790,1,0,0:0:0:0:
352,224,38960,1,0,0:0:0:0:
188,176,39131,1,0,0:0:0:0:
352,352,39301,1,0,0:0:0:0:
116,248,39472,1,0,0:0:0:0:
296,288,39642,6,0,P|248:320|176:332,1,105
89,148,39983,2,0,P|141:151|188:176,1,105
208,336,40324,1,0,0:0:0:0:
52,292,40494,1,0,0:0:0:0:
208,336,40665,1,0,0:0:0:0:
56,296,40835,1,0,0:0:0:0:
340,248,41006,22,0,P|336:304|312:348,1,105
224,172,41347,2,0,P|240:124|292:84,1,105
496,176,41687,1,0,0:0:0:0:
320,172,41858,1,0,0:0:0:0:
482,273,42028,2,0,P|504:226|496:176,1,105
288,203,42369,6,0,L|288:308,1,105
128,180,42710,1,0,0:0:0:0:
208,120,42881,1,0,0:0:0:0:
192,264,43051,1,0,0:0:0:0:
60,112,43222,1,0,0:0:0:0:
355,188,43392,2,0,B|240:184,1,105
372,32,43733,6,0,P|412:76|416:136,1,105
152,344,44074,2,0,P|108:300|104:240,1,105
192,128,44415,1,0,0:0:0:0:
320,224,44585,1,0,0:0:0:0:
320,96,44756,1,0,0:0:0:0:
192,256,44926,1,0,0:0:0:0:
416,320,45097,22,0,P|468:300|480:204,1,157.5
412,176,45437,2,0,P|400:112|440:68,1,105
296,32,45778,2,0,B|184:40,1,105
32,236,46119,2,0,B|136:243,1,105
308,104,46460,6,0,P|360:68|368:16,2,105
280,272,46972,1,0,0:0:0:0:
192,88,47142,1,0,0:0:0:0:
56,108,47312,1,0,0:0:0:0:
320,192,47483,1,0,0:0:0:0:
456,168,47653,1,0,0:0:0:0:
184,260,47824,6,0,P|168:208|176:152,1,105
344,264,48165,2,0,P|354:315|338:367,1,105
160,352,48506,1,0,0:0:0:0:
144,172,48676,1,0,0:0:0:0:
100,268,48847,1,0,0:0:0:0:
100,76,49017,1,0,0:0:0:0:
43,143,49187,22,0,L|155:175,1,105
172,280,49528,1,0,0:0:0:0:
208,92,49699,1,0,0:0:0:0:
352,212,49869,1,0,0:0:0:0:
248,192,50040,5,0,0:0:0:0:
408,116,50210,1,0,0:0:0:0:
452,288,50381,1,0,0:0:0:0:
208,92,50551,6,0,P|313:78|414:121,1,210,4|0,0:0|0:0,0:0:0:0:
360,340,51062,1,0,0:0:0:0:
360,340,51233,2,0,P|255:354|154:311,1,210
40,72,51744,1,0,0:0:0:0:
40,72,51915,2,0,P|72:160|80:280,1,210
428,308,52426,1,0,0:0:0:0:
428,308,52597,2,0,P|396:220|388:100,1,210
116,60,53108,1,0,0:0:0:0:
116,60,53278,22,0,P|160:140|272:172,1,210,4|0,0:0|0:0,0:0:0:0:
448,220,53790,1,0,0:0:0:0:
448,220,53960,2,0,P|384:296|276:328,1,210
64,164,54472,1,0,0:0:0:0:
64,164,54642,2,0,P|128:88|236:56,1,210
463,287,55153,1,0,0:0:0:0:
463,287,55324,2,0,L|228:308,1,210
76,88,55835,1,0,0:0:0:0:
76,88,56006,6,0,B|316:20|176:252|460:176,2,420,4|0|0,0:0|0:0|0:0,0:0:0:0:
32,292,57710,1,0,0:0:0:0:
236,332,58051,2,0,P|300:332|428:236,1,210
184,56,58562,1,0,0:0:0:0:
184,56,58733,6,0,P|96:100|76:204,1,210,4|0,0:0|0:0,0:0:0:0:
417,253,59244,1,0,0:0:0:0:
417,253,59415,2,8,P|465:154|428:60,1,210,0|0,0:0|0:0,0:0:0:0:
128,288,59926,1,0,0:0:0:0:
128,288,60097,22,0,L|64:160,1,105
384,96,60437,2,0,L|448:224,1,105
128,288,60778,1,0,0:0:0:0:
64,128,60949,1,0,0:0:0:0:
224,64,61119,1,0,0:0:0:0:
288,224,61290,1,0,0:0:0:0:
128,288,61460,38,0,P|72:292|28:312,2,105,6|2|8,0:0|0:0|0:0,0:0:0:0:
256,128,61972,1,2,0:0:0:0:
384,288,62142,2,0,P|440:292|484:312,2,105,2|2|8,0:0|0:0|0:0,0:0:0:0:
256,128,62653,1,0,0:0:0:0:
128,236,62824,22,0,P|80:216|32:156,1,105,2|0,0:0|0:0,0:0:0:0:
396,200,63165,2,0,P|440:172|468:116,1,105,10|0,0:0|0:0,0:0:0:0:
160,84,63506,1,2,0:0:0:0:
364,96,63676,1,0,0:0:0:0:
352,300,63847,1,10,0:0:0:0:
148,288,64017,1,2,0:0:0:0:
160,84,64187,38,0,L|272:64,1,105,2|0,0:0|0:0,0:0:0:0:
148,288,64528,2,0,L|36:308,1,105,10|0,0:0|0:0,0:0:0:0:
263,65,64869,2,0,B|327:85|376:132|376:132|376:228,1,210,2|10,0:0|0:0,0:0:0:0:
148,288,65381,1,2,0:0:0:0:
263,65,65551,37,2,0:0:0:0:
421,132,65722,1,8,0:3:0:0:
353,291,65892,1,4,0:3:0:0:
195,223,66062,1,0,3:3:0:0:
263,65,66233,21,2,0:0:0:0:
195,223,66403,1,4,0:3:0:0:
353,291,66574,1,8,0:3:0:0:
421,132,66744,1,0,3:3:0:0:
263,65,66915,38,0,P|211:70|166:97,1,105,2|2,0:0|0:0,0:0:0:0:
164,288,67256,2,0,P|212:316|264:320,1,105,8|2,0:0|0:0,0:0:0:0:
384,160,67597,1,2,0:0:0:0:
256,192,67767,1,2,0:0:0:0:
128,160,67937,1,8,0:0:0:0:
256,192,68108,1,2,0:0:0:0:
384,224,68278,38,0,L|416:352,1,105,2|0,0:0|0:0,0:0:0:0:
128,160,68619,2,0,L|96:288,1,105,10|0,0:0|0:0,0:0:0:0:
424,128,68960,2,0,P|432:184|456:256,1,105,2|0,0:0|0:0,0:0:0:0:
88,64,69301,2,0,P|80:120|56:192,1,105,10|2,0:0|0:0,0:0:0:0:
384,64,69642,21,6,0:0:0:0:
128,320,69812,1,0,0:0:0:0:
412,101,69983,37,10,0:0:0:0:
99,282,70153,1,2,0:0:0:0:
430,145,70324,37,6,0:0:0:0:
81,238,70494,1,0,0:0:0:0:
437,191,70665,21,10,0:0:0:0:
74,192,70835,1,2,0:0:0:0:
430,238,71006,37,2,0:0:0:0:
81,145,71176,1,0,0:0:0:0:
412,282,71347,37,10,0:0:0:0:
99,101,71517,1,2,0:0:0:0:
384,320,71687,21,6,0:0:0:0:
128,64,71858,1,2,0:0:0:0:
233,371,72028,1,8,0:0:0:0:
278,12,72199,1,2,0:0:0:0:
256,192,72369,37,6,0:0:0:0:
61,219,83278,6,0,P|109:255|173:267,1,105
256,176,83619,2,0,P|208:140|144:128,1,105
152,267,83960,1,0,0:0:0:0:
244,324,84131,1,0,0:0:0:0:
344,292,84301,2,0,P|368:244|376:184,1,105
376,88,84642,5,0,0:0:0:0:
284,140,84812,1,0,0:0:0:0:
180,148,84983,1,0,0:0:0:0:
84,104,85153,1,0,0:0:0:0:
168,44,85324,21,0,0:0:0:0:
180,148,85494,1,0,0:0:0:0:
160,252,85665,1,0,0:0:0:0:
108,344,85835,1,0,0:0:0:0:
160,252,86006,6,0,P|263:249|355:298,1,210,0|0,0:0|0:0,2:0:0:0:
107,343,86517,2,0,P|56:257|99:166,1,210
256,192,87028,1,0,0:0:0:0:
256,192,87199,6,0,P|359:195|451:135,1,210
368,32,87710,1,0,0:0:0:0:
256,192,87881,1,0,0:0:0:0:
96,192,88051,1,0,0:0:0:0:
160,96,88222,1,0,0:0:0:0:
192,256,88392,1,0,0:0:0:0:
32,128,88562,1,0,0:0:0:0:
224,64,88733,21,0,0:0:0:0:
96,224,88903,1,0,0:0:0:0:
288,160,89074,2,0,B|352:150|352:150|420:166|420:166|496:150,2,210
256,288,89926,1,0,0:0:0:0:
160,192,90097,5,0,0:0:0:0:
288,160,90267,1,0,0:0:0:0:
256,288,90437,2,0,P|196:312|152:312,1,105
48,192,90778,2,0,P|48:128|68:88,1,105
248,32,91119,2,0,P|309:48|343:78,1,105
352,288,91460,5,0,0:0:0:0:
160,288,91631,1,0,0:0:0:0:
256,352,91801,1,0,0:0:0:0:
256,160,91972,1,0,0:0:0:0:
128,192,92142,2,0,L|64:288,1,105
384,192,92483,2,0,L|448:288,1,105
148,316,92824,21,0,0:0:0:0:
320,256,92994,1,0,0:0:0:0:
148,156,93165,1,0,0:0:0:0:
320,96,93335,1,0,0:0:0:0:
256,32,93506,5,0,0:0:0:0:
224,192,93676,1,0,0:0:0:0:
320,320,93847,1,0,0:0:0:0:
480,328,94017,1,0,0:0:0:0:
320,320,94187,6,0,P|212:312|132:248,1,210
134,251,94699,1,0,0:0:0:0:
400,48,94869,2,0,P|440:136|400:256,1,210
411,241,95381,1,0,0:0:0:0:
44,304,95551,22,0,P|112:232|236:224,1,210
217,218,96062,1,0,0:0:0:0:
468,80,96233,2,0,P|400:152|276:160,1,210
294,165,96744,1,0,0:0:0:0:
76,52,96915,6,0,L|32:264,1,210
33,257,97426,1,0,0:0:0:0:
224,192,97597,2,0,P|256:148|268:88,1,105
416,192,97937,2,0,P|424:240|464:292,1,105
212,348,98278,5,0,0:0:0:0:
124,288,98449,1,0,0:0:0:0:
388,288,98619,1,0,0:0:0:0:
300,348,98790,1,0,0:0:0:0:
256,256,98960,21,0,0:0:0:0:
164,96,99131,1,0,0:0:0:0:
32,192,99301,1,0,0:0:0:0:
164,96,99472,1,0,0:0:0:0:
32,192,99642,6,0,P|96:288|364:184,1,420
80,0,100835,1,0,0:0:0:0:
8,104,101006,2,0,P|48:198|156:236,1,210
492,160,101687,2,0,P|451:254|344:292,1,210
357,292,102199,1,0,0:0:0:0:
128,320,102369,6,0,P|124:216|96:96,1,210
101,112,102881,1,0,0:0:0:0:
388,88,103051,2,0,P|365:190|361:295,1,210
361,295,103562,1,0,0:0:0:0:
44,140,103733,22,0,L|144:104,1,105
464,264,104074,2,0,L|365:299,1,105
160,256,104415,1,8,0:3:0:0:
352,128,104585,1,4,0:3:0:0:
288,352,104756,1,8,0:3:0:0:
224,32,104926,1,4,0:3:0:0:
396,272,105097,38,0,P|444:308|520:304,2,105,6|2|8,0:0|0:0|0:0,0:0:0:0:
256,192,105608,1,2,0:0:0:0:
64,288,105778,2,0,P|48:240|56:184,1,105,2|2,0:0|0:0,0:0:0:0:
192,40,106119,2,0,P|208:88|200:144,1,105,8|0,0:0|0:0,0:0:0:0:
160,288,106460,22,0,P|212:296|280:288,1,105,2|0,0:0|0:0,0:0:0:0:
368,172,106801,1,10,0:0:0:0:
404,328,106972,1,0,0:0:0:0:
160,288,107142,1,2,0:0:0:0:
272,180,107312,37,0,0:0:0:0:
416,116,107483,1,10,0:0:0:0:
284,32,107653,1,2,0:0:0:0:
272,180,107824,38,0,P|296:236|348:276,1,105,6|0,0:0|0:0,0:0:0:0:
480,352,108165,2,0,P|456:296|404:256,1,105,10|0,0:0|0:0,0:0:0:0:
272,180,108506,1,2,0:0:0:0:
136,260,108676,1,0,0:0:0:0:
12,160,108847,2,0,L|40:44,1,105,10|2,0:0|0:0,0:0:0:0:
200,48,109187,21,2,0:0:0:0:
314,80,109358,1,8,0:3:0:0:
336,336,109528,37,4,0:3:0:0:
222,304,109699,1,0,3:0:0:0:
128,224,109869,37,2,0:0:0:0:
96,110,110040,1,4,0:3:0:0:
384,160,110210,21,8,0:3:0:0:
416,274,110381,1,0,3:0:0:0:
105,326,110551,38,0,L|133:198,2,105,2|2|8,0:0|0:0|0:0,0:0:0:0:
256,192,111062,1,2,0:0:0:0:
376,156,111233,2,0,L|399:54,2,105,2|2|8,0:0|0:0|0:0,0:0:0:0:
416,288,111744,1,2,0:0:0:0:
224,256,111915,38,0,L|104:256,1,105,2|0,0:0|0:0,0:0:0:0:
288,128,112256,2,0,L|416:128,1,105,10|0,0:0|0:0,0:0:0:0:
119,256,112597,1,2,0:0:0:0:
128,100,112767,1,0,0:0:0:0:
267,28,112937,2,0,P|291:96|283:140,1,105,10|2,0:0|0:0,0:0:0:0:
192,352,113278,22,0,L|121:268,1,105,6|0,0:0|0:0,0:0:0:0:
352,256,113619,1,10,0:0:0:0:
288,352,113790,1,2,0:0:0:0:
176,256,113960,38,0,L|105:172,1,105,2|0,0:0|0:0,0:0:0:0:
368,160,114301,1,10,0:0:0:0:
304,256,114472,1,2,0:0:0:0:
160,160,114642,38,0,L|89:76,1,105,2|0,0:0|0:0,0:0:0:0:
384,64,114983,1,10,0:0:0:0:
320,160,115153,1,2,0:0:0:0:
144,80,115324,22,0,L|73:-4,1,105,2|0,0:0|0:0,0:0:0:0:
420,136,115665,2,0,P|456:98|464:44,1,105,10|2,0:0|0:0,0:0:0:0:
172,148,116006,37,2,0:0:0:0:
112,340,116176,1,2,0:0:0:0:
172,148,116347,1,8,0:0:0:0:
280,292,116517,1,2,0:0:0:0:
40,224,116687,2,0,L|32:104,2,105,2|2|8,0:0|0:0|0:0,0:0:0:0:
224,352,117199,1,2,0:0:0:0:
352,192,117369,38,0,P|304:136|264:116,1,105,2|0,0:0|0:0,0:0:0:0:
72,240,117710,2,0,P|120:296|160:316,1,105,10|0,0:0|0:0,0:0:0:0:
272,352,118051,1,2,0:0:0:0:
336,72,118222,1,0,0:0:0:0:
400,320,118392,1,10,0:0:0:0:
176,160,118562,1,0,0:0:0:0:
408,8,118733,22,0,P|460:36|492:84,1,105,2|0,0:0|0:0,0:0:0:0:
475,300,119074,2,0,P|464:364|424:392,1,105,10|2,0:0|0:0,0:0:0:0:
120,308,119415,2,0,B|80:244|80:244|108:172|220:196,1,210,2|10,0:0|0:0,0:0:0:0:
352,256,119926,1,2,0:0:0:0:
224,336,120097,37,2,0:0:0:0:
128,192,120267,1,4,0:3:0:0:
224,47,120437,1,8,0:3:0:0:
320,192,120608,1,0,0:0:0:0:
269,116,120778,37,0,0:0:0:0:
320,39,120949,1,8,0:3:0:0:
371,116,121119,1,4,0:3:0:0:
320,192,121290,1,0,3:0:0:0:
269,116,121460,21,6,0:0:0:0:
77,212,121631,1,2,0:0:0:0:
284,316,121801,1,8,0:0:0:0:
77,212,121972,1,2,0:0:0:0:
269,116,122142,2,0,L|333:212,1,105,2|2,0:0|0:0,0:0:0:0:
216,332,122483,2,0,L|152:236,1,105,8|0,0:0|0:0,0:0:0:0:
68,68,122824,38,0,P|120:64|188:76,1,105,2|0,0:0|0:0,0:0:0:0:
308,176,123165,2,0,P|356:188|416:156,1,105,10|0,0:0|0:0,0:0:0:0:
256,20,123506,1,2,0:0:0:0:
256,244,123676,1,0,0:0:0:0:
352,116,123847,1,10,0:0:0:0:
160,116,124017,1,2,0:0:0:0:
352,32,124187,37,6,0:0:0:0:
256,192,124358,1,0,0:0:0:0:
160,32,124528,21,10,0:0:0:0:
256,208,124699,1,2,0:0:0:0:
384,32,124869,37,2,0:0:0:0:
256,224,125040,1,0,0:0:0:0:
128,32,125210,37,10,0:0:0:0:
256,240,125381,1,2,0:0:0:0:
416,32,125551,21,2,0:0:0:0:
256,256,125722,1,0,0:0:0:0:
96,32,125892,37,10,0:0:0:0:
256,272,126062,1,2,0:0:0:0:
448,32,126233,37,2,0:0:0:0:
256,288,126403,1,2,0:0:0:0:
64,32,126574,1,8,0:0:0:0:
480,288,126744,1,2,0:0:0:0:
32,288,126915,22,2,P|24:236|28:184,1,105,6|2,0:0|0:0,0:0:0:0:
116,52,127597,2,0,L|232:44,1,105
187,195,128278,2,0,L|292:188,1,105
45,197,128960,2,0,L|68:300,1,105
220,344,129642,5,0,0:0:0:0:
220,344,129983,1,0,0:0:0:0:
333,312,130324,1,0,0:0:0:0:
333,312,130665,1,0,0:0:0:0:
189,229,131006,21,0,0:0:0:0:
304,198,131347,1,2,0:0:0:0:
304,198,131687,1,2,0:0:0:0:
189,229,132028,1,2,0:0:0:0:
420,163,132369,6,2,P|431:112|428:60,1,105
296,264,133051,2,0,P|248:276|180:256,1,105
83,55,133733,2,0,L|76:160,1,105
243,200,134415,2,0,L|236:96,1,105
384,36,135097,6,0,L|496:44,1,105,0|2,0:0|0:0,0:0:0:0:
452,196,135778,1,0,0:0:0:0:
312,268,136119,1,2,0:0:0:0:
160,220,136460,1,0,0:0:0:0:
108,72,136801,1,2,0:0:0:0:
108,72,137142,21,2,0:0:0:0:
252,132,137483,1,2,0:0:0:0:
36,212,137824,1,2,0:0:0:0:
252,132,138165,1,2,0:0:0:0:
36,212,138506,6,0,L|32:336,1,105,2|0,0:0|0:0,0:0:0:0:
188,288,139187,2,0,L|191:183,1,105
136,36,139869,2,0,L|32:55,1,105
280,100,140551,2,0,L|383:80,1,105
116,188,141233,6,0,P|76:236|64:280,2,105
252,268,142256,1,2,0:0:0:0:
252,268,142597,1,2,0:0:0:0:
308,64,142937,1,2,0:0:0:0:
460,208,143278,1,2,0:0:0:0:
308,64,143619,1,2,0:0:0:0:
180,152,143960,22,0,L|75:159,1,105
288,268,144642,2,0,L|392:260,1,105
144,336,145324,2,0,P|112:288|104:228,1,105
296,68,146006,6,0,L|408:64,1,105,2|0,0:0|0:0,0:0:0:0:
216,316,146687,2,0,L|104:320,1,105
296,184,147369,5,2,0:0:0:0:
224,200,147540,1,0,0:0:0:0:
352,248,147710,21,2,0:0:0:0:
152,136,147881,1,0,0:0:0:0:
416,128,148051,5,2,0:0:0:0:
96,256,148222,1,0,0:0:0:0:
488,280,148392,5,2,0:0:0:0:
24,104,148562,1,2,0:0:0:0:
488,280,148733,22,0,P|480:192|400:96,1,210,6|0,0:0|0:0,0:0:0:0:
32,192,149244,1,0,0:0:0:0:
32,192,149415,2,0,P|99:248|224:259,1,210
392,128,149926,1,0,0:0:0:0:
392,128,150097,6,0,P|428:80|432:20,1,105
228,32,150437,2,0,P|176:23|124:29,1,105
392,128,150778,2,0,P|411:202|379:272,2,157.5
168,212,151460,6,0,L|304:224,1,105
408,352,151801,2,0,L|272:340,1,105
132,328,152142,2,0,P|64:282|61:155,1,210
312,88,152653,1,0,0:0:0:0:
312,88,152824,2,0,P|372:172|352:272,1,210
192,328,153335,1,0,0:0:0:0:
192,328,153506,2,0,P|140:220|140:220,1,105
320,56,153847,2,0,P|372:164|372:164,1,105
92,184,154187,22,0,P|72:108|116:44,2,157.5
312,192,154869,2,0,P|292:296|196:340,1,210
188,128,155381,1,0,0:0:0:0:
188,128,155551,2,0,P|264:56|380:72,1,210
468,284,156062,1,0,0:0:0:0:
468,284,156233,2,0,P|416:300|364:284,1,105
279,120,156574,2,0,P|275:171|298:218,1,105
164,352,156915,6,0,P|85:323|16:256,2,157.5
303,368,157597,2,0,P|399:329|447:238,1,210
264,16,158108,1,0,0:0:0:0:
264,16,158278,2,0,P|192:72|196:188,1,210
172,332,158960,2,0,L|382:321,1,210
416,64,159642,5,8,0:3:0:0:
480,192,159812,1,8,0:3:0:0:
416,320,159983,1,8,0:3:0:0:
352,96,160153,21,4,0:3:0:0:
416,224,160324,1,4,0:3:0:0:
352,352,160494,1,4,0:3:0:0:
288,128,160665,5,0,0:3:0:0:
352,256,160835,1,0,0:3:0:0:
288,384,161006,38,0,P|220:360|196:320,1,105,6|2,0:0|0:0,0:0:0:0:
120,104,161347,2,0,P|84:148|68:196,1,105,8|2,0:0|0:0,0:0:0:0:
224,224,161687,1,2,0:0:0:0:
300,124,161858,1,2,0:0:0:0:
424,100,162028,1,8,0:0:0:0:
300,124,162199,1,2,0:0:0:0:
364,244,162369,38,0,P|384:300|424:352,1,105,2|0,0:0|0:0,0:0:0:0:
104,336,162710,2,0,P|133:292|150:243,1,105,10|0,0:0|0:0,0:0:0:0:
352,128,163051,1,2,0:0:0:0:
160,96,163222,1,0,0:0:0:0:
416,96,163392,1,10,0:0:0:0:
96,64,163562,1,2,0:0:0:0:
256,288,163733,22,0,B|248:328|248:328|264:328|264:328|256:400,2,105,2|0|10,0:0|0:0|0:0,0:0:0:0:
256,160,164244,1,0,0:0:0:0:
352,64,164415,2,0,B|388:44|428:64|428:64|436:128|428:196,1,210,2|8,0:0|0:0,0:0:0:0:
256,288,164926,1,0,0:0:0:0:
160,224,165097,37,2,0:0:0:0:
96,32,165267,1,8,0:3:0:0:
64,160,165437,1,4,0:3:0:0:
192,96,165608,1,0,3:0:0:0:
320,96,165778,37,2,0:0:0:0:
448,160,165949,1,4,0:3:0:0:
416,32,166119,1,8,0:3:0:0:
352,224,166290,1,2,0:0:0:0:
192,256,166460,22,0,P|136:260|64:236,2,105,6|2|8,0:0|0:0|0:0,0:0:0:0:
320,96,166972,1,2,0:0:0:0:
376,300,167142,2,0,P|432:304|496:276,2,105,2|2|8,0:0|0:0|0:0,0:0:0:0:
160,160,167653,1,2,0:0:0:0:
353,28,167824,38,0,P|384:56|390:122,1,105,2|0,0:0|0:0,0:0:0:0:
159,356,168165,2,0,P|128:328|122:262,1,105,10|0,0:0|0:0,0:0:0:0:
416,268,168506,2,0,P|368:296|304:284,1,105,2|0,0:0|0:0,0:0:0:0:
96,116,168847,2,0,P|144:88|208:100,1,105,10|0,0:0|0:0,0:0:0:0:
416,32,169187,38,0,P|444:128|384:224,1,210,2|0,0:0|0:0,0:0:0:0:
120,218,169699,2,0,P|68:130|96:32,1,210,2|0,0:0|0:0,0:0:0:0:
356,300,170210,2,0,P|256:336|156:288,1,210,2|0,0:0|0:0,0:0:0:0:
153,117,170722,21,2,0:0:0:0:
383,192,170892,1,2,0:0:0:0:
153,266,171062,1,2,0:0:0:0:
306,78,171233,1,2,0:0:0:0:
295,312,171403,1,2,0:0:0:0:
306,78,171574,2,0,P|360:56|428:64,1,105,2|2,0:0|0:0,0:0:0:0:
152,360,171915,38,0,P|72:312|64:240,2,157.500006008148,6|2|8,0:0|0:0|0:0,0:0:0:0:
448,192,172426,1,2,0:0:0:0:
184,76,172597,2,0,P|104:68|12:92,1,157.500006008148,2|2,0:0|0:0,0:0:0:0:
328,308,172937,2,0,P|408:316|500:292,1,157.500006008148,8|2,0:0|0:0,0:0:0:0:
184,76,173278,37,2,0:0:0:0:
48,12,173449,1,0,0:0:0:0:
48,236,173619,1,10,0:0:0:0:
184,300,173790,1,0,0:0:0:0:
332,148,173960,21,2,0:0:0:0:
484,76,174131,1,0,0:0:0:0:
484,300,174301,1,10,0:0:0:0:
296,376,174472,1,2,0:0:0:0:
160,64,174642,38,0,L|0:32,2,157.500006008148,2|0|8,0:0|0:0|0:0,0:0:0:0:
192,272,175153,1,0,0:0:0:0:
384,64,175324,2,2,P|448:128|384:320,1,315.000012016297,2|10,0:0|0:0,0:0:0:0:
128,320,175835,1,2,0:0:0:0:
138,124,176006,37,2,0:0:0:0:
272,253,176176,1,8,0:3:0:0:
323,74,176347,1,4,0:3:0:0:
104,116,176517,1,0,3:0:0:0:
231,284,176687,21,2,0:0:0:0:
142,0,176858,1,4,0:3:0:0:
421,70,177028,1,8,0:3:0:0:
222,315,177199,1,0,3:0:0:0:
48,40,177369,38,0,P|124:32|212:44,1,157.500006008148,2|2,0:0|0:0,0:0:0:0:
401,170,177710,1,8,0:0:0:0:
200,200,177881,1,0,0:0:0:0:
421,70,178051,2,0,P|489:118|501:190,1,157.500006008148,2|2,0:0|0:0,0:0:0:0:
344,316,178392,1,8,0:0:0:0:
272,132,178562,1,0,0:0:0:0:
84,40,178733,38,0,P|40:96|32:188,1,157.500006008148,2|0,0:0|0:0,0:0:0:0:
428,40,179074,2,0,P|472:96|480:188,1,157.500006008148,10|0,0:0|0:0,0:0:0:0:
160,352,179415,1,2,0:0:0:0:
216,160,179585,1,0,0:0:0:0:
352,352,179756,1,10,0:0:0:0:
32,256,179926,1,2,0:0:0:0:
320,160,180097,21,2,0:0:0:0:
192,224,180267,1,0,0:0:0:0:
224,128,180437,1,10,0:0:0:0:
288,256,180608,1,2,0:0:0:0:
365,155,180778,37,2,0:0:0:0:
146,228,180949,1,0,0:0:0:0:
219,82,181119,1,10,0:0:0:0:
292,301,181290,1,2,0:0:0:0:
414,172,181460,37,2,0:0:0:0:
97,211,181631,1,0,0:0:0:0:
236,33,181801,1,10,0:0:0:0:
275,350,181972,1,2,0:0:0:0:
459,214,182142,21,2,0:0:0:0:
52,169,182312,1,0,0:0:0:0:
278,0,182483,1,10,0:0:0:0:
233,395,182653,1,2,0:0:0:0:
57,17,182824,38,0,B|33:93|33:93|57:189,1,157.500006008148,2|0,0:0|0:0,0:0:0:0:
32,288,183165,2,0,L|208:312,1,157.500006008148,8|2,0:0|0:0,0:0:0:0:
328,120,183506,1,2,0:0:0:0:
448,320,183676,2,0,P|352:352|320:160,1,315.000012016297,2|2,0:0|0:0,0:0:0:0:
480,192,184187,37,2,0:0:0:0:
160,96,184358,1,0,0:0:0:0:
448,320,184528,1,10,0:0:0:0:
320,32,184699,1,0,0:0:0:0:
256,320,184869,1,2,0:0:0:0:
56,220,185040,1,0,0:0:0:0:
332,232,185210,1,10,0:0:0:0:
128,64,185381,1,2,0:0:0:0:
256,320,185551,22,0,P|336:344|412:320,2,157.500006008148,2|0|10,0:0|0:0|0:0,0:0:0:0:
128,64,186062,1,0,0:0:0:0:
480,192,186233,1,2,0:0:0:0:
480,352,186403,37,0,0:0:0:0:
220,231,186574,1,10,0:0:0:0:
432,48,186744,1,0,0:0:0:0:
256,320,186915,38,0,L|102:290,2,157.500006008148,2|0|8,0:0|0:0|0:0,0:0:0:0:
448,148,187426,1,0,0:0:0:0:
176,60,187597,2,0,L|21:90,2,157.500006008148,2|0|8,0:0|0:0|0:0,0:0:0:0:
160,320,188108,1,0,0:0:0:0:
336,59,188278,22,2,P|394:113|428:184,1,157.500006008148
84,184,188619,2,0,P|118:113|175:60,1,157.500006008148,8|2,0:0|0:0,0:0:0:0:
480,288,188960,1,2,0:0:0:0:
32,288,189131,1,2,0:0:0:0:
368,196,189301,2,0,P|336:268|348:352,1,157.500006008148,8|2,0:0|0:0,0:0:0:0:
96,320,189642,37,2,0:0:0:0:
34,90,189812,1,0,0:0:0:0:
262,30,189983,1,10,0:0:0:0:
324,258,190153,1,0,0:0:0:0:
32,256,190324,1,2,0:0:0:0:
192,32,190494,1,0,0:0:0:0:
324,258,190665,2,0,P|234:258|172:216,1,157.500006008148,10|2,0:0|0:0,0:0:0:0:
128,32,191006,37,14,0:0:0:0:
56,230,191176,1,0,0:0:0:0:
224,40,191347,21,14,0:0:0:0:
149,253,191517,1,2,0:0:0:0:
316,20,191687,37,14,0:0:0:0:
238,294,191858,1,0,0:0:0:0:
404,0,192028,37,10,0:0:0:0:
322,348,192199,1,2,0:0:0:0:
139,330,192369,21,14,0:0:0:0:
116,75,192540,1,0,0:0:0:0:
371,52,192710,1,14,0:0:0:0:
394,307,192881,1,2,0:0:0:0:
64,261,193051,37,14,0:0:0:0:
447,122,193222,1,2,0:0:0:0:
325,383,193392,1,12,0:0:0:0:
186,0,193562,1,2,0:0:0:0:
496,383,193733,37,6,0:0:0:0:
256,192,193903,12,0,199187,0:0:0:0:
