osu file format v14

[General]
AudioFilename: audio.mp3
AudioLeadIn: 0
PreviewTime: -1
Countdown: 1
SampleSet: Normal
StackLeniency: 0.7
Mode: 0
LetterboxInBreaks: 0
WidescreenStoryboard: 0

[Editor]
DistanceSpacing: 0.8
BeatDivisor: 4
GridSize: 8
TimelineZoom: 1

[Metadata]
Title:Opening 4 (Tv size)
TitleUnicode:Opening 4 (Tv size)
Artist:Inazuma Eleven Go
ArtistUnicode:Inazuma Eleven Go
Creator:hasegami
Version:Hase Hard
Source:Inazuma Eleven Go inazuma eleven go opening 4 tv size
Tags:tv size TV Size Tv size opening Opening Inazuma Eleven Go
BeatmapID:1414408
BeatmapSetID:668596

[Difficulty]
HPDrainRate:5
CircleSize:4
OverallDifficulty:7
ApproachRate:8
SliderMultiplier:1.4
SliderTickRate:1

[Events]
//Background and Video events
0,0,"ina.jpg",0,0
//Break Periods
//Storyboard Layer 0 (Background)
//Storyboard Layer 1 (Fail)
//Storyboard Layer 2 (Pass)
//Storyboard Layer 3 (Foreground)
//Storyboard Sound Samples

[TimingPoints]
0,422.535211267606,4,1,0,60,1,0
71065,-100,4,1,0,60,0,1

[HitObjects]
184,264,92,6,2,B|200:232|200:232|232:240|232:240|248:208,1,105
328,128,845,2,2,B|312:152|312:152|288:144|288:144|272:176|272:176,1,70
264,184,1254,1,0,0:0:0:0:
183,135,1795,2,2,B|207:159|207:159|231:151|231:151|263:183,1,105
360,248,2535,2,2,B|336:224|336:224|320:232|320:232|296:208,1,70
280,200,2944,1,0,0:0:0:0:
208,80,3380,6,2,P|240:64|272:80,1,70
304,120,3697,1,0,0:0:0:0:
312,144,3802,1,0,0:0:0:0:
312,176,3908,1,0,0:0:0:0:
296,264,4225,2,0,L|272:264,1,23.3333333333333
176,216,4542,2,0,L|208:216,1,23.3333333333333
128,280,4859,2,2,P|96:216|128:160,1,140
240,160,6126,5,0,0:0:0:0:
272,232,6232,1,0,0:0:0:0:
232,296,6338,2,0,L|160:296,1,70
48,192,6971,2,0,L|88:152,1,46.6666666666667
80,159,7183,2,0,L|120:191,1,46.6666666666667
240,248,7605,2,0,L|272:248,1,23.3333333333333
368,184,7922,2,0,L|344:184,1,23.3333333333333
368,104,8239,2,2,P|408:112|312:128,1,466.666666666667
216,248,10140,5,0,0:0:0:0:
216,248,10563,1,0,0:0:0:0:
280,160,10985,2,2,B|296:128|296:128|280:88,1,70
200,120,11408,1,0,0:0:0:0:
128,192,11619,1,0,0:0:0:0:
80,104,12042,2,0,B|64:72|64:72|104:72,1,70
248,64,12464,2,2,B|296:64|296:64|312:96,1,70
360,176,12887,1,0,0:0:0:0:
416,200,13521,6,2,P|360:240|304:200,1,140
360,184,14154,1,0,0:0:0:0:
272,96,14366,2,2,B|240:64|240:64|208:80|208:80,1,70
224,136,14788,2,2,B|264:168|264:168|296:160,1,70
400,120,15211,2,2,B|448:104|448:104|448:136,1,70
448,240,15633,1,0,0:0:0:0:
336,136,15845,1,0,0:0:0:0:
160,168,16795,6,0,L|160:208,1,23.3333333333333
360,168,17218,2,0,L|360:144,1,23.3333333333333
296,136,17746,2,2,P|352:96|408:160,1,140
240,160,18380,2,2,P|296:200|352:152,1,140
184,136,19014,2,2,P|240:96|296:128,1,140
344,216,19647,2,0,L|360:240,1,23.3333333333333
144,240,20281,6,2,B|128:200|128:200|152:192|152:192|136:152,1,105
104,40,20704,2,2,L|176:48,1,70
296,64,21126,1,0,0:0:0:0:
400,200,21338,1,0,0:0:0:0:
200,200,21549,1,0,0:0:0:0:
120,304,21760,2,2,P|208:352|304:296,1,210
208,208,22605,1,0,0:0:0:0:
176,48,23028,2,0,L|248:48,1,70
120,112,23450,5,0,0:0:0:0:
216,208,23661,1,0,0:0:0:0:
120,248,23873,1,0,0:0:0:0:
216,352,24084,1,0,0:0:0:0:
312,248,24295,1,0,0:0:0:0:
216,208,24507,1,0,0:0:0:0:
288,104,24718,2,2,B|312:80|312:80|344:96,1,70
456,152,25140,1,0,0:0:0:0:
232,112,25352,6,2,B|168:72|168:72|112:112,1,140
40,176,25985,1,0,0:0:0:0:
136,264,26197,2,2,B|168:288|168:288|216:256,1,70
344,200,26619,2,2,B|400:168|400:168|392:136,1,70
184,96,27042,1,0,0:0:0:0:
304,184,28098,6,2,L|304:224,1,35
304,272,28309,2,2,L|264:272,1,35
176,272,28521,1,0,0:0:0:0:
224,104,28732,5,0,0:0:0:0:
224,168,28838,2,2,L|224:208,1,35
320,104,29154,1,0,0:0:0:0:
320,168,29260,2,0,L|320:208,1,35
304,256,29577,2,2,P|264:272|232:248,1,70
248,120,30000,5,0,0:0:0:0:
160,200,30211,1,0,0:0:0:0:
256,288,30422,1,0,0:0:0:0:
344,208,30633,2,2,B|304:192|304:192|304:216|304:216|232:192,1,140
136,160,31267,1,0,0:0:0:0:
256,64,31478,1,0,0:0:0:0:
136,160,31690,1,0,0:0:0:0:
256,64,31901,1,0,0:0:0:0:
368,176,32112,1,0,0:0:0:0:
264,296,32323,6,2,B|224:272|224:272|240:248|240:248|184:216|184:216,1,140
64,168,33169,2,2,B|104:120|104:120|120:136|120:136|168:80|168:80,1,140
256,192,33802,1,0,0:0:0:0:
344,80,34119,1,0,0:0:0:0:
432,96,34436,2,2,P|384:152|312:160,1,140
136,120,35070,1,0,0:0:0:0:
200,288,35281,1,0,0:0:0:0:
312,176,35704,2,0,L|384:176,1,70
200,176,36126,1,0,0:0:0:0:
136,144,36338,2,2,P|200:104|264:144,1,140
208,288,36971,5,0,0:0:0:0:
336,280,37183,2,2,P|368:256|368:192,1,105
360,168,37816,1,0,0:0:0:0:
176,168,38028,1,0,0:0:0:0:
64,200,38239,2,2,P|48:240|64:280,1,70
88,320,38661,1,0,0:0:0:0:
264,296,38873,2,2,P|272:248|216:208,1,116.666666666667
120,192,39507,1,0,0:0:0:0:
88,176,39612,2,2,P|72:152|128:104,1,105
240,136,40140,5,0,0:0:0:0:
360,72,40352,1,0,0:0:0:0:
368,216,40563,2,2,P|344:256|296:272,1,70
192,280,40985,1,0,0:0:0:0:
56,192,41197,1,0,0:0:0:0:
456,192,41619,5,0,0:0:0:0:
360,296,41830,1,0,0:0:0:0:
456,192,42042,1,0,0:0:0:0:
360,296,42253,1,0,0:0:0:0:
264,256,42464,2,2,P|248:216|272:184,1,70
192,200,42887,2,2,P|272:136|352:208,1,210
344,256,43943,6,2,P|248:320|192:248,1,210
192,256,44788,6,2,P|232:184|256:176,1,105
280,160,45422,6,2,P|336:128|328:40,1,140
160,56,46267,2,2,B|192:160|192:160|120:152|120:152|160:256,1,280
304,240,47323,2,2,P|344:176|304:104,1,140
272,56,48169,2,2,P|240:120|280:184,1,140
268,176,49014,2,2,P|300:240|260:296,1,140
128,232,49647,1,0,0:0:0:0:
240,176,49859,6,0,L|280:224,1,35
280,224,50070,1,0,0:0:0:0:
288,112,50281,2,0,L|328:168,1,35
320,160,50492,1,0,0:0:0:0:
416,248,50704,2,2,P|368:280|304:240,1,140
352,208,51549,2,2,B|328:160|328:160|368:152|368:152|344:104,1,140
304,48,52183,1,0,0:0:0:0:
216,64,52394,1,0,0:0:0:0:
152,136,52605,6,2,P|128:184|168:256,1,140
216,168,53239,2,0,L|240:208,1,35
248,224,53450,1,0,0:0:0:0:
328,184,53661,2,0,L|352:232,1,35
352,232,53873,1,0,0:0:0:0:
272,144,54084,2,2,P|216:184|136:136,1,140
64,136,54929,2,2,P|112:80|176:88,2,140
144,160,56197,1,0,0:0:0:0:
256,112,56408,1,0,0:0:0:0:
392,136,56830,2,2,P|448:216|432:272,1,140
424,312,57464,6,2,P|280:344|224:232,1,280
224,168,58521,1,0,0:0:0:0:
229,75,58943,2,0,P|284:37|346:77,1,140
376,160,59788,2,2,B|400:240|400:240|360:248|360:248|392:328,1,210
160,328,60845,1,0,0:0:0:0:
272,240,61267,1,0,0:0:0:0:
72,144,61690,2,2,P|112:80|192:104,2,140
184,216,62957,1,0,0:0:0:0:
272,80,63169,1,0,0:0:0:0:
296,216,63380,6,0,L|320:256,1,35
328,272,63591,1,0,0:0:0:0:
392,200,63802,2,0,L|416:248,1,35
416,256,64013,1,0,0:0:0:0:
344,320,64225,2,2,L|272:208,1,116.666666666667
192,96,65070,1,0,0:0:0:0:
192,96,65492,1,0,0:0:0:0:
136,192,65704,6,2,P|200:232|264:176,1,140
272,144,66549,1,0,0:0:0:0:
216,184,66760,2,0,L|240:216,1,35
256,232,66971,1,0,0:0:0:0:
328,200,67183,2,0,L|352:240,1,35
360,248,67394,1,0,0:0:0:0:
168,304,67605,5,0,0:0:0:0:
96,176,68028,1,0,0:0:0:0:
216,176,68450,1,0,0:0:0:0:
168,40,68873,1,0,0:0:0:0:
112,176,69295,1,0,0:0:0:0:
232,176,70035,2,2,P|336:248|464:176,1,280
312,72,71197,6,0,L|336:104,3,35
264,296,71830,2,0,L|304:296,1,23.3333333333333
104,192,72147,2,0,L|144:192,1,23.3333333333333
144,136,72464,2,2,P|184:176|128:240,1,140
280,136,73732,6,0,P|272:160|272:192,1,35
264,208,73943,1,0,0:0:0:0:
264,248,74048,2,2,P|264:272|272:296,1,35
392,208,74577,2,0,L|392:160,3,35
248,136,75211,6,0,L|248:168,1,23.3333333333333
136,168,75528,2,0,L|136:136,1,23.3333333333333
56,144,75845,2,2,P|72:96|80:200,1,420
344,144,77429,1,0,0:0:0:0:
416,224,77746,2,2,P|352:256|288:232,1,140
224,160,78591,2,0,L|200:160,1,23.3333333333333
256,256,78908,2,0,L|232:256,1,23.3333333333333
376,328,79225,2,2,P|408:272|368:200,1,140
104,200,80387,6,0,P|128:176|152:168,1,35
160,168,80598,1,0,0:0:0:0:
192,176,80704,2,0,P|208:184|224:200,1,35
336,200,81338,2,0,L|336:168,1,23.3333333333333
432,176,81549,2,0,L|432:208,1,23.3333333333333
360,288,81971,2,0,L|400:288,1,23.3333333333333
208,192,82288,2,0,L|184:192,1,23.3333333333333
112,192,82605,2,2,P|128:144|136:248,1,420
352,160,84190,5,0,0:0:0:0:
232,248,84507,2,2,P|336:304|480:248,1,280
320,88,85563,2,0,L|320:112,1,23.3333333333333
248,112,85774,1,0,0:0:0:0:
248,136,85879,1,0,0:0:0:0:
248,168,85985,1,0,0:0:0:0:
256,192,87042,12,2,89853,0:0:0:0:
