osu file format v14

[General]
AudioFilename: Golden Day.mp3
AudioLeadIn: 0
PreviewTime: 33755
Countdown: 0
SampleSet: Soft
StackLeniency: 0.7
Mode: 0
LetterboxInBreaks: 0
WidescreenStoryboard: 0

[Editor]
DistanceSpacing: 1
BeatDivisor: 4
GridSize: 4
TimelineZoom: 1

[Metadata]
Title:Golden Day
TitleUnicode:ゴールデン・デイ
Artist:Inami Mahiru(CV:Fujita Saki)
ArtistUnicode:伊波 まひる(CV:藤田咲)
Creator:Bakari
Version:Flask's Normal
Source:Working!!
Tags:ワーキング!! flask ending ed2 a-1 pictures wagnaria bci black_cherry_ita
BeatmapID:209223
BeatmapSetID:73411

[Difficulty]
HPDrainRate:3
CircleSize:3.5
OverallDifficulty:3
ApproachRate:5
SliderMultiplier:1.2
SliderTickRate:2

[Events]
//Background and Video events
0,0,"bg.jpg",0,0
//Break Periods
//Storyboard Layer 0 (Background)
//Storyboard Layer 1 (Fail)
//Storyboard Layer 2 (Pass)
//Storyboard Layer 3 (Foreground)
//Storyboard Sound Samples

[TimingPoints]
755,461.538461538462,4,2,1,55,1,0
15524,-100,4,2,1,65,0,0
28447,-100,4,2,1,65,0,0
29370,-100,4,2,20,65,0,0
33985,-100,4,2,20,75,0,1
48639,-100,4,2,20,75,0,0
48755,-100,4,2,20,75,0,1
56139,-100,4,2,20,65,0,1
63524,-100,4,2,20,75,0,0
67216,483.870967741935,4,2,1,5,1,0
68909,517.241379310345,4,2,1,5,1,0
70202,545.454545454546,4,2,1,5,1,0
70747,571.428571428571,4,2,1,5,1,0
71318,-100,4,2,1,40,0,0

[Colours]
Combo1 : 248,194,254
Combo2 : 157,204,173
Combo3 : 108,87,196
Combo4 : 157,224,236

[HitObjects]
88,128,755,6,0,P|144:100|204:128,1,120,4|0,0:0|0:0,0:0:0:0:
220,172,1447,2,0,P|270:190|326:162,1,120,2|0,0:0|0:0,0:0:0:0:
388,60,2370,2,0,P|448:44|496:80,1,120,2|0,0:0|0:0,0:0:0:0:
500,136,3062,2,0,L|512:268,1,120,0|2,0:0|0:0,0:0:0:0:
412,324,3985,1,0,0:0:0:0:
308,264,4447,6,0,P|256:236|188:264,1,120,4|0,0:0|0:0,0:0:0:0:
176,308,5139,2,0,L|152:176,1,120,2|0,0:0|0:0,0:0:0:0:
87,89,6062,2,0,P|143:57|195:81,2,120,2|0|0,0:0|0:0|0:0,0:0:0:0:
55,140,7216,2,0,P|35:196|55:252,1,120,2|2,0:0|0:0,0:0:0:0:
160,304,8139,6,0,L|284:304,1,120,4|0,0:0|0:0,0:0:0:0:
320,348,8831,2,0,P|296:288|312:236,1,120,2|0,0:0|0:0,0:0:0:0:
400,156,9755,2,0,P|440:112|440:48,1,120,2|0,0:0|0:0,0:0:0:0:
396,16,10447,2,0,P|337:18|293:58,1,120,0|2,0:0|0:0,0:0:0:0:
174,71,11370,1,0,0:0:0:0:
54,61,11831,6,0,P|30:121|46:185,1,120,4|0,0:0|0:0,0:0:0:0:
67,227,12524,2,0,P|127:251|191:235,1,120,2|0,0:0|0:0,0:0:0:0:
300,236,13447,2,0,P|352:245|412:221,2,120,2|0|0,0:0|0:0|0:0,0:0:0:0:
260,190,14601,2,0,P|250:137|274:77,1,120,2|2,0:0|0:0,0:0:0:0:
388,52,15524,6,0,P|456:68|508:44,2,120,4|2|0,0:0|0:0|0:0,0:0:0:0:
268,36,16908,1,2,0:0:0:0:
268,36,17139,2,0,P|220:75|216:140,1,120
243,181,17831,2,0,P|233:238|189:278,1,120,2|0,0:0|0:0,0:0:0:0:
85,340,18755,1,2,0:0:0:0:
88,220,19216,6,0,P|88:156|60:104,1,120,0|2,0:0|0:0,0:0:0:0:
4,92,19908,2,0,L|120:36,1,120
165,11,20601,1,2,0:0:0:0:
219,35,20831,2,0,P|297:60|390:23,1,180,0|2,0:0|0:0,0:0:0:0:
476,105,21985,1,0,0:0:0:0:
387,186,22447,1,2,0:0:0:0:
267,186,22908,6,0,L|141:177,1,120,0|2,0:0|0:0,0:0:0:0:
69,268,23831,2,0,P|72:329|123:368,1,120,0|2,0:0|0:0,0:0:0:0:
172,349,24524,2,0,L|303:341,1,120
350,354,25216,2,0,P|414:370|470:350,1,120,2|0,0:0|0:0,0:0:0:0:
481,235,26139,1,2,0:0:0:0:
496,115,26601,6,0,P|488:55|440:23,1,120,4|2,0:0|0:0,0:0:0:0:
382,13,27293,1,0,0:0:0:0:
322,22,27524,2,0,P|275:53|267:113,2,120,0|2|4,0:0|0:0|0:0,0:0:0:0:
417,95,28908,1,2,0:0:0:0:
426,214,29370,1,0,3:0:0:0:
426,214,29601,2,0,L|422:278,1,60,4|0,0:0|0:0,0:0:0:0:
375,311,30062,6,0,B|324:335|283:298|283:298|249:264|208:273,1,180,4|0,0:0|0:0,0:0:0:0:
163,310,30985,2,0,P|188:258|126:160,1,180,2|0,0:0|0:0,0:0:0:0:
70,154,31908,1,4,0:0:0:0:
29,266,32370,1,8,0:0:0:0:
29,266,32601,1,8,0:0:0:0:
120,343,33062,1,8,3:0:0:0:
227,289,33524,2,0,L|299:283,1,60,8|0,0:0|0:0,0:0:0:0:
338,314,33985,6,0,P|393:338|455:313,1,120,4|8,0:0|0:0,0:0:0:0:
480,269,34678,1,2,0:0:0:0:
434,158,35139,2,0,L|452:91,2,60,0|8|0,0:0|0:0|0:0,0:0:0:0:
326,211,36062,2,0,L|252:219,1,60,2|8,0:0|0:0,0:0:0:0:
210,238,36524,2,0,P|152:256|94:240,1,120,2|0,0:0|0:0,0:0:0:0:
46,207,37216,1,8,0:0:0:0:
64,88,37678,6,0,P|104:44|164:40,1,120,2|10,0:0|0:0,0:0:0:0:
218,57,38370,1,2,0:0:0:0:
337,51,38831,2,0,L|407:35,2,60,2|8|2,0:0|0:0|0:0,0:0:0:0:
348,170,39755,2,0,L|355:235,1,60,2|8,0:0|0:0,0:0:0:0:
325,282,40216,2,0,P|268:313|214:300,1,120,2|2,0:0|0:0,0:0:0:0:
157,293,40908,2,0,L|92:304,2,60,10|0|4,0:0|0:0|0:0,0:0:0:0:
178,174,41831,5,8,0:0:0:0:
178,174,42062,2,0,P|201:114|186:57,1,120,2|0,0:0|0:0,0:0:0:0:
139,26,42755,2,0,L|77:18,1,60,8|0,0:0|0:0,0:0:0:0:
26,46,43216,2,0,P|6:102|34:170,2,120,2|8|2,0:0|0:0|0:0,0:0:0:0:
128,107,44601,2,0,L|187:102,1,60,8|0,0:0|0:0,0:0:0:0:
246,115,45062,6,0,P|318:107|350:63,1,120,4|10,0:0|0:0,0:0:0:0:
379,22,45755,2,0,L|407:158,1,120,4|2,0:0|0:0,0:0:0:0:
426,257,46678,2,0,L|294:213,1,120,4|2,0:0|0:0,0:0:0:0:
199,177,47601,2,0,L|302:84,1,120,4|8,0:0|0:0,0:0:0:0:
341,70,48293,2,0,P|374:61|413:75,1,60,8|0,0:0|0:0,0:0:0:0:
444,104,48755,6,0,P|459:153|430:218,1,120,4|8,0:0|0:0,0:0:0:0:
388,253,49447,1,2,0:0:0:0:
280,306,49908,2,0,L|286:369,2,60,2|8|2,0:0|0:0|0:0,0:0:0:0:
296,186,50831,2,0,L|292:119,1,60,2|8,0:0|0:0,0:0:0:0:
249,84,51293,2,0,P|200:67|129:93,1,120,2|2,0:0|0:0,0:0:0:0:
92,126,51985,1,8,0:0:0:0:
8,211,52447,6,0,L|26:341,1,120,2|8,0:0|0:0,0:0:0:0:
58,379,53139,1,2,0:0:0:0:
143,295,53601,2,0,P|179:285|210:289,1,60,2|12,0:0|0:0,0:0:0:0:
255,312,54062,6,0,L|390:315,1,120,4|8,0:0|0:0,0:0:0:0:
422,277,54755,1,8,0:0:0:0:
457,229,54985,2,0,P|472:173|446:116,1,120,4|0,0:0|0:0,0:0:0:0:
407,73,55678,2,0,L|414:8,2,60,8|0|4,0:0|0:0|0:0,0:0:0:0:
354,180,56601,5,8,0:0:0:0:
260,104,57062,2,0,P|207:80|141:91,1,120,4|8,0:0|0:0,0:0:0:0:
90,109,57755,2,0,L|24:100,1,60,2|4,0:0|0:0,0:0:0:0:
5,218,58447,1,8,0:0:0:0:
83,308,58908,2,0,L|203:290,1,120,4|8,0:0|0:0,0:0:0:0:
266,189,59831,6,0,P|321:166|383:183,1,120,4|8,0:0|0:0,0:0:0:0:
423,218,60524,1,0,0:0:0:0:
459,265,60755,2,0,L|453:332,2,60,4|2|8,0:0|0:0|0:0,0:0:0:0:
500,221,61447,2,0,B|502:186|479:162|479:162|493:96|428:59,1,180,4|4,0:0|0:0,0:0:0:0:
322,22,62601,5,0,0:0:0:0:
260,124,63062,1,0,0:0:0:0:
329,221,63524,1,2,0:0:0:0:
256,192,63755,12,2,71318,0:0:0:0:
