osu file format v14

[General]
AudioFilename: audio.mp3
AudioLeadIn: 0
PreviewTime: 47899
Countdown: 0
SampleSet: Soft
StackLeniency: 0.7
Mode: 0
LetterboxInBreaks: 0
WidescreenStoryboard: 1

[Editor]
Bookmarks: 16232,37566,78899,100232,121566,186899
DistanceSpacing: 0.3
BeatDivisor: 4
GridSize: 8
TimelineZoom: 2.1

[Metadata]
Title:Roleless Weapon
TitleUnicode:ロールレスウエポン
Artist:inabakumori x Neru
ArtistUnicode:稲葉曇×Neru
Creator:Pisapou
Version:Useless Expert
Source:
Tags:LimeTwist Jeby Wither Sagu vocaloid rock japanese Kaai Yuki 歌愛ユキ Kagamine Len 鏡音レン CHIMERA キメラ jrock j-rock pop jpop j-pop
BeatmapID:4036979
BeatmapSetID:1949918

[Difficulty]
HPDrainRate:6
CircleSize:4
OverallDifficulty:8
ApproachRate:9.4
SliderMultiplier:2
SliderTickRate:1

[Events]
//Background and Video events
0,0,"chimera_bg.png",0,0
//Break Periods
2,126899,129566
//Storyboard Layer 0 (Background)
//Storyboard Layer 1 (Fail)
//Storyboard Layer 2 (Pass)
//Storyboard Layer 3 (Foreground)
//Storyboard Layer 4 (Overlay)
//Storyboard Sound Samples

[TimingPoints]
233,333.333333333333,4,2,1,53,1,0
233,-111.111111111111,4,2,1,53,0,0
5566,-71.4285714285714,4,2,1,73,0,0
6899,-100,4,2,1,73,0,0
8232,-71.4285714285714,4,2,1,73,0,0
9566,-100,4,2,1,73,0,0
10899,-71.4285714285714,4,2,1,73,0,0
12232,-100,4,2,1,73,0,0
16232,-125,4,2,1,63,0,0
48232,-71.4285714285714,4,2,1,83,0,1
68232,-71.4285714285714,4,2,1,73,0,0
69566,-100,4,2,1,73,0,0
70899,-71.4285714285714,4,2,1,73,0,0
72232,-100,4,2,1,73,0,0
73566,-71.4285714285714,4,2,1,73,0,0
74899,-100,4,2,1,73,0,0
78899,-125,4,2,1,63,0,0
118899,-83.3333333333333,4,2,1,73,0,0
121566,-166.666666666667,4,2,1,53,0,0
126899,-250.000000000001,4,2,1,53,0,0
130899,-125,4,2,1,63,0,0
138899,-125,4,2,1,73,0,0
140232,-500,4,2,1,73,0,0
141566,-71.4285714285715,4,2,1,83,0,1
162899,-62.5,4,2,1,73,0,0
168232,-71.4285714285714,4,2,1,73,0,0
169566,-100,4,2,1,73,0,0
173566,-83.3333333333333,4,2,1,83,0,0
178899,-83.3333333333333,4,2,1,73,0,0
185566,-83.3333333333333,4,2,1,63,0,0
186232,-83.3333333333333,4,2,1,53,0,0
186732,-166.666666666667,4,2,1,53,0,0
187232,-166.666666666667,4,2,1,5,0,0

[Colours]
Combo1 : 164,204,188
Combo2 : 255,194,70
Combo3 : 247,186,125
Combo4 : 233,236,239

[HitObjects]
238,361,233,38,0,P|221:307|199:276,1,89.9999972534181,4|0,1:2|0:0,0:0:0:0:
256,192,566,5,8,2:2:0:0:
96,257,732,37,0,1:2:0:0:
100,260,899,2,0,P|138:219|154:184,1,89.9999972534181,0|0,0:0|1:2,0:0:0:0:
256,192,1232,5,8,2:2:0:0:
118,91,1399,37,2,2:1:0:0:
118,91,1566,2,0,P|173:104|211:100,1,89.9999972534181,0|0,1:2|1:2,0:0:0:0:
256,192,1899,5,8,2:2:0:0:
274,23,2066,38,0,P|291:76|313:108,1,89.9999972534181,0|0,1:2|0:0,0:0:0:0:
309,104,2399,1,2,1:1:0:0:
256,192,2566,5,8,2:2:0:0:
393,292,2732,37,0,0:0:0:0:
411,123,2899,2,0,P|373:164|357:199,1,89.9999972534181,4|0,1:2|0:0,0:0:0:0:
256,192,3232,5,8,2:2:0:0:
393,292,3399,37,0,1:2:0:0:
393,292,3566,2,0,P|338:279|300:283,1,89.9999972534181,0|0,0:0|1:2,0:0:0:0:
256,192,3899,5,8,2:2:0:0:
238,360,4066,37,2,2:1:0:0:
238,360,4232,2,0,P|221:307|199:276,1,89.9999972534181,0|0,1:2|1:2,0:0:0:0:
256,192,4566,5,8,2:2:0:0:
100,260,4732,38,0,P|138:219|154:184,1,89.9999972534181,0|0,1:2|0:0,0:0:0:0:
382,2,5066,5,8,2:2:0:0:
391,32,5149,1,8,2:2:0:0:
410,57,5232,1,8,2:2:0:0:
435,76,5316,1,8,2:2:0:0:
465,82,5399,1,8,2:2:0:0:
465,82,5566,6,0,B|407:50|372:112|397:131|368:198|294:165,1,209.999993591309,6|0,1:2|0:0,0:0:0:0:
291,154,5899,2,0,P|283:119|265:90,1,69.9999978637696,10|0,2:2|0:0,0:0:0:0:
428,269,6066,5,2,2:2:0:0:
428,269,6232,1,0,1:2:0:0:
459,189,6399,37,2,2:2:0:0:
459,189,6565,1,8,2:2:0:0:
228,239,6732,5,2,2:2:0:0:
228,239,6816,1,0,0:0:0:0:
228,240,6899,2,0,P|254:282|264:331,1,100,2|2,1:2|2:2,0:0:0:0:
343,277,7232,2,0,P|330:257|325:233,1,50,10|0,2:2|0:0,0:0:0:0:
459,189,7399,37,2,2:2:0:0:
459,189,7565,1,0,1:2:0:0:
428,269,7732,5,2,2:2:0:0:
428,269,7898,1,8,2:2:0:0:
392,345,8066,37,2,2:2:0:0:
465,82,8232,6,0,B|407:50|372:112|397:131|368:198|294:165,1,209.999993591309,2|0,1:2|0:0,0:0:0:0:
291,154,8565,2,0,P|283:119|265:90,1,69.9999978637696,10|0,2:2|0:0,0:0:0:0:
428,269,8732,37,2,2:2:0:0:
428,269,8898,1,0,1:2:0:0:
459,189,9065,5,2,2:2:0:0:
459,189,9231,1,8,2:2:0:0:
228,239,9399,37,2,2:2:0:0:
228,239,9483,1,0,0:0:0:0:
228,240,9566,2,0,P|254:282|264:331,1,100,2|2,1:2|2:2,0:0:0:0:
343,277,9899,2,0,P|330:257|325:233,1,50,10|0,2:2|0:0,0:0:0:0:
211,255,10066,6,0,B|227:277|253:281|253:281|240:301|243:335,1,100,2|0,1:2|1:2,0:0:0:0:
51,384,10399,37,10,2:2:0:0:
32,356,10482,1,0,0:0:0:0:
34,322,10566,1,8,2:2:0:0:
59,297,10649,1,8,2:2:0:0:
95,297,10732,1,8,2:2:0:0:
95,297,10899,6,0,P|171:330|206:222,1,209.999993591309,6|0,1:2|0:0,0:0:0:0:
198,235,11232,2,0,P|184:270|206:306,1,69.9999978637696,10|0,2:2|0:0,0:0:0:0:
288,158,11399,37,2,2:2:0:0:
288,158,11565,1,0,1:2:0:0:
257,78,11732,5,2,2:2:0:0:
257,78,11898,1,8,2:2:0:0:
483,87,12066,37,2,2:2:0:0:
483,87,12150,1,0,0:0:0:0:
483,88,12233,2,0,P|457:130|447:179,1,100,2|2,1:2|2:2,0:0:0:0:
371,123,12566,2,0,P|385:101|390:76,1,50,10|0,2:2|0:0,0:0:0:0:
257,78,12732,5,2,2:2:0:0:
257,78,12898,1,0,1:2:0:0:
288,158,13066,37,2,2:2:0:0:
288,158,13232,1,8,2:2:0:0:
316,238,13399,5,2,2:2:0:0:
197,151,13566,38,0,P|128:217|149:310,1,200,2|8,1:2|2:2,0:0:0:0:
288,158,14066,5,0,0:0:0:0:
288,158,14232,1,0,1:2:0:0:
257,78,14399,37,2,2:2:0:0:
257,78,14565,1,8,2:2:0:0:
417,146,14732,5,2,2:2:0:0:
417,146,14816,1,0,0:0:0:0:
417,147,14899,2,0,P|443:104|453:55,1,100,6|2,1:2|2:2,0:0:0:0:
363,45,15232,2,0,P|349:65|344:90,1,50,10|0,2:2|0:0,0:0:0:0:
434,145,15399,38,0,B|450:123|476:119|476:119|463:99|465:71,1,100,2|0,1:2|0:0,0:0:0:0:
125,1,15732,5,10,2:2:0:0:
106,29,15815,1,0,0:0:0:0:
108,63,15899,1,8,2:2:0:0:
133,88,15982,1,8,2:2:0:0:
169,88,16065,1,10,2:2:0:0:
169,88,16232,6,0,P|193:133|123:194,1,160,6|10,1:2|2:2,0:0:0:0:
27,195,16732,2,0,P|47:230|60:279,1,80,2|0,2:2|1:2,0:0:0:0:
110,384,17066,1,2,2:2:0:0:
153,312,17232,1,10,2:2:0:0:
95,378,17399,1,0,0:0:0:0:
36,192,17566,6,0,P|56:227|69:276,1,80,2|2,1:2|2:2,0:0:0:0:
81,369,17899,1,10,2:2:0:0:
170,309,18066,2,0,B|212:285|237:330|219:344|240:393|294:369,1,160,2|2,2:2|2:2,0:0:0:0:
300,209,18566,1,8,2:2:0:0:
300,209,18732,1,2,2:2:0:0:
415,366,18899,38,0,P|436:320|351:268,1,160,2|10,1:2|2:2,0:0:0:0:
268,281,19399,2,0,P|288:246|299:208,1,80,2|0,2:2|1:2,0:0:0:0:
210,212,19732,1,2,2:2:0:0:
385,181,19899,2,0,P|397:142|418:109,1,80,10|0,2:2|0:0,0:0:0:0:
183,53,20232,6,0,B|210:60|210:60|224:96|224:96|345:130,1,160,2|8,1:2|2:2,0:0:0:0:
400,190,20732,2,0,L|431:116,1,80,0|0,0:0|1:2,0:0:0:0:
403,25,21066,1,2,2:2:0:0:
461,132,21232,1,10,2:2:0:0:
461,132,21316,1,8,2:2:0:0:
461,132,21399,1,10,2:2:0:0:
339,272,21566,38,0,P|298:214|201:219,1,160,6|10,1:2|2:2,0:0:0:0:
147,278,22066,2,0,P|135:239|114:205,1,80,2|0,2:2|1:2,0:0:0:0:
43,97,22399,1,2,2:2:0:0:
0,169,22565,1,10,2:2:0:0:
137,280,22732,6,0,P|125:241|104:208,1,80,2|0,2:2|1:2,0:0:0:0:
58,103,23066,1,2,2:2:0:0:
14,179,23232,1,10,2:2:0:0:
223,287,23399,2,0,B|265:311|290:266|272:252|293:203|346:227,1,160,2|2,2:2|2:2,0:0:0:0:
372,306,23899,1,8,2:2:0:0:
372,306,24066,1,2,2:2:0:0:
484,142,24232,38,0,P|498:214|430:243,1,160,2|10,1:2|2:2,0:0:0:0:
361,308,24732,2,0,P|349:269|329:235,1,80,2|0,2:2|1:2,0:0:0:0:
268,300,25066,1,2,2:2:0:0:
384,156,25232,2,0,P|362:122|351:84,1,80,10|0,2:2|0:0,0:0:0:0:
167,75,25566,6,0,B|193:87|193:87|200:125|200:125|314:180,1,160,2|8,1:2|2:2,0:0:0:0:
394,150,26066,2,0,L|361:78,1,80,0|0,1:2|0:0,0:0:0:0:
236,81,26399,1,10,2:2:0:0:
347,238,26566,1,10,2:2:0:0:
437,64,26732,1,2,1:2:0:0:
314,21,26899,37,6,1:2:0:0:
314,21,27066,1,2,2:2:0:0:
507,201,27232,5,10,2:2:0:0:
512,204,27399,1,2,2:2:0:0:
314,384,27566,37,2,1:2:0:0:
314,384,27733,1,2,2:2:0:0:
512,201,27899,5,10,2:2:0:0:
512,201,28066,1,2,2:2:0:0:
426,321,28232,38,0,B|374:345|353:296|371:282|346:237|304:261,1,160,2|8,1:2|2:2,0:0:0:0:
244,330,28732,2,0,P|232:292|211:259,1,80,0|0,0:0|1:2,0:0:0:0:
410,195,29066,5,2,2:2:0:0:
272,84,29232,1,10,2:2:0:0:
243,260,29399,1,2,2:2:0:0:
424,294,29566,37,6,1:2:0:0:
424,294,29732,1,2,2:2:0:0:
223,171,29899,5,10,2:2:0:0:
223,171,30065,1,2,2:2:0:0:
22,48,30232,37,2,1:2:0:0:
22,48,30398,1,2,2:2:0:0:
223,171,30565,5,10,2:2:0:0:
223,171,30731,1,2,2:2:0:0:
47,244,30899,38,0,B|99:220|120:269|102:283|127:328|169:304,1,160,2|8,1:2|2:2,0:0:0:0:
238,374,31399,2,0,P|249:335|270:302,1,80,0|0,1:2|0:0,0:0:0:0:
238,226,31732,1,10,2:2:0:0:
302,326,31899,1,10,2:2:0:0:
302,326,31982,1,8,0:0:0:0:
302,326,32066,1,10,2:2:0:0:
421,178,32232,6,0,P|338:191|321:116,1,160,6|10,1:2|2:2,0:0:0:0:
240,73,32732,2,0,P|278:59|312:38,1,80,2|0,2:2|1:2,0:0:0:0:
223,168,33066,1,2,2:2:0:0:
151,125,33232,1,8,2:2:0:0:
217,183,33399,1,2,2:2:0:0:
303,27,33566,38,0,P|269:47|231:61,1,80,2|2,1:2|2:2,0:0:0:0:
307,120,33899,1,10,2:2:0:0:
456,194,34066,2,0,B|480:142|431:121|417:139|372:114|396:72,1,160,2|2,2:2|2:2,0:0:0:0:
476,28,34566,1,10,2:2:0:0:
476,28,34732,1,2,2:2:0:0:
430,324,34899,6,0,P|360:298|366:224,1,160,2|10,1:2|2:2,0:0:0:0:
483,168,35399,2,0,P|461:201|448:239,1,80,2|0,2:2|1:2,0:0:0:0:
431,106,35732,1,2,2:2:0:0:
462,251,35899,2,0,P|440:285|427:323,1,80,10|0,2:2|0:0,0:0:0:0:
427,322,36149,37,0,0:0:0:0:
427,322,36232,1,2,1:2:0:0:
321,214,36399,1,2,1:2:0:0:
321,214,36566,1,10,2:2:0:0:
275,361,36732,2,0,B|310:348|310:348|338:363|338:363|446:329,1,160,2|2,1:2|1:2,0:0:0:0:
512,302,37232,1,10,2:2:0:0:
512,302,37399,1,2,1:2:0:0:
355,233,37566,6,0,B|370:176|370:176|304:146,1,120,6|0,1:2|0:0,0:0:0:0:
315,152,37899,1,10,2:1:0:0:
315,152,38066,1,2,2:2:0:0:
287,281,38232,2,0,B|247:263|247:263|257:227,1,80,2|0,1:2|1:2,0:0:0:0:
358,9,38566,37,10,2:1:0:0:
358,9,38649,1,0,0:0:0:0:
358,9,38732,2,0,L|380:95,1,80,2|0,1:2|0:0,0:0:0:0:
315,152,39066,1,2,1:2:0:0:
393,238,39232,1,10,2:1:0:0:
315,176,39399,1,2,2:2:0:0:
473,13,39566,5,2,1:2:0:0:
473,13,39649,1,0,0:0:0:0:
473,13,39732,1,0,1:2:0:0:
444,164,39899,1,10,2:1:0:0:
444,164,39982,1,0,0:0:0:0:
444,164,40066,1,2,1:2:0:0:
248,45,40232,38,0,B|195:75|195:75|151:1,1,120,0|0,1:2|0:0,0:0:0:0:
165,24,40566,1,10,2:1:0:0:
165,24,40732,1,2,2:2:0:0:
300,154,40899,2,0,B|278:117|278:117|245:135,1,80,2|2,1:2|1:2,0:0:0:0:
249,214,41232,1,10,2:1:0:0:
148,53,41399,1,2,1:2:0:0:
30,217,41566,6,0,B|51:180|51:180|84:198,1,80,2|0,2:2|1:2,0:0:0:0:
81,279,41899,1,10,2:1:0:0:
81,279,42066,1,2,2:2:0:0:
225,176,42232,38,0,L|203:263,1,80,8|2,2:2|1:2,0:0:0:0:
243,166,42482,1,0,1:2:0:0:
243,166,42566,2,0,L|222:250,1,80,10|0,2:1|1:2,0:0:0:0:
287,302,42816,5,0,1:2:0:0:
287,302,42899,2,0,B|227:279|227:279|197:338,1,120,6|0,1:2|0:0,0:0:0:0:
201,328,43232,1,10,2:1:0:0:
201,328,43399,1,0,0:0:0:0:
390,365,43566,2,0,B|350:349|350:349|333:383,1,80,2|0,1:2|1:2,0:0:0:0:
334,384,43899,1,10,2:1:0:0:
340,235,44066,37,2,1:2:0:0:
340,235,44149,1,0,0:0:0:0:
340,235,44232,2,0,L|305:149,1,80,2|2,1:2|1:2,0:0:0:0:
412,382,44566,1,10,2:1:0:0:
454,292,44732,1,2,2:2:0:0:
301,169,44899,6,0,L|331:243,1,80,8|2,2:2|1:2,0:0:0:0:
331,243,45149,1,0,1:2:0:0:
331,243,45232,1,10,2:1:0:0:
495,305,45399,37,2,1:2:0:0:
495,305,45482,1,0,1:2:0:0:
495,305,45566,2,0,B|443:281|422:330|440:344|415:389|373:365,1,160,4|10,1:2|2:2,0:0:0:0:
361,292,46066,1,2,1:2:0:0:
361,292,46149,1,0,0:0:0:0:
361,292,46232,1,10,2:2:0:0:
502,378,46399,1,2,1:2:0:0:
358,263,46566,1,10,2:2:0:0:
484,52,46732,6,0,P|436:111|360:102,1,160,6|10,1:2|2:2,0:0:0:0:
359,101,47232,1,10,2:2:0:0:
324,8,47399,1,10,2:2:0:0:
269,150,47566,1,8,2:2:0:0:
433,276,47732,5,8,2:2:0:0:
168,238,47899,1,8,2:2:0:0:
150,269,47982,1,8,2:2:0:0:
152,303,48066,1,8,2:2:0:0:
177,328,48149,1,8,2:2:0:0:
218,332,48232,6,0,P|276:272|356:286,1,139.999995727539,6|0,1:2|0:0,0:0:0:0:
329,272,48482,1,0,0:0:0:0:
329,272,48566,1,8,2:2:0:0:
437,384,48732,37,2,2:2:0:0:
471,310,48899,1,2,1:2:0:0:
512,235,49066,1,2,2:2:0:0:
512,235,49149,1,0,0:0:0:0:
512,235,49232,1,10,2:2:0:0:
437,384,49399,5,2,2:2:0:0:
279,173,49566,2,0,P|271:238|329:271,1,139.999995727539,2|0,1:2|0:0,0:0:0:0:
328,272,49816,1,0,0:0:0:0:
328,272,49899,1,8,2:2:0:0:
499,125,50066,37,2,2:2:0:0:
499,125,50399,6,0,P|477:151|461:183,1,69.9999978637696,2|0,2:2|0:0,0:0:0:0:
508,133,50566,2,0,P|486:159|470:191,1,69.9999978637696,10|0,2:2|0:0,0:0:0:0:
411,99,50732,37,2,3:2:0:0:
411,99,50816,1,0,3:2:0:0:
411,99,50899,2,0,B|342:131|315:66|338:48|306:-11|250:20,1,209.999993591309,0|0,1:2|0:0,0:0:0:0:
151,37,51232,6,0,P|168:67|179:100,1,69.9999978637696,10|0,2:2|0:0,0:0:0:0:
167,24,51399,1,2,2:2:0:0:
316,107,51566,37,2,1:2:0:0:
271,183,51732,1,0,0:0:0:0:
226,256,51899,1,10,2:2:0:0:
71,127,52066,5,2,2:2:0:0:
71,127,52149,1,0,0:0:0:0:
71,127,52232,2,0,B|116:105|134:148|119:160|140:199|177:179,1,139.999995727539,0|2,1:2|2:2,0:0:0:0:
177,179,52482,1,0,0:0:0:0:
177,179,52566,1,10,2:2:0:0:
287,15,52732,1,2,1:2:0:0:
287,15,53066,37,2,2:2:0:0:
147,123,53232,1,10,2:2:0:0:
169,150,53315,1,8,2:2:0:0:
188,180,53398,1,8,2:2:0:0:
204,211,53482,1,8,2:2:0:0:
218,242,53566,6,0,P|253:176|325:182,1,139.999995727539,6|0,1:2|0:0,0:0:0:0:
390,230,53816,1,0,0:0:0:0:
390,230,53899,2,0,P|290:195|187:179,1,209.999993591309,10|0,2:2|0:0,0:0:0:0:
106,191,54232,1,2,1:2:0:0:
106,191,54566,37,10,2:2:0:0:
316,278,54732,1,2,3:2:0:0:
316,278,54816,1,0,3:2:0:0:
316,278,54899,2,0,P|299:308|288:341,1,69.9999978637696,0|0,1:2|0:0,0:0:0:0:
259,355,55066,6,0,B|190:387|163:322|186:304|154:245|98:276,1,209.999993591309,2|0,2:2|0:0,0:0:0:0:
87,299,55399,1,2,2:2:0:0:
87,299,55732,37,2,2:2:0:0:
178,168,55899,2,0,B|223:146|241:189|226:201|247:240|284:220,1,139.999995727539,10|0,2:2|3:2,0:0:0:0:
298,245,56149,5,0,3:2:0:0:
298,245,56232,2,0,B|321:214|357:208|357:208|339:180|342:140,1,139.999995727539,2|2,1:2|2:2,0:0:0:0:
161,10,56566,1,10,2:2:0:0:
161,10,56649,1,0,0:0:0:0:
161,10,56732,2,0,B|138:41|102:47|102:47|120:75|117:112,1,139.999995727539,2|0,2:2|1:2,0:0:0:0:
377,136,57066,1,2,2:2:0:0:
377,136,57149,1,0,0:0:0:0:
377,136,57232,1,8,2:2:0:0:
137,265,57399,37,2,1:2:0:0:
137,265,57482,1,0,1:2:0:0:
137,265,57566,2,0,P|237:257|292:341,1,209.999993591309,2|0,1:2|0:0,0:0:0:0:
291,340,57899,1,10,2:2:0:0:
291,340,58066,1,2,2:2:0:0:
0,141,58232,5,0,1:2:0:0:
37,247,58399,1,8,2:2:0:0:
75,353,58566,1,10,2:2:0:0:
197,213,58732,37,0,3:2:0:0:
197,213,58816,1,0,3:2:0:0:
197,213,58899,2,0,P|265:208|303:265,1,139.999995727539,6|0,1:2|0:0,0:0:0:0:
303,261,59149,1,0,0:0:0:0:
303,261,59232,1,8,2:2:0:0:
261,15,59399,5,2,2:2:0:0:
297,90,59566,1,2,1:2:0:0:
336,174,59732,1,2,2:2:0:0:
336,174,59816,1,0,0:0:0:0:
336,174,59899,1,10,2:2:0:0:
261,15,60066,37,2,2:2:0:0:
160,216,60232,2,0,P|101:189|116:127,1,139.999995727539,2|0,1:2|0:0,0:0:0:0:
116,126,60482,1,0,0:0:0:0:
116,126,60566,1,8,2:2:0:0:
410,30,60732,5,2,2:2:0:0:
410,30,61066,38,0,P|394:61|384:94,1,69.9999978637696,2|0,2:2|0:0,0:0:0:0:
419,35,61232,2,0,P|403:66|393:99,1,69.9999978637696,10|0,2:2|0:0,0:0:0:0:
249,164,61399,5,2,3:2:0:0:
249,164,61482,1,0,3:0:0:0:
249,164,61565,2,0,B|209:186|162:144|178:78|260:51|321:115,1,209.999993591309,0|0,1:2|0:0,0:0:0:0:
344,191,61899,38,0,P|328:222|318:256,1,69.9999978637696,10|0,2:2|0:0,0:0:0:0:
335,170,62066,1,2,2:2:0:0:
230,380,62232,5,2,1:2:0:0:
194,305,62399,1,2,2:2:0:0:
155,221,62565,1,10,2:2:0:0:
428,169,62732,37,2,3:2:0:0:
428,169,62815,1,0,3:2:0:0:
428,169,62899,2,0,B|441:203|479:211|479:211|439:204|412:234,1,139.999995727539,0|2,1:2|0:0,0:0:0:0:
415,232,63148,1,0,0:0:0:0:
415,232,63232,1,10,2:2:0:0:
280,15,63399,1,2,1:2:0:0:
280,15,63732,5,2,2:2:0:0:
512,21,63899,1,10,2:2:0:0:
491,48,63982,1,8,2:2:0:0:
473,78,64065,1,8,2:2:0:0:
460,110,64149,1,8,2:2:0:0:
452,144,64232,38,0,P|431:85|358:83,1,139.999995727539,6|2,1:2|2:2,0:0:0:0:
405,224,64482,1,0,0:0:0:0:
405,224,64566,2,0,P|338:225|315:287,1,139.999995727539,10|0,2:2|0:0,0:0:0:0:
300,21,64899,1,2,1:2:0:0:
300,21,65232,5,10,2:2:0:0:
181,171,65399,1,2,2:2:0:0:
181,171,65482,1,0,0:0:0:0:
181,171,65566,2,0,P|196:202|206:235,1,69.9999978637696,0|0,1:2|0:0,0:0:0:0:
184,262,65732,38,0,B|152:193|217:166|235:189|294:157|263:101,1,209.999993591309,2|0,2:2|0:0,0:0:0:0:
240,92,66066,1,2,2:2:0:0:
240,92,66399,5,0,0:0:0:0:
345,184,66566,2,0,B|367:229|324:248|312:233|272:254|292:291,1,139.999995727539,10|2,2:2|1:2,0:0:0:0:
277,313,66816,37,0,1:2:0:0:
277,313,66899,2,0,B|308:336|314:372|314:372|342:354|382:357,1,139.999995727539,2|10,1:2|2:2,0:0:0:0:
512,171,67232,1,10,2:2:0:0:
512,171,67315,1,8,2:3:0:0:
512,171,67398,2,0,B|481:148|475:112|475:112|447:130|407:127,1,139.999995727539,10|0,2:2|1:2,0:0:0:0:
249,2,67732,5,10,2:2:0:0:
268,30,67815,1,8,2:2:0:0:
285,61,67898,1,10,2:2:0:0:
298,93,67981,1,0,0:0:0:0:
308,127,68066,2,0,P|319:91|343:59,1,69.9999978637696,8|0,2:2|0:0,0:0:0:0:
185,113,68232,38,0,B|151:141|166:212|166:212|144:141|88:130,1,209.999993591309,6|0,1:2|0:0,0:0:0:0:
80,119,68566,2,0,P|99:89|109:56,1,69.9999978637696,10|0,2:2|0:0,0:0:0:0:
298,93,68732,5,2,2:2:0:0:
298,93,68898,1,0,1:2:0:0:
267,13,69065,37,2,2:2:0:0:
267,13,69232,1,8,2:2:0:0:
457,160,69399,5,2,2:2:0:0:
457,160,69482,1,0,0:0:0:0:
457,160,69566,2,0,P|470:112|497:69,1,100,2|2,1:2|2:2,0:0:0:0:
407,57,69899,2,0,P|400:80|386:101,1,50,10|0,2:2|0:0,0:0:0:0:
267,13,70066,37,2,2:2:0:0:
267,13,70232,1,0,1:2:0:0:
298,93,70399,5,2,2:2:0:0:
298,93,70565,1,8,2:2:0:0:
331,173,70732,37,2,2:2:0:0:
185,113,70899,6,0,B|151:141|166:212|166:212|144:141|88:130,1,209.999993591309,2|0,1:2|0:0,0:0:0:0:
80,119,71233,2,0,P|99:89|109:56,1,69.9999978637696,10|0,2:2|0:0,0:0:0:0:
298,93,71399,37,2,2:2:0:0:
298,93,71565,1,0,1:2:0:0:
267,13,71732,5,2,2:2:0:0:
267,13,71899,1,8,2:2:0:0:
450,159,72066,37,2,2:2:0:0:
450,159,72149,1,0,0:0:0:0:
450,159,72232,2,0,P|463:111|490:68,1,100,2|2,1:2|2:2,0:0:0:0:
403,54,72566,2,0,P|396:77|382:98,1,50,10|0,2:2|0:0,0:0:0:0:
469,157,72732,6,0,B|471:129|458:109|458:109|484:105|500:83,1,100,2|0,1:2|1:2,0:0:0:0:
512,90,73066,2,0,B|497:112|471:116|471:116|484:136|482:164,1,100,10|8,2:2|2:2,0:0:0:0:
251,233,73399,37,8,3:2:0:0:
251,233,73482,1,0,3:2:0:0:
251,233,73566,2,0,P|218:324|301:372,1,209.999993591309,2|0,1:2|0:0,0:0:0:0:
331,352,73899,2,0,P|340:318|360:289,1,69.9999978637696,14|0,2:2|0:0,0:0:0:0:
163,222,74066,5,2,2:2:0:0:
163,222,74233,1,0,1:2:0:0:
194,302,74400,37,2,2:2:0:0:
194,302,74567,1,8,2:2:0:0:
333,186,74732,5,2,2:2:0:0:
333,186,74815,1,0,0:0:0:0:
333,186,74899,2,0,P|346:138|373:96,1,100,2|2,1:2|2:2,0:0:0:0:
284,85,75232,2,0,P|277:109|264:130,1,50,10|0,2:2|0:0,0:0:0:0:
194,302,75400,37,2,2:2:0:0:
194,302,75566,1,0,1:2:0:0:
163,222,75732,5,2,2:2:0:0:
163,222,75899,1,8,2:2:0:0:
133,140,76066,37,2,2:2:0:0:
333,186,76232,6,0,P|403:128|367:27,1,200,6|8,1:2|0:0,0:0:0:0:
163,222,76732,37,0,0:0:0:0:
163,222,76898,1,0,1:2:0:0:
194,302,77065,5,2,2:2:0:0:
194,302,77232,1,8,2:2:0:0:
350,367,77399,37,2,2:2:0:0:
350,367,77482,1,0,0:0:0:0:
350,367,77566,2,0,P|364:319|393:278,1,100,6|2,1:2|2:2,0:0:0:0:
444,338,77899,2,0,P|436:361|422:382,1,50,10|0,2:2|0:0,0:0:0:0:
336,347,78066,6,0,B|342:320|328:298|328:298|352:295|371:275,1,100,2|0,1:2|0:0,0:0:0:0:
235,108,78399,37,10,2:2:0:0:
254,136,78482,1,0,0:0:0:0:
252,170,78566,1,10,2:2:0:0:
227,195,78649,1,8,2:2:0:0:
191,195,78732,1,10,2:2:0:0:
191,195,78899,22,0,P|236:171|297:241,1,160,6|10,1:2|2:2,0:0:0:0:
298,337,79399,2,0,P|333:317|382:304,1,80,2|2,1:2|2:2,0:0:0:0:
497,255,79732,1,2,1:2:0:0:
425,212,79898,1,2,2:2:0:0:
491,270,80065,1,2,1:2:0:0:
304,347,80232,6,0,P|339:327|388:314,1,80,0|2,1:2|2:2,0:0:0:0:
512,273,80566,1,10,2:2:0:0:
408,205,80732,2,0,P|388:133|454:99,1,160,2|2,1:2|1:2,0:0:0:0:
512,159,81232,1,0,2:2:0:0:
512,159,81399,1,2,2:2:0:0:
445,337,81566,38,0,P|403:285|291:306,1,160,2|10,1:2|2:2,0:0:0:0:
251,361,82066,2,0,P|239:322|219:288,1,80,2|0,1:2|0:0,0:0:0:0:
164,350,82399,1,2,1:2:0:0:
268,206,82566,2,0,P|248:171|236:133,1,80,10|8,2:2|2:2,0:0:0:0:
41,147,82899,6,0,B|77:156|77:156|89:193|89:193|198:221,1,160,2|0,1:2|0:0,0:0:0:0:
171,215,83732,1,2,2:2:0:0:
240,79,83899,1,10,2:2:0:0:
240,79,83982,1,8,2:2:0:0:
240,79,84066,1,10,2:2:0:0:
294,169,84232,38,0,P|334:111|421:118,1,160,6|10,1:2|2:2,0:0:0:0:
512,113,84732,2,0,P|492:147|480:185,1,80,2|0,2:2|1:2,0:0:0:0:
436,333,85066,1,2,2:2:0:0:
393,261,85232,1,10,2:2:0:0:
451,327,85399,1,2,2:2:0:0:
502,111,85566,6,0,P|482:145|470:183,1,80,0|2,1:2|2:2,0:0:0:0:
425,338,85899,1,10,2:2:0:0:
380,242,86066,2,0,B|338:218|313:263|331:277|310:326|256:302,1,160,2|2,2:2|2:2,0:0:0:0:
240,219,86566,1,8,2:2:0:0:
240,219,86732,1,2,2:2:0:0:
179,354,86899,37,2,1:2:0:0:
128,279,87066,1,2,0:0:0:0:
163,360,87232,1,10,0:0:0:0:
279,224,87399,2,0,P|248:249|224:281,1,80,2|2,2:2|1:2,0:0:0:0:
310,311,87732,1,2,2:2:0:0:
139,250,87899,2,0,P|141:209|133:170,1,80,10|0,2:2|0:0,0:0:0:0:
345,37,88232,6,0,B|319:49|319:49|312:87|312:87|198:142,1,160,2|8,1:2|2:2,0:0:0:0:
229,128,88732,1,0,1:2:0:0:
229,128,89066,37,2,1:2:0:0:
144,83,89232,1,10,2:2:0:0:
58,35,89399,5,10,2:2:0:0:
58,35,89482,1,0,0:0:0:0:
58,35,89566,37,6,1:2:0:0:
58,35,89732,1,2,2:2:0:0:
85,254,89899,5,10,2:1:0:0:
156,93,90066,1,2,2:2:0:0:
192,188,90232,37,2,1:2:0:0:
192,188,90399,1,2,2:2:0:0:
0,125,90566,5,10,2:1:0:0:
0,125,90733,1,2,2:2:0:0:
54,266,90899,38,0,B|96:242|121:287|103:301|124:350|178:326,1,160,0|10,1:2|2:1,0:0:0:0:
247,378,91399,2,0,P|258:339|278:305,1,80,2|2,2:2|1:2,0:0:0:0:
186,311,91732,1,2,2:2:0:0:
319,213,91899,1,10,2:1:0:0:
175,152,92066,5,0,0:0:0:0:
175,152,92149,1,0,0:0:0:0:
175,152,92232,2,0,B|156:189|156:189|187:211,1,80,2|0,1:2|0:0,0:0:0:0:
263,129,92566,2,0,B|244:92|244:92|275:70,1,80,10|0,2:1|0:0,0:0:0:0:
432,0,92899,37,2,1:2:0:0:
465,72,93066,1,2,2:2:0:0:
498,143,93232,5,10,2:1:0:0:
448,243,93399,1,2,2:2:0:0:
448,243,93482,1,0,0:0:0:0:
448,243,93566,2,0,P|419:224|423:182,1,80,2|2,1:2|2:2,0:0:0:0:
498,143,93899,37,10,2:1:0:0:
374,70,94066,2,0,B|332:46|307:91|325:105|304:154|250:130,1,160,2|2,1:2|1:2,0:0:0:0:
145,274,94566,5,10,2:2:0:0:
126,246,94649,1,8,2:2:0:0:
128,212,94733,1,10,2:2:0:0:
153,187,94816,1,8,2:2:0:0:
189,187,94899,38,0,P|215:127|137:80,1,160,6|10,1:2|2:2,0:0:0:0:
81,8,95399,2,0,P|70:46|50:80,1,80,2|0,2:2|1:2,0:0:0:0:
100,194,95732,1,0,0:0:0:0:
28,237,95898,1,10,2:2:0:0:
94,179,96065,1,2,2:2:0:0:
70,1,96232,6,0,P|59:39|39:73,1,80,2|2,1:2|2:2,0:0:0:0:
87,166,96566,1,10,2:2:0:0:
269,23,96732,2,0,B|227:-1|202:44|220:58|199:107|145:83,1,160,2|2,2:2|2:2,0:0:0:0:
107,8,97232,1,8,2:2:0:0:
107,8,97399,1,2,2:2:0:0:
38,268,97566,38,0,P|21:198|94:154,1,160,2|10,1:2|2:2,0:0:0:0:
150,85,98066,2,0,P|160:123|180:157,1,80,2|0,2:2|1:2,0:0:0:0:
235,90,98399,1,2,2:2:0:0:
125,232,98566,2,0,P|145:266|155:304,1,80,10|0,2:2|1:2,0:0:0:0:
156,305,98816,5,0,1:2:0:0:
156,305,98899,1,2,1:2:0:0:
267,174,99066,1,2,1:2:0:0:
267,174,99232,1,10,2:2:0:0:
236,363,99399,2,0,B|250:352|253:334|253:334|395:299,1,160,2|2,1:2|1:2,0:0:0:0:
469,284,99899,1,10,2:2:0:0:
469,284,99982,1,0,0:0:0:0:
469,284,100066,1,10,2:2:0:0:
278,293,100232,38,0,B|224:262|224:262|244:207,1,120,6|0,1:2|0:0,0:0:0:0:
244,207,100566,1,10,2:1:0:0:
244,207,100732,1,2,2:2:0:0:
370,270,100898,2,0,B|380:232|380:232|343:216,1,80,2|0,1:2|1:2,0:0:0:0:
260,55,101232,5,10,2:1:0:0:
260,55,101316,1,0,0:0:0:0:
260,55,101399,2,0,B|294:141,1,80,2|0,1:2|1:2,0:0:0:0:
292,378,101732,1,2,1:2:0:0:
248,285,101899,1,10,2:1:0:0:
280,384,102066,1,2,2:2:0:0:
373,209,102232,37,2,1:2:0:0:
373,209,102316,1,0,1:2:0:0:
373,209,102399,1,0,1:2:0:0:
228,315,102566,1,10,1:1:0:0:
228,315,102650,1,0,1:2:0:0:
229,316,102733,1,2,1:2:0:0:
108,157,102899,6,0,B|163:137|163:137|194:191,1,120,0|0,1:2|0:0,0:0:0:0:
193,190,103232,1,10,2:1:0:0:
193,190,103399,1,2,2:2:0:0:
13,243,103566,2,0,B|50:229|50:229|71:265,1,80,2|2,1:2|1:2,0:0:0:0:
16,316,103899,1,10,2:1:0:0:
86,138,104066,1,2,1:2:0:0:
209,301,104232,37,2,1:2:0:0:
209,301,104399,1,2,1:2:0:0:
102,248,104566,5,10,2:1:0:0:
102,248,104733,1,2,1:2:0:0:
109,362,104899,37,2,1:2:0:0:
109,362,104982,1,0,0:0:0:0:
109,362,105066,1,2,1:2:0:0:
288,261,105232,1,10,1:1:0:0:
288,261,105316,1,0,0:0:0:0:
288,261,105399,1,2,1:2:0:0:
450,379,105566,6,0,B|504:348|504:348|484:293,1,120,4|0,1:2|0:0,0:0:0:0:
484,293,105899,1,10,2:1:0:0:
484,293,106066,1,2,2:2:0:0:
449,176,106232,2,0,B|462:213|462:213|426:234,1,80,2|2,1:2|1:2,0:0:0:0:
427,233,106566,1,10,2:1:0:0:
349,317,106732,37,2,1:2:0:0:
349,317,106816,1,0,1:2:0:0:
349,317,106899,2,0,B|322:228,1,80,0|0,1:2|1:2,0:0:0:0:
217,178,107232,5,10,2:1:0:0:
217,178,107316,1,0,0:0:0:0:
217,178,107399,2,0,B|243:266,1,80,2|0,2:2|1:2,0:0:0:0:
240,255,107649,37,0,0:0:0:0:
240,255,107732,1,2,1:2:0:0:
495,339,107899,1,10,1:1:0:0:
495,339,107983,1,0,0:0:0:0:
495,339,108066,1,2,1:2:0:0:
421,131,108232,6,0,B|385:152|385:152|398:189,1,80,0|0,1:2|0:0,0:0:0:0:
397,188,108566,1,10,2:1:0:0:
506,148,108732,37,0,0:0:0:0:
392,8,108899,2,0,B|356:29|356:29|369:66,1,80,0|0,1:2|1:2,0:0:0:0:
368,65,109232,1,10,2:1:0:0:
512,183,109399,5,0,1:2:0:0:
512,183,109482,1,0,1:2:0:0:
512,183,109566,1,0,1:2:0:0:
411,225,109732,1,0,1:2:0:0:
483,164,109899,2,0,B|449:78,1,80,10|0,2:1|1:2,0:0:0:0:
292,39,110232,37,8,2:2:0:0:
292,39,110316,1,0,0:0:0:0:
292,39,110399,1,0,1:2:0:0:
512,183,110566,1,10,2:1:0:0:
512,183,110649,1,0,0:0:0:0:
512,183,110732,1,0,1:2:0:0:
320,343,110899,5,2,1:2:0:0:
320,343,111232,1,10,2:1:0:0:
320,343,111399,1,2,2:2:0:0:
244,371,111566,2,0,B|208:350|208:350|221:313,1,80,2|0,1:2|0:0,0:0:0:0:
311,158,111899,37,10,2:1:0:0:
311,158,112066,1,2,1:2:0:0:
311,158,112399,1,2,1:2:0:0:
339,239,112566,1,10,2:1:0:0:
301,135,112732,1,2,2:2:0:0:
423,183,112899,5,2,1:2:0:0:
423,183,112982,1,0,0:0:0:0:
423,183,113066,2,0,B|393:108,1,80,0|10,1:2|1:1,0:0:0:0:
386,93,113399,1,2,1:2:0:0:
198,243,113566,37,2,1:2:0:0:
198,243,113732,2,0,B|162:222|162:222|175:185,2,80,2|10|2,2:2|2:1|2:2,0:0:0:0:
241,105,114232,2,0,B|273:189,1,80,2|2,1:2|2:2,0:0:0:0:
198,243,114566,1,10,2:1:0:0:
282,368,114732,6,0,B|435:307,1,160,2|2,1:2|1:2,0:0:0:0:
431,309,115232,1,10,2:1:0:0:
431,309,115399,1,2,2:2:0:0:
298,198,115566,37,2,2:2:0:0:
298,198,115732,1,2,2:2:0:0:
475,126,115899,5,10,2:1:0:0:
405,73,116066,1,0,0:0:0:0:
334,241,116232,38,0,B|279:221|279:221|248:275,1,120,6|0,1:2|0:0,0:0:0:0:
248,274,116566,1,10,2:1:0:0:
248,274,116732,1,0,0:0:0:0:
189,213,116899,2,0,B|152:200|152:200|131:236,1,80,2|2,1:2|2:2,0:0:0:0:
131,235,117232,1,10,2:1:0:0:
268,379,117399,5,0,1:2:0:0:
268,379,117482,1,0,1:2:0:0:
268,379,117566,2,0,B|193:349,1,80,2|2,1:2|1:2,0:0:0:0:
78,296,117899,1,10,2:1:0:0:
0,341,118066,1,2,1:2:0:0:
77,277,118232,37,0,1:2:0:0:
77,277,118399,1,2,2:2:0:0:
197,377,118566,5,8,2:1:0:0:
197,377,118732,1,2,2:2:0:0:
268,240,118899,38,0,P|282:185|236:152,1,119.999996337891,6|0,1:2|0:0,0:0:0:0:
2,191,119232,2,0,P|42:230|93:207,1,119.999996337891,6|0,1:2|0:0,0:0:0:0:
173,1,119566,2,0,P|118:15|112:72,1,119.999996337891,6|0,1:2|1:2,0:0:0:0:
235,152,119899,1,2,1:2:0:0:
235,152,120066,1,2,1:2:0:0:
458,58,120232,5,2,1:2:0:0:
236,187,120399,1,10,2:2:0:0:
236,187,120482,1,8,2:2:0:0:
236,187,120566,1,10,2:2:0:0:
457,329,120732,2,0,L|420:203,1,119.999996337891,2|8,1:2|2:2,0:0:0:0:
423,213,121066,37,8,2:2:0:0:
209,275,121232,1,8,2:2:0:0:
216,252,121316,1,8,2:2:0:0:
223,230,121399,1,8,2:2:0:0:
230,207,121482,1,8,2:2:0:0:
236,187,121566,6,0,P|254:250|314:236,1,119.999996337891,6|0,1:2|0:0,0:0:0:0:
193,344,122066,2,0,P|173:290|215:251,1,119.999996337891,2|0,2:2|0:0,0:0:0:0:
228,261,122566,1,2,0:0:0:0:
393,375,122899,38,0,P|403:324|443:256,1,119.999996337891,2|0,2:2|0:0,0:0:0:0:
405,384,123399,2,0,P|415:333|455:265,1,119.999996337891,2|0,2:2|0:0,0:0:0:0:
461,281,123899,1,2,2:2:0:0:
228,261,124232,6,0,P|183:225|198:171,1,119.999996337891,2|0,2:2|0:0,0:0:0:0:
252,56,124732,2,0,P|297:92|282:146,1,119.999996337891,2|0,2:2|0:0,0:0:0:0:
267,143,125232,1,0,0:0:0:0:
111,232,125566,38,0,P|180:245|237:264,1,119.999996337891,2|0,2:2|0:0,0:0:0:0:
232,278,126066,1,2,2:2:0:0:
312,235,126399,1,0,0:0:0:0:
312,235,126566,1,2,0:0:0:0:
308,152,130232,5,2,2:2:0:0:
308,152,130399,1,2,2:2:0:0:
170,160,130566,37,2,2:2:0:0:
166,124,130649,1,2,2:2:0:0:
186,94,130732,1,2,2:2:0:0:
220,82,130816,1,2,2:2:0:0:
253,98,130899,6,0,B|211:122|186:77|204:63|183:14|129:38,1,160,2|0,1:2|1:2,0:0:0:0:
25,32,131399,1,2,2:2:0:0:
25,32,131566,2,0,P|47:64|62:101,1,80,2|2,1:2|2:2,0:0:0:0:
47,185,131899,1,2,1:2:0:0:
47,185,132066,1,2,2:2:0:0:
139,299,132232,38,0,P|130:221|199:191,1,160,2|2,1:2|1:2,0:0:0:0:
255,121,132732,2,0,P|269:158|292:190,1,80,2|0,2:2|1:2,0:0:0:0:
327,83,133066,1,2,2:2:0:0:
327,83,133232,2,0,P|341:120|365:152,1,80,2|0,1:2|0:0,0:0:0:0:
419,276,133566,6,0,B|377:252|352:297|370:311|349:360|295:336,1,160,0|2,1:2|1:2,0:0:0:0:
199,340,134066,1,2,2:2:0:0:
199,340,134233,2,0,P|221:308|236:271,1,80,2|2,1:2|2:2,0:0:0:0:
236,270,134566,1,2,1:2:0:0:
236,270,134732,1,2,2:2:0:0:
18,203,135066,37,2,2:2:0:0:
18,203,135232,1,2,1:2:0:0:
75,277,135399,2,0,P|97:244|112:206,1,80,2|0,2:2|1:2,0:0:0:0:
113,207,135732,1,2,2:2:0:0:
175,287,135899,1,2,1:2:0:0:
175,287,136232,6,0,B|217:311|242:266|224:252|245:203|299:227,1,160,6|0,1:2|1:2,0:0:0:0:
393,229,136732,2,0,P|370:261|355:299,1,80,2|0,2:2|1:2,0:0:0:0:
235,378,137066,1,0,0:0:0:0:
235,378,137232,2,0,P|220:340|197:307,1,80,0|0,1:2|0:0,0:0:0:0:
242,158,137566,38,0,P|245:119|214:96,1,80,2|0,1:2|0:0,0:0:0:0:
144,132,137899,1,2,1:2:0:0:
144,132,138066,1,2,0:0:0:0:
331,287,138232,5,0,1:2:0:0:
331,287,138316,1,0,0:0:0:0:
331,287,138399,2,0,P|345:249|368:216,1,80,0|2,0:0|1:2,0:0:0:0:
368,216,138732,1,2,2:2:0:0:
199,384,138899,38,0,P|154:363|165:293,1,120,2|0,1:2|0:0,0:0:0:0:
157,300,139232,1,2,2:2:0:0:
367,384,139399,5,2,1:2:0:0:
367,384,139482,1,0,1:2:0:0:
367,384,139566,1,0,1:2:0:0:
164,278,139732,1,10,2:2:0:0:
164,278,139816,1,8,2:2:0:0:
164,278,139899,1,8,2:2:0:0:
341,220,140066,37,2,1:2:0:0:
341,220,140149,1,0,1:2:0:0:
341,220,140232,2,0,L|311:310,1,80,6|0,1:2|0:0,0:0:0:0:
315,295,141066,21,8,2:2:0:0:
488,164,141232,1,10,2:2:0:0:
506,133,141315,1,8,2:2:0:0:
504,99,141399,1,8,2:2:0:0:
479,74,141482,1,8,2:2:0:0:
438,70,141566,6,0,P|380:130|300:116,1,139.999995727539,6|0,1:2|0:0,0:0:0:0:
327,130,141816,1,0,0:0:0:0:
327,130,141899,1,8,2:2:0:0:
219,7,142066,37,2,2:2:0:0:
185,81,142233,1,2,1:2:0:0:
153,163,142400,1,2,2:2:0:0:
153,163,142483,1,0,0:0:0:0:
153,163,142566,1,10,2:2:0:0:
219,7,142733,5,2,2:2:0:0:
364,228,142899,2,0,P|381:164|326:129,1,139.999995727539,2|0,1:2|0:0,0:0:0:0:
327,130,143149,1,0,0:0:0:0:
327,130,143232,1,8,2:2:0:0:
418,314,143399,37,2,2:2:0:0:
418,314,143732,6,0,P|402:346|393:380,1,69.9999978637696,2|0,2:2|0:0,0:0:0:0:
487,271,143899,2,0,P|496:238|512:207,1,69.9999978637696,10|0,2:2|0:0,0:0:0:0:
285,301,144066,37,2,3:2:0:0:
285,301,144149,1,0,3:0:0:0:
285,301,144232,2,0,B|249:268|186:280|186:280|247:263|264:205,1,209.999993591309,2|0,1:2|0:0,0:0:0:0:
364,228,144566,6,0,P|373:194|388:163,1,69.9999978637696,10|0,2:2|0:0,0:0:0:0:
344,239,144732,1,2,2:2:0:0:
232,371,144899,37,2,1:2:0:0:
200,289,145066,1,2,2:2:0:0:
166,215,145233,1,10,2:2:0:0:
425,68,145399,5,2,3:2:0:0:
425,68,145482,1,0,0:0:0:0:
425,68,145566,2,0,P|439:140|368:155,1,139.999995727539,0|2,1:2|2:2,0:0:0:0:
388,162,145816,1,0,0:0:0:0:
388,162,145899,1,10,2:2:0:0:
259,136,146066,1,0,1:2:0:0:
259,136,146399,37,2,2:2:0:0:
417,251,146566,1,10,2:2:0:0:
395,278,146649,1,8,2:2:0:0:
376,308,146732,1,8,2:2:0:0:
360,339,146816,1,8,2:2:0:0:
346,370,146900,6,0,P|311:304|239:310,1,139.999995727539,6|0,1:2|0:0,0:0:0:0:
195,234,147150,1,0,0:0:0:0:
195,234,147232,2,0,P|128:241|101:302,1,139.999995727539,10|0,2:2|0:0,0:0:0:0:
247,162,147566,1,2,1:2:0:0:
247,162,147899,37,10,2:2:0:0:
133,384,148066,1,2,2:2:0:0:
133,384,148149,1,0,0:0:0:0:
133,384,148232,1,0,1:2:0:0:
101,302,148399,1,2,2:2:0:0:
67,228,148566,1,8,2:2:0:0:
345,154,148732,6,0,B|276:122|249:187|272:205|240:264|184:233,1,209.999993591309,2|0,2:2|0:0,0:0:0:0:
184,233,149066,37,2,2:2:0:0:
204,165,149232,2,0,B|249:143|267:186|252:198|273:237|310:217,1,139.999995727539,10|0,2:2|0:0,0:0:0:0:
324,242,149482,5,0,0:0:0:0:
324,242,149565,2,0,B|347:211|383:205|383:205|365:177|368:137,1,139.999995727539,2|2,1:2|2:2,0:0:0:0:
138,324,149899,1,10,2:2:0:0:
138,324,149982,1,0,0:0:0:0:
138,324,150066,2,0,B|115:293|79:287|79:287|97:259|94:219,1,139.999995727539,2|0,2:2|1:2,0:0:0:0:
263,384,150399,1,2,2:2:0:0:
263,384,150482,1,0,0:0:0:0:
263,384,150566,1,8,2:2:0:0:
298,177,150732,37,2,1:2:0:0:
298,177,150815,1,0,1:2:0:0:
298,177,150899,2,0,P|313:208|323:241,1,69.9999978637696,2|0,1:2|0:0,0:0:0:0:
301,268,151065,6,0,B|269:199|334:172|352:195|411:163|380:107,1,209.999993591309,8|0,2:2|0:0,0:0:0:0:
357,98,151399,1,2,2:2:0:0:
512,23,151566,37,0,1:2:0:0:
474,129,151733,1,8,2:2:0:0:
436,235,151900,1,10,2:2:0:0:
206,320,152066,5,0,3:2:0:0:
206,320,152149,1,0,3:2:0:0:
206,320,152233,2,0,P|221:351|231:384,1,69.9999978637696,6|0,1:2|0:0,0:0:0:0:
301,324,152399,2,0,P|352:297|328:220,1,139.999995727539,0|8,0:0|2:2,0:0:0:0:
210,90,152732,37,2,2:2:0:0:
176,164,152899,1,2,1:2:0:0:
144,246,153066,1,2,2:2:0:0:
144,246,153149,1,0,0:0:0:0:
144,246,153232,1,10,2:2:0:0:
210,90,153399,5,2,2:2:0:0:
90,0,153566,1,2,1:2:0:0:
90,0,153649,1,0,0:0:0:0:
90,0,153732,2,0,P|71:62|126:98,1,139.999995727539,2|8,2:2|2:2,0:0:0:0:
234,25,154066,37,2,2:2:0:0:
234,25,154399,6,0,P|218:57|209:91,1,69.9999978637696,2|0,2:2|0:0,0:0:0:0:
245,31,154566,2,0,P|229:63|220:97,1,69.9999978637696,10|0,2:2|0:0,0:0:0:0:
65,153,154732,37,2,3:0:0:0:
65,153,154816,1,0,3:0:0:0:
65,153,154899,2,0,B|24:164|0:139|-27:63|105:39|146:123,1,209.999993591309,2|0,1:2|0:0,0:0:0:0:
153,199,155232,6,0,P|137:231|128:265,1,69.9999978637696,10|0,2:2|0:0,0:0:0:0:
145,182,155399,1,2,2:2:0:0:
66,384,155566,37,2,1:2:0:0:
32,310,155733,1,0,2:2:0:0:
0,228,155900,1,10,2:2:0:0:
284,174,156066,5,2,3:2:0:0:
284,174,156149,1,0,3:0:0:0:
284,174,156232,2,0,B|246:185|231:217|231:217|242:181|219:147,1,139.999995727539,0|2,1:2|2:2,0:0:0:0:
221,150,156482,1,0,0:0:0:0:
221,150,156566,1,10,2:2:0:0:
306,255,156732,1,0,1:2:0:0:
379,16,156899,38,0,P|434:74|340:81,1,209.999993591309,2|0,2:2|0:0,0:0:0:0:
344,90,157232,5,10,2:2:0:0:
365,117,157315,1,8,2:2:0:0:
383,147,157398,1,10,2:2:0:0:
396,179,157482,1,8,2:2:0:0:
404,213,157565,38,0,P|425:154|498:152,1,139.999995727539,6|2,1:2|2:2,0:0:0:0:
454,282,157815,1,0,0:0:0:0:
454,282,157899,2,0,P|486:146|516:74,1,209.999993591309,10|0,2:2|0:0,0:0:0:0:
477,14,158232,1,2,1:2:0:0:
477,14,158566,5,10,2:2:0:0:
313,166,158732,1,2,2:2:0:0:
313,166,158816,1,0,0:0:0:0:
313,166,158899,1,0,1:2:0:0:
347,92,159066,1,2,2:2:0:0:
379,10,159233,1,10,2:2:0:0:
100,15,159399,38,0,B|169:-17|196:48|173:66|205:125|261:94,1,209.999993591309,2|0,2:2|0:0,0:0:0:0:
260,94,159732,1,2,2:2:0:0:
297,24,159899,1,8,2:2:0:0:
112,128,160066,5,2,1:2:0:0:
112,128,160149,1,0,1:2:0:0:
112,128,160232,2,0,B|114:165|96:193|96:193|132:199|155:230,1,139.999995727539,6|0,1:2|0:0,0:0:0:0:
386,269,160566,1,8,2:2:0:0:
386,269,160649,1,0,3:0:0:0:
386,269,160732,2,0,B|409:238|445:232|445:232|427:204|430:166,1,139.999995727539,0|2,3:0|1:2,0:0:0:0:
157,263,161066,1,0,1:2:0:0:
157,263,161149,1,0,0:0:0:0:
157,263,161232,1,8,2:2:0:0:
378,0,161399,37,0,1:2:0:0:
378,0,161482,1,0,1:2:0:0:
378,0,161566,2,0,B|368:27|368:27|381:52|381:52|344:152,1,139.999995727539,6|0,1:2|0:0,0:0:0:0:
329,205,161816,1,8,2:2:0:0:
329,205,161899,1,0,1:2:0:0:
208,72,162066,1,0,1:2:0:0:
231,334,162232,6,0,P|254:289|348:303,1,139.999995727539,10|8,2:2|2:2,0:0:0:0:
359,334,162482,37,0,3:2:0:0:
323,300,162565,1,8,2:2:0:0:
279,277,162648,1,8,0:0:0:0:
230,265,162732,1,8,0:0:0:0:
180,267,162816,1,8,0:0:0:0:
134,292,162899,6,0,B|106:255|64:248|64:248|85:215|82:171,2,160,6|0|10,1:2|0:0|2:1,0:0:0:0:
270,384,163399,37,2,1:2:0:0:
310,281,163566,1,0,0:0:0:0:
352,188,163733,1,0,1:2:0:0:
121,298,163899,6,0,B|93:261|51:254|51:254|72:221|69:177,1,160,10|0,2:2|1:2,0:0:0:0:
357,41,164232,38,0,B|304:16|284:65|301:79|277:124|235:100,1,160,2|0,1:2|0:0,0:0:0:0:
233,100,164482,1,0,1:2:0:0:
233,100,164566,1,10,2:1:0:0:
182,37,164732,5,2,1:2:0:0:
417,115,164899,1,8,2:2:0:0:
417,115,164982,1,8,2:2:0:0:
417,115,165066,1,2,1:2:0:0:
257,197,165232,37,10,2:2:0:0:
257,197,165399,1,0,1:2:0:0:
407,371,165566,6,0,B|434:334|476:327|476:327|455:294|458:250,2,160,6|0|10,1:2|0:0|2:1,0:0:0:0:
224,305,166066,37,2,1:2:0:0:
184,202,166233,1,0,0:0:0:0:
142,109,166400,1,0,1:2:0:0:
395,369,166566,6,0,B|422:332|464:325|464:325|443:292|446:248,1,160,10|0,2:2|1:2,0:0:0:0:
184,202,166899,38,0,B|236:177|256:226|239:240|263:285|305:261,1,160,2|0,1:2|0:0,0:0:0:0:
306,261,167149,1,0,3:2:0:0:
306,261,167232,1,0,1:2:0:0:
460,116,167399,6,0,B|444:156|444:156|464:194|464:194|408:345,1,240,10|0,2:1|0:0,0:0:0:0:
306,261,167732,37,10,2:2:0:0:
275,183,167899,1,10,2:2:0:0:
244,113,168066,1,2,1:2:0:0:
508,45,168232,6,0,B|450:13|415:75|440:94|411:161|337:128,1,209.999993591309,6|0,1:2|0:0,0:0:0:0:
331,112,168566,2,0,P|321:79|302:50,1,69.9999978637696,10|0,2:1|0:0,0:0:0:0:
459,221,168732,37,2,1:2:0:0:
459,221,168899,1,0,0:0:0:0:
496,148,169066,5,2,1:2:0:0:
496,148,169233,1,8,2:2:0:0:
299,287,169399,37,2,1:2:0:0:
299,287,169482,1,2,1:2:0:0:
299,287,169566,2,0,P|284:239|257:198,1,100,2|2,1:2|2:2,0:0:0:0:
350,183,169899,2,0,P|357:206|370:227,1,50,10|0,2:1|0:0,0:0:0:0:
496,148,170066,5,2,1:2:0:0:
496,148,170233,1,0,0:0:0:0:
459,221,170399,37,2,1:2:0:0:
459,221,170566,1,8,2:2:0:0:
419,293,170732,5,2,1:2:0:0:
501,48,170899,38,0,B|446:17|413:76|436:94|409:157|339:126,1,200,2|10,1:2|2:1,0:0:0:0:
459,221,171399,5,0,1:2:0:0:
459,221,171566,1,0,0:0:0:0:
496,148,171733,37,2,1:2:0:0:
496,148,171900,1,8,2:2:0:0:
247,384,172066,5,2,1:2:0:0:
247,384,172149,1,2,1:2:0:0:
247,384,172232,1,2,1:2:0:0:
304,311,172399,37,10,2:2:0:0:
304,311,172482,1,8,1:3:0:0:
304,311,172566,2,0,P|311:334|324:355,1,50,10|4,1:3|1:3,0:0:0:0:
213,301,172732,6,0,B|216:274|203:254|203:254|229:250|245:228,1,100,6|4,1:3|1:2,0:0:0:0:
148,374,173066,37,8,2:2:0:0:
123,374,173149,1,8,2:2:0:0:
100,364,173232,1,8,2:2:0:0:
82,347,173316,1,0,0:0:0:0:
73,323,173399,1,0,1:2:0:0:
74,299,173482,1,0,1:2:0:0:
86,280,173566,22,0,P|156:277|150:198,1,119.999996337891,10|0,2:1|1:2,0:0:0:0:
116,174,173816,2,0,P|89:125|124:80,1,119.999996337891,2|0,2:2|0:0,0:0:0:0:
254,137,174066,2,0,P|222:148|184:173,1,59.9999981689454,2|0,1:2|1:2,0:0:0:0:
91,259,174232,5,10,2:1:0:0:
91,259,174399,1,0,1:2:0:0:
124,48,174566,37,10,2:2:0:0:
124,48,174732,1,2,1:2:0:0:
310,230,174899,6,0,P|317:197|337:166,1,59.9999981689454,10|0,2:1|0:0,0:0:0:0:
444,71,175066,37,0,1:2:0:0:
444,71,175149,2,0,P|384:90|316:86,1,119.999996337891,2|0,1:2|0:0,0:0:0:0:
215,91,175399,6,0,P|240:113|256:146,1,59.9999981689454,2|0,1:2|0:0,0:0:0:0:
326,268,175566,37,10,2:1:0:0:
326,268,175732,1,0,1:2:0:0:
465,93,175899,5,10,2:2:0:0:
465,93,176066,1,0,1:2:0:0:
449,263,176232,38,0,P|443:216|370:210,1,119.999996337891,10|0,2:1|1:2,0:0:0:0:
325,266,176482,2,0,P|293:312|239:297,1,119.999996337891,2|0,2:2|0:0,0:0:0:0:
272,136,176732,2,0,P|290:167|300:206,1,59.9999981689454,2|0,1:2|1:2,0:0:0:0:
420,288,176899,5,10,2:1:0:0:
420,288,177066,1,0,1:2:0:0:
492,109,177232,37,10,2:2:0:0:
492,109,177399,1,2,1:2:0:0:
180,90,177566,6,0,B|219:71|234:108|221:119|240:152|272:135,1,119.999996337891,10|10,2:1|2:2,0:0:0:0:
271,135,177816,1,10,2:2:0:0:
271,135,177899,1,8,2:2:0:0:
328,8,178066,37,10,2:2:0:0:
328,8,178149,1,0,3:2:0:0:
328,8,178232,2,0,L|300:78,1,59.9999981689454,10|0,2:1|0:0,0:0:0:0:
270,176,178399,5,0,3:2:0:0:
270,176,178482,1,0,3:2:0:0:
270,176,178566,2,0,L|242:246,1,59.9999981689454,10|0,2:2|0:0,0:0:0:0:
195,369,178732,37,0,3:2:0:0:
195,369,178816,1,0,3:2:0:0:
195,369,178899,6,0,P|150:349|176:282,1,119.999996337891,6|0,1:1|1:2,0:0:0:0:
184,289,179149,2,0,P|199:235|150:208,1,119.999996337891,2|0,2:2|0:0,0:0:0:0:
136,203,179399,37,2,1:1:0:0:
136,203,179566,1,2,2:2:0:0:
218,384,179732,5,2,1:1:0:0:
218,384,179899,1,10,2:2:0:0:
408,218,180066,37,2,1:2:0:0:
408,218,180149,1,2,1:2:0:0:
408,218,180232,2,0,P|349:238|295:262,1,119.999996337891,2|0,1:1|1:2,0:0:0:0:
297,248,180482,2,0,P|351:223|408:204,1,119.999996337891,2|0,2:2|0:0,0:0:0:0:
418,181,180732,5,2,1:1:0:0:
418,181,180899,1,2,1:2:0:0:
295,278,181066,37,2,2:1:0:0:
295,278,181232,1,10,2:2:0:0:
237,116,181399,5,2,1:2:0:0:
237,116,181482,1,0,1:2:0:0:
237,116,181566,2,0,P|256:62|277:-5,1,119.999996337891,2|0,1:1|0:0,0:0:0:0:
314,139,181816,2,0,P|332:81|351:25,1,119.999996337891,2|0,2:2|0:0,0:0:0:0:
157,181,182066,37,2,1:1:0:0:
157,181,182149,1,2,2:2:0:0:
157,181,182232,2,0,P|136:127|109:62,1,119.999996337891,2|2,1:2|2:1,0:0:0:0:
80,209,182482,2,0,P|57:153|35:97,1,119.999996337891,2|0,2:2|2:2,0:0:0:0:
290,268,182732,5,2,1:2:0:0:
290,268,182815,1,0,1:2:0:0:
290,268,182899,2,0,P|309:214|330:147,1,119.999996337891,2|0,1:1|0:0,0:0:0:0:
367,291,183149,2,0,P|385:233|404:177,1,119.999996337891,2|0,2:2|0:0,0:0:0:0:
132,332,183399,37,2,1:1:0:0:
132,332,183482,1,2,2:2:0:0:
132,332,183565,2,0,P|111:278|84:213,1,119.999996337891,2|2,1:2|2:1,0:0:0:0:
55,360,183815,2,0,P|32:304|10:248,1,119.999996337891,2|0,2:2|2:2,0:0:0:0:
264,118,184066,5,2,1:2:0:0:
264,118,184149,1,0,1:2:0:0:
264,118,184233,2,0,P|283:64|304:-3,1,119.999996337891,2|0,1:1|0:0,0:0:0:0:
341,141,184482,2,0,P|359:83|378:27,1,119.999996337891,2|0,2:2|0:0,0:0:0:0:
191,178,184732,37,2,1:1:0:0:
191,178,184816,1,2,2:2:0:0:
191,178,184899,2,0,P|161:128|124:69,1,119.999996337891,2|2,1:2|0:1,0:0:0:0:
372,226,185149,2,0,P|428:202|483:181,1,119.999996337891,2|0,2:2|0:0,0:0:0:0:
178,360,185399,5,2,1:2:0:0:
178,360,185482,1,0,0:0:0:0:
178,360,185566,2,0,P|165:303|204:259,1,119.999996337891,6|0,1:1|0:0,0:0:0:0:
278,383,185816,2,0,P|316:338|281:265,1,119.999996337891,2|0,1:2|0:0,0:0:0:0:
25,171,186065,37,2,1:2:0:0:
25,171,186149,1,2,3:2:0:0:
25,171,186232,2,0,L|93:151,1,59.9999981689454,2|0,1:1|0:0,0:0:0:0:
44,248,186399,5,0,3:2:0:0:
44,248,186483,1,0,3:2:0:0:
44,248,186566,2,0,L|112:228,1,59.9999981689454,2|0,1:2|0:0,0:0:0:0:
149,96,186732,38,0,B|207:68|231:124|211:139|239:190|287:164,1,179.999994506836,2|0,1:2|0:0,0:0:0:0:
