osu file format v14

[General]
AudioFilename: audio.mp3
AudioLeadIn: 0
PreviewTime: 47899
Countdown: 0
SampleSet: Soft
StackLeniency: 0.5
Mode: 0
LetterboxInBreaks: 0
WidescreenStoryboard: 1

[Editor]
DistanceSpacing: 0.3
BeatDivisor: 4
GridSize: 32
TimelineZoom: 2.5

[Metadata]
Title:Roleless Weapon
TitleUnicode:ロールレスウエポン
Artist:inabakumori x Neru
ArtistUnicode:稲葉曇×Neru
Creator:Pisapou
Version:Sagu's Useless Weapon
Source:
Tags:LimeTwist Jeby Wither Sagu vocaloid rock japanese Kaai Yuki 歌愛ユキ Kagamine Len 鏡音レン CHIMERA キメラ jrock j-rock pop jpop j-pop
BeatmapID:4113700
BeatmapSetID:1949918

[Difficulty]
HPDrainRate:6.4
CircleSize:4.4
OverallDifficulty:8.4
ApproachRate:9.4
SliderMultiplier:2
SliderTickRate:1

[Events]
//Background and Video events
0,0,"chimera_bg.png",0,0
//Break Periods
2,126899,129566
//Storyboard Layer 0 (Background)
//Storyboard Layer 1 (Fail)
//Storyboard Layer 2 (Pass)
//Storyboard Layer 3 (Foreground)
//Storyboard Layer 4 (Overlay)
//Storyboard Sound Samples

[TimingPoints]
233,333.333333333333,4,2,1,53,1,0
233,-166.666666666667,4,2,1,53,0,0
5066,-100,4,2,1,53,0,0
5566,-62.5,4,2,1,73,0,0
16232,-83.3333333333333,4,2,1,63,0,0
26899,-83.3333333333333,4,2,1,63,0,0
37566,-71.4285714285714,4,2,1,63,0,0
48232,-55.5555555555556,4,2,1,83,0,1
67732,-100,4,2,1,83,0,1
68232,-62.5,4,2,1,73,0,0
73566,-166.666666666667,4,2,1,73,0,0
73899,-62.5,4,2,1,73,0,0
78899,-90.9090909090909,4,2,1,63,0,0
82899,-125,4,2,1,63,0,0
83232,-125,4,2,1,5,0,0
83732,-125,4,2,1,63,0,0
84232,-83.3333333333333,4,2,1,63,0,0
92566,-71.4285714285714,4,2,1,63,0,0
92899,-83.3333333333333,4,2,1,63,0,0
100232,-71.4285714285714,4,2,1,63,0,0
110899,-83.3333333333333,4,2,1,63,0,0
118899,-71.4285714285714,4,2,1,73,0,0
121566,-125,4,2,1,53,0,0
130899,-125,4,2,1,63,0,0
136232,-100,4,2,1,63,0,0
138899,-76.9230769230769,4,2,1,73,0,0
140232,-1000,4,2,1,73,0,0
140982,-1000,4,2,1,5,0,0
141066,-1000,4,2,1,73,0,0
141566,-55.5555555555556,4,2,1,83,0,1
162899,-62.5,4,2,1,73,0,0
165232,-100,4,2,1,73,0,0
165566,-62.5,4,2,1,73,0,0
167399,-55.5555555555556,4,2,1,73,0,0
168232,-62.5,4,2,1,73,0,0
173566,-58.8235294117647,4,2,1,83,0,0
178899,-62.5,4,2,1,73,0,0
179899,-71.4285714285714,4,2,1,73,0,0
181566,-83.3333333333333,4,2,1,73,0,0
182899,-71.4285714285714,4,2,1,73,0,0
184232,-62.5,4,2,1,73,0,0
185566,-55.5555555555556,4,2,1,63,0,0
186232,-55.5555555555556,4,2,1,53,0,0
186732,-250,4,2,1,53,0,0
187232,-62.5,4,2,1,5,0,0

[Colours]
Combo1 : 164,204,188
Combo2 : 255,194,70
Combo3 : 247,186,125
Combo4 : 233,236,239

[HitObjects]
69,227,233,38,0,P|85:291|97:363,1,119.999996337891,4|8,1:2|2:2,0:0:0:0:
143,176,732,1,0,1:2:0:0:
329,203,899,6,0,P|323:173|318:143,1,59.9999981689454,0|0,0:0|1:2,0:0:0:0:
301,65,1232,1,8,2:2:0:0:
416,231,1399,1,2,2:1:0:0:
314,337,1566,37,0,1:2:0:0:
287,324,1732,1,0,1:2:0:0:
409,321,1899,5,8,2:2:0:0:
233,237,2066,1,0,1:2:0:0:
205,57,2232,37,0,0:0:0:0:
133,94,2399,1,2,1:1:0:0:
384,96,2566,6,0,P|413:99|443:105,1,59.9999981689454,8|0,2:2|0:0,0:0:0:0:
69,228,2899,38,0,P|85:292|97:364,1,119.999996337891,4|8,1:2|2:2,0:0:0:0:
143,176,3398,1,0,1:2:0:0:
329,203,3565,6,0,P|323:173|318:143,1,59.9999981689454,0|0,0:0|1:2,0:0:0:0:
301,65,3898,1,8,2:2:0:0:
407,238,4065,1,2,2:1:0:0:
314,337,4232,37,0,1:2:0:0:
287,324,4398,1,0,1:2:0:0:
409,321,4565,5,8,2:2:0:0:
233,237,4732,1,0,1:2:0:0:
205,57,4898,37,0,0:0:0:0:
56,75,5065,5,8,2:2:0:0:
75,79,5149,1,8,2:2:0:0:
94,84,5232,1,8,2:2:0:0:
114,89,5315,1,8,2:2:0:0:
133,94,5399,2,0,L|144:165,1,50,8|0,2:2|0:0,0:0:0:0:
116,226,5566,6,0,P|44:238|43:332,1,160,6|0,1:2|0:0,0:0:0:0:
256,311,5899,2,0,P|287:289|286:236,1,80,10|0,2:2|0:0,0:0:0:0:
157,303,6066,6,0,B|78:280|120:242|16:223,1,160,2|0,2:2|1:2,0:0:0:0:
15,181,6316,1,0,0:0:0:0:
48,153,6399,1,2,2:2:0:0:
218,224,6566,38,0,P|226:175|235:122,1,80,8|0,2:2|0:0,0:0:0:0:
246,67,6732,1,2,2:2:0:0:
117,228,6899,6,0,P|136:313|151:404,2,160,2|2|10,1:2|2:2|2:2,0:0:0:0:
454,225,7399,2,0,P|435:140|420:49,1,160,2|0,2:2|1:2,0:0:0:0:
422,55,7649,1,0,0:0:0:0:
424,43,7732,1,2,2:2:0:0:
306,262,7899,37,8,2:2:0:0:
346,244,7982,1,0,0:0:0:0:
378,275,8066,1,2,2:2:0:0:
246,67,8232,6,0,P|146:53|137:-31,1,160,2|0,1:2|0:0,0:0:0:0:
325,23,8565,2,0,P|340:53|313:104,1,80,10|0,2:2|0:0,0:0:0:0:
240,206,8732,38,0,B|259:309|282:253|311:368,1,160,2|0,2:2|1:2,0:0:0:0:
273,380,8983,1,0,0:0:0:0:
233,362,9066,1,2,2:2:0:0:
322,170,9232,6,0,P|362:177|409:191,1,80,8|0,2:2|0:0,0:0:0:0:
476,208,9399,1,2,2:2:0:0:
171,301,9566,38,0,P|108:307|8:382,2,160,2|2|10,1:2|2:2|2:2,0:0:0:0:
322,170,10066,2,0,P|243:158|178:113,1,160,2|0,1:2|1:2,0:0:0:0:
170,101,10316,1,0,0:0:0:0:
165,88,10399,1,10,2:2:0:0:
106,254,10566,5,8,2:2:0:0:
142,228,10650,1,8,2:2:0:0:
133,185,10733,1,8,2:2:0:0:
400,307,10899,38,0,P|472:295|473:201,1,160,6|0,1:2|0:0,0:0:0:0:
266,295,11232,2,0,P|235:273|236:220,1,80,10|0,2:2|0:0,0:0:0:0:
349,246,11399,6,0,B|437:257|408:307|504:312,1,160,2|0,2:2|1:2,0:0:0:0:
506,353,11649,1,0,0:0:0:0:
476,384,11732,1,2,2:2:0:0:
413,172,11899,38,0,P|418:136|428:84,1,80,8|0,2:2|0:0,0:0:0:0:
439,17,12066,1,2,2:2:0:0:
238,62,12232,6,0,P|160:86|81:98,2,160,2|2|10,1:2|2:2|2:2,0:0:0:0:
233,362,12732,2,0,P|311:338|390:326,1,160,2|0,2:2|1:2,0:0:0:0:
403,325,12982,1,0,0:0:0:0:
417,326,13065,1,2,2:2:0:0:
314,93,13232,37,8,2:2:0:0:
299,135,13316,1,0,0:0:0:0:
333,164,13399,1,2,2:2:0:0:
105,175,13566,6,0,B|119:162|172:161|207:222|141:299|104:260|108:255|111:250|64:205|-11:255|14:349|83:351|98:330,1,320,2|8,1:2|2:2,0:0:0:0:
171,314,14066,2,0,B|79:302|140:244|-6:230,1,160,0|0,0:0|1:2,0:0:0:0:
2,209,14316,1,0,0:0:0:0:
18,168,14399,1,2,2:2:0:0:
298,263,14566,38,0,P|349:235|389:229,1,80,8|0,2:2|0:0,0:0:0:0:
448,214,14732,1,2,2:2:0:0:
233,377,14899,6,0,P|216:299|191:224,2,160,6|2|10,1:2|2:2|2:2,0:0:0:0:
270,165,15399,2,0,P|287:87|313:12,1,160,2|0,1:2|0:0,0:0:0:0:
191,224,15732,37,10,2:2:0:0:
204,261,15815,1,0,0:0:0:0:
216,299,15898,1,8,2:2:0:0:
225,338,15982,1,8,2:2:0:0:
233,377,16065,1,10,2:2:0:0:
192,136,16232,22,0,P|161:78|105:87,1,119.999996337891,6|0,1:2|0:0,0:0:0:0:
220,30,16566,1,10,2:2:0:0:
288,247,16732,6,0,P|371:221|429:217,1,119.999996337891,2|0,2:2|1:2,0:0:0:0:
416,218,16982,1,0,0:0:0:0:
426,219,17066,1,2,2:2:0:0:
278,147,17232,37,10,2:2:0:0:
134,173,17399,2,0,P|152:153|186:145,1,59.9999981689454
103,246,17566,6,0,P|85:181|55:137,1,119.999996337891,2|2,1:2|2:2,0:0:0:0:
0,70,17899,1,10,2:2:0:0:
201,219,18066,38,0,P|258:222|282:171,1,119.999996337891,2|0,2:2|1:2,0:0:0:0:
283,157,18316,1,0,0:0:0:0:
278,147,18399,1,2,2:2:0:0:
149,316,18566,5,8,2:2:0:0:
141,348,18649,1,0,0:0:0:0:
165,371,18732,1,2,2:2:0:0:
278,147,18899,38,0,P|248:231|230:320,1,179.999994506836,2|0,1:2|0:0,0:0:0:0:
240,327,19232,2,0,P|235:268|226:245,1,59.9999981689454,10|0,2:2|0:0,0:0:0:0:
198,138,19399,6,0,B|148:115|174:99|94:80,1,119.999996337891,2|0,2:2|1:2,0:0:0:0:
82,76,19649,1,0,0:0:0:0:
79,62,19732,1,2,2:2:0:0:
339,90,19899,2,0,P|390:67|388:10,1,119.999996337891,10|0,2:2|0:0,0:0:0:0:
278,147,20232,37,2,1:2:0:0:
113,176,20399,1,0,0:0:0:0:
0,70,20566,1,8,2:2:0:0:
163,23,20732,6,0,P|185:86|199:154,1,119.999996337891,0|0,0:0|1:2,0:0:0:0:
199,148,20982,1,0,0:0:0:0:
200,159,21066,1,2,2:2:0:0:
331,268,21232,37,10,2:2:0:0:
358,256,21315,1,8,2:2:0:0:
387,247,21398,1,10,2:2:0:0:
416,239,21481,1,8,2:2:0:0:
445,233,21566,6,0,B|464:129|490:191|507:61,1,179.999994506836,6|0,1:2|0:0,0:0:0:0:
496,63,21899,2,0,L|509:132,1,59.9999981689454,10|0,2:2|0:0,0:0:0:0:
376,173,22066,2,0,P|352:131|283:131,1,119.999996337891,2|0,2:2|1:2,0:0:0:0:
279,137,22316,1,0,0:0:0:0:
278,147,22399,1,2,2:2:0:0:
135,96,22566,1,10,2:2:0:0:
261,226,22732,38,0,P|254:260|249:291,1,59.9999981689454,2|0,2:2|0:0,0:0:0:0:
237,361,22899,2,0,P|232:331|225:302,1,59.9999981689454,0|0,1:2|0:0,0:0:0:0:
197,160,23066,1,2,2:2:0:0:
249,364,23232,1,10,2:2:0:0:
366,337,23399,6,0,P|451:357|513:375,1,119.999996337891,2|0,2:2|1:2,0:0:0:0:
495,369,23649,1,0,0:0:0:0:
506,372,23732,1,2,2:2:0:0:
331,268,23899,1,8,2:2:0:0:
153,332,24066,2,0,P|124:321|95:314,1,59.9999981689454,2|0,2:2|0:0,0:0:0:0:
7,343,24232,38,0,B|53:335|100:281|55:285|102:233|151:235,1,179.999994506836,2|0,1:2|0:0,0:0:0:0:
153,243,24566,2,0,P|101:228|73:214,1,59.9999981689454,10|0,2:2|0:0,0:0:0:0:
223,84,24732,6,0,P|220:30|136:10,1,119.999996337891,2|0,2:2|1:2,0:0:0:0:
152,2,24982,1,0,0:0:0:0:
142,9,25066,1,2,2:2:0:0:
16,125,25232,2,0,P|86:100|163:92,1,119.999996337891,10|0,2:2|0:0,0:0:0:0:
259,162,25566,37,2,1:2:0:0:
220,182,25649,1,0,0:0:0:0:
184,157,25732,1,0,0:0:0:0:
312,90,25899,1,8,2:2:0:0:
441,205,26066,2,0,P|415:263|409:337,1,119.999996337891,0|0,1:2|0:0,0:0:0:0:
384,147,26399,6,0,P|407:128|442:128,1,59.9999981689454,10|0,2:2|0:0,0:0:0:0:
447,130,26566,1,10,2:2:0:0:
328,202,26732,1,2,1:2:0:0:
253,65,26899,38,0,P|283:70|312:77,1,59.9999981689454,6|0,1:2|0:0,0:0:0:0:
383,46,27066,2,0,P|354:52|324:57,1,59.9999981689454,2|0,2:2|0:0,0:0:0:0:
191,118,27232,6,0,P|161:123|132:130,1,59.9999981689454,10|0,2:2|0:0,0:0:0:0:
61,99,27399,2,0,P|90:105|120:110,1,59.9999981689454,2|0,2:2|0:0,0:0:0:0:
241,180,27566,38,0,P|271:185|300:192,1,59.9999981689454,2|0,1:2|0:0,0:0:0:0:
371,161,27733,2,0,P|342:167|312:172,1,59.9999981689454,2|0,2:2|0:0,0:0:0:0:
186,237,27899,6,0,P|156:242|127:249,1,59.9999981689454,10|0,2:2|0:0,0:0:0:0:
56,218,28066,2,0,P|85:224|115:229,1,59.9999981689454,2|0,2:2|0:0,0:0:0:0:
327,262,28232,38,0,P|404:281|522:321,1,179.999994506836,2|0,1:2|0:0,0:0:0:0:
493,317,28566,2,0,P|456:278|461:250,1,59.9999981689454,8|0,2:2|0:0,0:0:0:0:
263,309,28732,6,0,P|186:328|68:368,1,179.999994506836
99,367,29066,2,0,P|136:328|131:300,1,59.9999981689454,2|0,2:2|0:0,0:0:0:0:
60,292,29232,37,10,2:2:0:0:
209,362,29399,1,2,2:2:0:0:
265,162,29566,6,0,P|284:123|275:79,1,59.9999981689454,6|0,1:2|0:0,0:0:0:0:
289,34,29732,2,0,P|270:73|279:117,1,59.9999981689454,2|0,2:2|0:0,0:0:0:0:
279,184,29899,38,0,P|318:203|362:194,1,59.9999981689454,10|0,2:2|0:0,0:0:0:0:
407,208,30065,2,0,P|368:189|324:198,1,59.9999981689454,2|0,2:2|0:0,0:0:0:0:
253,185,30232,6,0,P|234:224|243:268,1,59.9999981689454,2|0,1:2|0:0,0:0:0:0:
229,313,30398,2,0,P|248:274|239:230,1,59.9999981689454,2|0,2:2|0:0,0:0:0:0:
239,163,30565,38,0,P|200:144|156:153,1,59.9999981689454,10|0,2:2|0:0,0:0:0:0:
111,139,30731,2,0,P|150:158|194:149,1,59.9999981689454,2|0,2:2|0:0,0:0:0:0:
365,112,30899,6,0,P|445:64|425:-28,1,179.999994506836,2|0,1:2|0:0,0:0:0:0:
430,0,31232,2,0,P|447:27|482:39,1,59.9999981689454,8|0,2:2|0:0,0:0:0:0:
265,162,31399,38,0,P|185:114|205:22,1,179.999994506836,0|0,1:2|0:0,0:0:0:0:
201,43,31732,2,0,P|184:77|149:89,1,59.9999981689454,10|0,2:2|0:0,0:0:0:0:
0,53,31899,5,10,2:2:0:0:
29,46,31982,1,8,2:2:0:0:
58,39,32066,1,10,2:2:0:0:
87,32,32148,1,8,2:2:0:0:
116,25,32232,2,0,B|140:124|52:94|76:201,1,179.999994506836,6|0,1:2|0:0,0:0:0:0:
89,193,32566,2,0,L|63:117,1,59.9999981689454,10|0,2:2|0:0,0:0:0:0:
228,236,32732,38,0,P|287:251|343:274,1,119.999996337891,2|0,2:2|1:2,0:0:0:0:
352,278,32982,1,0,0:0:0:0:
362,281,33066,1,2,2:2:0:0:
182,172,33232,1,8,2:2:0:0:
45,311,33399,2,0,P|24:269|32:237,1,59.9999981689454,2|0,2:2|0:0,0:0:0:0:
119,363,33566,6,0,P|128:303|146:246,1,119.999996337891,2|2,1:2|2:2,0:0:0:0:
261,154,33899,1,10,2:2:0:0:
145,97,34066,2,0,B|81:77|106:52|41:39,1,119.999996337891,2|0,2:2|1:2,0:0:0:0:
28,40,34316,1,0,0:0:0:0:
17,45,34399,1,2,2:2:0:0:
45,120,34566,37,10,2:2:0:0:
233,79,34732,1,2,2:2:0:0:
354,46,34899,2,0,B|400:54|447:108|402:104|449:156|498:154,1,179.999994506836,2|0,1:2|0:0,0:0:0:0:
500,146,35233,2,0,P|448:161|420:175,1,59.9999981689454,10|0,2:2|0:0,0:0:0:0:
512,258,35399,6,0,P|509:312|425:332,1,119.999996337891,2|0,2:2|1:2,0:0:0:0:
441,340,35649,1,0,0:0:0:0:
431,333,35733,1,2,2:2:0:0:
316,211,35899,2,0,P|392:233|445:261,1,119.999996337891,10|0,2:2|0:0,0:0:0:0:
349,128,36232,37,2,1:2:0:0:
235,200,36399,1,2,1:2:0:0:
265,341,36566,1,10,2:2:0:0:
161,239,36732,6,0,B|121:236|74:189|119:193|72:139|26:131,1,179.999994506836,2|0,1:2|0:0,0:0:0:0:
23,146,37066,2,0,P|67:131|98:115,1,59.9999981689454,2|0,1:2|0:0,0:0:0:0:
133,68,37232,1,10,2:2:0:0:
23,225,37399,1,2,1:2:0:0:
201,304,37566,38,0,P|192:347|187:378,1,69.9999978637696,6|0,1:2|0:0,0:0:0:0:
182,298,37732,2,0,P|176:263|168:229,1,69.9999978637696,0|0,1:2|0:0,0:0:0:0:
113,343,37899,5,10,2:1:0:0:
250,244,38066,1,2,2:2:0:0:
397,322,38232,1,2,1:2:0:0:
262,241,38399,1,0,1:2:0:0:
382,324,38566,38,0,P|342:313|315:300,1,69.9999978637696,10|0,2:1|0:0,0:0:0:0:
227,171,38732,2,0,B|256:94|275:152|308:52,1,139.999995727539,2|0,1:2|0:0,0:0:0:0:
256,4,39066,1,2,1:2:0:0:
305,59,39232,5,10,2:1:0:0:
177,105,39399,1,2,2:2:0:0:
49,151,39566,1,2,1:2:0:0:
103,203,39732,37,0,1:2:0:0:
111,209,39816,1,0,1:2:0:0:
119,216,39899,2,0,P|128:267|129:286,1,69.9999978637696,10|0,2:1|0:0,0:0:0:0:
307,186,40066,2,0,P|365:185|396:265,1,139.999995727539,2|0,1:2|1:2,0:0:0:0:
270,252,40399,2,0,P|231:237|201:239,1,69.9999978637696,2|0,1:2|0:0,0:0:0:0:
196,243,40566,1,10,2:1:0:0:
43,162,40732,1,2,2:2:0:0:
0,228,40899,6,0,P|14:296|25:365,2,139.999995727539,2|2|10,1:2|1:2|2:1,0:0:0:0:
92,330,41399,1,2,1:2:0:0:
99,334,41482,1,0,1:0:0:0:
105,337,41566,2,0,B|184:322|125:273|226:251,1,139.999995727539,2|0,1:2|1:2,0:0:0:0:
337,313,41899,1,10,2:1:0:0:
437,227,42066,1,2,2:2:0:0:
276,202,42232,38,0,P|322:220|343:232,1,69.9999978637696,8|0,2:2|0:0,0:0:0:0:
350,237,42399,1,2,1:2:0:0:
503,109,42566,2,0,P|457:127|436:139,1,69.9999978637696,10|0,2:1|0:0,0:0:0:0:
429,144,42733,1,0,1:2:0:0:
292,96,42899,6,0,B|165:83|242:32|79:14,1,209.999993591309,6|0,1:2|0:0,0:0:0:0:
102,34,43232,2,0,P|151:27|179:16,1,69.9999978637696,10|0,2:1|0:0,0:0:0:0:
270,14,43399,1,0,0:0:0:0:
355,152,43566,1,2,1:2:0:0:
263,21,43732,1,0,1:2:0:0:
178,183,43899,38,0,P|195:267|201:332,1,139.999995727539,10|2,2:1|1:2,0:0:0:0:
200,333,44149,1,0,1:0:0:0:
199,345,44232,1,2,1:2:0:0:
266,231,44399,1,2,1:2:0:0:
147,104,44566,1,10,2:1:0:0:
251,155,44732,5,2,2:2:0:0:
251,15,44899,1,8,2:2:0:0:
372,85,45066,1,2,1:2:0:0:
251,155,45232,1,10,2:1:0:0:
350,212,45399,37,2,1:2:0:0:
361,219,45482,1,0,1:2:0:0:
372,225,45566,2,0,P|443:205|481:324,1,209.999993591309,4|0,1:2|0:0,0:0:0:0:
481,307,45899,2,0,P|490:257|532:232,1,69.9999978637696,10|0,2:2|0:0,0:0:0:0:
512,241,46066,1,2,1:2:0:0:
387,326,46232,5,10,2:2:0:0:
193,225,46399,1,2,1:2:0:0:
393,336,46566,1,10,2:2:0:0:
459,92,46732,38,0,P|455:57|434:29,1,69.9999978637696,6|0,1:2|0:0,0:0:0:0:
450,99,47066,5,10,2:2:0:0:
201,1,47232,1,10,2:2:0:0:
310,318,47399,37,10,2:2:0:0:
193,225,47566,1,8,2:2:0:0:
0,326,47732,5,8,2:2:0:0:
50,120,47899,21,8,2:2:0:0:
84,126,47982,1,8,2:2:0:0:
118,132,48065,1,8,2:2:0:0:
153,138,48149,1,8,2:2:0:0:
187,144,48232,38,0,P|290:102|282:23,1,179.999994506836,6|0,1:2|0:0,0:0:0:0:
284,35,48482,1,0,0:0:0:0:
274,29,48566,1,8,2:2:0:0:
472,94,48732,5,2,2:2:0:0:
344,155,48899,2,0,P|356:239|380:331,1,179.999994506836,2|2,1:2|2:2,0:0:0:0:
217,74,49232,37,10,2:2:0:0:
44,280,49399,1,2,2:2:0:0:
89,298,49482,1,0,0:0:0:0:
122,260,49566,2,0,P|110:176|86:84,1,179.999994506836,2|0,1:2|0:0,0:0:0:0:
0,0,49899,1,8,2:2:0:0:
198,233,50066,6,0,B|293:227|240:151|368:146,1,179.999994506836,2|0,2:2|1:2,0:0:0:0:
375,111,50316,1,0,0:0:0:0:
345,78,50399,1,2,2:2:0:0:
383,0,50566,1,10,2:2:0:0:
275,254,50732,37,0,0:0:0:0:
280,249,50816,1,0,0:0:0:0:
284,244,50899,2,0,P|356:249|380:359,1,179.999994506836,0|0,1:2|0:0,0:0:0:0:
173,362,51232,6,0,P|93:339|-38:308,1,179.999994506836,10|2,2:2|2:2,0:0:0:0:
249,171,51566,2,0,P|336:149|422:124,2,179.999994506836,2|0|10,1:2|0:0|2:2,0:0:0:0:
245,384,52066,37,2,2:2:0:0:
263,338,52149,1,0,0:0:0:0:
225,306,52232,1,0,1:2:0:0:
339,193,52399,1,2,2:2:0:0:
273,39,52566,1,10,2:2:0:0:
510,107,52732,5,2,1:2:0:0:
510,107,53066,38,0,P|465:112|422:124,1,89.9999972534181,2|0,2:2|0:0,0:0:0:0:
183,232,53232,5,10,2:2:0:0:
179,187,53315,1,8,2:2:0:0:
175,142,53398,1,8,2:2:0:0:
170,97,53482,1,8,2:2:0:0:
166,52,53566,38,0,P|84:39|51:195,1,269.999991760254,6|0,1:2|0:0,0:0:0:0:
58,191,53899,2,0,P|79:137|39:94,1,89.9999972534181,10|0,2:2|0:0,0:0:0:0:
6,62,54066,1,0,0:0:0:0:
166,236,54232,5,2,1:2:0:0:
126,318,54399,1,0,0:0:0:0:
33,285,54566,38,0,P|105:295|123:325,1,89.9999972534181,10|0,2:2|0:0,0:0:0:0:
188,368,54732,1,2,2:2:0:0:
197,376,54816,1,0,0:0:0:0:
206,384,54899,2,0,P|258:363|383:353,1,179.999994506836,0|2,1:2|2:2,0:0:0:0:
512,384,55232,1,8,2:2:0:0:
235,288,55399,6,0,P|229:246|219:192,1,89.9999972534181,2|0,2:2|0:0,0:0:0:0:
375,85,55566,1,0,1:2:0:0:
280,0,55732,37,2,2:2:0:0:
282,8,55816,1,0,0:0:0:0:
283,15,55899,2,0,P|298:109|313:262,1,179.999994506836,10|0,2:2|0:0,0:0:0:0:
375,85,56149,5,0,0:0:0:0:
383,81,56232,2,0,P|428:100|428:161,1,89.9999972534181,2|0,1:2|0:0,0:0:0:0:
383,194,56399,1,2,2:2:0:0:
260,114,56566,1,10,2:2:0:0:
123,165,56732,38,0,P|112:121|97:78,1,89.9999972534181,2|0,2:2|0:0,0:0:0:0:
72,6,56899,1,0,1:2:0:0:
39,229,57066,5,2,2:2:0:0:
0,197,57149,1,0,0:0:0:0:
25,154,57232,2,0,B|136:129|76:92|205:78,1,179.999994506836,8|2,2:2|1:2,0:0:0:0:
337,222,57482,37,0,1:2:0:0:
381,197,57566,2,0,P|403:91|425:19,1,179.999994506836,2|8,1:2|2:2,0:0:0:0:
428,12,57816,1,0,1:0:0:0:
435,18,57899,5,10,2:2:0:0:
444,32,57982,1,8,0:0:0:0:
436,57,58066,1,10,0:0:0:0:
403,72,58149,1,8,0:0:0:0:
364,55,58232,1,0,1:2:0:0:
314,66,58316,1,0,1:0:0:0:
283,111,58399,38,0,P|284:137|290:108,1,89.9999972534181,8|0,2:2|0:0,0:0:0:0:
261,0,58566,6,0,P|295:133|324:290,1,269.999991760254,10|0,2:2|0:0,0:0:0:0:
395,349,58899,38,0,B|449:334|453:253|377:221|330:256|319:300|365:304|285:351|232:312,1,269.999991760254,6|0,1:2|0:0,0:0:0:0:
202,278,59232,1,8,2:2:0:0:
76,369,59399,5,2,2:2:0:0:
143,227,59566,2,0,P|227:239|319:263,1,179.999994506836,2|2,1:2|2:2,0:0:0:0:
93,155,59899,1,10,2:2:0:0:
239,24,60066,1,2,2:2:0:0:
257,69,60149,1,0,0:0:0:0:
219,102,60233,2,0,P|135:90|43:66,1,179.999994506836,2|0,1:2|0:0,0:0:0:0:
279,174,60566,1,8,2:2:0:0:
80,283,60732,37,2,2:2:0:0:
80,283,61066,6,0,P|58:245|15:238,1,89.9999972534181,2|0,2:2|0:0,0:0:0:0:
14,319,61232,2,0,B|39:203|74:276|92:156,1,179.999994506836,10|0,2:2|0:0,0:0:0:0:
94,0,61482,37,0,0:0:0:0:
88,7,61566,2,0,P|107:75|226:85,1,179.999994506836,0|0,1:2|0:0,0:0:0:0:
342,0,61899,6,0,P|315:85|308:175,1,179.999994506836,10|2,2:2|2:2,0:0:0:0:
194,384,62232,2,0,P|187:294|160:208,2,179.999994506836,2|2|10,1:2|2:2|2:2,0:0:0:0:
308,175,62732,37,2,2:2:0:0:
262,193,62816,1,0,0:0:0:0:
226,161,62899,1,0,1:2:0:0:
380,119,63066,1,2,2:2:0:0:
454,265,63232,5,10,2:2:0:0:
447,269,63316,1,0,0:0:0:0:
441,273,63399,2,0,P|370:272|341:387,1,179.999994506836,2|2,1:2|2:2,0:0:0:0:
512,322,63732,1,2,2:2:0:0:
442,184,63899,37,10,2:2:0:0:
458,142,63982,1,8,2:2:0:0:
474,100,64065,1,8,2:2:0:0:
491,58,64149,1,8,2:2:0:0:
507,16,64232,5,6,1:2:0:0:
451,195,64399,1,2,2:2:0:0:
307,76,64566,2,0,P|342:76|373:29,1,89.9999972534181,10|0,2:2|0:0,0:0:0:0:
372,34,64899,38,0,P|263:56|214:120,1,179.999994506836,2|0,1:2|0:0,0:0:0:0:
143,31,65232,1,10,2:2:0:0:
44,90,65399,5,2,2:2:0:0:
37,94,65482,1,0,0:0:0:0:
28,100,65566,2,0,P|51:190|63:284,1,179.999994506836,0|2,1:2|2:2,0:0:0:0:
4,384,65899,1,10,2:2:0:0:
129,165,66066,38,0,B|226:177|167:235|299:244,1,179.999994506836,2|0,2:2|1:2,0:0:0:0:
318,206,66316,1,0,0:0:0:0:
297,162,66399,1,0,0:0:0:0:
377,119,66566,1,10,2:2:0:0:
229,6,66732,5,2,1:2:0:0:
224,13,66816,1,0,1:2:0:0:
220,20,66899,2,0,P|227:68|234:121,1,89.9999972534181,2|0,1:2|0:0,0:0:0:0:
206,181,67066,37,10,2:2:0:0:
214,225,67149,1,8,2:2:0:0:
220,269,67232,1,10,2:2:0:0:
225,314,67315,1,8,2:3:0:0:
228,359,67399,1,10,2:2:0:0:
309,332,67566,5,0,1:2:0:0:
458,314,67732,37,10,2:2:0:0:
439,310,67816,1,8,2:2:0:0:
420,305,67899,1,10,2:2:0:0:
400,300,67982,1,0,0:0:0:0:
381,295,68066,2,0,L|370:224,1,50,8|0,2:2|0:0,0:0:0:0:
398,163,68233,6,0,P|470:151|471:57,1,160,6|0,1:2|0:0,0:0:0:0:
254,80,68566,2,0,P|223:102|224:155,1,80,10|0,2:2|0:0,0:0:0:0:
357,86,68733,38,0,B|436:109|394:147|498:166,1,160,2|0,2:2|1:2,0:0:0:0:
499,208,68983,1,0,0:0:0:0:
462,232,69066,1,2,2:2:0:0:
296,165,69233,6,0,P|288:214|279:267,1,80,8|0,2:2|0:0,0:0:0:0:
268,322,69399,1,2,2:2:0:0:
397,161,69566,38,0,P|378:76|363:-15,2,160,2|2|10,1:2|2:2|2:2,0:0:0:0:
60,164,70066,2,0,P|79:249|94:340,1,160,2|0,2:2|1:2,0:0:0:0:
92,334,70316,1,0,0:0:0:0:
90,346,70399,1,2,2:2:0:0:
208,127,70566,5,8,2:2:0:0:
168,145,70649,1,0,0:0:0:0:
136,114,70733,1,2,2:2:0:0:
268,322,70899,38,0,P|368:336|377:420,1,160,2|0,1:2|0:0,0:0:0:0:
189,366,71232,2,0,P|174:336|201:285,1,80,10|0,2:2|0:0,0:0:0:0:
274,183,71399,6,0,B|255:80|232:136|203:21,1,160,2|0,2:2|1:2,0:0:0:0:
241,9,71650,1,0,0:0:0:0:
281,27,71733,1,2,2:2:0:0:
192,219,71899,38,0,P|152:212|105:198,1,80,8|0,2:2|0:0,0:0:0:0:
38,181,72066,1,2,2:2:0:0:
343,88,72233,6,0,P|406:82|506:7,2,160,2|2|10,1:2|2:2|2:2,0:0:0:0:
192,219,72733,2,0,P|271:231|336:276,1,160,2|0,1:2|1:2,0:0:0:0:
344,288,72983,1,0,0:0:0:0:
349,301,73066,1,10,2:2:0:0:
408,135,73233,37,8,2:2:0:0:
372,161,73317,1,8,2:2:0:0:
381,204,73400,1,8,2:2:0:0:
149,143,73566,22,0,B|95:154|121:171|44:188,1,89.9999972534181,2|0,1:2|0:0,0:0:0:0:
222,68,73899,22,0,P|253:90|252:143,1,80,14|0,2:2|0:0,0:0:0:0:
163,138,74066,2,0,B|75:127|104:77|8:72,1,160,2|0,2:2|1:2,0:0:0:0:
6,31,74316,1,0,0:0:0:0:
36,0,74399,1,2,2:2:0:0:
74,195,74566,6,0,P|69:231|59:283,1,80,8|0,2:2|0:0,0:0:0:0:
48,350,74733,1,2,2:2:0:0:
276,327,74899,38,0,P|354:303|433:291,2,160,2|2|10,1:2|2:2|2:2,0:0:0:0:
281,27,75399,2,0,P|203:51|124:63,1,160,2|0,2:2|1:2,0:0:0:0:
111,64,75649,1,0,0:0:0:0:
97,63,75732,1,2,2:2:0:0:
200,296,75899,5,8,2:2:0:0:
215,254,75983,1,0,0:0:0:0:
181,225,76066,1,2,2:2:0:0:
407,209,76232,38,0,B|393:222|340:223|305:162|371:85|408:124|404:129|401:134|448:179|523:129|498:35|429:33|414:54,1,320,6|8,1:2|2:2,0:0:0:0:
343,75,76733,6,0,B|435:87|374:145|520:159,1,160,0|0,0:0|1:2,0:0:0:0:
512,180,76983,1,0,0:0:0:0:
496,221,77066,1,2,2:2:0:0:
216,126,77233,38,0,P|165:154|125:160,1,80,8|0,2:2|0:0,0:0:0:0:
66,175,77399,1,2,2:2:0:0:
281,12,77566,6,0,P|298:90|323:165,2,160,6|2|10,1:2|2:2|2:2,0:0:0:0:
244,224,78066,2,0,P|227:302|201:377,1,160,2|0,1:2|0:0,0:0:0:0:
244,224,78399,37,10,2:2:0:0:
236,263,78482,1,0,0:0:0:0:
226,302,78565,1,10,2:2:0:0:
214,340,78648,1,8,2:2:0:0:
200,377,78732,1,10,2:2:0:0:
323,165,78899,21,6,1:2:0:0:
158,205,79066,2,0,P|106:204|77:151,1,110.000003356934,2|10,2:2|2:2,0:0:0:0:
126,15,79399,2,0,P|140:67|151:131,2,110.000003356934,2|2|2,1:2|2:2|1:2,0:0:0:0:
77,158,79899,1,2,2:2:0:0:
170,287,80066,1,2,1:2:0:0:
157,384,80232,6,0,B|207:365|190:345|255:327,1,110.000003356934,0|2,1:2|2:2,0:0:0:0:
261,332,80482,1,0,0:0:0:0:
270,335,80566,1,10,2:2:0:0:
316,87,80732,38,0,P|263:94|236:141,1,110.000003356934,2|0,1:2|0:0,0:0:0:0:
356,170,81066,1,2,1:2:0:0:
474,117,81232,1,0,0:0:0:0:
382,247,81399,6,0,P|369:264|359:301,1,55.0000016784668,2|0,2:2|0:0,0:0:0:0:
337,378,81566,38,0,P|325:325|254:225,1,165.000005035401,2|0,1:2|0:0,0:0:0:0:
251,225,81899,1,10,2:2:0:0:
392,102,82066,2,0,B|409:41|448:72|464:0,1,110.000003356934,2|0,1:2|0:0,0:0:0:0:
456,8,82316,1,0,0:0:0:0:
453,0,82399,1,2,1:2:0:0:
243,138,82566,5,10,2:2:0:0:
290,123,82649,1,0,0:0:0:0:
320,162,82732,1,8,2:2:0:0:
180,295,82899,38,0,B|149:304|149:304|140:334|140:334|135:332|135:332|85:340|85:340|36:369,1,160,2|0,1:2|0:0,0:0:0:0:
50,360,83732,6,0,P|88:367|113:376,1,40,2|0,2:2|0:0,0:0:0:0:
162,201,83899,1,10,2:2:0:0:
158,171,83982,1,8,2:2:0:0:
150,142,84065,1,10,2:2:0:0:
138,114,84148,1,8,2:2:0:0:
123,88,84232,38,0,B|189:64|151:31|252:15,1,119.999996337891,6|0,1:2|0:0,0:0:0:0:
328,47,84566,1,10,2:2:0:0:
162,201,84732,6,0,P|86:176|1:161,1,119.999996337891,2|0,2:2|1:2,0:0:0:0:
37,165,84982,1,0,0:0:0:0:
27,165,85066,1,2,2:2:0:0:
227,123,85232,1,10,2:2:0:0:
365,236,85399,38,0,P|390:219|434:211,1,59.9999981689454,2|0,2:2|0:0,0:0:0:0:
501,198,85566,2,0,P|435:155|461:99,1,119.999996337891,0|2,1:2|2:2,0:0:0:0:
491,50,85899,1,10,2:2:0:0:
227,123,86066,6,0,P|142:103|80:85,1,119.999996337891,2|0,2:2|1:2,0:0:0:0:
98,91,86316,1,0,0:0:0:0:
87,88,86399,1,2,2:2:0:0:
261,214,86566,1,8,2:2:0:0:
133,348,86733,2,0,P|104:354|75:377,1,59.9999981689454,2|0,2:2|0:0,0:0:0:0:
138,338,86899,38,0,B|126:263|98:303|84:216,2,119.999996337891,2|2|10,1:2|2:2|2:2,0:0:0:0:
154,186,87399,1,2,2:2:0:0:
312,139,87566,5,2,1:2:0:0:
325,99,87649,1,0,0:0:0:0:
294,70,87732,1,2,2:2:0:0:
201,278,87899,38,0,P|241:290|281:307,1,59.9999981689454,10|0,2:2|0:0,0:0:0:0:
331,322,88066,1,0,0:0:0:0:
414,31,88232,6,0,P|338:53|267:65,1,119.999996337891,2|0,1:2|1:2,0:0:0:0:
426,36,88566,2,0,P|442:68|428:101,1,59.9999981689454,8|0,0:0|0:0,0:0:0:0:
227,123,88732,38,0,B|124:104|196:62|41:34,1,179.999994506836,0|0,1:2|0:0,0:0:0:0:
81,47,89066,6,0,P|74:76|65:104,1,59.9999981689454,2|0,1:2|0:0,0:0:0:0:
37,177,89232,1,10,2:2:0:0:
177,56,89399,1,10,2:2:0:0:
321,155,89566,38,0,P|312:183|305:212,1,59.9999981689454,6|0,1:2|0:0,0:0:0:0:
299,282,89732,2,0,P|305:252|314:224,1,59.9999981689454,2|0,2:2|0:0,0:0:0:0:
187,222,89899,6,0,P|195:250|202:279,1,59.9999981689454,10|0,2:1|0:0,0:0:0:0:
209,349,90065,2,0,P|202:319|193:291,1,59.9999981689454,2|0,2:2|0:0,0:0:0:0:
367,333,90232,37,2,1:2:0:0:
201,211,90399,1,2,2:2:0:0:
8,271,90566,1,10,2:1:0:0:
69,337,90732,6,0,P|92:305|80:261,1,59.9999981689454,2|0,2:2|0:0,0:0:0:0:
4,154,90899,1,0,1:2:0:0:
93,10,91066,37,2,2:2:0:0:
131,132,91233,2,0,B|124:56|102:98|81:24,1,119.999996337891,10|2,2:1|2:2,0:0:0:0:
72,205,91566,1,2,1:2:0:0:
190,48,91732,6,0,P|225:39|254:17,1,59.9999981689454,2|0,2:2|0:0,0:0:0:0:
260,126,91899,2,0,P|295:135|324:157,1,59.9999981689454,10|0,2:1|0:0,0:0:0:0:
326,62,92066,2,0,P|361:53|390:31,1,59.9999981689454
512,291,92232,37,2,1:2:0:0:
512,291,92566,6,0,B|515:271|531:259|531:259|451:260|423:324|423:324|404:311|379:310,1,209.999993591309,10|0,2:1|0:0,0:0:0:0:
345,375,92899,2,0,P|354:317|322:268,1,119.999996337891,2|2,1:2|2:2,0:0:0:0:
260,218,93232,1,10,2:1:0:0:
397,223,93399,37,2,2:2:0:0:
403,198,93482,1,0,0:0:0:0:
409,173,93566,1,2,1:2:0:0:
348,68,93732,1,2,2:2:0:0:
443,2,93899,1,10,2:1:0:0:
335,147,94066,6,0,B|282:152|251:94|293:104|247:60|186:58,1,179.999994506836,2|0,1:2|0:0,0:0:0:0:
194,70,94399,2,0,P|239:61|264:36,1,59.9999981689454,2|0,1:2|0:0,0:0:0:0:
89,0,94566,37,10,2:2:0:0:
95,29,94649,1,8,2:2:0:0:
101,58,94732,1,10,2:2:0:0:
108,87,94815,1,8,2:2:0:0:
114,117,94899,2,0,B|122:221|45:168|49:281,1,179.999994506836,6|0,1:2|0:0,0:0:0:0:
63,276,95232,2,0,P|55:242|32:214,1,59.9999981689454,10|0,0:2|0:0,0:0:0:0:
0,339,95399,6,0,P|59:354|115:377,1,119.999996337891,2|0,2:2|1:2,0:0:0:0:
124,381,95649,1,0,0:0:0:0:
134,384,95733,1,0,0:0:0:0:
243,284,95899,1,10,2:2:0:0:
430,346,96066,38,0,P|452:308|482:302,1,59.9999981689454,2|0,2:2|0:0,0:0:0:0:
355,227,96232,2,0,P|331:296|347:375,1,119.999996337891,2|2,1:2|2:2,0:0:0:0:
440,222,96566,1,10,2:2:0:0:
305,154,96732,6,0,B|244:136|268:104|203:91,1,119.999996337891,2|0,2:2|1:2,0:0:0:0:
193,94,96982,1,0,0:0:0:0:
182,99,97065,1,2,2:2:0:0:
235,1,97232,1,8,2:2:0:0:
398,138,97399,38,0,P|434:103|431:69,1,59.9999981689454,2|0,2:2|0:0,0:0:0:0:
435,0,97566,2,0,B|444:114|483:50|503:183,1,179.999994506836,2|0,1:2|0:0,0:0:0:0:
505,177,97899,1,10,2:2:0:0:
305,154,98066,6,0,P|212:177|153:198,1,119.999996337891,2|0,2:2|1:2,0:0:0:0:
179,189,98316,1,0,0:0:0:0:
171,194,98399,1,2,2:2:0:0:
223,7,98566,2,0,P|292:14|289:79,1,119.999996337891,10|0,2:2|1:2,0:0:0:0:
136,312,98899,37,2,1:2:0:0:
259,237,99066,1,2,1:2:0:0:
220,99,99233,1,10,2:2:0:0:
92,175,99399,6,0,B|75:66|47:121|26:2,1,179.999994506836,2|0,1:2|0:0,0:0:0:0:
19,6,99732,2,0,P|53:41|94:30,1,59.9999981689454,2|0,1:2|1:2,0:0:0:0:
140,26,99899,1,10,2:2:0:0:
10,152,100066,37,10,2:2:0:0:
13,160,100149,1,8,2:2:0:0:
15,167,100232,2,0,P|8:204|-3:247,1,69.9999978637696,6|0,1:2|0:0,0:0:0:0:
0,313,100399,2,0,P|7:276|18:233,1,69.9999978637696
116,101,100566,5,10,2:1:0:0:
232,204,100732,1,2,2:2:0:0:
157,342,100899,2,0,P|97:332|106:253,1,139.999995727539,2|0,1:2|1:2,0:0:0:0:
172,342,101232,1,10,2:1:0:0:
248,311,101399,37,2,1:2:0:0:
257,307,101482,1,0,1:2:0:0:
267,303,101566,2,0,P|314:319|339:333,1,69.9999978637696,0|0,1:2|0:0,0:0:0:0:
232,204,101732,1,2,1:2:0:0:
177,263,101899,5,10,2:1:0:0:
304,227,102066,1,2,2:2:0:0:
433,193,102232,1,2,1:2:0:0:
383,136,102399,37,0,1:2:0:0:
375,130,102483,1,0,1:2:0:0:
367,123,102566,2,0,P|358:72|357:53,1,69.9999978637696,10|0,1:1|2:2,0:0:0:0:
171,134,102732,2,0,P|144:72|78:68,1,139.999995727539,2|0,1:2|1:2,0:0:0:0:
30,176,103066,6,0,P|69:154|96:155,1,69.9999978637696,2|0,2:2|0:0,0:0:0:0:
174,148,103232,1,10,2:1:0:0:
0,97,103399,1,2,2:2:0:0:
89,236,103566,38,0,P|72:327|66:385,2,139.999995727539,2|2|10,1:2|1:2|2:1,0:0:0:0:
256,245,104066,5,2,1:2:0:0:
210,269,104149,1,0,1:2:0:0:
171,234,104232,2,0,B|295:253|210:338|347:355,1,209.999993591309,2|0,1:2|0:0,0:0:0:0:
336,345,104566,2,0,B|350:324|350:324|275:293|240:374,1,139.999995727539,10|2,2:1|1:2,0:0:0:0:
410,373,104899,1,2,1:2:0:0:
161,335,105066,1,2,1:2:0:0:
155,344,105150,1,0,1:2:0:0:
149,353,105233,1,10,1:1:0:0:
256,245,105399,37,2,1:2:0:0:
262,236,105482,1,0,1:2:0:0:
267,229,105566,2,0,B|272:174|224:110|223:156|181:105|192:25,1,209.999993591309,4|0,1:2|0:0,0:0:0:0:
198,34,105899,2,0,P|195:81|187:111,1,69.9999978637696,10|0,2:1|0:0,0:0:0:0:
149,171,106066,1,2,2:2:0:0:
276,69,106232,5,2,1:2:0:0:
374,87,106399,1,2,1:2:0:0:
472,105,106566,1,10,2:1:0:0:
415,169,106732,37,2,1:2:0:0:
420,179,106816,1,0,1:2:0:0:
424,188,106899,2,0,P|439:266|449:349,1,139.999995727539,0|0,1:2|1:2,0:0:0:0:
231,195,107232,1,10,2:1:0:0:
221,196,107316,1,0,0:0:0:0:
212,199,107399,2,0,P|167:183|128:177,1,69.9999978637696,2|0,2:2|0:0,0:0:0:0:
234,338,107566,5,0,1:2:0:0:
234,338,107732,38,0,P|239:302|251:262,1,69.9999978637696,2|0,1:2|1:2,0:0:0:0:
316,143,107899,5,10,1:1:0:0:
316,143,108066,38,0,P|311:179|299:219,1,69.9999978637696,2|0,1:2|1:2,0:0:0:0:
326,287,108232,5,0,1:2:0:0:
512,339,108399,1,0,0:0:0:0:
512,339,108566,1,10,2:1:0:0:
448,236,108732,38,0,P|403:228|367:234,1,69.9999978637696
249,270,108899,1,0,1:2:0:0:
443,221,109066,1,0,1:2:0:0:
285,67,109232,6,0,P|281:25|268:-8,1,69.9999978637696,10|0,2:1|0:0,0:0:0:0:
231,126,109399,37,0,1:2:0:0:
237,131,109482,1,0,1:2:0:0:
242,136,109566,2,0,B|322:121|282:85|401:63,1,139.999995727539,0|0,1:2|1:2,0:0:0:0:
187,198,109899,2,0,P|104:173|19:164,1,139.999995727539,10|0,2:1|1:2,0:0:0:0:
3,15,110232,6,0,P|15:48|19:83,1,69.9999978637696,8|0,2:2|0:0,0:0:0:0:
19,95,110399,1,0,1:2:0:0:
265,350,110566,38,0,P|253:317|249:282,1,69.9999978637696,10|0,2:1|0:0,0:0:0:0:
249,270,110733,1,0,1:2:0:0:
52,354,110899,6,0,P|29:338|-8:326,1,59.9999981689454,2|0,1:2|0:0,0:0:0:0:
59,359,111232,37,10,2:1:0:0:
154,313,111399,1,2,2:2:0:0:
249,270,111566,1,2,1:2:0:0:
105,117,111899,5,10,2:1:0:0:
203,46,112066,2,0,P|185:129|171:239,1,179.999994506836,2|0,1:2|0:0,0:0:0:0:
182,229,112399,2,0,P|178:183|164:155,1,59.9999981689454,2|0,1:2|0:0,0:0:0:0:
277,4,112566,37,10,2:1:0:0:
372,50,112733,1,2,2:2:0:0:
467,93,112899,2,0,L|528:76,3,59.9999981689454,2|0|0|0,1:2|0:0|1:2|1:2,0:0:0:0:
447,17,113232,5,10,1:1:0:0:
298,82,113399,1,2,1:2:0:0:
203,46,113566,38,0,P|213:86|217:116,1,59.9999981689454,0|0,1:2|0:0,0:0:0:0:
201,37,113899,5,10,2:1:0:0:
144,129,114066,1,2,2:2:0:0:
182,229,114232,1,2,1:2:0:0:
32,325,114566,37,10,2:1:0:0:
248,377,114732,2,0,B|154:362|213:293|93:277,1,179.999994506836,2|0,1:2|0:0,0:0:0:0:
95,268,115066,6,0,P|99:235|114:207,1,59.9999981689454,2|0,1:2|0:0,0:0:0:0:
153,143,115232,1,10,2:1:0:0:
47,23,115399,38,0,P|60:81|70:140,2,119.999996337891,2|2|2,2:2|2:2|2:2,0:0:0:0:
198,72,115899,2,0,B|302:90|247:155|339:169,1,179.999994506836,10|0,2:1|0:0,0:0:0:0:
406,105,116232,6,0,P|428:95|471:81,1,59.9999981689454,6|0,1:2|0:0,0:0:0:0:
393,111,116566,37,10,2:1:0:0:
184,355,116899,5,2,1:2:0:0:
262,257,117066,1,2,2:2:0:0:
159,145,117232,38,0,P|98:132|14:114,1,119.999996337891,10|0,2:1|1:2,0:0:0:0:
26,121,117482,1,0,1:2:0:0:
11,124,117565,1,2,1:2:0:0:
118,220,117732,1,2,1:2:0:0:
253,161,117899,1,10,2:1:0:0:
133,64,118066,6,0,P|70:49|51:-1,1,119.999996337891,2|0,1:2|1:2,0:0:0:0:
199,224,118399,1,10,2:2:0:0:
216,270,118482,1,8,0:0:0:0:
182,305,118566,2,0,P|119:320|100:370,1,119.999996337891,8|2,2:1|2:2,0:0:0:0:
334,202,118899,38,0,P|355:115|399:-29,1,209.999993591309,6|0,1:2|0:0,0:0:0:0:
400,7,119232,2,0,P|359:47|322:32,1,69.9999978637696,6|0,1:2|0:0,0:0:0:0:
282,15,119399,1,0,0:0:0:0:
117,220,119566,5,6,1:2:0:0:
311,112,119732,1,0,1:2:0:0:
491,241,119899,1,2,1:2:0:0:
255,177,120066,37,2,1:2:0:0:
250,187,120149,1,0,0:0:0:0:
248,196,120232,2,0,P|270:264|287:337,1,139.999995727539,2|10,1:2|2:2,0:0:0:0:
313,124,120566,1,10,2:2:0:0:
208,378,120732,6,0,B|108:371|164:292|31:275,1,209.999993591309,2|0,1:2|0:0,0:0:0:0:
21,274,121066,1,8,2:2:0:0:
365,337,121232,37,8,2:2:0:0:
399,343,121315,1,8,2:2:0:0:
433,349,121398,1,8,2:2:0:0:
468,355,121482,1,8,2:2:0:0:
503,375,121566,5,6,1:2:0:0:
503,375,122066,1,2,2:2:0:0:
484,306,122566,1,2,2:2:0:0:
345,224,122899,37,2,2:2:0:0:
345,224,123399,1,2,2:2:0:0:
326,295,123899,1,2,2:2:0:0:
183,349,124232,5,2,2:2:0:0:
183,349,124732,1,2,2:2:0:0:
113,371,125232,1,0,0:0:0:0:
93,242,125566,37,2,2:2:0:0:
93,242,126066,1,2,2:2:0:0:
24,219,126566,1,2,2:2:0:0:
133,379,130232,5,2,2:2:0:0:
207,362,130399,37,2,2:2:0:0:
281,345,130566,5,2,2:2:0:0:
286,350,130649,1,2,2:2:0:0:
291,355,130732,1,2,2:2:0:0:
296,361,130816,1,2,2:2:0:0:
301,367,130899,38,0,P|358:338|431:330,1,80,2|0,1:2|0:0,0:0:0:0:
444,211,131232,2,0,P|387:240|314:248,1,80,0|2,1:2|2:2,0:0:0:0:
239,281,131566,5,2,1:2:0:0:
277,211,131732,1,2,2:2:0:0:
206,173,131899,2,0,P|168:160|133:139,1,80,2|2,1:2|2:2,0:0:0:0:
155,245,132232,38,0,P|166:288|172:325,2,80,2|0|2,1:2|0:0|1:2,0:0:0:0:
278,131,132732,2,0,P|267:88|260:50,1,80,2|0,2:2|1:2,0:0:0:0:
155,245,133066,5,2,2:2:0:0:
85,207,133232,2,0,P|47:219|12:240,1,80,2|0,1:2|0:0,0:0:0:0:
6,78,133566,38,0,P|17:35|23:-2,1,80,0|0,1:2|0:0,0:0:0:0:
153,10,133899,6,0,P|183:47|168:92,1,80,2|2,1:2|2:2,0:0:0:0:
123,135,134232,2,0,P|93:98|108:53,1,80,2|2,1:2|2:2,0:0:0:0:
204,157,134566,37,2,1:2:0:0:
206,163,134649,1,0,0:0:0:0:
209,169,134732,2,0,P|257:148|301:145,1,80,2|0,2:2|1:2,0:0:0:0:
353,180,135066,1,2,2:2:0:0:
333,27,135232,6,0,P|293:20|257:2,2,80,2|2|0,1:2|2:2|1:2,0:0:0:0:
407,4,135732,1,2,2:2:0:0:
502,138,135899,2,0,P|458:140|442:59,1,120,2|0,1:2|0:0,0:0:0:0:
493,34,136232,38,0,P|474:87|452:231,1,200,6|0,1:2|1:2,0:0:0:0:
360,345,136732,2,0,P|348:245|319:150,1,200,2|0,0:0|0:0,0:0:0:0:
438,315,137232,6,0,P|497:314|511:267,1,100,2|0,1:2|0:0,0:0:0:0:
378,261,137566,38,0,P|312:247|281:220,1,100,2|0,1:2|0:0,0:0:0:0:
236,165,137899,1,2,1:2:0:0:
215,261,138066,5,2,0:0:0:0:
206,260,138149,1,2,0:0:0:0:
198,260,138232,2,0,P|132:274|101:301,1,100,2|2,1:2|0:0,0:0:0:0:
77,364,138566,1,2,1:2:0:0:
77,364,138732,1,2,2:2:0:0:
120,127,138899,38,0,B|105:59|68:89|49:22,1,129.999994049073,2|2,1:2|2:2,0:0:0:0:
51,12,139149,1,0,0:0:0:0:
55,0,139232,1,2,2:2:0:0:
67,201,139399,5,2,1:2:0:0:
24,207,139483,1,0,1:2:0:0:
0,172,139566,1,0,1:2:0:0:
176,49,139732,37,10,2:2:0:0:
221,58,139815,1,8,2:2:0:0:
267,67,139898,1,8,2:2:0:0:
312,76,139982,1,8,2:2:0:0:
358,85,140065,1,2,1:2:0:0:
403,94,140148,1,0,1:2:0:0:
449,103,140232,6,0,L|492:111,1,45,6|0,1:2|0:0,0:0:0:0:
448,90,141065,5,8,2:2:0:0:
402,81,141149,1,8,2:2:0:0:
357,72,141232,1,10,2:2:0:0:
311,63,141315,1,8,2:2:0:0:
266,54,141399,1,8,2:2:0:0:
220,45,141482,1,8,2:2:0:0:
175,36,141566,6,0,B|161:134|234:103|228:201,1,179.999994506836,6|0,1:2|0:0,0:0:0:0:
223,216,141816,1,0,0:0:0:0:
220,229,141899,1,8,2:2:0:0:
9,270,142066,37,2,2:2:0:0:
101,361,142232,2,0,P|128:272|149:183,1,179.999994506836,2|2,1:2|2:2,0:0:0:0:
292,280,142566,5,10,2:2:0:0:
497,97,142732,1,2,2:2:0:0:
464,66,142816,1,0,0:0:0:0:
420,76,142899,2,0,P|389:167|368:262,1,179.999994506836,2|0,1:2|0:0,0:0:0:0:
348,384,143232,1,8,2:2:0:0:
478,235,143399,37,2,2:2:0:0:
420,76,143566,1,0,1:2:0:0:
228,200,143732,6,0,B|246:179|246:179|310:167,1,89.9999972534181,2|0,2:2|0:0,0:0:0:0:
441,157,143899,2,0,B|411:164|411:164|215:86|215:86|178:93,1,269.999991760254,10|0,2:2|0:0,0:0:0:0:
128,139,144232,38,0,P|131:54|53:25,1,179.999994506836,0|0,1:2|0:0,0:0:0:0:
0,314,144566,6,0,P|88:342|184:391,1,179.999994506836,10|2,2:2|2:2,0:0:0:0:
311,157,144899,2,0,P|230:196|144:223,2,179.999994506836,2|2|10,1:2|2:2|2:2,0:0:0:0:
166,380,145399,37,2,2:2:0:0:
153,337,145482,1,0,0:0:0:0:
186,307,145566,1,0,1:2:0:0:
111,145,145732,2,0,P|71:163|65:205,1,89.9999972534181,2|0,2:2|0:0,0:0:0:0:
144,223,145899,6,0,B|235:246|193:305|312:328,1,179.999994506836,10|0,2:2|1:2,0:0:0:0:
373,256,146232,1,2,1:2:0:0:
472,297,146399,1,2,2:2:0:0:
310,73,146566,37,10,2:2:0:0:
354,64,146649,1,8,2:2:0:0:
398,54,146732,1,8,2:2:0:0:
442,45,146816,1,8,2:2:0:0:
486,35,146899,6,0,P|419:37|425:156,1,179.999994506836,6|0,1:2|0:0,0:0:0:0:
454,208,147232,2,0,B|288:162|389:117|212:79,1,269.999991760254,10|0,2:2|0:0,0:0:0:0:
232,90,147566,2,0,P|277:57|267:7,1,89.9999972534181,2|0,1:2|0:0,0:0:0:0:
201,7,147732,1,0,0:0:0:0:
136,155,147899,37,10,2:2:0:0:
38,130,148066,1,2,2:2:0:0:
38,36,148232,6,0,P|59:74|44:124,1,89.9999972534181,0|0,1:2|0:0,0:0:0:0:
0,208,148399,38,0,P|26:312|30:391,1,179.999994506836,2|8,2:2|2:2,0:0:0:0:
231,183,148732,2,0,P|205:79|201:0,1,179.999994506836,2|0,2:2|1:2,0:0:0:0:
77,267,149066,5,2,2:2:0:0:
111,228,149149,1,0,0:0:0:0:
161,242,149232,1,10,2:2:0:0:
306,124,149399,37,0,0:0:0:0:
313,127,149482,1,0,0:0:0:0:
319,132,149566,2,0,P|364:177|354:227,1,89.9999972534181,2|0,1:2|0:0,0:0:0:0:
445,197,149732,2,0,P|428:258|380:274,1,89.9999972534181,2|0,2:2|0:0,0:0:0:0:
365,338,149899,1,10,2:2:0:0:
231,183,150066,6,0,B|67:144|183:99|-9:53,1,269.999991760254,2|0,2:2|0:0,0:0:0:0:
1,71,150399,2,0,P|56:69|96:45,1,89.9999972534181,2|0,2:2|0:0,0:0:0:0:
146,1,150566,1,8,2:2:0:0:
43,162,150732,37,2,1:2:0:0:
41,171,150816,1,0,1:2:0:0:
40,181,150899,1,2,1:2:0:0:
252,21,151066,5,8,2:2:0:0:
247,14,151149,1,0,1:0:0:0:
249,9,151232,1,10,2:2:0:0:
263,0,151315,1,8,0:0:0:0:
288,8,151399,1,10,0:2:0:0:
303,41,151482,1,8,0:0:0:0:
286,80,151565,1,0,1:2:0:0:
297,130,151649,1,0,1:0:0:0:
342,161,151732,38,0,P|368:160|339:154,1,89.9999972534181,8|0,2:2|0:0,0:0:0:0:
231,183,151899,6,0,P|364:149|521:120,1,269.999991760254,10|0,2:2|0:0,0:0:0:0:
483,39,152232,38,0,P|433:51|423:94,1,89.9999972534181,6|0,1:2|0:0,0:0:0:0:
483,307,152399,1,0,0:0:0:0:
505,129,152566,1,8,2:2:0:0:
373,242,152732,5,2,2:2:0:0:
231,175,152899,2,0,P|243:91|267:-1,1,179.999994506836,2|2,1:2|2:2,0:0:0:0:
159,225,153232,1,10,2:2:0:0:
22,78,153399,1,2,2:2:0:0:
67,60,153482,1,0,0:0:0:0:
100,97,153566,2,0,P|86:187|64:273,2,179.999994506836,2|2|8,1:2|2:2|2:2,0:0:0:0:
230,175,154066,38,0,P|243:86|267:0,1,179.999994506836,2|0,2:2|1:2,0:0:0:0:
159,225,154399,1,2,2:2:0:0:
100,97,154566,2,0,P|87:186|65:273,1,179.999994506836,10|0,2:2|0:0,0:0:0:0:
237,263,154816,5,0,0:0:0:0:
246,259,154899,2,0,P|319:273|334:375,1,179.999994506836,0|0,1:2|0:0,0:0:0:0:
5,349,155232,38,0,P|95:355|181:383,1,179.999994506836,10|2,2:2|2:2,0:0:0:0:
405,141,155565,2,0,P|319:168|230:174,2,179.999994506836,2|0|10,1:2|2:2|2:2,0:0:0:0:
246,259,156065,5,2,2:2:0:0:
228,305,156149,1,0,0:0:0:0:
260,341,156232,1,0,1:2:0:0:
321,211,156399,1,2,2:2:0:0:
227,88,156566,37,10,2:2:0:0:
258,15,156732,1,0,1:2:0:0:
161,231,156899,5,2,2:2:0:0:
135,29,157066,1,0,2:2:0:0:
70,200,157232,37,10,2:2:0:0:
54,242,157315,1,8,2:2:0:0:
38,284,157398,1,10,2:2:0:0:
21,326,157482,1,8,2:2:0:0:
5,368,157565,5,6,1:2:0:0:
61,189,157732,1,2,2:2:0:0:
205,308,157899,2,0,P|170:308|139:355,1,89.9999972534181,10|0,2:2|0:0,0:0:0:0:
140,350,158232,38,0,P|249:328|298:264,1,179.999994506836,2|0,1:2|0:0,0:0:0:0:
369,353,158565,1,10,2:2:0:0:
468,294,158732,5,2,2:2:0:0:
475,290,158815,1,0,0:0:0:0:
484,284,158899,2,0,P|461:194|449:100,1,179.999994506836,0|2,1:2|2:2,0:0:0:0:
508,0,159232,1,10,2:2:0:0:
383,219,159399,38,0,B|286:207|345:149|213:140,1,179.999994506836,2|0,2:2|1:2,0:0:0:0:
194,178,159649,1,0,0:0:0:0:
215,222,159732,1,2,2:2:0:0:
135,265,159899,1,8,2:2:0:0:
249,7,160065,5,2,1:2:0:0:
254,5,160149,1,0,1:2:0:0:
258,0,160232,2,0,P|330:20|330:113,1,179.999994506836,6|0,1:2|0:0,0:0:0:0:
209,68,160482,37,0,0:0:0:0:
201,71,160566,2,0,P|109:46|19:37,1,179.999994506836,8|0,2:2|0:0,0:0:0:0:
301,221,160899,6,0,P|393:196|483:187,2,179.999994506836,2|0|8,1:2|1:2|2:2,0:0:0:0:
257,152,161399,37,0,1:2:0:0:
250,151,161482,1,0,1:2:0:0:
243,143,161566,5,14,1:2:0:0:
222,148,161649,1,8,0:0:0:0:
200,153,161732,1,8,0:0:0:0:
178,158,161816,1,8,2:2:0:0:
149,182,161899,37,0,1:2:0:0:
116,177,161982,1,0,1:0:0:0:
83,172,162065,1,0,1:2:0:0:
50,166,162149,1,0,1:0:0:0:
21,127,162232,6,0,P|17:68|6:39,1,89.9999972534181,10|0,2:2|0:0,0:0:0:0:
234,344,162399,38,0,P|230:285|219:256,1,89.9999972534181,10|0,2:2|0:0,0:0:0:0:
416,115,162566,6,0,P|412:56|401:27,1,89.9999972534181,10|0,2:2|0:0,0:0:0:0:
480,367,162732,37,0,1:2:0:0:
480,367,162816,1,0,1:2:0:0:
480,367,162899,6,0,P|435:322|391:318,1,80,6|0,1:2|0:0,0:0:0:0:
412,239,163066,2,0,P|349:239|315:267,1,80
276,193,163232,2,0,P|231:237|227:281,1,80,10|0,2:1|0:0,0:0:0:0:
482,374,163399,38,0,P|437:329|393:325,1,80,2|0,1:2|0:0,0:0:0:0:
415,245,163566,2,0,P|352:245|318:273,1,80
281,200,163732,2,0,P|236:244|232:288,1,80,0|0,1:2|0:0,0:0:0:0:
484,381,163899,6,0,P|461:348|426:332,1,80,10|0,2:2|0:0,0:0:0:0:
343,257,164066,2,0,P|379:244|418:250,1,80,0|0,1:2|0:0,0:0:0:0:
491,203,164232,38,0,P|481:164|474:124,1,80,2|0,1:2|0:0,0:0:0:0:
291,42,164399,1,0,0:0:0:0:
291,42,164482,1,0,1:2:0:0:
291,42,164566,2,0,P|301:81|308:121,1,80,10|0,2:1|0:0,0:0:0:0:
335,249,164732,1,2,1:2:0:0:
381,73,164899,5,8,2:2:0:0:
381,73,164982,1,8,2:2:0:0:
381,73,165066,2,0,P|421:65|448:25,1,80,2|0,1:2|0:0,0:0:0:0:
244,283,165232,38,0,P|196:273|164:236,1,100,10|0,2:2|1:2,0:0:0:0:
32,18,165566,6,0,P|77:63|121:67,1,80,6|0,1:2|0:0,0:0:0:0:
100,146,165733,2,0,P|163:146|197:118,1,80
236,192,165899,2,0,P|281:148|285:104,1,80,10|0,2:1|0:0,0:0:0:0:
30,10,166066,38,0,P|75:55|119:59,1,80,2|0,1:2|0:0,0:0:0:0:
97,140,166233,2,0,P|160:140|194:112,1,80
231,185,166399,2,0,P|276:141|280:97,1,80,0|0,1:2|0:0,0:0:0:0:
26,2,166566,6,0,P|49:34|85:51,1,80,10|0,2:2|2:2,0:0:0:0:
168,126,166732,2,0,P|131:140|92:133,1,80,0|0,1:2|1:2,0:0:0:0:
21,181,166899,38,0,P|31:220|38:260,1,80,2|0,1:2|0:0,0:0:0:0:
209,338,167066,1,0,0:0:0:0:
209,338,167149,1,0,0:0:0:0:
209,338,167233,2,0,P|199:299|192:259,1,80,0|0,1:2|0:0,0:0:0:0:
232,56,167399,6,0,B|379:100|279:146|464:189,1,269.999991760254,10|0,2:1|0:0,0:0:0:0:
453,172,167732,2,0,P|404:178|369:197,1,89.9999972534181,10|0,2:2|0:0,0:0:0:0:
296,231,167899,1,10,2:2:0:0:
453,90,168066,1,2,1:2:0:0:
112,307,168232,38,0,P|40:295|39:201,1,160,6|0,1:2|0:0,0:0:0:0:
246,295,168565,2,0,P|277:273|276:220,1,80,10|0,2:1|0:0,0:0:0:0:
163,246,168732,6,0,B|75:257|104:307|8:312,1,160,2|0,1:2|0:0,0:0:0:0:
6,353,168982,1,0,0:0:0:0:
36,384,169065,1,2,1:2:0:0:
99,172,169232,38,0,P|94:136|84:84,1,80,8|0,2:2|0:0,0:0:0:0:
73,17,169399,1,2,1:2:0:0:
274,62,169565,6,0,P|352:86|431:98,2,160,2|2|10,1:2|2:2|2:1,0:0:0:0:
279,362,170065,2,0,P|201:338|122:326,1,160,2|0,1:2|0:0,0:0:0:0:
109,325,170315,1,0,0:0:0:0:
95,326,170398,1,2,1:2:0:0:
198,93,170565,37,8,2:2:0:0:
213,135,170649,1,0,0:0:0:0:
179,164,170732,1,2,1:2:0:0:
407,175,170899,6,0,B|393:162|340:161|305:222|371:299|408:260|404:255|401:250|448:205|523:255|498:349|429:351|414:330,1,320,2|10,1:2|2:1,0:0:0:0:
341,314,171399,38,0,B|433:302|372:244|518:230,1,160,0|0,1:2|0:0,0:0:0:0:
510,209,171649,1,0,0:0:0:0:
494,168,171732,1,2,1:2:0:0:
214,263,171899,6,0,P|163:235|123:229,1,80,8|0,2:2|0:0,0:0:0:0:
64,214,172065,1,2,1:2:0:0:
321,223,172232,37,2,1:2:0:0:
307,260,172315,1,0,0:0:0:0:
296,298,172399,1,10,2:2:0:0:
286,337,172482,1,8,1:3:0:0:
279,377,172565,1,10,1:3:0:0:
242,164,172732,6,0,P|224:86|198:11,1,160,6|4,1:3|1:2,0:0:0:0:
279,377,173065,37,8,2:2:0:0:
286,337,173148,1,8,2:2:0:0:
296,298,173232,1,8,2:2:0:0:
307,260,173315,1,0,0:0:0:0:
321,223,173399,1,0,1:2:0:0:
195,352,173566,22,0,B|106:328|164:279|23:247,1,170.000003242493,10|0,2:1|1:2,0:0:0:0:
47,212,173816,1,2,2:2:0:0:
85,187,173899,1,8,2:2:0:0:
110,326,174066,1,2,1:2:0:0:
237,183,174232,6,0,P|224:221|214:264,1,85.0000016212464,10|0,2:1|0:0,0:0:0:0:
209,343,174399,1,0,1:2:0:0:
56,51,174566,38,0,P|47:93|33:133,1,85.0000016212464,10|0,2:2|0:0,0:0:0:0:
2,205,174733,1,2,1:2:0:0:
285,12,174899,6,0,P|372:30|374:117,1,170.000003242493,10|0,2:1|1:2,0:0:0:0:
224,69,175149,1,2,1:2:0:0:
215,62,175232,2,0,P|184:49|130:39,1,85.0000016212464,8|0,2:2|0:0,0:0:0:0:
56,51,175399,1,2,1:2:0:0:
241,151,175566,37,10,2:1:0:0:
288,143,175649,1,0,0:0:0:0:
302,96,175732,1,0,1:2:0:0:
160,121,175899,5,10,2:2:0:0:
253,232,176066,1,0,1:2:0:0:
409,175,176232,38,0,P|430:82|462:-8,1,170.000003242493,10|0,2:1|1:2,0:0:0:0:
466,230,176482,1,2,2:2:0:0:
462,242,176566,2,0,P|430:266|386:254,1,85.0000016212464,8|0,2:2|0:0,0:0:0:0:
332,207,176732,1,2,1:2:0:0:
209,384,176899,6,0,P|188:291|156:201,2,170.000003242493,10|0|10,2:1|1:2|2:2,0:0:0:0:
332,207,177399,1,2,1:2:0:0:
458,373,177566,38,0,B|365:359|412:303|310:286,1,170.000003242493,10|10,2:1|2:2,0:0:0:0:
299,296,177816,1,10,2:2:0:0:
279,304,177899,1,8,2:2:0:0:
163,220,178066,1,10,2:2:0:0:
79,340,178232,5,10,2:1:0:0:
123,363,178316,1,0,0:0:0:0:
159,327,178399,1,0,0:0:0:0:
83,160,178566,38,0,B|57:68|35:111|10:9,1,170.000003242493,10|0,2:2|0:0,0:0:0:0:
249,161,178899,6,0,P|344:107|332:48,1,160,6|0,1:1|1:2,0:0:0:0:
336,60,179149,1,2,2:2:0:0:
325,51,179232,1,8,2:2:0:0:
171,108,179399,1,2,1:1:0:0:
83,254,179566,37,2,2:2:0:0:
5,211,179732,1,2,1:1:0:0:
13,370,179899,6,0,P|95:341|165:330,1,139.999995727539,10|2,2:2|1:2,0:0:0:0:
169,202,180232,2,0,P|251:231|321:242,1,139.999995727539,2|0,1:1|1:2,0:0:0:0:
318,239,180482,1,2,2:2:0:0:
332,235,180566,1,8,2:2:0:0:
218,296,180732,37,2,1:1:0:0:
261,384,180899,1,2,1:2:0:0:
425,228,181066,5,2,2:1:0:0:
382,316,181233,1,10,2:2:0:0:
315,161,181399,37,2,1:2:0:0:
315,161,181566,2,0,P|330:82|356:4,1,119.999996337891,2|0,1:1|0:0,0:0:0:0:
344,37,181816,1,2,2:2:0:0:
347,30,181899,1,8,2:2:0:0:
198,207,182066,5,2,1:1:0:0:
198,215,182149,1,2,2:2:0:0:
197,223,182233,2,0,P|182:302|156:380,1,119.999996337891,2|2,1:2|2:1,0:0:0:0:
168,347,182483,1,2,2:2:0:0:
165,354,182566,1,8,2:2:0:0:
292,261,182732,37,2,1:2:0:0:
292,261,182899,2,0,P|386:278|478:309,1,139.999995727539,2|0,1:1|0:0,0:0:0:0:
438,293,183149,1,2,2:2:0:0:
447,295,183232,1,8,2:2:0:0:
236,123,183399,5,2,2:1:0:0:
227,122,183482,1,2,2:2:0:0:
218,121,183566,2,0,P|124:104|32:72,1,139.999995727539,2|2,1:2|2:1,0:0:0:0:
73,88,183816,1,0,0:0:0:0:
64,85,183899,1,10,2:2:0:0:
159,361,184066,37,2,1:2:0:0:
159,361,184233,2,0,P|183:284|198:206,1,160,2|0,1:1|0:0,0:0:0:0:
199,196,184482,1,2,2:2:0:0:
200,185,184566,1,8,2:2:0:0:
356,2,184732,5,2,1:1:0:0:
351,10,184815,1,2,2:2:0:0:
346,20,184899,2,0,P|319:109|305:202,1,160,2|2,1:2|2:1,0:0:0:0:
308,186,185149,1,2,1:2:0:0:
310,196,185232,1,8,2:2:0:0:
37,70,185399,37,2,1:2:0:0:
37,70,185566,2,0,P|142:99|252:113,1,179.999994506836,6|0,1:1|0:0,0:0:0:0:
223,111,185816,1,2,1:2:0:0:
235,111,185899,1,0,0:0:0:0:
497,325,186066,5,2,1:2:0:0:
485,318,186149,1,2,2:2:0:0:
474,314,186233,2,0,P|368:283|256:267,1,179.999994506836,2|0,1:1|0:0,0:0:0:0:
287,270,186483,1,2,0:0:0:0:
276,270,186566,1,2,1:2:0:0:
416,49,186732,38,0,B|438:43|438:43|444:21|444:21|448:23|448:23|484:17|484:17|518:-4,1,120,2|0,1:2|0:0,0:0:0:0:
