osu file format v14

[General]
AudioFilename: audio.mp3
AudioLeadIn: 0
PreviewTime: 47899
Countdown: 0
SampleSet: Soft
StackLeniency: 0.4
Mode: 0
LetterboxInBreaks: 0
WidescreenStoryboard: 1

[Editor]
Bookmarks: 5566,94899,162899
DistanceSpacing: 0.3
BeatDivisor: 4
GridSize: 16
TimelineZoom: 2.1

[Metadata]
Title:Roleless Weapon
TitleUnicode:ロールレスウエポン
Artist:inabakumori x Neru
ArtistUnicode:稲葉曇×Neru
Creator:Pisapou
Version:Lime's Useless Normal
Source:
Tags:LimeTwist Jeby Wither Sagu vocaloid rock japanese Kaai Yuki 歌愛ユキ Kagamine Len 鏡音レン CHIMERA キメラ jrock j-rock pop jpop j-pop
BeatmapID:4111616
BeatmapSetID:1949918

[Difficulty]
HPDrainRate:3
CircleSize:3
OverallDifficulty:4
ApproachRate:5.5
SliderMultiplier:1
SliderTickRate:0.5

[Events]
//Background and Video events
0,0,"chimera_bg.png",0,0
//Break Periods
2,121766,129566
//Storyboard Layer 0 (Background)
//Storyboard Layer 1 (Fail)
//Storyboard Layer 2 (Pass)
//Storyboard Layer 3 (Foreground)
//Storyboard Layer 4 (Overlay)
//Storyboard Sound Samples

[TimingPoints]
233,333.333333333333,4,2,1,53,1,0
5566,-100,4,2,1,73,0,0
16232,-100,4,2,1,63,0,0
48232,-100,4,2,1,83,0,1
68232,-100,4,2,1,73,0,0
78899,-100,4,2,1,63,0,0
83232,-100,4,2,1,5,0,0
83732,-100,4,2,1,63,0,0
118899,-100,4,2,1,73,0,0
121566,-100,4,2,1,53,0,0
130899,-100,4,2,1,63,0,0
138899,-100,4,2,1,73,0,0
140982,-100,4,2,1,5,0,0
141066,-100,4,2,1,73,0,0
141566,-100,4,2,1,83,0,1
162899,-100,4,2,1,73,0,1
173566,-100,4,2,1,83,0,1
178899,-100,4,2,1,73,0,1
185566,-100,4,2,1,63,0,1
186232,-100,4,2,1,53,0,1
186732,-83.0766332876194,4,2,1,53,0,0
187232,-83.0766332876194,4,2,1,5,0,0

[Colours]
Combo1 : 164,204,188
Combo2 : 255,194,70
Combo3 : 247,186,125
Combo4 : 233,236,239

[HitObjects]
19,257,233,38,0,P|67:313|90:384,2,150,4|0|8,1:2|1:2|2:2,0:0:0:0:
67,171,1566,1,0,1:2:0:0:
67,171,1732,2,0,P|99:133|114:86,2,100,0|0|2,1:2|1:2|1:1,0:0:0:0:
20,157,2566,1,8,2:2:0:0:
19,257,2899,6,0,P|67:313|90:384,2,150,4|0|8,1:2|1:2|2:2,0:0:0:0:
67,171,4232,1,0,1:2:0:0:
67,171,4399,2,0,P|99:133|114:86,1,100,0|0,1:2|1:2,0:0:0:0:
211,53,5066,1,8,2:2:0:0:
211,53,5232,2,0,P|233:63|249:82,1,50,8|8,2:2|2:2,0:0:0:0:
289,114,5566,6,0,P|336:98|374:66,1,100,6|10,1:2|2:2,0:0:0:0:
414,37,6066,1,2,2:2:0:0:
486,105,6399,1,2,2:2:0:0:
463,201,6732,1,2,2:2:0:0:
463,201,6899,2,0,P|439:192|414:187,2,50,2|2|10,1:2|2:2|2:2,0:0:0:0:
500,234,7399,1,2,2:2:0:0:
503,333,7732,1,2,2:2:0:0:
419,384,8066,5,2,2:2:0:0:
418,383,8232,2,0,P|381:352|332:336,1,100,2|10,1:2|2:2,0:0:0:0:
296,303,8732,2,0,P|238:350|167:372,1,150,2|8,2:2|2:2,0:0:0:0:
138,338,9399,1,2,2:2:0:0:
138,338,9566,2,0,P|150:315|153:291,2,50,2|2|10,1:2|2:2|2:2,0:0:0:0:
88,341,10066,1,2,1:2:0:0:
10,286,10399,1,10,2:2:0:0:
10,286,10566,2,0,P|17:262|33:243,1,50,8|8,2:2|2:2,0:0:0:0:
46,194,10899,38,0,P|30:146|-1:108,1,100,6|10,1:2|2:2,0:0:0:0:
5,58,11399,1,2,2:2:0:0:
94,13,11732,1,2,2:2:0:0:
177,67,12066,1,2,2:2:0:0:
177,67,12232,2,0,P|163:87|154:111,2,50,2|2|10,1:2|2:2|2:2,0:0:0:0:
219,40,12732,1,2,2:2:0:0:
317,19,13065,1,2,2:2:0:0:
383,93,13399,5,2,2:2:0:0:
383,93,13566,2,0,P|410:134|428:181,2,100,2|8|0,1:2|2:2|1:2,0:0:0:0:
341,63,14399,1,2,2:2:0:0:
251,102,14732,1,2,2:2:0:0:
251,102,14899,2,0,P|233:119|221:141,2,50,6|2|10,1:2|2:2|2:2,0:0:0:0:
241,52,15399,1,2,1:2:0:0:
156,10,15732,1,10,2:2:0:0:
156,10,15899,2,0,P|132:17|111:30,1,50,8|10,2:2|2:2,0:0:0:0:
69,58,16232,6,0,P|92:101|111:148,1,100,6|10,1:2|2:2,0:0:0:0:
97,196,16732,1,2,2:2:0:0:
28,269,17066,1,2,2:2:0:0:
28,269,17232,1,10,2:2:0:0:
81,354,17566,2,0,P|127:376|177:385,1,100,2|10,1:2|2:2,0:0:0:0:
224,379,18066,1,2,2:2:0:0:
303,319,18399,1,2,2:2:0:0:
232,257,18732,5,2,2:2:0:0:
232,257,18899,2,0,P|222:208|201:163,1,100,2|10,1:2|2:2,0:0:0:0:
171,122,19399,1,2,2:2:0:0:
227,40,19732,1,2,2:2:0:0:
227,40,19899,1,10,2:2:0:0:
326,51,20232,2,0,P|374:60|419:81,1,100,2|8,1:2|2:2,0:0:0:0:
452,120,20732,1,0,0:0:0:0:
496,215,21066,1,2,2:2:0:0:
496,215,21232,2,0,P|506:237|511:261,1,50,10|10,2:2|2:2,0:0:0:0:
501,311,21566,38,0,P|463:342|414:345,1,100,6|10,1:2|2:2,0:0:0:0:
388,302,22066,2,0,P|350:270|301:267,1,100,2|2,2:2|2:2,0:0:0:0:
271,306,22566,1,10,2:2:0:0:
271,306,22732,1,2,2:2:0:0:
191,366,23066,2,0,P|166:371|143:381,1,50,2|10,2:2|2:2,0:0:0:0:
96,364,23399,1,2,2:2:0:0:
22,296,23732,1,2,2:2:0:0:
76,213,24066,1,2,2:2:0:0:
76,213,24232,2,0,P|126:204|171:183,1,100,2|10,1:2|2:2,0:0:0:0:
216,162,24732,5,2,2:2:0:0:
188,70,25066,1,2,2:2:0:0:
188,70,25232,1,10,2:2:0:0:
272,16,25566,2,0,P|317:37|366:45,1,100,2|8,1:2|2:2,0:0:0:0:
413,28,26066,1,0,1:2:0:0:
481,108,26399,1,10,2:2:0:0:
481,108,26566,1,10,2:2:0:0:
461,205,26899,38,0,P|438:195|413:190,1,50,6|2,1:2|2:2,0:0:0:0:
388,146,27232,2,0,P|365:155|340:160,1,50,10|2,2:2|2:2,0:0:0:0:
315,205,27566,2,0,P|292:195|267:190,1,50,2|2,1:2|2:2,0:0:0:0:
242,146,27899,2,0,P|219:155|194:160,1,50,10|2,2:2|2:2,0:0:0:0:
169,205,28232,1,2,1:2:0:0:
0,384,29066,1,2,2:2:0:0:
0,384,29232,1,10,2:2:0:0:
81,325,29566,6,0,P|103:334|128:339,1,50,6|2,1:2|2:2,0:0:0:0:
154,384,29899,2,0,P|176:374|201:369,1,50,10|2,2:2|2:2,0:0:0:0:
227,325,30233,2,0,P|249:334|274:339,1,50,2|2,1:2|2:2,0:0:0:0:
300,384,30566,2,0,P|322:374|347:369,1,50,10|2,2:2|2:2,0:0:0:0:
373,325,30899,1,2,1:2:0:0:
512,116,31732,1,10,2:2:0:0:
512,116,31899,2,0,P|507:91|497:68,1,50,10|10,2:2|2:2,0:0:0:0:
458,36,32232,38,0,P|408:27|363:6,1,100,6|10,1:2|2:2,0:0:0:0:
314,0,32732,1,2,2:2:0:0:
221,38,33066,1,2,2:2:0:0:
207,138,33399,1,2,2:2:0:0:
207,138,33566,2,0,P|217:160|221:185,2,50,2|2|10,1:2|2:2|2:2,0:0:0:0:
168,105,34066,2,0,P|188:59|197:10,2,100,2|2|2,2:2|2:2|2:2,0:0:0:0:
159,154,34899,6,0,P|113:174|64:183,1,100,2|10,1:2|2:2,0:0:0:0:
14,183,35399,1,2,2:2:0:0:
0,285,35732,1,2,2:2:0:0:
0,285,35899,1,10,2:2:0:0:
81,348,36232,38,0,P|105:352|128:362,1,50,2|2,1:2|1:2,0:0:0:0:
182,373,36566,1,10,2:2:0:0:
182,373,36732,1,2,1:2:0:0:
254,303,37066,1,2,1:2:0:0:
254,303,37232,2,0,P|278:299|301:289,1,50,10|2,2:2|1:2,0:0:0:0:
343,316,37566,6,0,P|391:324|437:344,1,100,6|10,1:2|2:1,0:0:0:0:
512,277,38232,38,0,P|504:229|463:203,1,100,2|10,1:2|2:1,0:0:0:0:
445,156,38732,2,0,P|399:138|356:161,1,100,2|2,1:2|1:2,0:0:0:0:
306,153,39232,2,0,P|283:163|258:167,2,50,10|2|2,2:1|2:2|1:2,0:0:0:0:
328,58,39899,5,10,2:1:0:0:
328,58,40066,2,0,P|282:37|233:29,1,100,2|2,1:2|1:2,0:0:0:0:
183,38,40566,1,10,2:1:0:0:
91,0,40899,2,0,P|70:46|62:95,1,100,2|10,1:2|2:1,0:0:0:0:
108,183,41566,1,2,1:2:0:0:
62,272,41899,37,10,2:1:0:0:
62,272,42066,1,2,2:2:0:0:
108,361,42399,1,2,1:2:0:0:
108,361,42566,2,0,P|130:371|155:375,1,50,10|0,2:1|1:2,0:0:0:0:
193,342,42899,2,0,P|238:321|287:313,1,100,6|10,1:2|2:1,0:0:0:0:
366,374,43566,1,2,1:2:0:0:
452,324,43899,6,0,P|456:299|466:276,1,50,10|2,2:1|1:2,0:0:0:0:
498,238,44232,2,0,P|489:188|469:143,1,100,2|10,1:2|2:1,0:0:0:0:
490,45,44899,2,0,P|443:27|393:22,1,100,8|10,2:2|2:1,0:0:0:0:
319,90,45566,37,4,1:2:0:0:
244,22,45899,1,10,2:2:0:0:
169,90,46232,1,10,2:2:0:0:
94,22,46566,1,10,2:2:0:0:
94,22,46732,1,6,1:2:0:0:
18,89,47066,6,0,P|28:111|32:136,1,50,10|10,2:2|2:2,0:0:0:0:
68,170,47399,2,0,P|47:215|39:264,1,100,10|8,2:2|2:2,0:0:0:0:
3,298,47899,1,8,2:2:0:0:
80,361,48232,6,0,P|128:363|167:333,1,100,6|8,1:2|2:2,0:0:0:0:
214,311,48732,1,2,2:2:0:0:
214,311,48899,2,0,P|238:315|259:328,1,50,2|2,1:2|2:2,0:0:0:0:
306,349,49232,2,0,P|330:345|351:332,1,50,10|2,2:2|2:2,0:0:0:0:
398,311,49566,1,2,1:2:0:0:
476,183,50066,2,0,P|455:138|424:100,1,100,2|2,2:2|2:2,0:0:0:0:
413,50,50566,1,10,2:2:0:0:
323,5,50899,1,0,1:2:0:0:
234,51,51232,6,0,P|218:70|207:92,1,50,10|2,2:2|2:2,0:0:0:0:
182,136,51566,1,2,1:2:0:0:
95,182,51899,1,10,2:2:0:0:
95,182,52066,2,0,P|49:203|11:234,2,100,2|2|2,2:2|2:2|1:2,0:0:0:0:
183,240,53066,1,2,2:2:0:0:
183,240,53232,2,0,P|198:259|209:281,1,50,10|8,2:2|2:2,0:0:0:0:
217,331,53566,37,6,1:2:0:0:
132,384,53899,1,10,2:2:0:0:
43,336,54232,1,2,1:2:0:0:
40,234,54566,1,10,2:2:0:0:
39,234,54732,2,0,P|71:194|92:149,1,100,2|2,2:2|2:2,0:0:0:0:
146,65,55399,1,2,2:2:0:0:
243,104,55732,1,2,2:2:0:0:
243,104,55899,2,0,P|258:123|269:145,1,50,10|0,2:2|0:0,0:0:0:0:
251,192,56232,6,0,P|272:237|303:276,1,100,2|10,1:2|2:2,0:0:0:0:
323,322,56732,1,2,2:2:0:0:
412,379,57066,1,2,2:2:0:0:
412,379,57232,2,0,P|427:359|438:336,1,50,8|2,2:2|1:2,0:0:0:0:
482,313,57566,2,0,P|485:264|457:223,1,100,2|10,1:2|2:2,0:0:0:0:
461,174,58066,2,0,P|420:146|371:150,1,100,2|8,2:2|2:2,0:0:0:0:
330,122,58566,1,10,2:2:0:0:
295,215,58899,38,0,P|264:254|243:299,1,100,6|8,1:2|2:2,0:0:0:0:
240,353,59399,1,2,2:2:0:0:
240,353,59566,1,2,1:2:0:0:
142,376,59899,2,0,P|127:356|116:333,1,50,10|2,2:2|2:2,0:0:0:0:
74,305,60232,2,0,P|71:256|99:215,1,100,2|8,1:2|2:2,0:0:0:0:
140,187,60732,2,0,P|143:138|115:97,1,100,2|2,2:2|2:2,0:0:0:0:
73,69,61232,1,10,2:2:0:0:
146,0,61566,5,0,1:2:0:0:
242,28,61899,2,0,P|262:43|285:54,1,50,10|2,2:2|2:2,0:0:0:0:
319,89,62232,2,0,P|359:59|405:37,1,100,2|10,1:2|2:2,0:0:0:0:
438,1,62732,1,2,2:2:0:0:
486,88,63066,2,0,P|501:108|512:131,1,50,2|10,2:2|2:2,0:0:0:0:
499,178,63398,1,2,1:2:0:0:
408,214,63732,1,2,2:2:0:0:
408,214,63899,2,0,P|393:234|382:257,1,50,10|8,2:2|2:2,0:0:0:0:
395,304,64231,37,6,1:2:0:0:
322,373,64566,1,10,2:2:0:0:
222,370,64899,1,2,1:2:0:0:
153,297,65232,1,10,2:2:0:0:
153,297,65399,2,0,P|104:306|72:344,2,100,2|2|2,2:2|2:2|2:2,0:0:0:0:
224,227,66399,1,0,0:0:0:0:
224,227,66566,1,10,2:2:0:0:
257,132,66899,6,0,P|247:83|209:51,1,100,2|10,1:2|2:2,0:0:0:0:
162,36,67399,1,10,2:2:0:0:
80,90,67732,1,10,2:2:0:0:
80,90,67899,2,0,P|69:112|54:132,1,50,10|8,2:2|2:2,0:0:0:0:
62,181,68232,38,0,P|84:226|114:266,1,100,6|10,1:2|2:2,0:0:0:0:
105,314,68732,1,2,2:2:0:0:
184,374,69066,1,2,2:2:0:0:
275,335,69399,1,2,2:2:0:0:
275,335,69566,2,0,P|289:315|300:292,2,50,2|2|10,1:2|2:2|2:2,0:0:0:0:
302,376,70066,1,2,2:2:0:0:
401,371,70400,1,2,2:2:0:0:
445,282,70733,5,2,2:2:0:0:
445,282,70899,2,0,P|415:242|393:197,1,100,2|10,1:2|2:2,0:0:0:0:
415,152,71399,2,0,P|417:103|383:69,1,100,2|2,2:2|2:2,0:0:0:0:
290,99,72066,1,2,2:2:0:0:
290,99,72232,2,0,P|279:121|264:141,2,50,2|2|10,1:2|2:2|2:2,0:0:0:0:
278,50,72732,1,2,1:2:0:0:
188,4,73066,1,10,2:2:0:0:
92,35,73399,37,8,2:2:0:0:
92,35,73566,2,0,P|121:74|143:119,1,100,2|14,1:2|2:2,0:0:0:0:
168,163,74066,1,2,2:2:0:0:
102,238,74399,1,2,2:2:0:0:
171,317,74732,1,2,2:2:0:0:
171,317,74899,2,0,P|156:336|145:359,2,50,2|2|10,1:2|2:2|2:2,0:0:0:0:
219,304,75399,1,2,2:2:0:0:
318,317,75732,1,2,2:2:0:0:
378,237,76066,5,2,2:2:0:0:
378,237,76232,2,0,P|398:192|457:168,2,100,6|8|0,1:2|2:2|1:2,0:0:0:0:
391,285,77065,1,2,2:2:0:0:
470,356,77399,1,2,2:2:0:0:
470,356,77566,2,0,P|489:370|512:381,2,50,6|2|10,1:2|2:2|2:2,0:0:0:0:
426,379,78065,1,2,1:2:0:0:
332,359,78399,1,10,2:2:0:0:
333,359,78566,2,0,P|310:369|290:384,1,50,10|10,2:2|2:2,0:0:0:0:
249,354,78899,6,0,P|203:334|163:304,1,100,6|10,1:2|2:2,0:0:0:0:
70,342,79566,2,0,P|55:362|44:385,2,50,2|2|2,2:2|1:2|2:2,0:0:0:0:
60,292,80066,2,0,P|30:252|10:206,1,100,2|2,1:2|2:2,0:0:0:0:
1,162,80566,1,10,2:2:0:0:
1,162,80732,1,2,1:2:0:0:
25,64,81066,1,2,1:2:0:0:
111,12,81399,5,2,2:2:0:0:
111,12,81566,2,0,P|159:6|199:34,1,100,2|10,1:2|2:2,0:0:0:0:
216,81,82066,2,0,P|264:86|304:58,1,100,2|2,1:2|1:2,0:0:0:0:
321,12,82566,1,10,2:2:0:0:
412,52,82899,1,2,1:2:0:0:
512,286,83732,1,2,2:2:0:0:
512,286,83899,2,0,P|497:305|487:328,1,50,10|10,2:2|2:2,0:0:0:0:
448,361,84232,38,0,P|400:367|360:339,1,100,6|10,1:2|2:2,0:0:0:0:
320,305,84732,2,0,P|272:299|232:327,1,100,2|2,2:2|2:2,0:0:0:0:
192,360,85232,1,10,2:2:0:0:
192,360,85399,1,2,2:2:0:0:
105,310,85732,2,0,P|82:319|62:334,2,50,2|10|2,2:2|2:2|2:2,0:0:0:0:
157,224,86399,2,0,P|176:178|206:138,1,100,2|2,2:2|2:2,0:0:0:0:
184,92,86899,6,0,P|173:69|158:49,1,50,2|2,1:2|2:2,0:0:0:0:
125,11,87232,1,10,2:2:0:0:
48,75,87566,2,0,P|28:121|0:160,1,100,2|10,1:2|2:2,0:0:0:0:
0,261,88232,2,0,P|14:280|24:303,1,50,2|0,1:2|1:2,0:0:0:0:
45,355,88566,1,8,0:0:0:0:
45,355,88732,1,0,1:2:0:0:
149,359,89066,1,2,1:2:0:0:
149,359,89232,2,0,P|168:373|191:383,1,50,10|10,2:2|2:2,0:0:0:0:
241,375,89566,37,6,1:2:0:0:
322,316,89899,1,10,2:1:0:0:
337,216,90232,2,0,P|346:193|361:173,2,50,2|2|10,1:2|2:2|2:1,0:0:0:0:
287,226,90732,1,2,2:2:0:0:
213,167,91066,1,2,2:2:0:0:
213,167,91232,2,0,P|203:144|188:124,1,50,10|2,2:1|2:2,0:0:0:0:
184,73,91566,2,0,P|215:35|263:28,1,100,2|10,1:2|2:1,0:0:0:0:
346,83,92232,5,2,1:2:0:0:
429,28,92566,1,10,2:1:0:0:
512,83,92899,2,0,P|497:102|487:125,1,50,2|2,1:2|2:2,0:0:0:0:
457,166,93232,2,0,P|471:185|481:208,1,50,10|2,2:1|2:2,0:0:0:0:
512,249,93566,2,0,P|482:288|462:334,1,100,2|10,1:2|2:1,0:0:0:0:
432,375,94066,1,2,1:2:0:0:
342,343,94399,1,2,1:2:0:0:
342,343,94566,2,0,P|319:352|299:367,1,50,10|10,2:2|2:2,0:0:0:0:
252,349,94899,38,0,P|206:329|166:299,1,100,6|8,1:2|0:2,0:0:0:0:
145,253,95399,2,0,P|126:206|119:157,1,100,2|0,2:2|0:0,0:0:0:0:
137,110,95899,1,10,2:2:0:0:
57,49,96232,2,0,P|47:26|32:6,2,50,2|2|10,1:2|2:2|2:2,0:0:0:0:
35,94,96732,1,2,2:2:0:0:
19,193,97066,1,2,2:2:0:0:
3,292,97399,5,2,2:2:0:0:
3,292,97566,2,0,P|48:311|88:341,1,100,2|10,1:2|2:2,0:0:0:0:
135,324,98066,2,0,P|180:304|220:274,1,100,2|2,2:2|2:2,0:0:0:0:
267,291,98566,1,10,2:2:0:0:
339,359,98899,2,0,P|361:368|381:383,1,50,2|2,1:2|1:2,0:0:0:0:
427,360,99232,1,10,2:2:0:0:
427,360,99399,1,2,1:2:0:0:
479,276,99732,1,2,1:2:0:0:
479,276,99899,2,0,P|469:253|454:233,1,50,10|10,2:2|2:2,0:0:0:0:
462,183,100232,38,0,P|481:137|511:97,1,100,6|10,1:2|2:1,0:0:0:0:
447,19,100899,2,0,P|399:16|368:54,1,100,2|10,1:2|2:1,0:0:0:0:
318,49,101399,2,0,P|280:83|285:131,1,100,2|2,1:2|1:2,0:0:0:0:
255,169,101899,2,0,P|240:188|230:211,2,50,10|2|2,2:1|2:2|1:2,0:0:0:0:
168,118,102565,5,10,1:1:0:0:
168,118,102732,2,0,P|119:124|88:162,1,100,2|2,1:2|2:2,0:0:0:0:
69,209,103232,1,10,2:1:0:0:
24,298,103566,2,0,P|53:337|73:383,1,100,2|10,1:2|2:1,0:0:0:0:
161,335,104232,2,0,P|180:289|210:249,1,100,2|10,1:2|2:1,0:0:0:0:
298,298,104899,2,0,P|312:317|322:340,2,50,2|2|10,1:2|1:2|1:1,0:0:0:0:
327,252,105399,37,2,1:2:0:0:
327,252,105566,1,4,1:2:0:0:
417,209,105899,2,0,P|436:163|466:122,1,100,10|2,2:1|1:2,0:0:0:0:
420,33,106566,1,10,2:1:0:0:
321,29,106899,2,0,P|280:58|234:78,1,100,0|10,1:2|2:1,0:0:0:0:
193,49,107399,2,0,P|152:19|106:0,1,100,2|2,2:2|1:2,0:0:0:0:
65,29,107899,1,10,1:1:0:0:
0,105,108232,6,0,P|29:145|49:191,1,100,0|10,1:2|2:1,0:0:0:0:
36,239,108732,1,0,0:0:0:0:
36,239,108899,1,0,1:2:0:0:
67,333,109232,2,0,P|89:342|110:357,1,50,10|0,2:1|1:2,0:0:0:0:
160,361,109566,1,0,1:2:0:0:
250,319,109899,2,0,P|264:298|274:275,1,50,10|0,2:1|1:2,0:0:0:0:
318,252,110232,1,8,2:2:0:0:
413,280,110566,1,10,2:1:0:0:
508,252,110899,38,0,P|485:207|453:167,1,100,2|10,1:2|2:1,0:0:0:0:
436,69,111566,2,0,P|406:29|357:21,1,100,2|10,1:2|2:1,0:0:0:0:
320,54,112066,2,0,P|290:93|241:101,1,100,2|2,1:2|1:2,0:0:0:0:
204,68,112566,1,10,2:1:0:0:
131,0,112899,1,2,1:2:0:0:
35,29,113232,5,10,1:1:0:0:
35,29,113399,2,0,P|28:77|56:117,1,100,2|0,1:2|0:0,0:0:0:0:
103,134,113899,1,10,2:1:0:0:
162,214,114232,1,2,1:2:0:0:
134,310,114566,1,10,2:1:0:0:
34,315,114899,2,0,P|24:292|9:271,1,50,0|2,0:0|1:2,0:0:0:0:
33,229,115232,1,10,2:1:0:0:
33,229,115399,2,0,P|52:183|82:142,1,100,2|2,2:2|2:2,0:0:0:0:
57,100,115899,1,10,2:1:0:0:
122,24,116232,38,0,P|170:17|209:46,1,100,6|10,1:2|2:1,0:0:0:0:
293,100,116899,1,2,1:2:0:0:
377,46,117232,1,10,2:1:0:0:
461,100,117566,2,0,P|484:90|505:75,2,50,2|2|10,1:2|1:2|2:1,0:0:0:0:
440,145,118066,1,2,1:2:0:0:
396,234,118399,2,0,P|350:253|309:282,1,100,2|2,2:2|2:2,0:0:0:0:
271,315,118899,5,6,1:2:0:0:
176,284,119232,1,6,1:2:0:0:
130,194,119566,2,0,P|110:148|81:107,1,100,6|2,1:2|1:2,0:0:0:0:
109,67,120066,1,2,1:2:0:0:
109,67,120232,2,0,P|119:44|134:23,1,50,2|10,1:2|2:2,0:0:0:0:
186,14,120566,1,10,2:2:0:0:
186,14,120732,1,2,1:2:0:0:
289,40,121066,1,8,2:2:0:0:
289,40,121232,1,8,2:2:0:0:
256,136,121566,37,6,1:2:0:0:
109,96,130899,6,0,P|70:66|24:46,2,100,2|0|2,1:2|1:2|1:2,0:0:0:0:
202,60,131899,1,2,1:2:0:0:
242,151,132232,2,0,P|272:190|292:236,1,100,2|2,1:2|1:2,0:0:0:0:
378,186,132899,2,0,P|358:140|327:100,1,100,0|2,1:2|1:2,0:0:0:0:
326,0,133566,1,0,1:2:0:0:
412,49,133899,2,0,P|442:88|462:134,2,100,2|2|2,1:2|1:2|1:2,0:0:0:0:
327,100,134899,2,0,P|357:139|377:185,1,100,0|2,1:2|1:2,0:0:0:0:
417,278,135566,1,0,1:2:0:0:
358,359,135899,1,2,1:2:0:0:
258,348,136232,38,0,P|218:317|172:297,2,100,6|0|0,1:2|1:2|1:2,0:0:0:0:
321,270,137232,1,0,1:2:0:0:
420,254,137566,6,0,P|459:223|505:203,2,100,2|0|0,1:2|1:2|1:2,0:0:0:0:
357,176,138566,1,2,1:2:0:0:
258,160,138899,38,0,P|218:129|172:109,1,100,2|2,1:2|2:2,0:0:0:0:
132,139,139399,2,0,P|82:145|36:163,1,100,2|10,1:2|2:2,0:0:0:0:
28,212,139899,2,0,P|12:231|2:254,1,50,8|2,2:2|1:2,0:0:0:0:
0,305,140232,1,6,1:2:0:0:
239,383,141066,1,8,2:2:0:0:
239,383,141232,2,0,P|258:367|281:357,1,50,10|8,2:2|2:2,0:0:0:0:
322,329,141566,22,0,P|361:359|407:379,1,100,6|8,1:2|2:2,0:0:0:0:
457,364,142066,1,2,2:2:0:0:
457,364,142232,2,0,P|471:344|476:320,1,50,2|2,1:2|2:2,0:0:0:0:
507,280,142566,1,10,2:2:0:0:
484,184,142899,6,0,P|438:164|398:133,1,100,2|8,1:2|2:2,0:0:0:0:
348,131,143399,2,0,P|308:100|262:80,1,100,2|2,2:2|2:2,0:0:0:0:
212,78,143899,1,10,2:2:0:0:
129,22,144232,1,0,1:2:0:0:
49,82,144566,2,0,P|64:101|74:124,1,50,10|2,2:2|2:2,0:0:0:0:
60,172,144899,2,0,P|44:191|34:214,1,50,2|2,1:2|2:2,0:0:0:0:
50,267,145232,37,10,2:2:0:0:
50,267,145399,1,2,2:2:0:0:
95,361,145732,1,2,2:2:0:0:
95,361,145899,1,10,2:2:0:0:
198,369,146232,1,2,1:2:0:0:
256,283,146566,2,0,P|265:260|281:240,1,50,10|8,2:2|2:2,0:0:0:0:
322,212,146899,5,6,1:2:0:0:
416,178,147232,1,10,2:2:0:0:
492,242,147566,1,2,1:2:0:0:
500,340,147899,2,0,P|477:349|457:365,1,50,10|2,2:2|2:2,0:0:0:0:
407,362,148232,2,0,P|383:352|359:349,1,50,0|2,1:2|2:2,0:0:0:0:
325,311,148566,1,8,2:2:0:0:
325,311,148732,2,0,P|305:265|274:225,1,100,2|2,2:2|2:2,0:0:0:0:
242,187,149232,1,10,2:2:0:0:
196,97,149566,38,0,P|205:74|221:54,2,50,2|2|10,1:2|2:2|2:2,0:0:0:0:
163,135,150066,2,0,P|115:144|73:118,1,100,2|2,2:2|2:2,0:0:0:0:
45,84,150566,1,8,2:2:0:0:
45,84,150732,1,2,1:2:0:0:
0,177,151066,1,8,2:2:0:0:
45,270,151399,2,0,P|60:289|70:312,1,50,2|0,2:2|1:2,0:0:0:0:
97,361,151732,1,8,2:2:0:0:
97,361,151899,1,10,2:2:0:0:
184,309,152232,5,6,1:2:0:0:
184,309,152399,2,0,P|221:277|270:275,1,100,0|2,0:0|2:2,0:0:0:0:
313,299,152899,1,2,1:2:0:0:
395,243,153232,1,10,2:2:0:0:
486,296,153566,1,2,1:2:0:0:
486,296,153732,2,0,P|455:335|435:381,2,100,2|2|2,2:2|2:2|2:2,0:0:0:0:
512,253,154565,1,10,2:2:0:0:
486,156,154899,37,0,1:2:0:0:
399,106,155232,2,0,P|376:96|356:80,1,50,10|2,2:2|2:2,0:0:0:0:
308,98,155566,2,0,P|262:117|222:148,1,100,2|10,1:2|2:2,0:0:0:0:
180,132,156066,1,2,2:2:0:0:
180,132,156232,1,0,1:2:0:0:
92,83,156566,1,10,2:2:0:0:
5,134,156899,1,2,2:2:0:0:
5,234,157232,2,0,P|20:253|30:276,1,50,10|10,2:2|2:2,0:0:0:0:
51,321,157566,5,6,1:2:0:0:
138,370,157899,1,10,2:2:0:0:
225,321,158232,1,2,1:2:0:0:
312,370,158566,2,0,P|331:355|353:345,1,50,10|2,2:2|2:2,0:0:0:0:
382,303,158899,2,0,P|404:293|424:277,1,50,0|2,1:2|2:2,0:0:0:0:
476,296,159232,1,10,2:2:0:0:
476,296,159399,1,2,2:2:0:0:
512,204,159732,1,2,2:2:0:0:
512,204,159899,2,0,P|502:181|486:161,1,50,8|2,2:2|1:2,0:0:0:0:
494,111,160232,38,0,P|464:72|416:63,1,100,6|8,1:2|2:2,0:0:0:0:
338,0,160899,2,0,P|289:6|258:43,1,100,2|8,1:2|2:2,0:0:0:0:
240,93,161399,1,0,1:2:0:0:
240,93,161566,2,0,P|255:112|265:135,2,50,6|0|0,1:2|0:0|1:2,0:0:0:0:
150,49,162232,2,0,P|125:55|105:69,1,50,10|10,2:2|2:2,0:0:0:0:
56,80,162566,2,0,P|43:101|39:125,1,50,10|0,2:2|1:2,0:0:0:0:
11,168,162899,6,0,P|41:207|61:252,1,100,6|10,1:2|2:1,0:0:0:0:
103,343,163566,1,0,0:0:0:0:
198,378,163899,1,10,2:2:0:0:
289,335,164232,2,0,P|308:289|339:250,1,100,2|10,1:2|2:1,0:0:0:0:
367,153,164899,2,0,P|357:130|342:110,1,50,8|2,2:2|1:2,0:0:0:0:
311,70,165232,1,10,2:2:0:0:
391,10,165566,38,0,P|439:10|476:43,1,100,6|10,1:2|2:1,0:0:0:0:
508,138,166233,1,0,0:0:0:0:
464,228,166566,1,10,2:2:0:0:
369,260,166899,2,0,P|322:279|283:310,1,100,2|0,1:2|1:2,0:0:0:0:
246,343,167399,1,10,2:1:0:0:
151,330,167732,1,10,2:2:0:0:
151,330,167899,2,0,P|131:345|108:355,1,50,10|2,2:2|1:2,0:0:0:0:
60,338,168232,6,0,P|29:298|30:250,1,100,6|10,1:2|2:1,0:0:0:0:
56,208,168732,1,2,1:2:0:0:
0,125,169065,1,2,1:2:0:0:
56,42,169399,1,2,1:2:0:0:
56,42,169566,2,0,P|46:18|30:0,2,50,2|2|10,1:2|2:2|2:1,0:0:0:0:
94,72,170065,1,2,1:2:0:0:
172,133,170398,1,2,1:2:0:0:
263,95,170732,37,2,1:2:0:0:
263,95,170899,2,0,P|282:48|313:9,2,100,2|10|0,1:2|2:1|0:0,0:0:0:0:
287,138,171732,1,2,1:2:0:0:
376,194,172066,1,2,1:2:0:0:
376,194,172232,2,0,P|395:178|418:168,2,50,2|10|10,1:2|2:2|1:3,0:0:0:0:
360,241,172732,1,6,1:3:0:0:
307,327,173066,1,8,2:2:0:0:
307,327,173232,2,0,P|330:336|349:352,1,50,8|0,2:2|1:2,0:0:0:0:
398,364,173565,22,0,P|444:339|455:291,1,100,10|8,2:1|2:2,0:0:0:0:
485,256,174066,1,2,1:2:0:0:
485,256,174232,1,10,2:1:0:0:
446,163,174566,1,10,2:2:0:0:
349,137,174899,2,0,P|303:117|263:86,1,100,10|8,2:1|2:2,0:0:0:0:
218,81,175399,1,2,1:2:0:0:
218,81,175566,2,0,P|198:96|175:106,1,50,10|0,2:1|1:2,0:0:0:0:
130,85,175900,1,10,2:2:0:0:
39,126,176232,6,0,P|19:170|38:215,1,100,10|8,2:1|2:2,0:0:0:0:
77,247,176732,1,2,1:2:0:0:
77,247,176899,1,10,2:1:0:0:
101,343,177232,2,0,P|124:352|143:368,1,50,10|2,2:2|1:2,0:0:0:0:
186,342,177566,2,0,P|193:306|216:261,2,75,10|10|10,2:1|2:2|2:2,0:0:0:0:
230,364,178232,1,10,2:1:0:0:
328,383,178566,1,10,2:2:0:0:
421,347,178899,38,0,P|440:301|471:261,1,100,6|8,1:1|2:2,0:0:0:0:
500,173,179566,2,0,P|490:150|474:130,1,50,2|2,2:2|1:1,0:0:0:0:
442,92,179899,1,10,2:2:0:0:
345,119,180232,2,0,P|296:121|260:88,1,100,2|8,1:1|2:2,0:0:0:0:
201,8,180899,2,0,P|181:23|158:33,1,50,2|2,1:2|2:1,0:0:0:0:
122,68,181232,2,0,P|99:77|79:93,1,50,10|2,2:2|1:2,0:0:0:0:
42,127,181566,6,0,P|34:178|57:218,1,100,2|8,1:1|2:2,0:0:0:0:
141,272,182232,1,2,1:2:0:0:
239,251,182566,1,8,2:2:0:0:
293,166,182899,2,0,P|301:115|278:75,1,100,2|8,1:1|2:2,0:0:0:0:
194,21,183565,1,2,1:2:0:0:
96,42,183899,1,10,2:2:0:0:
42,127,184232,38,0,P|34:178|57:218,1,100,2|8,1:1|2:2,0:0:0:0:
141,272,184899,1,2,1:2:0:0:
239,251,185232,1,8,2:2:0:0:
293,166,185566,2,0,P|322:143|356:128,2,75,6|2|2,1:1|1:2|1:2,0:0:0:0:
250,140,186232,1,2,1:1:0:0:
204,290,186732,6,0,B|262:262|286:318|266:333|294:384|342:358,1,180.556185372469,2|0,1:2|0:0,0:0:0:0:
