osu file format v14

[General]
AudioFilename: audio.mp3
AudioLeadIn: 0
PreviewTime: 47899
Countdown: 0
SampleSet: Soft
StackLeniency: 0.7
Mode: 0
LetterboxInBreaks: 0
WidescreenStoryboard: 1

[Editor]
Bookmarks: 16232,37566,78899,100232,121566,186899
DistanceSpacing: 1.3
BeatDivisor: 4
GridSize: 8
TimelineZoom: 2

[Metadata]
Title:Roleless Weapon
TitleUnicode:ロールレスウエポン
Artist:inabakumori x Neru
ArtistUnicode:稲葉曇×Neru
Creator:Pisapou
Version:Jeby's Useless Hard
Source:
Tags:LimeTwist Jeby Wither Sagu vocaloid rock japanese Kaai Yuki 歌愛ユキ Kagamine Len 鏡音レン CHIMERA キメラ jrock j-rock pop jpop j-pop
BeatmapID:4122455
BeatmapSetID:1949918

[Difficulty]
HPDrainRate:4
CircleSize:3.8
OverallDifficulty:6
ApproachRate:8
SliderMultiplier:1.4
SliderTickRate:1

[Events]
//Background and Video events
0,0,"chimera_bg.png",0,0
//Break Periods
2,121766,129566
//Storyboard Layer 0 (Background)
//Storyboard Layer 1 (Fail)
//Storyboard Layer 2 (Pass)
//Storyboard Layer 3 (Foreground)
//Storyboard Layer 4 (Overlay)
//Storyboard Sound Samples

[TimingPoints]
233,333.333333333333,4,2,1,53,1,0
233,-117.647058823529,4,2,1,53,0,0
5566,-100,4,2,1,73,0,0
16232,-111.111111111111,4,2,1,63,0,0
48232,-90.9090909090909,4,2,1,83,0,1
68232,-100,4,2,1,73,0,0
78899,-111.111111111111,4,2,1,63,0,0
118899,-111.111111111111,4,2,1,73,0,0
121566,-125,4,2,1,53,0,0
130899,-125,4,2,1,63,0,0
138899,-111.111111111111,4,2,1,73,0,0
141566,-90.9090909090909,4,2,1,83,0,1
162899,-95.2380952380952,4,2,1,73,0,0
173566,-95.2380952380952,4,2,1,83,0,0
178899,-95.2380952380952,4,2,1,73,0,0
185566,-95.2380952380952,4,2,1,63,0,0
186232,-95.2380952380952,4,2,1,53,0,0
187232,-95.2380952380952,4,2,1,5,0,0

[Colours]
Combo1 : 164,204,188
Combo2 : 255,194,70
Combo3 : 247,186,125
Combo4 : 233,236,239

[HitObjects]
25,224,233,38,0,P|81:220|142:237,1,119.000002269745,4|8,1:2|2:2,0:0:0:0:
162,310,732,2,0,P|228:296|287:294,1,119.000002269745,0|0,1:2|1:2,0:0:0:0:
360,296,1232,1,8,2:2:0:0:
360,296,1399,6,0,L|367:358,2,59.5000011348725,2|0|0,2:1|1:2|1:2,0:0:0:0:
428,257,1899,1,8,2:2:0:0:
428,257,2066,2,0,P|441:190|443:131,1,119.000002269745,0|2,1:2|1:1,0:0:0:0:
431,62,2566,1,8,2:2:0:0:
280,26,2899,38,0,P|283:82|266:143,1,119.000002269745,4|8,1:2|2:2,0:0:0:0:
249,217,3399,2,0,P|315:230|374:232,1,119.000002269745,0|0,1:2|1:2,0:0:0:0:
447,238,3899,1,8,2:2:0:0:
447,238,4066,6,0,L|454:175,2,59.5000011348725,2|0|0,2:1|1:2|1:2,0:0:0:0:
433,320,4566,1,8,2:2:0:0:
433,320,4732,2,0,L|370:327,1,59.5000011348725,0|0,1:2|0:0,0:0:0:0:
306,267,5066,2,0,L|302:235,4,29.7500005674362,8|8|8|8|8,2:2|2:2|2:2|2:2|2:2,0:0:0:0:
248,347,5566,6,0,L|108:334,1,140,6|10,1:2|2:2,0:0:0:0:
17,337,6066,2,0,P|34:276|4:197,1,140,2|2,1:2|2:2,0:0:0:0:
164,106,6732,1,2,2:2:0:0:
164,106,6899,6,0,L|155:36,2,70,2|2|10,1:2|2:2|2:2,0:0:0:0:
172,196,7399,2,0,P|221:184|274:183,1,105,2|0,2:2|0:0,0:0:0:0:
305,192,7732,2,0,P|305:237|313:261,1,70,2|8,2:2|2:2,0:0:0:0:
351,348,8066,1,2,2:2:0:0:
439,306,8232,38,0,L|452:166,1,140,2|10,1:2|2:2,0:0:0:0:
447,75,8732,2,0,P|382:49|315:63,1,140,2|2,1:2|2:2,0:0:0:0:
164,164,9399,1,2,2:2:0:0:
164,164,9566,6,0,L|94:173,2,70,2|2|10,1:2|2:2|2:2,0:0:0:0:
254,172,10066,2,0,P|241:239|251:321,1,140,2|10,1:2|2:2,0:0:0:0:
163,343,10566,1,8,2:2:0:0:
163,343,10649,1,8,2:2:0:0:
163,343,10732,1,8,2:2:0:0:
84,284,10899,38,0,L|71:144,1,140,6|10,1:2|2:2,0:0:0:0:
91,55,11399,2,0,P|159:41|223:67,1,140,2|2,1:2|2:2,0:0:0:0:
349,204,12065,1,2,2:2:0:0:
349,204,12232,6,0,L|419:194,2,70,2|2|10,1:2|2:2|2:2,0:0:0:0:
258,196,12732,2,0,P|270:245|271:298,1,105,2|0,2:2|0:0,0:0:0:0:
269,331,13065,2,0,P|224:331|200:339,1,70,2|8,2:2|2:2,0:0:0:0:
110,354,13399,1,2,2:2:0:0:
32,293,13566,38,0,B|24:209|49:154,1,140,2|8,1:2|2:2,0:0:0:0:
79,69,14066,1,2,1:2:0:0:
261,40,14399,1,2,2:2:0:0:
261,40,14566,2,0,P|266:70|269:109,1,70,8|2,2:2|2:2,0:0:0:0:
222,187,14899,6,0,L|152:177,2,70,6|2|10,1:2|2:2|2:2,0:0:0:0:
307,217,15399,2,0,P|293:289|324:355,1,140,2|10,1:2|2:2,0:0:0:0:
416,350,15899,1,8,2:2:0:0:
416,350,15982,1,8,2:2:0:0:
416,350,16066,1,10,2:2:0:0:
467,271,16232,6,0,B|446:211|446:211|451:145,1,125.999996154785,6|10,1:2|2:2,0:0:0:0:
469,62,16732,2,0,P|403:66|343:77,1,125.999996154785,2|2,2:2|2:2,0:0:0:0:
278,135,17232,1,10,2:2:0:0:
278,135,17566,6,0,L|284:198,2,62.9999980773926,2|2|10,1:2|2:2|2:2,0:0:0:0:
204,86,18066,2,0,P|136:62|78:86,1,125.999996154785,2|2,2:2|2:2,0:0:0:0:
23,139,18566,1,8,2:2:0:0:
25,315,18899,38,0,P|90:319|150:330,1,125.999996154785,2|10,1:2|2:2,0:0:0:0:
236,347,19399,2,0,P|240:282|251:222,1,125.999996154785,2|2,2:2|2:2,0:0:0:0:
262,136,19899,1,10,2:2:0:0:
438,175,20232,5,2,1:2:0:0:
438,175,20399,2,0,P|446:142|446:112,1,62.9999980773926,0|8,0:0|2:2,0:0:0:0:
424,28,20732,2,0,P|353:39|298:43,1,125.999996154785,0|2,0:0|2:2,0:0:0:0:
220,32,21232,1,10,2:2:0:0:
220,32,21316,1,8,2:2:0:0:
220,32,21399,1,10,2:2:0:0:
162,106,21566,38,0,B|183:166|183:166|178:232,1,125.999996154785,6|10,1:2|2:2,0:0:0:0:
255,271,22066,2,0,P|189:275|129:286,1,125.999996154785,2|2,2:2|2:2,0:0:0:0:
46,313,22566,1,10,2:2:0:0:
21,222,22732,6,0,L|36:97,1,125.999996154785,2|2,2:2|2:2,0:0:0:0:
100,36,23232,1,10,2:2:0:0:
100,36,23399,2,0,P|161:47|224:50,1,125.999996154785,2|2,2:2|2:2,0:0:0:0:
306,95,23899,1,8,2:2:0:0:
306,95,24232,38,0,P|312:159|290:220,1,125.999996154785,2|10,1:2|2:2,0:0:0:0:
252,295,24732,2,0,P|314:298|376:309,1,125.999996154785,2|2,2:2|2:2,0:0:0:0:
463,327,25232,2,0,L|469:264,1,62.9999980773926,10|0,2:2|0:0,0:0:0:0:
486,170,25566,6,0,P|424:173|362:184,1,125.999996154785,2|8,1:2|2:2,0:0:0:0:
281,223,26066,2,0,P|264:164|266:98,1,125.999996154785,0|10,1:2|2:2,0:0:0:0:
229,20,26566,1,10,2:2:0:0:
170,84,26732,1,2,1:2:0:0:
170,84,26816,1,0,0:0:0:0:
170,84,26899,38,0,B|136:71|136:71|109:73,1,62.9999980773926,6|2,1:2|2:2,0:0:0:0:
228,150,27232,2,0,B|262:163|262:163|288:160,1,62.9999980773926,10|2,2:2|2:2,0:0:0:0:
170,217,27566,2,0,B|136:204|136:204|109:206,1,62.9999980773926,2|2,1:2|2:2,0:0:0:0:
228,283,27899,2,0,B|262:296|262:296|288:293,1,62.9999980773926,10|2,2:2|2:2,0:0:0:0:
383,296,28232,6,0,P|368:231|367:170,1,125.999996154785,2|8,1:2|2:2,0:0:0:0:
368,83,28732,2,0,L|243:98,1,125.999996154785,0|2,1:2|2:2,0:0:0:0:
167,52,29232,1,10,2:2:0:0:
93,93,29399,1,2,2:2:0:0:
93,93,29482,1,0,0:0:0:0:
93,93,29566,38,0,B|80:59|80:59|82:32,1,62.9999980773926,6|2,1:2|2:2,0:0:0:0:
86,181,29899,2,0,B|50:175|50:175|28:160,1,62.9999980773926,10|2,2:2|2:2,0:0:0:0:
164,222,30232,2,0,B|141:250|141:250|117:261,1,62.9999980773926,2|2,1:2|2:2,0:0:0:0:
240,176,30566,2,0,B|253:210|253:210|250:236,1,62.9999980773926,10|2,2:2|2:2,0:0:0:0:
200,96,30899,6,0,P|265:81|326:80,1,125.999996154785,2|8,1:2|2:2,0:0:0:0:
412,75,31399,2,0,L|427:200,1,125.999996154785,0|10,1:2|2:2,0:0:0:0:
360,258,31899,2,0,L|363:289,3,31.4999990386963,10|0|10|0,2:2|0:0|2:2|0:0,0:0:0:0:
365,321,32232,38,0,B|301:315|301:315|240:337,1,125.999996154785,6|10,1:2|2:2,0:0:0:0:
154,338,32732,2,0,P|152:273|138:212,1,125.999996154785,2|2,2:2|2:2,0:0:0:0:
89,140,33232,1,8,2:2:0:0:
89,140,33566,6,0,L|95:77,2,62.9999980773926,2|2|10,1:2|2:2|2:2,0:0:0:0:
138,213,34066,2,0,P|208:228|263:197,1,125.999996154785,2|2,2:2|2:2,0:0:0:0:
341,191,34566,2,0,L|347:254,1,62.9999980773926,10|2,2:2|2:2,0:0:0:0:
344,348,34899,38,0,P|284:327|222:334,1,125.999996154785,2|10,1:2|2:2,0:0:0:0:
167,264,35399,2,0,P|171:199|182:139,1,125.999996154785,2|2,2:2|2:2,0:0:0:0:
157,54,35899,1,10,2:2:0:0:
82,95,36066,1,0,0:0:0:0:
82,95,36149,1,0,0:0:0:0:
82,95,36232,6,0,P|72:123|76:158,1,62.9999980773926,2|2,1:2|1:2,0:0:0:0:
44,241,36566,1,10,2:2:0:0:
44,241,36732,2,0,P|109:243|170:257,1,125.999996154785,2|2,1:2|1:2,0:0:0:0:
246,298,37232,2,0,P|256:270|252:235,1,62.9999980773926,10|2,2:2|1:2,0:0:0:0:
220,148,37566,38,0,L|158:140,2,62.9999980773926,6|0|10,1:2|0:0|2:1,0:0:0:0:
304,115,38066,1,2,2:2:0:0:
304,115,38232,1,2,1:2:0:0:
352,284,38566,2,0,P|320:283|290:292,1,62.9999980773926,10|2,2:1|1:2,0:0:0:0:
201,283,38898,5,0,0:0:0:0:
201,283,39066,2,0,L|193:345,2,62.9999980773926,2|10|2,1:2|2:1|2:2,0:0:0:0:
127,233,39566,1,2,1:2:0:0:
53,192,39732,1,0,1:2:0:0:
53,192,39816,1,0,0:0:0:0:
53,192,39899,2,0,P|61:162|61:130,1,62.9999980773926,10|2,2:1|1:2,0:0:0:0:
92,40,40232,38,0,L|30:32,2,62.9999980773926,0|0|10,1:2|0:0|2:1,0:0:0:0:
184,40,40732,1,2,2:2:0:0:
184,40,40899,2,0,L|192:102,1,62.9999980773926,2|2,1:2|1:2,0:0:0:0:
265,152,41232,2,0,L|273:214,1,62.9999980773926,10|2,2:1|1:2,0:0:0:0:
251,307,41566,6,0,B|281:320|314:310|305:303|334:287|372:307,1,125.999996154785,2|10,2:2|2:1,0:0:0:0:
449,351,42066,2,0,P|460:280|463:225,1,125.999996154785,2|2,2:2|1:2,0:0:0:0:
504,147,42566,1,10,2:1:0:0:
437,98,42732,1,0,1:2:0:0:
437,98,42816,1,0,1:2:0:0:
437,98,42899,38,0,L|343:86,1,94.499997116089,6|0,1:2|0:0,0:0:0:0:
315,83,43232,2,0,P|307:113|307:145,1,62.9999980773926,10|0,2:1|0:0,0:0:0:0:
316,233,43566,2,0,P|253:239|190:252,1,125.999996154785,2|10,1:2|2:1,0:0:0:0:
19,289,44232,6,0,P|27:259|27:227,1,62.9999980773926,2|2,1:2|1:2,0:0:0:0:
100,177,44566,2,0,P|92:147|92:115,1,62.9999980773926,10|2,2:1|2:2,0:0:0:0:
112,29,44899,2,0,L|50:21,2,62.9999980773926,8|2|10,2:2|1:2|2:1,0:0:0:0:
206,54,45399,1,2,1:2:0:0:
206,54,45482,1,0,1:2:0:0:
206,54,45566,38,0,B|272:51|272:51|331:68,1,125.999996154785,4|10,1:2|2:2,0:0:0:0:
419,91,46066,1,2,1:2:0:0:
419,91,46232,2,0,L|427:152,1,62.9999980773926,10|2,2:2|1:2,0:0:0:0:
475,228,46566,1,10,2:2:0:0:
427,309,46732,6,0,B|394:323|394:323|301:309,1,125.999996154785,6|10,1:2|2:2,0:0:0:0:
224,337,47232,1,10,2:2:0:0:
224,337,47399,1,10,2:2:0:0:
177,267,47566,1,8,2:2:0:0:
177,267,47732,1,8,2:2:0:0:
241,206,47899,2,0,L|244:174,3,31.4999990386963,8|8|8|8,2:2|2:2|2:2|2:2,0:0:0:0:
245,139,48232,6,0,P|169:128|92:157,1,154.000004699707,6|8,1:2|2:2,0:0:0:0:
16,213,48732,1,2,2:2:0:0:
88,282,48899,2,0,L|78:358,1,77.0000023498536,2|2,1:2|2:2,0:0:0:0:
178,355,49232,2,0,P|216:341|254:345,1,77.0000023498536,10|2,2:2|2:2,0:0:0:0:
359,334,49566,6,0,L|368:257,1,77.0000023498536,2|0,1:2|0:0,0:0:0:0:
376,230,49816,1,0,0:0:0:0:
376,230,49899,1,8,2:2:0:0:
436,150,50066,2,0,P|371:107|283:131,1,154.000004699707,2|2,2:2|2:2,0:0:0:0:
253,208,50566,1,10,2:2:0:0:
182,153,50732,1,0,0:0:0:0:
182,153,50816,1,0,0:0:0:0:
182,153,50899,38,0,P|168:115|172:76,1,77.0000023498536,0|0,1:2|0:0,0:0:0:0:
255,26,51232,2,0,L|331:35,1,77.0000023498536,10|2,2:2|2:2,0:0:0:0:
424,86,51566,1,2,1:2:0:0:
424,86,51732,1,0,0:0:0:0:
360,163,51899,2,0,P|374:201|369:239,1,77.0000023498536,10|2,2:2|2:2,0:0:0:0:
367,270,52149,1,0,0:0:0:0:
367,270,52232,1,0,1:2:0:0:
299,344,52399,6,0,P|240:326|184:329,1,115.50000352478,2|0,2:2|0:0,0:0:0:0:
156,335,52732,2,0,L|146:259,1,77.0000023498536,2|0,1:2|0:0,0:0:0:0:
205,186,53066,1,2,2:2:0:0:
165,102,53232,2,0,L|126:97,3,38.5000011749268,10|8|8|8,2:2|2:2|2:2|2:2,0:0:0:0:
92,89,53566,38,0,B|96:131|96:131|82:165,1,77.0000023498536,6|0,1:2|0:0,0:0:0:0:
37,252,53899,2,0,P|75:248|111:261,1,77.0000023498536,10|0,2:2|0:0,0:0:0:0:
210,268,54232,2,0,L|220:344,1,77.0000023498536,2|0,1:2|0:0,0:0:0:0:
320,351,54566,1,10,2:2:0:0:
411,305,54732,1,2,2:2:0:0:
411,305,54816,1,0,0:0:0:0:
411,305,54899,6,0,P|415:267|401:231,1,77.0000023498536,0|2,1:2|2:2,0:0:0:0:
478,167,55232,1,8,0:0:0:0:
390,117,55399,2,0,B|345:95|345:95|236:117,1,154.000004699707,2|2,2:2|2:2,0:0:0:0:
159,168,55899,1,10,2:2:0:0:
250,230,56066,1,0,0:0:0:0:
250,230,56149,1,0,0:0:0:0:
250,230,56232,38,0,L|240:306,1,77.0000023498536,2|2,1:2|2:2,0:0:0:0:
151,355,56566,1,10,2:2:0:0:
73,291,56732,2,0,P|48:215|54:138,1,154.000004699707,2|2,2:2|2:2,0:0:0:0:
98,52,57232,1,8,2:2:0:0:
185,100,57399,1,2,1:2:0:0:
185,100,57482,1,0,1:2:0:0:
185,100,57566,6,0,P|225:96|261:109,1,77.0000023498536,2|0,1:2|0:0,0:0:0:0:
325,183,57899,1,10,2:2:0:0:
325,183,58066,1,2,2:2:0:0:
252,251,58232,1,0,1:2:0:0:
252,251,58399,1,8,2:2:0:0:
315,328,58566,2,0,P|362:319|429:313,1,115.50000352478,10|0,2:2|0:0,0:0:0:0:
459,308,58899,38,0,P|448:232|477:155,1,154.000004699707,6|8,1:2|2:2,0:0:0:0:
415,78,59399,1,2,2:2:0:0:
324,35,59566,2,0,L|247:44,1,77.0000023498536,2|2,1:2|2:2,0:0:0:0:
152,76,59899,2,0,P|166:114|162:152,1,77.0000023498536,10|2,2:2|2:2,0:0:0:0:
139,255,60232,6,0,L|216:264,1,77.0000023498536,2|0,1:2|0:0,0:0:0:0:
250,269,60482,1,0,0:0:0:0:
250,269,60565,1,8,2:2:0:0:
330,328,60732,2,0,P|372:265|360:191,1,154.000004699707,2|2,2:2|2:2,0:0:0:0:
302,110,61232,1,10,2:2:0:0:
379,45,61399,1,0,0:0:0:0:
379,45,61483,1,0,0:0:0:0:
379,45,61566,38,0,P|417:31|456:35,1,77.0000023498536,0|0,1:2|0:0,0:0:0:0:
482,129,61899,2,0,L|472:205,1,77.0000023498536,10|2,2:2|2:2,0:0:0:0:
388,260,62232,2,0,L|398:336,2,77.0000023498536,2|2|10,1:2|2:2|2:2,0:0:0:0:
317,188,62732,1,2,2:2:0:0:
317,188,62816,1,0,0:0:0:0:
317,188,62899,1,0,1:2:0:0:
244,118,63066,6,0,P|243:79|253:41,2,77.0000023498536,2|10|2,0:0|2:2|1:2,0:0:0:0:
161,175,63566,1,0,0:0:0:0:
89,105,63732,1,2,2:2:0:0:
33,188,63899,2,0,L|38:227,3,38.5000011749268,10|8|8|8,2:2|2:2|2:2|2:2,0:0:0:0:
40,261,64233,38,0,B|82:257|82:257|116:271,1,77.0000023498536,6|2,1:2|2:2,0:0:0:0:
199,323,64566,2,0,P|217:264|214:208,1,115.50000352478,10|0,2:2|0:0,0:0:0:0:
212,180,64899,2,0,L|288:170,1,77.0000023498536,2|0,1:2|0:0,0:0:0:0:
357,96,65232,1,10,2:2:0:0:
437,171,65399,1,2,2:2:0:0:
437,171,65483,1,0,0:0:0:0:
437,171,65566,6,0,P|441:209|427:245,1,77.0000023498536,0|2,1:2|2:2,0:0:0:0:
385,335,65899,1,8,0:0:0:0:
297,286,66066,2,0,B|252:264|252:264|190:295|143:286,1,154.000004699707,2|0,2:2|0:0,0:0:0:0:
64,335,66566,1,10,2:2:0:0:
20,257,66732,1,2,1:2:0:0:
20,257,66816,1,0,1:2:0:0:
20,257,66899,38,0,L|30:181,1,77.0000023498536,2|10,1:2|2:2,0:0:0:0:
41,154,67149,1,0,0:0:0:0:
41,154,67232,2,0,L|31:78,1,77.0000023498536,10|10,2:2|2:2,0:0:0:0:
121,32,67566,2,0,P|159:28|195:42,1,77.0000023498536,0|10,1:2|2:2,0:0:0:0:
265,126,67899,1,10,2:2:0:0:
265,126,67982,1,0,0:0:0:0:
265,126,68066,1,8,2:2:0:0:
176,166,68232,6,0,L|189:306,1,140,6|10,1:2|2:2,0:0:0:0:
263,357,68732,2,0,P|325:328|393:339,1,140,2|2,1:2|2:2,0:0:0:0:
475,178,69399,1,2,2:2:0:0:
475,178,69566,38,0,L|484:108,2,70,2|2|10,1:2|2:2|2:2,0:0:0:0:
402,232,70066,2,0,P|353:220|300:219,1,105,2|0,2:2|0:0,0:0:0:0:
268,227,70399,2,0,P|268:182|260:158,1,70,2|8,2:2|2:2,0:0:0:0:
209,82,70733,1,2,2:2:0:0:
118,44,70899,6,0,L|105:184,1,140,2|10,1:2|2:2,0:0:0:0:
63,264,71399,2,0,P|125:293|193:282,1,140,2|2,1:2|2:2,0:0:0:0:
328,158,72066,1,2,2:2:0:0:
328,158,72233,38,0,L|398:149,2,70,2|2|10,1:2|2:2|2:2,0:0:0:0:
238,177,72733,2,0,P|251:244|241:326,1,140,2|10,1:2|2:2,0:0:0:0:
163,353,73233,1,8,2:2:0:0:
163,353,73399,1,8,2:2:0:0:
79,300,73566,6,0,L|66:160,1,140,2|14,1:2|2:2,0:0:0:0:
61,69,74066,2,0,P|129:57|191:86,1,140,2|2,1:2|2:2,0:0:0:0:
365,155,74733,1,2,2:2:0:0:
365,155,74900,38,0,L|374:85,2,70,2|2|10,1:2|2:2|2:2,0:0:0:0:
311,228,75400,2,0,P|262:216|209:215,1,105,2|0,2:2|0:0,0:0:0:0:
180,220,75733,2,0,P|170:187|172:152,1,70,2|8,2:2|2:2,0:0:0:0:
192,62,76067,1,2,2:2:0:0:
282,28,76232,6,0,B|366:19|421:45,1,140,6|8,1:2|0:0,0:0:0:0:
491,99,76732,1,2,1:2:0:0:
472,283,77065,1,2,2:2:0:0:
472,283,77232,2,0,P|442:288|403:291,1,70,8|2,2:2|2:2,0:0:0:0:
311,289,77565,38,0,L|301:359,2,70,6|2|10,1:2|2:2|2:2,0:0:0:0:
252,218,78065,2,0,P|266:146|235:80,1,140,2|10,1:2|2:2,0:0:0:0:
167,52,78565,1,10,2:2:0:0:
167,52,78648,1,8,2:2:0:0:
167,52,78732,1,10,2:2:0:0:
105,124,78899,21,6,1:2:0:0:
105,124,79066,2,0,L|42:116,2,62.9999980773926,0|10|2,0:0|2:2|1:2,0:0:0:0:
170,182,79566,2,0,L|162:244,1,62.9999980773926,2|2,2:2|1:2,0:0:0:0:
117,320,79899,1,2,2:2:0:0:
205,353,80066,6,0,P|265:336|330:337,1,125.999996154785,2|2,1:2|2:2,0:0:0:0:
407,295,80566,1,10,2:2:0:0:
407,295,80732,2,0,P|423:234|422:169,1,125.999996154785,2|2,1:2|1:2,0:0:0:0:
368,108,81232,1,0,0:0:0:0:
368,108,81566,38,0,P|305:72|243:86,1,125.999996154785,2|10,1:2|2:2,0:0:0:0:
170,53,82066,2,0,P|166:115|155:177,1,125.999996154785,2|2,1:2|1:2,0:0:0:0:
137,264,82566,2,0,L|199:271,1,62.9999980773926,10|8,2:2|2:2,0:0:0:0:
265,341,82899,6,0,B|288:312|288:312|294:218,1,125.999996154785,2|0,1:2|0:0,0:0:0:0:
293,223,83732,37,2,2:2:0:0:
350,156,83899,2,0,L|381:152,3,31.4999990386963,10|8|10|0,2:2|2:2|2:2|0:0,0:0:0:0:
416,149,84232,6,0,P|420:214|431:275,1,125.999996154785,6|10,1:2|2:2,0:0:0:0:
353,316,84732,2,0,P|287:320|227:331,1,125.999996154785,2|2,2:2|2:2,0:0:0:0:
139,334,85232,1,10,2:2:0:0:
62,278,85399,38,0,L|78:153,1,125.999996154785,2|2,2:2|2:2,0:0:0:0:
109,72,85899,1,10,2:2:0:0:
109,72,86066,2,0,P|167:100|234:88,1,125.999996154785,2|2,2:2|2:2,0:0:0:0:
307,57,86566,1,8,2:2:0:0:
423,189,86899,6,0,L|485:196,2,62.9999980773926,2|2|10,1:2|0:0|0:0,0:0:0:0:
345,228,87399,1,2,2:2:0:0:
345,228,87566,2,0,L|338:290,1,62.9999980773926,2|2,1:2|2:2,0:0:0:0:
257,326,87899,2,0,P|202:326|163:337,1,94.499997116089,10|0,2:2|0:0,0:0:0:0:
135,349,88232,38,0,L|128:287,1,62.9999980773926,2|0,1:2|0:0,0:0:0:0:
29,235,88566,1,8,2:2:0:0:
29,235,88732,2,0,P|88:242|154:219,1,125.999996154785,0|2,1:2|1:2,0:0:0:0:
215,161,89232,1,10,2:2:0:0:
215,161,89399,1,10,2:2:0:0:
304,130,89566,6,0,L|311:192,1,62.9999980773926,6|2,1:2|2:2,0:0:0:0:
328,216,89816,1,0,0:0:0:0:
328,216,89899,2,0,L|321:278,1,62.9999980773926,10|2,2:1|2:2,0:0:0:0:
374,349,90232,2,0,P|399:340|436:342,1,62.9999980773926,2|2,1:2|2:2,0:0:0:0:
497,278,90566,1,10,2:1:0:0:
497,278,90732,1,2,2:2:0:0:
443,213,90899,38,0,L|436:151,1,62.9999980773926,0|0,1:2|0:0,0:0:0:0:
411,65,91232,2,0,P|386:74|349:72,1,62.9999980773926,10|2,2:1|2:2,0:0:0:0:
274,36,91566,1,2,1:2:0:0:
274,36,91732,1,2,2:2:0:0:
197,79,91899,2,0,L|190:140,1,62.9999980773926,10|0,2:1|0:0,0:0:0:0:
154,229,92232,6,0,P|211:230|247:239,1,94.499997116089,2|0,1:2|0:0,0:0:0:0:
278,245,92566,2,0,L|285:183,1,62.9999980773926,10|0,2:1|0:0,0:0:0:0:
353,126,92899,2,0,L|346:64,2,62.9999980773926,2|2|10,1:2|2:2|2:1,0:0:0:0:
425,193,93399,1,2,2:2:0:0:
425,193,93482,1,0,0:0:0:0:
425,193,93566,38,0,P|434:218|432:255,1,62.9999980773926,2|2,1:2|2:2,0:0:0:0:
377,323,93899,1,10,2:1:0:0:
377,323,94066,2,0,L|315:316,1,62.9999980773926,2|0,1:2|0:0,0:0:0:0:
230,343,94399,1,2,1:2:0:0:
161,286,94566,2,0,L|157:255,3,31.4999990386963,10|8|10|8,2:2|2:2|2:2|2:2,0:0:0:0:
155,219,94899,6,0,P|220:223|281:234,1,125.999996154785,6|10,1:2|2:2,0:0:0:0:
366,251,95399,2,0,P|369:188|380:126,1,125.999996154785,2|0,2:2|0:0,0:0:0:0:
298,92,95899,1,10,2:2:0:0:
122,110,96232,38,0,L|129:48,2,62.9999980773926,2|2|10,1:2|2:2|2:2,0:0:0:0:
42,149,96732,2,0,P|46:215|57:275,1,125.999996154785,2|2,2:2|2:2,0:0:0:0:
107,347,97232,2,0,L|169:354,1,62.9999980773926,8|2,2:2|2:2,0:0:0:0:
263,338,97566,6,0,B|242:278|247:212,1,125.999996154785,2|10,1:2|2:2,0:0:0:0:
203,130,98066,2,0,B|263:109|329:114,1,125.999996154785,2|2,2:2|2:2,0:0:0:0:
399,63,98566,1,10,2:2:0:0:
456,142,98732,1,0,1:2:0:0:
456,142,98815,1,0,1:2:0:0:
456,142,98898,38,0,P|466:170|462:205,1,62.9999980773926,2|2,1:2|1:2,0:0:0:0:
453,294,99232,1,10,2:2:0:0:
453,294,99398,2,0,P|388:292|327:278,1,125.999996154785,2|2,1:2|1:2,0:0:0:0:
255,327,99899,1,10,2:2:0:0:
255,327,100066,1,10,2:2:0:0:
202,249,100232,6,0,L|210:187,2,62.9999980773926,6|0|10,1:2|0:0|2:1,0:0:0:0:
154,324,100732,1,2,2:2:0:0:
154,324,100899,1,2,1:2:0:0:
18,211,101232,2,0,P|18:179|27:149,1,62.9999980773926,10|2,2:1|1:2,0:0:0:0:
31,126,101482,1,0,0:0:0:0:
31,126,101566,1,0,1:2:0:0:
116,86,101732,38,0,L|108:24,2,62.9999980773926,2|10|2,1:2|2:1|2:2,0:0:0:0:
181,144,102232,1,2,1:2:0:0:
223,70,102398,1,0,1:2:0:0:
223,70,102482,1,0,0:0:0:0:
223,70,102565,2,0,P|253:62|285:62,1,62.9999980773926,10|2,1:1|1:2,0:0:0:0:
379,74,102899,6,0,L|387:136,1,62.9999980773926,0|0,1:2|0:0,0:0:0:0:
316,189,103232,2,0,L|324:251,1,62.9999980773926,10|2,2:1|2:2,0:0:0:0:
328,340,103566,2,0,P|298:348|266:348,2,62.9999980773926,2|2|10,1:2|1:2|2:1,0:0:0:0:
409,304,104066,1,2,1:2:0:0:
466,229,104232,38,0,L|458:167,1,62.9999980773926,2|2,1:2|1:2,0:0:0:0:
375,135,104565,2,0,L|367:73,1,62.9999980773926,10|2,2:1|1:2,0:0:0:0:
286,34,104899,1,2,1:2:0:0:
215,83,105066,1,2,1:2:0:0:
215,83,105149,1,0,0:0:0:0:
215,83,105232,2,0,P|185:75|153:75,1,62.9999980773926,10|2,1:1|1:2,0:0:0:0:
61,48,105566,6,0,B|48:78|58:111|65:102|81:131|61:169,1,125.999996154785,4|10,1:2|2:1,0:0:0:0:
90,257,106066,1,2,2:2:0:0:
90,257,106232,2,0,L|82:319,2,62.9999980773926,2|2|10,1:2|1:2|2:1,0:0:0:0:
263,229,106899,38,0,B|308:217|308:217|391:229,1,125.999996154785,0|10,1:2|2:1,0:0:0:0:
416,243,107316,1,0,0:0:0:0:
416,243,107399,2,0,B|428:198|428:198|416:115,1,125.999996154785,2|2,2:2|1:2,0:0:0:0:
356,55,107899,2,0,P|326:54|294:63,1,62.9999980773926,10|2,1:1|1:2,0:0:0:0:
218,120,108232,6,0,L|156:128,2,62.9999980773926,0|0|10,1:2|0:0|2:1,0:0:0:0:
295,172,108732,1,0,0:0:0:0:
295,172,108899,2,0,P|291:239|277:296,1,125.999996154785,0|10,1:2|2:1,0:0:0:0:
189,301,109399,1,0,1:2:0:0:
189,301,109482,1,0,1:2:0:0:
189,301,109566,38,0,L|181:363,2,62.9999980773926,0|0|10,1:2|1:2|2:1,0:0:0:0:
164,216,110066,1,0,1:2:0:0:
74,246,110232,2,0,P|57:197|62:152,1,94.499997116089,8|0,2:2|0:0,0:0:0:0:
59,126,110566,2,0,P|105:130|150:115,1,94.499997116089,10|0,2:1|0:0,0:0:0:0:
167,92,110899,6,0,L|292:107,1,125.999996154785,2|10,1:2|2:1,0:0:0:0:
376,74,111399,1,2,2:2:0:0:
376,74,111566,1,2,1:2:0:0:
425,248,111899,1,10,2:1:0:0:
425,248,112066,38,0,B|395:261|362:251|371:244|342:228|304:248,1,125.999996154785,2|2,1:2|1:2,0:0:0:0:
216,260,112566,2,0,L|208:198,1,62.9999980773926,10|2,2:1|2:2,0:0:0:0:
272,137,112899,1,2,1:2:0:0:
272,137,112982,1,0,0:0:0:0:
272,137,113066,1,0,1:2:0:0:
213,71,113232,2,0,L|151:79,1,62.9999980773926,10|2,1:1|1:2,0:0:0:0:
55,83,113566,6,0,P|56:53|47:21,2,62.9999980773926,2|2|10,1:2|2:2|2:1,0:0:0:0:
42,173,114066,1,2,2:2:0:0:
42,173,114232,2,0,L|104:181,1,62.9999980773926,2|2,1:2|2:2,0:0:0:0:
166,244,114566,1,10,2:1:0:0:
166,244,114732,1,2,1:2:0:0:
229,173,114899,38,0,P|228:143|237:111,2,62.9999980773926,0|2|10,0:0|1:2|2:1,0:0:0:0:
291,242,115399,1,2,2:2:0:0:
291,242,115565,2,0,L|353:234,1,62.9999980773926,2|2,2:2|2:2,0:0:0:0:
437,262,115899,2,0,L|445:200,1,62.9999980773926,10|0,2:1|0:0,0:0:0:0:
488,115,116232,6,0,B|453:98|453:98|405:121|369:115,1,125.999996154785,6|10,1:2|2:1,0:0:0:0:
369,114,116899,38,0,L|361:52,2,62.9999980773926,2|2|10,1:2|2:2|2:1,0:0:0:0:
292,147,117399,1,0,1:2:0:0:
292,147,117482,1,0,1:2:0:0:
292,147,117566,6,0,P|262:146|230:155,1,62.9999980773926,2|2,1:2|1:2,0:0:0:0:
185,230,117899,2,0,P|193:260|192:291,1,62.9999980773926,10|2,2:1|1:2,0:0:0:0:
120,343,118232,2,0,L|58:335,1,62.9999980773926,0|2,1:2|2:2,0:0:0:0:
30,326,118482,1,0,0:0:0:0:
30,326,118566,2,0,L|22:264,1,62.9999980773926,8|2,2:1|2:2,0:0:0:0:
24,162,118899,38,0,B|53:139|53:139|147:133,1,125.999996154785,6|6,1:2|1:2,0:0:0:0:
221,92,119399,1,0,0:0:0:0:
221,92,119566,2,0,L|213:30,2,62.9999980773926,6|0|2,1:2|1:2|1:2,0:0:0:0:
232,179,120066,1,2,1:2:0:0:
182,259,120232,6,0,P|181:289|190:321,1,62.9999980773926,2|10,1:2|2:2,0:0:0:0:
279,346,120566,1,10,2:2:0:0:
279,346,120732,1,2,1:2:0:0:
353,296,120899,1,8,2:2:0:0:
353,296,121066,1,8,2:2:0:0:
323,213,121232,2,0,L|326:181,3,31.4999990386963,8|8|8|8,2:2|2:2|2:2|2:2,0:0:0:0:
330,150,121566,37,6,1:2:0:0:
408,44,130899,54,0,P|356:44|296:57,1,112,2|0,1:2|1:2,0:0:0:0:
229,92,131399,1,2,2:2:0:0:
229,92,131566,2,0,L|235:147,1,56,2|2,1:2|2:2,0:0:0:0:
297,194,131899,2,0,L|290:249,1,56,2|2,1:2|2:2,0:0:0:0:
244,320,132232,6,0,P|192:321|132:334,1,112,2|2,1:2|1:2,0:0:0:0:
55,341,132732,2,0,L|68:229,1,112,2|2,2:2|2:2,0:0:0:0:
91,154,133232,1,2,1:2:0:0:
248,140,133566,38,0,P|249:192|262:252,1,112,0|2,1:2|1:2,0:0:0:0:
304,321,134066,1,2,2:2:0:0:
304,321,134232,2,0,L|359:314,1,56,2|2,1:2|2:2,0:0:0:0:
434,290,134566,2,0,L|441:235,1,56,2|2,1:2|2:2,0:0:0:0:
452,151,134899,6,0,P|392:144|340:164,1,112,0|2,0:0|1:2,0:0:0:0:
344,161,135566,38,0,L|337:216,1,56,0|2,1:2|2:2,0:0:0:0:
278,268,135899,2,0,L|223:275,1,56,2|0,1:2|0:0,0:0:0:0:
155,224,136232,6,0,L|141:112,1,112,6|0,1:2|1:2,0:0:0:0:
194,55,136732,1,2,2:2:0:0:
194,55,136899,2,0,L|249:62,1,56,0|0,1:2|0:0,0:0:0:0:
314,105,137232,1,0,1:2:0:0:
414,225,137566,38,0,L|469:218,2,56,2|0|2,1:2|0:0|1:2,0:0:0:0:
361,283,138066,2,0,P|301:271|249:269,1,112,2|0,0:0|0:0,0:0:0:0:
202,207,138566,2,0,P|213:180|209:152,1,56,2|2,1:2|2:2,0:0:0:0:
137,92,138899,6,0,L|144:29,1,62.9999980773926,2|0,1:2|0:0,0:0:0:0:
61,137,139232,2,0,L|53:199,1,62.9999980773926,2|2,2:2|1:2,0:0:0:0:
53,231,139482,1,0,1:2:0:0:
53,231,139566,2,0,P|88:229|115:238,1,62.9999980773926,0|10,1:2|2:2,0:0:0:0:
172,304,139899,1,8,2:2:0:0:
245,252,140066,1,2,1:2:0:0:
245,252,140149,1,0,1:2:0:0:
245,252,140232,1,6,1:2:0:0:
198,168,141066,21,8,2:2:0:0:
269,116,141232,2,0,L|272:84,3,31.4999990386963,10|8|8|8,2:2|2:2|2:2|2:2,0:0:0:0:
280,50,141566,38,0,B|357:60|357:60|433:32,1,154.000004699707,6|8,1:2|2:2,0:0:0:0:
486,115,142066,1,2,2:2:0:0:
417,187,142232,2,0,P|403:225|407:263,1,77.0000023498536,2|2,1:2|2:2,0:0:0:0:
370,354,142566,2,0,L|294:344,1,77.0000023498536,10|2,2:2|2:2,0:0:0:0:
230,255,142899,6,0,L|244:140,1,115.50000352478,2|0,1:2|0:0,0:0:0:0:
247,109,143232,1,10,2:2:0:0:
149,84,143399,2,0,L|139:160,1,77.0000023498536,2|2,0:0|1:2,0:0:0:0:
49,194,143732,1,2,0:0:0:0:
37,294,143899,1,10,2:2:0:0:
124,347,144066,1,0,0:0:0:0:
124,347,144149,1,0,0:0:0:0:
124,347,144232,38,0,P|174:329|238:332,1,115.50000352478,0|0,1:2|0:0,0:0:0:0:
266,335,144566,2,0,L|256:259,1,77.0000023498536,10|2,2:2|2:2,0:0:0:0:
201,181,144899,1,2,1:2:0:0:
201,181,145066,1,2,2:2:0:0:
253,95,145232,1,10,2:2:0:0:
355,133,145399,1,2,2:2:0:0:
355,133,145482,1,0,0:0:0:0:
355,133,145566,6,0,L|431:123,1,77.0000023498536,0|2,1:2|2:2,0:0:0:0:
483,208,145899,2,0,B|490:249|490:249|468:326,1,115.50000352478,10|0,2:2|0:0,0:0:0:0:
462,350,146232,2,0,L|386:340,1,77.0000023498536,2|2,1:2|2:2,0:0:0:0:
307,276,146566,2,0,L|268:281,3,38.5000011749268,10|8|8|8,2:2|2:2|2:2|2:2,0:0:0:0:
233,285,146899,38,0,P|220:320|223:358,1,77.0000023498536,6|0,1:2|0:0,0:0:0:0:
155,222,147232,2,0,P|169:184|165:146,1,77.0000023498536,10|0,2:2|0:0,0:0:0:0:
102,69,147566,2,0,B|147:47|147:47|256:69,1,154.000004699707,2|10,1:2|2:2,0:0:0:0:
353,100,148066,1,2,2:2:0:0:
353,100,148149,1,0,0:0:0:0:
353,100,148232,6,0,L|362:176,1,77.0000023498536,0|2,1:2|2:2,0:0:0:0:
450,224,148566,1,8,2:2:0:0:
405,313,148732,2,0,B|357:304|357:304|301:327|301:327|251:312,1,154.000004699707,2|2,2:2|2:2,0:0:0:0:
167,357,149232,1,10,2:2:0:0:
96,301,149399,1,0,0:0:0:0:
96,301,149482,1,0,0:0:0:0:
96,301,149566,38,0,P|82:265|85:227,1,77.0000023498536,2|2,1:2|2:2,0:0:0:0:
179,194,149899,2,0,P|193:158|190:120,1,77.0000023498536,10|2,2:2|2:2,0:0:0:0:
152,27,150232,2,0,L|76:18,2,77.0000023498536,0|2|8,1:2|2:2|2:2,0:0:0:0:
258,52,150732,1,2,1:2:0:0:
258,52,150816,1,0,1:2:0:0:
258,52,150899,6,0,P|296:49|331:63,1,77.0000023498536,2|8,1:2|2:2,0:0:0:0:
406,129,151232,1,2,0:0:0:0:
406,129,151399,1,2,2:2:0:0:
350,212,151566,1,0,1:2:0:0:
350,212,151732,1,8,2:2:0:0:
391,303,151899,2,0,P|344:312|277:318,1,115.50000352478,10|0,2:2|0:0,0:0:0:0:
246,325,152232,38,0,L|236:248,1,77.0000023498536,6|0,1:2|0:0,0:0:0:0:
278,156,152566,1,8,2:2:0:0:
222,73,152732,1,0,0:0:0:0:
127,107,152899,2,0,P|89:93|51:97,1,77.0000023498536,2|2,1:2|2:2,0:0:0:0:
31,194,153232,2,0,L|41:270,1,77.0000023498536,10|2,2:2|2:2,0:0:0:0:
121,352,153566,5,2,1:2:0:0:
121,352,153732,2,0,B|192:325|192:325|269:335,1,154.000004699707,2|2,2:2|2:2,0:0:0:0:
367,356,154232,2,0,L|377:280,1,77.0000023498536,0|2,1:2|2:2,0:0:0:0:
452,213,154566,1,10,2:2:0:0:
407,135,154732,1,0,0:0:0:0:
407,135,154816,1,0,0:0:0:0:
407,135,154899,38,0,P|357:153|293:150,1,115.50000352478,0|0,1:2|0:0,0:0:0:0:
264,144,155232,2,0,L|254:220,1,77.0000023498536,10|2,2:2|2:2,0:0:0:0:
244,320,155566,2,0,P|205:317|170:330,1,77.0000023498536,2|0,1:2|2:2,0:0:0:0:
71,349,155899,1,10,2:2:0:0:
34,266,156066,1,2,2:2:0:0:
34,266,156149,1,0,0:0:0:0:
34,266,156232,6,0,L|44:190,1,77.0000023498536,0|2,1:2|2:2,0:0:0:0:
144,182,156566,2,0,L|154:106,1,77.0000023498536,10|0,2:2|1:2,0:0:0:0:
218,28,156899,1,2,2:2:0:0:
285,102,157066,1,0,0:0:0:0:
365,42,157232,2,0,L|404:47,3,38.5000011749268,10|8|10|8,2:2|2:2|2:2|2:2,0:0:0:0:
436,58,157566,38,0,L|446:134,1,77.0000023498536,6|2,1:2|2:2,0:0:0:0:
434,233,157899,2,0,L|319:247,1,115.50000352478,10|0,2:2|0:0,0:0:0:0:
289,255,158232,2,0,P|277:222|279:181,1,77.0000023498536,2|0,1:2|0:0,0:0:0:0:
334,95,158566,1,10,2:2:0:0:
255,33,158732,1,2,2:2:0:0:
162,88,158899,6,0,L|152:12,2,77.0000023498536,0|2|10,1:2|2:2|2:2,0:0:0:0:
81,147,159399,2,0,B|59:192|59:192|81:301,1,154.000004699707,2|2,2:2|2:2,0:0:0:0:
164,347,159899,1,8,2:2:0:0:
229,272,160066,1,2,1:2:0:0:
229,272,160149,1,0,1:2:0:0:
229,272,160232,38,0,P|300:275|381:290,1,154.000004699707,6|8,1:2|2:2,0:0:0:0:
475,256,160732,1,0,0:0:0:0:
396,193,160899,2,0,B|388:136|415:96|415:96|378:41,1,154.000004699707,2|8,1:2|2:2,0:0:0:0:
293,45,161399,1,0,1:2:0:0:
293,45,161482,1,0,1:2:0:0:
293,45,161566,6,0,L|254:40,3,38.5000011749268,6|0|0|8,1:2|0:0|0:0|2:2,0:0:0:0:
222,26,161899,2,0,L|183:30,3,38.5000011749268,0|0|0|0,1:2|0:0|1:2|0:0,0:0:0:0:
149,38,162232,1,10,2:2:0:0:
74,105,162399,1,8,2:2:0:0:
146,174,162566,2,0,L|155:250,1,77.0000023498536,8|0,2:2|0:0,0:0:0:0:
258,281,162899,37,6,1:2:0:0:
258,281,163066,2,0,P|260:319|250:354,2,73.4999977569581,0|10|2,0:0|2:1|1:2,0:0:0:0:
281,188,163566,2,0,P|314:205|340:231,2,73.4999977569581,0|0|10,0:0|1:2|2:2,0:0:0:0:
194,146,164066,1,0,1:2:0:0:
93,165,164232,6,0,L|84:92,1,73.4999977569581,2|0,1:2|0:0,0:0:0:0:
83,66,164482,1,0,1:2:0:0:
83,66,164566,1,10,2:1:0:0:
176,46,164732,2,0,P|249:47|321:28,1,146.999995513916,2|2,1:2|1:2,0:0:0:0:
396,95,165232,1,10,2:2:0:0:
396,95,165399,1,0,1:2:0:0:
369,197,165566,37,6,1:2:0:0:
369,197,165733,2,0,P|405:200|440:190,2,73.4999977569581,0|10|2,0:0|2:1|1:2,0:0:0:0:
276,220,166233,2,0,P|293:253|319:279,2,73.4999977569581,0|0|10,0:0|1:2|2:2,0:0:0:0:
299,127,166732,1,0,1:2:0:0:
239,42,166899,6,0,L|166:51,1,73.4999977569581,2|0,1:2|0:0,0:0:0:0:
140,53,167149,1,0,0:0:0:0:
140,53,167233,1,0,1:2:0:0:
46,95,167399,2,0,B|37:143|37:143|60:199|60:199|45:249,1,146.999995513916,10|10,2:1|2:2,0:0:0:0:
96,317,167899,1,10,2:2:0:0:
155,243,168066,1,2,1:2:0:0:
155,243,168149,1,0,0:0:0:0:
155,243,168232,38,0,P|227:247|300:260,1,146.999995513916,6|10,1:2|2:1,0:0:0:0:
349,342,168732,2,0,P|336:270|366:196,1,146.999995513916,2|2,1:2|1:2,0:0:0:0:
434,140,169232,1,8,2:2:0:0:
434,140,169399,1,2,1:2:0:0:
338,103,169566,6,0,L|346:29,2,73.4999977569581,2|2|10,1:2|2:2|2:1,0:0:0:0:
263,162,170066,2,0,P|258:234|245:307,1,146.999995513916,2|2,1:2|1:2,0:0:0:0:
155,331,170566,1,8,2:2:0:0:
155,331,170732,1,2,1:2:0:0:
63,284,170899,38,0,P|41:238|49:174,1,110.249996635437,2|0,1:2|0:0,0:0:0:0:
55,152,171232,2,0,L|128:160,1,73.4999977569581,10|0,2:1|1:2,0:0:0:0:
193,230,171566,2,0,L|266:221,1,73.4999977569581,0|2,0:0|1:2,0:0:0:0:
345,274,171899,1,8,2:2:0:0:
416,210,172066,1,2,1:2:0:0:
416,210,172149,1,2,1:2:0:0:
416,210,172232,6,0,P|411:171|424:136,1,73.4999977569581,2|10,1:2|2:2,0:0:0:0:
378,53,172566,2,0,L|304:44,1,73.4999977569581,10|6,1:3|1:3,0:0:0:0:
211,66,172899,1,4,1:2:0:0:
271,153,173066,1,8,2:2:0:0:
271,153,173149,1,8,2:2:0:0:
271,153,173232,2,0,L|262:226,1,73.4999977569581,8|0,2:2|1:2,0:0:0:0:
235,326,173566,6,0,P|194:324|162:334,1,73.4999977569581,10|0,2:1|1:2,0:0:0:0:
139,348,173816,1,2,2:2:0:0:
139,348,173899,2,0,P|98:349|66:339,1,73.4999977569581,10|2,2:2|1:2,0:0:0:0:
26,252,174232,2,0,L|35:179,1,73.4999977569581,10|0,2:1|1:2,0:0:0:0:
67,90,174566,1,10,2:2:0:0:
139,151,174732,1,2,1:2:0:0:
205,72,174899,6,0,P|245:70|277:80,1,73.4999977569581,10|0,2:1|1:2,0:0:0:0:
305,100,175149,1,2,1:2:0:0:
305,100,175232,2,0,P|345:101|377:91,1,73.4999977569581,10|2,2:2|1:2,0:0:0:0:
469,53,175566,1,10,2:1:0:0:
469,53,175649,1,0,0:0:0:0:
469,53,175732,1,0,1:2:0:0:
480,148,175899,2,0,L|489:221,1,73.4999977569581,10|0,2:2|1:2,0:0:0:0:
493,323,176232,38,0,P|453:321|421:331,1,73.4999977569581,10|0,2:1|1:2,0:0:0:0:
393,342,176482,2,0,L|379:231,1,110.249996635437,2|2,0:0|1:2,0:0:0:0:
290,196,176899,1,10,2:1:0:0:
212,252,177066,1,0,1:2:0:0:
136,193,177232,2,0,P|127:159|127:120,1,73.4999977569581,10|2,2:2|1:2,0:0:0:0:
205,51,177566,5,10,2:1:0:0:
205,51,177649,1,0,0:0:0:0:
205,51,177732,2,0,L|209:14,2,36.749998878479,10|10|8,2:2|2:2|0:0,0:0:0:0:
276,115,178066,1,0,0:0:0:0:
363,70,178232,1,10,2:1:0:0:
363,70,178316,1,0,0:0:0:0:
363,70,178399,1,0,0:0:0:0:
448,113,178566,2,0,L|457:186,1,73.4999977569581,10|0,2:2|0:0,0:0:0:0:
375,247,178899,38,0,P|394:300|388:356,2,110.249996635437,6|2|2,1:1|2:2|1:1,0:0:0:0:
306,186,179566,1,2,2:2:0:0:
306,186,179732,1,2,1:1:0:0:
246,261,179899,1,10,2:2:0:0:
246,261,180066,1,2,1:2:0:0:
157,208,180232,6,0,L|72:218,1,73.4999977569581,2|2,1:1|2:2,0:0:0:0:
55,224,180482,2,0,P|60:169|41:113,1,110.249996635437,0|2,0:0|1:1,0:0:0:0:
111,50,180899,1,2,1:2:0:0:
111,50,181066,1,2,2:1:0:0:
203,88,181232,1,10,2:2:0:0:
203,88,181399,1,2,1:2:0:0:
270,165,181566,38,0,P|251:218|257:274,2,110.249996635437,2|2|2,1:1|2:2|1:1,0:0:0:0:
294,147,182149,1,2,2:2:0:0:
294,147,182232,2,0,L|367:138,1,73.4999977569581,2|2,1:2|2:1,0:0:0:0:
460,113,182566,2,0,L|469:186,1,73.4999977569581,0|2,0:0|1:2,0:0:0:0:
390,252,182899,6,0,P|409:305|403:361,2,110.249996635437,2|2|2,1:1|2:2|2:1,0:0:0:0:
374,233,183482,1,2,2:2:0:0:
374,233,183565,2,0,L|301:224,1,73.4999977569581,2|2,1:2|2:1,0:0:0:0:
208,251,183899,2,0,L|199:178,1,73.4999977569581,0|2,0:0|1:2,0:0:0:0:
188,75,184232,38,0,B|147:67|147:67|78:88,2,110.249996635437,2|2|2,1:1|2:2|1:1,0:0:0:0:
221,83,184816,1,2,2:2:0:0:
221,83,184899,2,0,L|212:156,1,73.4999977569581,2|2,1:2|2:1,0:0:0:0:
208,251,185232,2,0,L|281:260,1,73.4999977569581,0|2,0:0|1:2,0:0:0:0:
383,244,185566,6,0,B|391:285|391:285|370:354,2,110.249996635437,6|2|2,1:1|1:2|1:2,0:0:0:0:
462,191,186232,1,2,1:1:0:0:
390,127,186399,2,0,L|385:90,3,36.749998878479,0|0|2|0,0:0|0:0|1:2|0:0,0:0:0:0:
379,58,186732,38,0,B|326:82|268:64|284:51|232:23|164:58,1,220.499993270874,2|0,1:2|0:0,0:0:0:0:
