osu file format v14

[General]
AudioFilename: audio.mp3
AudioLeadIn: 0
PreviewTime: 133837
Countdown: 0
SampleSet: Soft
StackLeniency: 0.7
Mode: 3
LetterboxInBreaks: 0
SpecialStyle: 0
WidescreenStoryboard: 0

[Editor]
DistanceSpacing: 0.8
BeatDivisor: 4
GridSize: 32
TimelineZoom: 1.7

[Metadata]
Title:Haru no Sekibaku
TitleUnicode:ハルノ寂寞
Artist:inabakumori
ArtistUnicode:稲葉曇
Creator:Crisper
Version:Goodbye
Source:
Tags:Loneliness of Spring MichouP 視長P 因幡プカリ Inaba Pukari きゐな kiwina Inaba Cumori Japanese Tsurumaki Maki 弦巻マキ Synthesizer V Vocaloid voiceroid ぬくぬくにぎりめし Nukunuku Nigirimeshi WEATHER STATION ウェザーステーション UXCL-276 jpop j-pop jrock j-rock electronic BallisticBubba Ballistic 民安ともえ tamiyasu tomoe long notes ln
BeatmapID:3489518
BeatmapSetID:1707723

[Difficulty]
HPDrainRate:8.5
CircleSize:4
OverallDifficulty:7.5
ApproachRate:5
SliderMultiplier:1.4
SliderTickRate:1

[Events]
//Background and Video events
0,0,"bg.jpg",0,0
//Break Periods
//Storyboard Layer 0 (Background)
//Storyboard Layer 1 (Fail)
//Storyboard Layer 2 (Pass)
//Storyboard Layer 3 (Foreground)
//Storyboard Layer 4 (Overlay)
//Storyboard Sound Samples

[TimingPoints]
1237,400,4,2,1,30,1,0
66837,-100,4,2,1,30,0,1
92437,-100,4,2,1,30,0,0
134037,-100,4,2,1,30,0,1
159637,-100,4,2,1,30,0,0

[HitObjects]
448,192,237,128,0,1137:0:0:0:0:
320,192,337,128,0,1137:0:0:0:0:
64,192,437,128,0,1137:0:0:0:0:
64,192,1237,128,0,1637:0:0:0:35:reverby clap.wav
192,192,1237,128,0,1337:0:0:0:0:
320,192,1237,1,0,0:0:0:0:
448,192,1237,1,0,0:0:0:0:
192,192,1437,128,0,1637:0:0:0:0:
448,192,1637,128,0,2037:0:0:0:0:
64,192,1837,128,0,2237:0:0:0:0:
320,192,2037,128,0,2437:0:0:0:0:
192,192,2237,128,0,2637:0:0:0:0:
64,192,2437,128,0,2637:0:0:0:0:
192,192,2837,128,0,3037:0:0:0:0:
320,192,2837,128,0,2937:0:0:0:0:
448,192,2837,128,0,3237:0:0:0:0:
320,192,3037,128,0,3237:0:0:0:0:
64,192,3237,128,0,3637:0:0:0:0:
192,192,3337,128,0,3637:0:0:0:0:
448,192,3637,128,0,3737:0:0:0:0:
320,192,4037,128,0,4137:0:0:0:0:
64,192,4437,128,0,4837:0:0:0:0:
192,192,4437,128,0,4537:0:0:0:0:
448,192,4437,128,0,4637:0:0:0:0:
192,192,4637,128,0,4837:0:0:0:0:
320,192,4837,128,0,5237:0:0:0:0:
64,192,5037,128,0,5137:0:0:0:0:
64,192,5237,128,0,5437:0:0:0:0:
320,192,5437,1,0,0:0:0:0:
64,192,5637,128,0,5837:0:0:0:0:
192,192,5837,128,0,6037:0:0:0:0:
64,192,6037,128,0,6237:0:0:0:0:
320,192,6037,128,0,6137:0:0:0:0:
448,192,6037,128,0,6437:0:0:0:0:
320,192,6237,128,0,6437:0:0:0:0:
192,192,6437,128,0,6837:0:0:0:0:
64,192,6637,128,0,7037:0:0:0:0:
448,192,6837,128,0,7037:0:0:0:0:
320,192,7037,128,0,7437:0:0:0:0:
192,192,7237,128,0,7437:0:0:0:0:
64,192,7437,1,0,0:0:0:0:
64,192,7637,128,0,8037:0:0:0:35:reverby clap.wav
192,192,7637,128,0,7737:0:0:0:0:
320,192,7637,1,0,0:0:0:0:
448,192,7637,128,0,7837:0:0:0:0:
192,192,7837,128,0,8037:0:0:0:0:
448,192,8037,128,0,8237:0:0:0:0:
64,192,8237,1,0,0:0:0:0:
448,192,8437,128,0,8837:0:0:0:0:
64,192,8637,128,0,9037:0:0:0:0:
192,192,8837,1,0,0:0:0:0:
192,192,9037,128,0,9237:0:0:0:0:
64,192,9237,128,0,9337:0:0:0:0:
320,192,9237,128,0,9337:0:0:0:0:
448,192,9237,128,0,9637:0:0:0:0:
320,192,9437,128,0,9637:0:0:0:0:
64,192,9637,128,0,10037:0:0:0:0:
448,192,9837,1,0,0:0:0:0:
192,192,10037,128,0,10437:0:0:0:0:
320,192,10237,1,0,0:0:0:0:
448,192,10437,128,0,10637:0:0:0:0:
320,192,10637,128,0,10837:0:0:0:0:
64,192,10837,128,0,11237:0:0:0:0:
192,192,10837,128,0,10937:0:0:0:0:
448,192,10837,1,0,0:0:0:0:
192,192,11037,128,0,11237:0:0:0:0:
448,192,11037,128,0,11137:0:0:0:0:
320,192,11237,128,0,11337:0:0:0:0:
448,192,11237,128,0,11337:0:0:0:0:
64,192,11437,1,0,0:0:0:0:
192,192,11637,128,0,11737:0:0:0:0:
448,192,11637,128,0,11737:0:0:0:0:
192,192,11837,128,0,11937:0:0:0:0:
448,192,11837,128,0,11937:0:0:0:0:
320,192,12037,1,0,0:0:0:0:
64,192,12237,128,0,12337:0:0:0:0:
64,192,12437,128,0,12537:0:0:0:0:
320,192,12437,128,0,12537:0:0:0:0:
448,192,12437,128,0,12837:0:0:0:0:
320,192,12637,128,0,12837:0:0:0:0:
192,192,12837,128,0,12937:0:0:0:0:
192,192,13037,128,0,13137:0:0:0:0:
448,192,13237,128,0,13937:0:0:0:0:
320,192,13337,128,0,13937:0:0:0:0:
64,192,13437,128,0,13537:0:0:0:0:
64,192,13637,128,0,13737:0:0:0:0:
64,192,14037,128,0,14437:0:0:0:50:rock2_7_a#1.wav
192,192,14037,1,0,0:0:0:0:
320,192,14037,128,0,14137:0:0:0:0:
448,192,14037,1,0,0:0:0:0:
320,192,14237,128,0,14437:0:0:0:0:
192,192,14437,128,0,14837:0:0:0:60:rock2_7_c#1.wav
448,192,14437,1,0,0:0:0:0:
448,192,14637,1,0,0:0:0:60:rock2_7_c#1.wav
320,192,14837,128,0,15237:0:0:0:30:rock2_7_a#1.wav
192,192,15037,128,0,15237:0:0:0:0:
64,192,15237,128,0,15637:0:0:0:60:rock2_7_c#1.wav
448,192,15237,1,0,0:0:0:0:
320,192,15437,128,0,15637:0:0:0:0:
192,192,15637,128,0,15737:0:0:0:15:rock2_7_a#1.wav
448,192,15637,128,0,16037:0:0:0:0:
192,192,15837,128,0,16037:0:0:0:0:
64,192,16037,128,0,16437:0:0:0:60:rock2_7_c#1.wav
320,192,16037,1,0,0:0:0:0:
192,192,16237,128,0,16437:0:0:0:60:rock2_7_c#1.wav
320,192,16237,1,0,0:0:0:0:
448,192,16437,128,0,16637:0:0:0:8:rock2_7_a#1.wav
64,192,16637,1,0,0:0:0:0:
192,192,16837,128,0,17237:0:0:0:60:rock2_7_c#1.wav
320,192,16837,1,0,0:0:0:0:
448,192,17037,128,0,17237:0:0:0:0:
64,192,17237,128,0,17637:0:0:0:0:
320,192,17237,128,0,17337:0:0:0:0:
320,192,17437,128,0,17637:0:0:0:0:
192,192,17637,1,0,0:0:0:60:rock2_7_c#1.wav
448,192,17637,128,0,17837:0:0:0:0:
192,192,17837,1,0,0:0:0:60:rock2_7_c#1.wav
320,192,17837,128,0,18037:0:0:0:0:
64,192,18037,1,0,0:0:0:0:
320,192,18237,128,0,18437:0:0:0:0:
64,192,18437,128,0,18637:0:0:0:60:rock2_7_c#1.wav
192,192,18437,1,0,0:0:0:0:
320,192,18637,128,0,18837:0:0:0:0:
192,192,18837,128,0,18937:0:0:0:0:
448,192,18837,128,0,19237:0:0:0:0:
192,192,19037,128,0,19237:0:0:0:0:
64,192,19237,1,0,0:0:0:60:rock2_7_c#1.wav
320,192,19237,128,0,19437:0:0:0:0:
64,192,19437,1,0,0:0:0:60:rock2_7_c#1.wav
192,192,19437,128,0,19637:0:0:0:0:
64,192,19637,128,0,19837:0:0:0:0:
448,192,19837,1,0,0:0:0:0:
64,192,20037,1,0,0:0:0:60:rock2_7_c#1.wav
320,192,20037,128,0,20237:0:0:0:0:
192,192,20237,128,0,20437:0:0:0:0:
64,192,20437,128,0,20837:0:0:0:35:reverby clap.wav
320,192,20437,128,0,20537:0:0:0:0:
448,192,20437,1,0,0:0:0:0:
320,192,20637,128,0,20837:0:0:0:0:
192,192,20837,1,0,0:0:0:60:rock2_7_c#1.wav
448,192,20837,128,0,21037:0:0:0:0:
192,192,21037,1,0,0:0:0:60:rock2_7_c#1.wav
320,192,21037,128,0,21237:0:0:0:0:
448,192,21237,128,0,21437:0:0:0:0:
64,192,21437,128,0,21637:0:0:0:0:
320,192,21637,128,0,21837:0:0:0:0:
192,192,21637,1,0,0:0:0:60:rock2_7_c#1.wav
64,192,21837,128,0,22037:0:0:0:0:
192,192,22037,128,0,22137:0:0:0:0:
448,192,22037,128,0,22437:0:0:0:0:
192,192,22237,128,0,22437:0:0:0:0:
320,192,22437,128,0,22637:0:0:0:60:rock2_7_c#1.wav
64,192,22437,1,0,0:0:0:0:
448,192,22637,128,0,22837:0:0:0:60:rock2_7_c#1.wav
64,192,22637,1,0,0:0:0:0:
192,192,22837,128,0,23237:0:0:0:0:
448,192,23037,1,0,0:0:0:0:
64,192,23237,1,0,0:0:0:60:rock2_7_c#1.wav
320,192,23237,128,0,23437:0:0:0:0:
448,192,23437,128,0,23637:0:0:0:0:
64,192,23637,128,0,24037:0:0:0:0:
192,192,23637,1,0,0:0:0:0:
320,192,23837,128,0,23937:0:0:0:0:
448,192,23837,128,0,23937:0:0:0:0:
192,192,24037,128,0,24137:0:0:0:60:rock2_7_c#1.wav
320,192,24037,128,0,24137:0:0:0:0:
192,192,24237,1,0,0:0:0:60:rock2_7_c#1.wav
64,192,24437,128,0,24537:0:0:0:0:
448,192,24437,128,0,24537:0:0:0:0:
64,192,24637,128,0,24737:0:0:0:0:
448,192,24637,128,0,24737:0:0:0:0:
192,192,24837,1,0,0:0:0:60:rock2_7_c#1.wav
64,192,25037,128,0,25137:0:0:0:0:
320,192,25037,128,0,25137:0:0:0:0:
64,192,25237,128,0,25337:0:0:0:0:
320,192,25237,128,0,25337:0:0:0:0:
448,192,25237,1,0,0:0:0:0:
192,192,25637,128,0,25737:0:0:0:0:
448,192,25637,128,0,25737:0:0:0:0:
192,192,25837,128,0,25937:0:0:0:0:
448,192,25837,128,0,25937:0:0:0:0:
192,192,26237,128,0,26337:0:0:0:0:
320,192,26237,128,0,26337:0:0:0:0:
192,192,26437,128,0,26537:0:0:0:0:
320,192,26437,128,0,26537:0:0:0:0:
192,192,26637,128,0,26737:0:0:0:0:
320,192,26637,128,0,26737:0:0:0:0:
64,192,26837,1,2,0:0:0:0:
192,192,26837,128,4,27237:0:0:0:0:
448,192,26837,128,0,27037:0:0:0:0:
320,192,27037,1,0,0:0:0:0:
64,192,27237,1,8,0:0:0:0:
448,192,27237,1,0,0:0:0:0:
192,192,27437,128,0,27837:0:0:0:0:
448,192,27437,128,0,27637:0:0:0:0:
64,192,27637,1,2,0:0:0:0:
320,192,27637,1,0,0:0:0:0:
320,192,27837,1,2,0:0:0:0:
448,192,27837,1,0,0:0:0:0:
64,192,28037,128,8,28237:0:0:0:0:
448,192,28037,128,0,28437:0:0:0:0:
320,192,28237,1,0,0:0:0:0:
64,192,28437,1,2,0:0:0:0:
192,192,28437,1,0,0:0:0:0:
64,192,28637,128,0,28837:0:0:0:0:
448,192,28637,128,0,29037:0:0:0:0:
192,192,28837,1,8,0:0:0:0:
320,192,28837,1,0,0:0:0:0:
64,192,29037,1,2,0:0:0:0:
192,192,29037,1,0,0:0:0:0:
64,192,29237,128,0,29637:0:0:0:0:
320,192,29237,128,0,29437:0:0:0:0:
192,192,29437,1,2,0:0:0:0:
448,192,29437,1,0,0:0:0:0:
320,192,29637,128,8,29837:0:0:0:0:
448,192,29637,128,0,30037:0:0:0:0:
192,192,29837,1,0,0:0:0:0:
64,192,30037,128,2,30437:0:0:0:0:
320,192,30037,128,0,30237:0:0:0:0:
192,192,30237,1,0,0:0:0:0:
320,192,30437,1,8,0:0:0:0:
448,192,30437,1,0,0:0:0:0:
64,192,30637,128,0,31037:0:0:0:0:
320,192,30637,128,0,30837:0:0:0:0:
192,192,30837,1,2,0:0:0:0:
448,192,30837,1,0,0:0:0:0:
192,192,31037,1,2,0:0:0:0:
320,192,31037,1,0,0:0:0:0:
64,192,31237,128,8,31437:0:0:0:0:
448,192,31237,128,0,31637:0:0:0:0:
320,192,31437,1,0,0:0:0:0:
64,192,31637,1,2,0:0:0:0:
192,192,31637,1,0,0:0:0:0:
192,192,31837,128,0,32037:0:0:0:0:
448,192,31837,128,0,32237:0:0:0:0:
64,192,32037,1,8,0:0:0:0:
320,192,32037,1,0,0:0:0:0:
64,192,32237,1,2,0:0:0:0:
192,192,32237,1,0,0:0:0:0:
192,192,32437,128,0,33237:0:0:0:0:
320,192,32437,128,0,32637:0:0:0:0:
64,192,32637,1,2,0:0:0:0:
448,192,32637,1,0,0:0:0:0:
320,192,32837,1,8,0:0:0:0:
448,192,32837,1,0,0:0:0:0:
64,192,33037,1,0,0:0:0:0:
64,192,33237,128,2,33637:0:0:0:0:
320,192,33237,128,4,33437:0:0:0:0:
448,192,33237,1,0,0:0:0:0:
192,192,33437,1,0,0:0:0:0:
320,192,33637,1,8,0:0:0:0:
448,192,33637,1,0,0:0:0:0:
64,192,33837,128,0,34237:0:0:0:0:
320,192,33837,128,0,34037:0:0:0:0:
192,192,34037,1,2,0:0:0:0:
448,192,34037,1,0,0:0:0:0:
320,192,34237,1,2,0:0:0:0:
448,192,34237,1,0,0:0:0:0:
192,192,34437,128,8,34637:0:0:0:0:
320,192,34437,128,0,34837:0:0:0:0:
448,192,34637,1,0,0:0:0:0:
64,192,34837,1,2,0:0:0:0:
192,192,34837,1,0,0:0:0:0:
192,192,35037,128,0,35237:0:0:0:0:
320,192,35037,128,0,35437:0:0:0:0:
64,192,35237,1,8,0:0:0:0:
448,192,35237,1,0,0:0:0:0:
64,192,35437,1,2,0:0:0:0:
192,192,35437,1,0,0:0:0:0:
192,192,35637,128,0,36037:0:0:0:0:
448,192,35637,128,0,35837:0:0:0:0:
64,192,35837,1,2,0:0:0:0:
320,192,35837,1,0,0:0:0:0:
320,192,36037,128,8,36237:0:0:0:0:
448,192,36037,128,0,36437:0:0:0:0:
64,192,36237,1,0,0:0:0:0:
64,192,36437,128,2,36837:0:0:0:0:
192,192,36437,128,0,36637:0:0:0:0:
320,192,36637,1,0,0:0:0:0:
320,192,36837,1,8,0:0:0:0:
448,192,36837,1,0,0:0:0:0:
64,192,37037,128,8,37437:0:0:0:0:
192,192,37037,128,0,37237:0:0:0:0:
448,192,37237,1,0,0:0:0:30:rock2_7_a1.wav
192,192,37337,1,0,0:0:0:25:rock2_7_d2.wav
320,192,37437,1,2,0:0:0:0:
448,192,37437,1,0,0:0:0:0:
64,192,37637,1,8,0:0:0:0:
192,192,37637,128,4,38037:0:0:0:0:
320,192,37637,128,0,37837:0:0:0:0:
64,192,38037,1,4,0:0:0:0:
320,192,38037,128,2,38237:0:0:0:0:
448,192,38037,128,0,38437:0:0:0:0:
64,192,38237,128,0,38437:0:0:0:0:
192,192,38437,1,8,0:0:0:0:
320,192,38437,128,0,38837:0:0:0:0:
192,192,38637,128,0,38837:0:0:0:0:
64,192,38837,128,2,39037:0:0:0:0:
448,192,38837,1,0,0:0:0:0:
192,192,39037,1,2,0:0:0:0:
448,192,39037,128,0,39237:0:0:0:0:
192,192,39237,128,8,39437:0:0:0:0:
320,192,39237,1,0,0:0:0:0:
320,192,39437,128,0,39637:0:0:0:0:
64,192,39637,1,2,0:0:0:0:
192,192,39637,128,0,39737:0:0:0:0:
192,192,39837,128,0,40037:0:0:0:0:
64,192,40037,1,8,0:0:0:0:
320,192,40037,128,0,40103:0:0:0:0:
448,192,40103,128,0,40437:0:0:0:0:
64,192,40237,1,0,0:0:0:0:
192,192,40437,128,0,40637:0:0:0:0:
64,192,40637,1,2,0:0:0:0:
448,192,40637,1,0,0:0:0:0:
320,192,40837,128,8,41037:0:0:0:0:
448,192,40837,1,0,0:0:0:0:
64,192,41037,1,0,0:0:0:0:
192,192,41237,1,2,0:0:0:0:
320,192,41237,128,0,41437:0:0:0:0:
64,192,41437,128,0,41637:0:0:0:0:
192,192,41637,128,8,41837:0:0:0:0:
320,192,41637,1,0,0:0:0:0:
320,192,41837,128,0,42037:0:0:0:0:
64,192,42037,1,2,0:0:0:0:
448,192,42037,1,0,0:0:0:0:
192,192,42237,1,2,0:0:0:0:
448,192,42237,1,0,0:0:0:0:
64,192,42437,1,8,0:0:0:0:
320,192,42437,128,0,42637:0:0:0:0:
64,192,42637,128,0,42837:0:0:0:0:
192,192,42837,1,2,0:0:0:0:
320,192,42837,128,0,42937:0:0:0:0:
320,192,43037,128,0,43137:0:0:0:0:
64,192,43237,1,8,0:0:0:0:
320,192,43237,128,0,43437:0:0:0:0:
192,192,43437,1,8,0:0:0:0:
448,192,43437,128,0,43537:0:0:0:0:
448,192,43637,128,0,43837:0:0:0:0:
64,192,43837,1,2,0:0:0:0:
320,192,43837,1,0,0:0:0:0:
64,192,44037,1,8,0:0:0:0:
192,192,44037,128,0,44237:0:0:0:0:
320,192,44237,128,0,44437:0:0:0:0:
64,192,44437,128,2,44837:0:0:0:0:
192,192,44437,1,0,0:0:0:0:
448,192,44437,128,0,44637:0:0:0:0:
192,192,44637,128,0,44837:0:0:0:0:
320,192,44837,1,8,0:0:0:0:
448,192,44837,128,0,44937:0:0:0:0:
448,192,45037,128,0,45137:0:0:0:0:
64,192,45237,1,2,0:0:0:0:
448,192,45237,128,0,45437:0:0:0:0:
64,192,45437,1,2,0:0:0:0:
320,192,45437,1,0,0:0:0:0:
192,192,45637,1,8,0:0:0:0:
448,192,45637,128,0,45837:0:0:0:0:
192,192,45837,128,0,46037:0:0:0:0:
64,192,46037,1,2,0:0:0:0:
448,192,46037,128,0,46237:0:0:0:0:
64,192,46237,128,0,46437:0:0:0:0:
320,192,46437,1,8,0:0:0:0:
448,192,46437,1,0,0:0:0:0:
320,192,46637,128,0,46837:0:0:0:0:
192,192,46837,128,0,47237:0:0:0:0:
320,192,47037,1,2,0:0:0:0:
448,192,47037,1,0,0:0:0:0:
64,192,47237,1,8,0:0:0:0:
448,192,47237,128,0,47437:0:0:0:0:
64,192,47437,128,0,48037:0:0:0:0:
320,192,47637,1,2,0:0:0:0:
448,192,47637,1,0,0:0:0:0:
320,192,47837,128,0,48037:0:0:0:0:
192,192,48037,1,8,0:0:0:0:
448,192,48037,1,0,0:0:0:0:
192,192,48237,128,0,48437:0:0:0:0:
64,192,48437,1,2,0:0:0:0:
448,192,48437,1,0,0:0:0:0:
64,192,48637,1,2,0:0:0:0:
192,192,48637,1,0,0:0:0:0:
320,192,48837,1,8,0:0:0:0:
448,192,48837,1,0,0:0:0:0:
320,192,49037,128,0,49237:0:0:0:0:
192,192,49237,1,2,0:0:0:0:
448,192,49237,1,0,0:0:0:0:
64,192,49437,1,2,0:0:0:0:
192,192,49437,128,0,49637:0:0:0:0:
320,192,49637,1,8,0:0:0:0:
448,192,49637,1,0,0:0:0:0:
320,192,49837,128,0,50037:0:0:0:0:
192,192,50037,1,0,0:0:0:0:
64,192,50237,1,2,0:0:0:0:
320,192,50237,128,0,50437:0:0:0:0:
64,192,50437,128,8,50637:0:0:0:0:
448,192,50437,1,0,0:0:0:0:
192,192,50637,1,0,0:0:0:30:rock2_7_a1.wav
448,192,50637,128,0,50837:0:0:0:0:
64,192,50837,128,2,51037:0:0:0:0:
192,192,50837,128,4,51237:0:0:0:0:
320,192,50837,1,0,0:0:0:0:
320,192,51037,128,0,51237:0:0:0:0:
64,192,51237,128,8,51637:0:0:0:0:
448,192,51237,1,0,0:0:0:0:
448,192,51437,128,0,51637:0:0:0:0:
192,192,51637,1,2,0:0:0:0:
320,192,51637,128,0,51837:0:0:0:0:
64,192,51837,1,2,0:0:0:0:
192,192,51837,128,0,52037:0:0:0:0:
320,192,52037,1,8,0:0:0:0:
448,192,52037,128,0,52137:0:0:0:0:
448,192,52237,128,0,52437:0:0:0:0:
64,192,52437,128,2,52537:0:0:0:0:
192,192,52437,1,0,0:0:0:0:
64,192,52637,128,0,52837:0:0:0:0:
192,192,52837,1,8,0:0:0:0:
448,192,52837,128,0,53437:0:0:0:0:
320,192,53037,1,0,0:0:0:0:
320,192,53237,128,0,53437:0:0:0:0:
64,192,53437,1,2,0:0:0:0:
192,192,53437,1,0,0:0:0:0:
64,192,53637,128,8,53837:0:0:0:0:
448,192,53637,1,0,0:0:0:0:
320,192,53837,128,0,54037:0:0:0:0:
192,192,54037,1,2,0:0:0:0:
448,192,54037,128,0,54237:0:0:0:0:
192,192,54237,128,0,54437:0:0:0:0:
320,192,54437,1,8,0:0:0:0:
448,192,54437,1,0,0:0:0:0:
448,192,54637,128,0,54837:0:0:0:0:
64,192,54837,1,2,0:0:0:0:
192,192,54837,1,0,0:0:0:0:
320,192,55037,1,2,0:0:0:0:
448,192,55037,128,0,55137:0:0:0:0:
192,192,55237,1,8,0:0:0:0:
448,192,55237,128,0,55637:0:0:0:0:
192,192,55437,128,0,55637:0:0:0:0:
64,192,55637,128,2,55837:0:0:0:0:
320,192,55637,1,0,0:0:0:0:
320,192,55837,128,0,56037:0:0:0:0:
64,192,56037,1,8,0:0:0:0:
192,192,56037,1,0,0:0:0:0:
192,192,56237,128,8,56337:0:0:0:0:
320,192,56237,1,0,0:0:0:0:
448,192,56437,1,0,0:0:0:0:
64,192,56637,128,2,56737:0:0:0:0:
192,192,56637,1,0,0:0:0:0:
64,192,56837,128,8,56937:0:0:0:0:
320,192,56837,1,0,0:0:0:0:
64,192,57037,128,0,57237:0:0:0:0:
192,192,57237,128,2,57637:0:0:0:0:
320,192,57237,128,0,57437:0:0:0:0:
448,192,57237,1,0,0:0:0:0:
448,192,57437,128,0,57637:0:0:0:0:
64,192,57637,1,8,0:0:0:0:
320,192,57637,128,0,57737:0:0:0:0:
320,192,57837,128,0,58237:0:0:0:0:
64,192,58037,1,2,0:0:0:0:
192,192,58037,1,0,0:0:0:0:
192,192,58237,1,2,0:0:0:0:
448,192,58237,1,0,0:0:0:0:
64,192,58437,1,8,0:0:0:0:
320,192,58437,128,0,58637:0:0:0:0:
64,192,58637,128,0,58837:0:0:0:0:
320,192,58837,1,2,0:0:0:0:
448,192,58837,1,0,0:0:0:0:
320,192,59037,128,0,59237:0:0:0:0:
192,192,59237,1,8,0:0:0:0:
448,192,59237,128,0,59637:0:0:0:0:
64,192,59437,1,0,0:0:0:0:
192,192,59637,128,0,60037:0:0:0:0:
320,192,59837,1,2,0:0:0:0:
448,192,59837,1,0,0:0:0:0:
64,192,60037,1,8,0:0:0:0:
320,192,60037,128,0,60237:0:0:0:0:
64,192,60237,128,0,60837:0:0:0:0:
320,192,60437,1,2,0:0:0:0:
448,192,60437,1,0,0:0:0:0:
320,192,60637,128,0,60837:0:0:0:0:
192,192,60837,1,8,0:0:0:0:
448,192,60837,1,0,0:0:0:0:
192,192,61037,128,0,61237:0:0:0:0:
64,192,61237,1,2,0:0:0:0:
320,192,61237,1,0,0:0:0:0:
64,192,61437,1,2,0:0:0:0:
192,192,61437,1,0,0:0:0:0:
320,192,61637,1,8,0:0:0:0:
448,192,61637,1,0,0:0:0:0:
320,192,61837,128,0,62037:0:0:0:0:
64,192,62037,1,2,0:0:0:0:
192,192,62037,1,4,0:0:0:0:
448,192,62037,1,0,0:0:0:0:
192,192,62237,128,0,62437:0:0:0:0:
64,192,62437,1,8,0:0:0:0:
448,192,62437,128,0,62637:0:0:0:0:
64,192,62637,128,2,62837:0:0:0:0:
192,192,62637,1,0,0:0:0:0:
320,192,62837,1,0,0:0:0:30:rock2_7_a1.wav
448,192,62837,128,0,63037:0:0:0:0:
64,192,63037,128,2,63237:0:0:0:0:
192,192,63037,1,0,0:0:0:0:
192,192,63237,128,8,63437:0:0:0:0:
320,192,63237,1,4,0:0:0:0:
448,192,63237,1,0,0:0:0:0:
320,192,63437,1,2,0:0:0:0:
448,192,63437,128,0,63637:0:0:0:0:
64,192,63637,128,2,64237:0:0:0:0:
192,192,63637,1,4,0:0:0:0:
448,192,64037,128,0,64237:0:0:0:60:rock2_7_c#1.wav
192,192,64237,128,0,64437:0:0:0:60:rock2_7_c#1.wav
448,192,64437,128,0,64537:0:0:0:0:
320,192,64637,1,0,0:0:0:60:rock2_7_c#1.wav
64,192,64737,1,0,0:0:0:60:rock2_7_c#1.wav
448,192,64837,128,0,65037:0:0:0:60:rock2_7_c#1.wav
192,192,65037,128,0,65237:0:0:0:30:rock2_7_a1.wav
64,192,65237,1,2,0:0:0:0:
320,192,65237,1,4,0:0:0:0:
448,192,65237,1,0,0:0:0:0:
64,192,65437,1,2,0:0:0:0:
192,192,65437,1,0,0:0:0:0:
192,192,65637,1,8,0:0:0:0:
448,192,65637,1,0,0:0:0:0:
64,192,65837,1,8,0:0:0:0:
320,192,65837,1,4,0:0:0:0:
448,192,65837,128,0,66237:0:0:0:0:
64,192,66237,1,4,0:0:0:0:
192,192,66237,1,8,0:0:0:0:
320,192,66237,1,2,0:0:0:0:
64,192,66437,1,8,0:0:0:0:
192,192,66437,1,2,0:0:0:0:
448,192,66437,1,0,0:0:0:0:
64,192,66637,1,8,0:0:0:0:
320,192,66637,1,2,0:0:0:0:
448,192,66637,1,0,0:0:0:0:
64,192,66837,128,2,67037:0:0:0:0:
192,192,66837,128,4,67037:0:0:0:0:
320,192,66837,128,0,66937:0:0:0:0:
448,192,66837,128,0,67437:0:0:0:0:
320,192,67037,128,0,67437:0:0:0:0:
64,192,67237,128,8,67437:0:0:0:0:
192,192,67237,128,0,67337:0:0:0:0:
192,192,67437,128,0,67637:0:0:0:0:
320,192,67637,128,2,68037:0:0:0:0:
448,192,67637,128,0,67837:0:0:0:0:
64,192,67837,128,2,67937:0:0:0:0:
192,192,67837,128,0,68037:0:0:0:0:
64,192,68037,128,8,68437:0:0:0:0:
448,192,68037,128,0,68137:0:0:0:0:
192,192,68237,128,0,68337:0:0:0:0:
448,192,68237,128,0,68437:0:0:0:0:
192,192,68437,128,2,68637:0:0:0:0:
320,192,68437,128,0,68837:0:0:0:0:
448,192,68637,128,0,68837:0:0:0:0:
64,192,68837,128,8,69237:0:0:0:0:
192,192,68837,128,0,69037:0:0:0:0:
320,192,69037,128,2,69137:0:0:0:0:
448,192,69037,128,8,69137:0:0:0:0:
320,192,69237,128,0,69437:0:0:0:0:
448,192,69237,128,0,69637:0:0:0:0:
64,192,69437,128,2,69537:0:0:0:0:
192,192,69437,128,0,69537:0:0:0:0:
192,192,69637,128,8,70037:0:0:0:0:
320,192,69637,128,0,69737:0:0:0:0:
320,192,69837,128,0,70037:0:0:0:0:
64,192,70037,128,2,70237:0:0:0:0:
448,192,70037,128,0,70437:0:0:0:0:
192,192,70237,128,0,70337:0:0:0:0:
320,192,70237,128,0,70437:0:0:0:0:
64,192,70437,128,8,70837:0:0:0:0:
192,192,70437,128,0,70537:0:0:0:0:
320,192,70637,128,0,70837:0:0:0:0:
448,192,70637,128,0,70737:0:0:0:0:
192,192,70837,128,2,71037:0:0:0:0:
448,192,70837,128,0,71037:0:0:0:0:
64,192,71037,128,2,71437:0:0:0:0:
320,192,71037,128,0,71237:0:0:0:0:
192,192,71237,128,8,71437:0:0:0:0:
448,192,71237,128,0,71337:0:0:0:0:
448,192,71437,128,0,71837:0:0:0:0:
64,192,71637,128,2,71737:0:0:0:0:
192,192,71637,128,0,72037:0:0:0:0:
64,192,71837,128,0,72037:0:0:0:0:
320,192,71837,128,0,71937:0:0:0:0:
320,192,72037,128,8,72137:0:0:0:0:
448,192,72037,128,0,72137:0:0:0:0:
320,192,72237,128,2,72637:0:0:0:0:
448,192,72237,128,0,72337:0:0:0:0:
64,192,72437,128,0,72537:0:0:0:0:
64,192,72637,128,2,73037:0:0:0:0:
192,192,72637,128,0,72737:0:0:0:0:
192,192,72837,128,8,73037:0:0:0:0:
320,192,72837,128,0,72937:0:0:0:0:
320,192,73037,128,2,73237:0:0:0:0:
448,192,73037,128,0,73137:0:0:0:0:
64,192,73237,128,2,73337:0:0:0:0:
192,192,73237,128,4,73637:0:0:0:0:
448,192,73237,128,0,73437:0:0:0:0:
64,192,73437,128,0,73637:0:0:0:0:
320,192,73637,128,8,73837:0:0:0:0:
448,192,73637,128,0,73837:0:0:0:0:
64,192,73837,128,0,74237:0:0:0:0:
192,192,73837,128,0,73937:0:0:0:0:
192,192,74037,128,2,74237:0:0:0:0:
320,192,74037,128,0,74137:0:0:0:0:
320,192,74237,128,2,74437:0:0:0:0:
448,192,74237,128,0,74437:0:0:0:0:
64,192,74437,128,8,74837:0:0:0:0:
192,192,74437,128,0,74737:0:0:0:0:
320,192,74637,128,0,74737:0:0:0:0:
448,192,74637,128,0,74837:0:0:0:0:
192,192,74837,128,2,75037:0:0:0:0:
320,192,74837,128,0,75237:0:0:0:0:
64,192,75037,128,0,75437:0:0:0:0:
192,192,75237,128,8,75437:0:0:0:0:
448,192,75237,128,0,75337:0:0:0:0:
320,192,75437,128,2,75537:0:0:0:0:
448,192,75437,128,8,75637:0:0:0:0:
320,192,75637,128,0,76037:0:0:0:0:
64,192,75837,128,2,75937:0:0:0:0:
192,192,75837,128,0,76237:0:0:0:0:
64,192,76037,128,8,76237:0:0:0:0:
448,192,76037,128,0,76137:0:0:0:0:
320,192,76237,128,0,76337:0:0:0:0:
448,192,76237,128,0,76437:0:0:0:0:
64,192,76437,128,2,76837:0:0:0:0:
192,192,76437,128,4,76537:0:0:0:0:
320,192,76437,128,0,76637:0:0:0:0:
192,192,76637,128,0,76837:0:0:0:0:
448,192,76637,128,0,76737:0:0:0:0:
320,192,76837,128,8,76937:0:0:0:0:
448,192,76837,128,0,77037:0:0:0:0:
320,192,77037,128,0,77137:0:0:0:0:
64,192,77237,128,2,77337:0:0:0:0:
192,192,77237,128,0,77437:0:0:0:0:
64,192,77437,128,2,77837:0:0:0:0:
320,192,77437,128,0,77537:0:0:0:0:
192,192,77637,128,8,77837:0:0:0:0:
448,192,77637,128,0,77737:0:0:0:0:
320,192,77837,128,0,77937:0:0:0:0:
448,192,77837,128,0,78337:0:0:0:0:
64,192,78037,128,2,78137:0:0:0:0:
192,192,78037,128,4,78137:0:0:0:0:
320,192,78037,128,0,78337:0:0:0:0:
64,192,78237,128,2,78637:0:0:0:0:
192,192,78237,128,0,78337:0:0:0:0:
192,192,78437,128,8,78637:0:0:0:0:
448,192,78437,128,0,78537:0:0:0:0:
320,192,78637,128,2,78837:0:0:0:0:
448,192,78637,128,0,78837:0:0:0:0:
64,192,78837,128,0,79237:0:0:0:0:
320,192,79037,128,8,79137:0:0:0:0:
448,192,79037,128,2,79137:0:0:0:0:
192,192,79137,128,8,79237:0:0:0:0:
320,192,79237,128,8,79537:0:0:0:0:
448,192,79237,128,0,79537:0:0:0:0:
64,192,79437,128,2,79537:0:0:0:0:
192,192,79437,128,0,79537:0:0:0:0:
64,192,79637,128,2,79837:0:0:0:0:
192,192,79637,128,4,79837:0:0:0:0:
320,192,79637,128,0,79737:0:0:0:0:
448,192,79637,128,0,80237:0:0:0:0:
320,192,79837,128,0,80237:0:0:0:0:
64,192,80037,128,8,80237:0:0:0:0:
192,192,80037,128,0,80137:0:0:0:0:
192,192,80237,128,0,80437:0:0:0:0:
320,192,80437,128,2,80637:0:0:0:0:
448,192,80437,128,0,80837:0:0:0:0:
64,192,80637,128,2,80737:0:0:0:0:
192,192,80637,128,0,80837:0:0:0:0:
64,192,80837,128,8,81237:0:0:0:0:
320,192,80837,128,0,81037:0:0:0:0:
192,192,81037,128,0,81137:0:0:0:0:
448,192,81037,128,0,81237:0:0:0:0:
192,192,81237,128,2,81637:0:0:0:0:
320,192,81237,128,0,81437:0:0:0:0:
64,192,81437,128,0,81637:0:0:0:0:
320,192,81637,128,8,81837:0:0:0:0:
448,192,81637,128,0,82037:0:0:0:0:
64,192,81837,128,2,81937:0:0:0:0:
192,192,81837,128,8,81937:0:0:0:0:
64,192,82037,128,0,82437:0:0:0:0:
192,192,82037,128,0,82237:0:0:0:0:
320,192,82237,128,2,82337:0:0:0:0:
448,192,82237,128,0,82337:0:0:0:0:
192,192,82437,128,8,82537:0:0:0:0:
448,192,82437,128,0,82837:0:0:0:0:
192,192,82637,128,0,82837:0:0:0:0:
64,192,82837,128,2,83237:0:0:0:0:
320,192,82837,128,0,83037:0:0:0:0:
192,192,83037,128,0,83237:0:0:0:0:
448,192,83037,128,0,83137:0:0:0:0:
320,192,83237,128,8,83337:0:0:0:0:
448,192,83237,128,0,83637:0:0:0:0:
64,192,83437,128,0,83537:0:0:0:0:
320,192,83437,128,0,83637:0:0:0:0:
64,192,83637,128,2,83837:0:0:0:0:
192,192,83637,128,0,83737:0:0:0:0:
192,192,83837,128,2,84037:0:0:0:0:
448,192,83837,128,0,84237:0:0:0:0:
64,192,84037,128,8,84137:0:0:0:0:
320,192,84037,128,0,84237:0:0:0:0:
192,192,84237,128,0,84637:0:0:0:0:
320,192,84437,128,2,84837:0:0:0:0:
448,192,84437,128,0,84537:0:0:0:0:
64,192,84637,128,0,84737:0:0:0:0:
448,192,84637,128,0,84837:0:0:0:0:
64,192,84837,128,8,84937:0:0:0:0:
192,192,84837,128,0,84937:0:0:0:0:
192,192,85037,128,2,85237:0:0:0:0:
320,192,85037,128,0,85137:0:0:0:0:
64,192,85437,128,2,85837:0:0:0:0:
192,192,85437,128,4,85537:0:0:0:0:
320,192,85437,128,0,85637:0:0:0:0:
192,192,85637,128,8,85837:0:0:0:0:
448,192,85637,128,0,85737:0:0:0:0:
320,192,85837,128,2,85937:0:0:0:0:
448,192,85837,128,0,86037:0:0:0:0:
64,192,86037,128,2,86137:0:0:0:0:
192,192,86037,128,4,86237:0:0:0:0:
320,192,86037,128,0,86437:0:0:0:0:
448,192,86237,128,0,86437:0:0:0:0:
64,192,86437,128,8,86637:0:0:0:0:
192,192,86437,128,0,86637:0:0:0:0:
320,192,86637,128,0,86737:0:0:0:0:
448,192,86637,128,0,87037:0:0:0:0:
64,192,86837,128,2,86937:0:0:0:0:
320,192,86837,128,0,87037:0:0:0:0:
64,192,87037,128,2,87237:0:0:0:0:
192,192,87037,128,0,87237:0:0:0:0:
320,192,87237,128,8,87537:0:0:0:0:
448,192,87237,128,0,87837:0:0:0:0:
64,192,87437,128,0,87637:0:0:0:0:
192,192,87437,128,0,87537:0:0:0:0:
192,192,87637,128,2,88037:0:0:0:0:
320,192,87637,128,0,87837:0:0:0:0:
64,192,87837,128,0,88037:0:0:0:0:
320,192,88037,128,8,88137:0:0:0:0:
448,192,88037,128,0,88237:0:0:0:0:
64,192,88237,128,2,88337:0:0:0:0:
320,192,88237,128,8,88437:0:0:0:0:
64,192,88437,128,0,88737:0:0:0:0:
320,192,88637,128,2,88737:0:0:0:0:
448,192,88637,128,0,88837:0:0:0:0:
192,192,88837,128,8,88937:0:0:0:0:
320,192,88837,128,0,89037:0:0:0:0:
192,192,89037,128,0,89237:0:0:0:0:
448,192,89037,128,0,89137:0:0:0:0:
64,192,89237,128,2,89437:0:0:0:0:
320,192,89237,128,4,89337:0:0:0:0:
448,192,89237,128,0,89437:0:0:0:0:
192,192,89437,128,0,89637:0:0:0:0:
320,192,89437,128,0,89637:0:0:0:0:
64,192,89637,128,8,89937:0:0:0:0:
448,192,89637,128,0,89737:0:0:0:0:
192,192,89837,128,2,89937:0:0:0:0:
448,192,89837,128,0,90037:0:0:0:0:
64,192,90037,128,8,90237:0:0:0:0:
192,192,90037,128,0,90237:0:0:0:0:
320,192,90237,128,0,90337:0:0:0:0:
448,192,90237,128,0,90637:0:0:0:0:
64,192,90437,128,8,90537:0:0:0:0:
320,192,90437,128,0,90637:0:0:0:0:
64,192,90637,128,2,91037:0:0:0:0:
192,192,90637,128,0,90737:0:0:0:0:
192,192,90837,128,2,91037:0:0:0:0:
320,192,90837,128,4,90937:0:0:0:0:
448,192,90837,128,0,90937:0:0:0:0:
320,192,91037,128,8,91437:0:0:0:0:
448,192,91037,128,0,91437:0:0:0:25:rock2_7_d2.wav
64,192,91237,128,8,91337:0:0:0:0:
192,192,91237,128,0,91337:0:0:0:25:rock2_7_d2.wav
64,192,91437,128,8,91637:0:0:0:0:
192,192,91437,128,0,91637:0:0:0:25:rock2_7_d2.wav
320,192,91637,128,8,91837:0:0:0:0:
448,192,91637,128,0,92037:0:0:0:25:rock2_7_d2.wav
64,192,91837,128,8,91937:0:0:0:0:
192,192,91837,128,0,91937:0:0:0:0:
320,192,91937,128,8,92037:0:0:0:0:
64,192,92037,128,8,92337:0:0:0:0:
192,192,92037,128,0,92337:0:0:0:0:
320,192,92237,128,0,92337:0:0:0:25:rock2_7_d2.wav
448,192,92237,128,0,92337:0:0:0:0:
64,192,92437,1,2,0:0:0:0:
192,192,92437,128,4,92537:0:0:0:0:
320,192,92437,1,0,0:0:0:0:
448,192,92437,128,0,93237:0:0:0:0:
192,192,92637,128,0,92837:0:0:0:0:
64,192,92837,1,8,0:0:0:0:
320,192,92837,1,0,0:0:0:0:
320,192,93037,128,0,93237:0:0:0:0:
64,192,93237,1,2,0:0:0:0:
192,192,93237,1,0,0:0:0:0:
192,192,93437,128,2,93637:0:0:0:0:
448,192,93437,1,0,0:0:0:0:
64,192,93637,128,8,93837:0:0:0:0:
320,192,93637,1,0,0:0:0:0:
320,192,93837,128,0,94037:0:0:0:0:
64,192,94037,128,2,94837:0:0:0:0:
448,192,94037,128,0,94137:0:0:0:0:
448,192,94237,128,0,94437:0:0:0:0:
192,192,94437,1,8,0:0:0:0:
320,192,94437,1,0,0:0:0:0:
192,192,94637,128,2,94837:0:0:0:0:
448,192,94637,1,8,0:0:0:0:
320,192,94837,128,0,95637:0:0:0:0:
64,192,95037,1,2,0:0:0:0:
448,192,95037,128,0,95237:0:0:0:0:
64,192,95237,1,8,0:0:0:0:
192,192,95237,1,0,0:0:0:0:
192,192,95437,128,0,95637:0:0:0:0:
64,192,95637,128,2,96037:0:0:0:0:
448,192,95637,128,0,95737:0:0:0:0:
192,192,95837,128,0,95937:0:0:0:0:
448,192,95837,128,0,96037:0:0:0:0:
192,192,96037,1,8,0:0:0:0:
320,192,96037,128,0,96437:0:0:0:0:
64,192,96237,128,0,96337:0:0:0:0:
192,192,96237,128,0,96437:0:0:0:0:
64,192,96437,128,2,96837:0:0:0:0:
448,192,96437,128,0,96537:0:0:0:0:
192,192,96637,128,2,96737:0:0:0:0:
448,192,96637,128,0,96837:0:0:0:0:
192,192,96837,1,8,0:0:0:0:
320,192,96837,128,0,97237:0:0:0:0:
64,192,97037,128,0,97137:0:0:0:0:
192,192,97037,128,0,97237:0:0:0:0:
64,192,97237,128,2,97637:0:0:0:0:
448,192,97237,128,0,97337:0:0:0:0:
192,192,97437,128,0,97537:0:0:0:0:
320,192,97437,128,0,97637:0:0:0:0:
192,192,97637,1,8,0:0:0:0:
448,192,97637,1,0,0:0:0:0:
64,192,97837,128,2,98037:0:0:0:0:
448,192,97837,128,8,98037:0:0:0:0:
192,192,98037,1,0,0:0:0:0:
64,192,98237,128,2,98637:0:0:0:0:
448,192,98237,128,0,98437:0:0:0:0:
192,192,98437,128,8,98537:0:0:0:0:
320,192,98437,128,0,98637:0:0:0:0:
192,192,98637,128,2,98837:0:0:0:0:
448,192,98637,1,0,0:0:0:0:
64,192,98837,128,2,98937:0:0:0:0:
320,192,98837,1,4,0:0:0:0:
448,192,98837,128,0,100437:0:0:0:0:
64,192,99037,128,0,99237:0:0:0:0:
192,192,99237,1,8,0:0:0:0:
320,192,99237,1,0,0:0:0:0:
320,192,99437,128,0,99637:0:0:0:0:
64,192,99637,1,2,0:0:0:0:
192,192,99637,1,0,0:0:0:0:
64,192,99837,128,2,100037:0:0:0:0:
320,192,99837,1,0,0:0:0:0:
192,192,100037,1,8,0:0:0:0:
320,192,100037,1,0,0:0:0:0:
192,192,100237,128,0,100437:0:0:0:0:
64,192,100437,128,2,101237:0:0:0:0:
320,192,100437,128,0,100537:0:0:0:0:
448,192,100637,128,0,100837:0:0:0:0:
192,192,100837,1,8,0:0:0:0:
320,192,100837,1,0,0:0:0:0:
192,192,101037,128,8,101237:0:0:0:0:
448,192,101037,1,2,0:0:0:0:
320,192,101237,128,0,102037:0:0:0:0:
64,192,101437,1,2,0:0:0:0:
448,192,101437,128,0,101637:0:0:0:0:
64,192,101637,128,8,101837:0:0:0:0:
192,192,101637,1,0,0:0:0:0:
448,192,101837,128,0,102037:0:0:0:0:
64,192,102037,128,2,102137:0:0:0:0:
192,192,102037,128,4,102837:0:0:0:0:
64,192,102237,128,0,102437:0:0:0:0:
320,192,102437,1,8,0:0:0:0:
448,192,102437,1,0,0:0:0:0:
320,192,102637,128,0,102837:0:0:0:0:
64,192,102837,1,2,0:0:0:0:
448,192,102837,1,0,0:0:0:0:
192,192,103037,128,2,103237:0:0:0:0:
448,192,103037,1,0,0:0:0:0:
64,192,103237,1,8,0:0:0:0:
320,192,103237,1,0,0:0:0:0:
192,192,103437,128,0,103637:0:0:0:30:rock2_7_a1.wav
448,192,103437,1,0,0:0:0:0:
64,192,103637,128,2,103837:0:0:0:0:
320,192,103637,1,4,0:0:0:0:
448,192,103637,1,0,0:0:0:0:
320,192,103837,128,2,104037:0:0:0:0:
448,192,103837,1,0,0:0:0:0:
64,192,104037,1,8,0:0:0:0:
192,192,104037,1,0,0:0:0:0:
64,192,104137,1,8,0:0:0:0:
192,192,104137,1,0,0:0:0:0:
320,192,104237,1,2,0:0:0:0:
448,192,104237,1,0,0:0:0:0:
64,192,104337,1,8,0:0:0:0:
448,192,104337,1,0,0:0:0:0:
192,192,104437,1,0,0:0:0:0:
320,192,104637,1,8,0:0:0:0:
448,192,104637,1,2,0:0:0:0:
64,192,104737,1,8,0:0:0:0:
192,192,104737,1,0,0:0:0:0:
64,192,104837,1,8,0:0:0:0:
448,192,104837,1,0,0:0:0:0:
64,192,105037,1,2,0:0:0:0:
448,192,105037,1,0,0:0:0:30:rock2_7_a1.wav
320,192,105137,1,0,0:0:0:25:rock2_7_d2.wav
64,192,105237,1,2,0:0:0:0:
192,192,105237,1,4,0:0:0:0:
448,192,105237,1,0,0:0:0:0:
192,192,105437,128,0,105537:0:0:0:0:
320,192,105437,128,0,105537:0:0:0:0:
192,192,105637,128,0,106037:0:0:0:0:
320,192,105637,128,0,105937:0:0:0:0:
64,192,106037,128,0,106137:0:0:0:0:
320,192,106037,128,0,106137:0:0:0:0:
64,192,106237,128,0,106537:0:0:0:0:
320,192,106237,128,0,106637:0:0:0:0:
64,192,106637,128,0,107037:0:0:0:0:
192,192,106637,128,0,106937:0:0:0:0:
320,192,106837,128,0,106937:0:0:0:0:
192,192,107037,128,0,107137:0:0:0:0:
448,192,107037,128,0,107137:0:0:0:0:
192,192,107237,128,0,107637:0:0:0:0:
448,192,107237,128,0,107537:0:0:0:0:
64,192,107637,128,0,107737:0:0:0:0:
448,192,107637,128,0,107737:0:0:0:0:
64,192,107837,128,0,108137:0:0:0:0:
448,192,107837,128,0,108237:0:0:0:0:
64,192,108237,128,0,108637:0:0:0:0:
192,192,108237,128,0,108537:0:0:0:0:
320,192,108437,128,0,108537:0:0:0:0:
192,192,108637,128,0,108737:0:0:0:0:
448,192,108637,128,0,108737:0:0:0:0:
320,192,108737,128,0,108837:0:0:0:0:
64,192,108837,128,0,109137:0:0:0:0:
448,192,108837,128,0,109237:0:0:0:0:
192,192,109037,128,0,109137:0:0:0:0:
64,192,109237,128,0,109337:0:0:0:0:
320,192,109237,128,0,109337:0:0:0:0:
64,192,109437,128,0,109837:0:0:0:0:
320,192,109437,128,0,109737:0:0:0:0:
192,192,109637,128,0,109737:0:0:0:0:
192,192,109837,128,0,110237:0:0:0:0:
448,192,109837,128,0,110137:0:0:0:0:
320,192,110037,128,0,110137:0:0:0:0:
64,192,110237,128,0,110437:0:0:0:0:
448,192,110237,128,0,110337:0:0:0:0:
320,192,110437,128,0,110737:0:0:0:0:
448,192,110437,128,0,110837:0:0:0:0:
192,192,110637,128,0,110737:0:0:0:0:
64,192,110837,128,0,111037:0:0:0:0:
320,192,110837,128,0,110937:0:0:0:0:
320,192,111037,128,0,111437:0:0:0:0:
448,192,111037,128,0,111337:0:0:0:0:
192,192,111237,128,0,111337:0:0:0:0:
64,192,111437,128,0,111837:0:0:0:0:
448,192,111437,128,0,111737:0:0:0:0:
192,192,111537,1,0,0:0:0:0:
320,192,111637,1,0,0:0:0:0:
192,192,111837,128,0,111937:0:0:0:0:
448,192,111837,128,0,111937:0:0:0:0:
192,192,112037,128,0,112337:0:0:0:0:
448,192,112037,128,0,112437:0:0:0:0:
192,192,112437,128,0,112537:0:0:0:0:
320,192,112437,128,0,112537:0:0:0:0:
192,192,112637,128,0,113037:0:0:0:0:
320,192,112637,128,0,112937:0:0:0:0:
320,192,113037,128,0,113437:0:0:0:0:
448,192,113037,128,0,113337:0:0:0:0:
192,192,113237,128,0,113337:0:0:0:0:
64,192,113437,128,0,113537:0:0:0:0:
448,192,113437,128,0,113537:0:0:0:0:
64,192,113637,128,0,113937:0:0:0:0:
448,192,113637,128,0,114037:0:0:0:0:
64,192,114037,128,0,114137:0:0:0:0:
320,192,114037,128,0,114137:0:0:0:0:
192,192,114237,1,2,0:0:0:0:
320,192,114237,128,0,114437:0:0:0:0:
64,192,114437,1,8,0:0:0:0:
192,192,114437,128,4,114637:0:0:0:0:
448,192,114437,1,0,0:0:0:0:
64,192,114637,128,2,114837:0:0:0:0:
320,192,114637,1,0,0:0:0:0:
192,192,114837,128,2,114937:0:0:0:0:
320,192,114837,128,4,115037:0:0:0:0:
448,192,114837,128,0,115137:0:0:0:0:
64,192,115037,128,8,115137:0:0:0:0:
192,192,115037,128,0,115137:0:0:0:25:rock2_7_d2.wav
320,192,115137,128,0,115237:0:0:0:0:
64,192,115237,128,8,115537:0:0:0:0:
192,192,115237,128,2,115537:0:0:0:0:
448,192,115237,128,0,115337:0:0:0:25:rock2_7_d2.wav
320,192,115437,128,8,115537:0:0:0:0:
448,192,115437,128,0,115537:0:0:0:25:rock2_7_d2.wav
64,192,115637,128,8,115737:0:0:0:0:
192,192,115637,128,2,115737:0:0:0:0:
320,192,115637,128,0,115937:0:0:0:25:rock2_7_d2.wav
448,192,115637,128,0,115937:0:0:0:0:
64,192,115837,128,8,115937:0:0:0:0:
192,192,115837,128,0,115937:0:0:0:25:rock2_7_d2.wav
64,192,116037,128,8,116237:0:0:0:0:
192,192,116037,128,2,116237:0:0:0:0:
320,192,116037,128,0,116137:0:0:0:25:rock2_7_d2.wav
320,192,116237,128,8,116337:0:0:0:0:
448,192,116237,128,0,116337:0:0:0:0:
192,192,116337,128,8,116437:0:0:0:0:
64,192,116437,128,8,116737:0:0:0:0:
320,192,116437,128,4,116537:0:0:0:0:
448,192,116437,128,2,116537:0:0:0:0:
320,192,116637,128,8,116737:0:0:0:0:
448,192,116637,128,0,116737:0:0:0:25:rock2_7_d2.wav
192,192,116737,128,0,116837:0:0:0:0:
64,192,116837,128,2,116937:0:0:0:0:
320,192,116837,128,8,117137:0:0:0:0:
448,192,116837,128,0,117137:0:0:0:25:rock2_7_d2.wav
64,192,117037,128,8,117137:0:0:0:0:
192,192,117037,128,0,117137:0:0:0:25:rock2_7_d2.wav
64,192,117237,128,2,117537:0:0:0:0:
320,192,117237,128,8,117337:0:0:0:0:
448,192,117237,128,0,117337:0:0:0:25:rock2_7_d2.wav
192,192,117337,128,8,117537:0:0:0:0:
320,192,117437,128,8,117537:0:0:0:0:
448,192,117437,128,0,117537:0:0:0:0:
64,192,117637,128,2,117737:0:0:0:0:
192,192,117637,128,8,117737:0:0:0:0:
320,192,117637,128,0,117937:0:0:0:0:
448,192,117637,128,0,117937:0:0:0:0:
64,192,117837,128,0,117937:0:0:0:25:rock2_7_d2.wav
192,192,117837,128,0,117937:0:0:0:0:
64,192,118037,1,2,0:0:0:0:
192,192,118037,128,4,118237:0:0:0:0:
320,192,118037,1,0,0:0:0:0:
448,192,118037,128,0,118437:0:0:0:0:
64,192,118237,128,2,118437:0:0:0:0:
320,192,118237,1,0,0:0:0:0:
192,192,118437,1,8,0:0:0:0:
320,192,118437,128,0,118637:0:0:0:0:
192,192,118637,128,0,118837:0:0:0:0:
448,192,118737,1,0,0:0:0:0:
64,192,118837,128,2,119037:0:0:0:0:
320,192,118837,1,0,0:0:0:0:
192,192,119037,1,2,0:0:0:0:
320,192,119037,128,0,119237:0:0:0:0:
64,192,119237,128,8,119437:0:0:0:0:
448,192,119237,1,0,0:0:0:0:
320,192,119437,128,0,119637:0:0:0:0:
192,192,119637,1,2,0:0:0:0:
448,192,119637,128,0,119837:0:0:0:0:
192,192,119837,128,2,120037:0:0:0:0:
320,192,119837,1,0,0:0:0:0:
64,192,120037,1,8,0:0:0:0:
320,192,120037,128,0,120103:0:0:0:0:
448,192,120103,128,0,120337:0:0:0:0:
64,192,120237,1,2,0:0:0:0:
192,192,120237,128,0,120437:0:0:0:0:
320,192,120337,1,0,0:0:0:0:
448,192,120437,128,0,120637:0:0:0:0:
64,192,120637,128,2,120837:0:0:0:0:
192,192,120637,1,0,0:0:0:0:
192,192,120837,128,8,121237:0:0:0:0:
448,192,120837,1,0,0:0:0:0:
448,192,121037,128,0,121237:0:0:0:0:
64,192,121237,1,2,0:0:0:0:
320,192,121237,128,0,121437:0:0:0:0:
64,192,121437,128,2,121637:0:0:0:0:
192,192,121437,1,0,0:0:0:0:
192,192,121637,128,8,121837:0:0:0:0:
448,192,121637,1,0,0:0:0:0:
320,192,121837,128,0,122037:0:0:0:0:
192,192,121937,1,0,0:0:0:0:
64,192,122037,1,2,0:0:0:0:
448,192,122037,128,0,122237:0:0:0:0:
64,192,122237,128,2,122437:0:0:0:0:
320,192,122237,1,0,0:0:0:0:
192,192,122437,128,8,122637:0:0:0:0:
448,192,122437,1,0,0:0:0:0:
448,192,122637,128,0,122837:0:0:0:0:
192,192,122837,128,2,123037:0:0:0:0:
320,192,122837,1,0,0:0:0:0:
64,192,123037,1,2,0:0:0:0:
320,192,123037,128,0,123237:0:0:0:0:
192,192,123237,1,8,0:0:0:0:
448,192,123237,1,0,0:0:0:0:
64,192,123437,1,2,0:0:0:0:
448,192,123437,128,0,123837:0:0:0:0:
192,192,123537,1,0,0:0:0:0:
64,192,123637,128,0,123837:0:0:0:0:
192,192,123837,1,2,0:0:0:0:
320,192,123837,128,0,124037:0:0:0:0:
192,192,124037,128,8,124237:0:0:0:0:
448,192,124037,1,4,0:0:0:0:
64,192,124237,1,0,0:0:0:0:
64,192,124437,128,2,124737:0:0:0:0:
192,192,124437,128,4,124737:0:0:0:0:
320,192,124437,1,0,0:0:0:0:
448,192,124437,128,0,124837:0:0:0:0:
320,192,124637,128,0,125037:0:0:0:0:
64,192,124837,128,8,125237:0:0:0:0:
192,192,124837,1,0,0:0:0:0:
192,192,125037,128,2,125437:0:0:0:0:
448,192,125037,128,0,125137:0:0:0:0:
320,192,125237,1,8,0:0:0:0:
448,192,125237,128,0,125637:0:0:0:0:
64,192,125437,128,2,125537:0:0:0:0:
320,192,125437,128,0,125637:0:0:0:0:
64,192,125637,128,8,125837:0:0:0:0:
192,192,125637,128,0,125837:0:0:0:0:
320,192,125837,1,2,0:0:0:0:
448,192,125837,128,0,126237:0:0:0:0:
192,192,125937,1,2,0:0:0:0:
64,192,126037,1,8,0:0:0:0:
320,192,126037,128,0,126437:0:0:0:0:
64,192,126237,128,2,126637:0:0:0:0:
192,192,126237,1,0,0:0:0:0:
192,192,126437,128,8,126837:0:0:0:0:
448,192,126437,1,0,0:0:0:0:
320,192,126637,1,2,0:0:0:0:
448,192,126637,128,0,127037:0:0:0:0:
64,192,126837,1,8,0:0:0:0:
320,192,126837,128,0,127237:0:0:0:0:
64,192,127037,128,2,127437:0:0:0:0:
192,192,127037,1,0,0:0:0:0:
192,192,127237,128,8,127637:0:0:0:0:
448,192,127237,1,0,0:0:0:0:
320,192,127437,1,2,0:0:0:0:
448,192,127437,128,0,127637:0:0:0:0:
64,192,127637,1,2,0:0:0:0:
320,192,127637,128,4,128037:0:0:0:0:
64,192,127837,128,8,127937:0:0:0:0:
192,192,127837,128,0,127937:0:0:0:25:rock2_7_d2.wav
64,192,128037,128,8,128337:0:0:0:0:
192,192,128037,128,2,128337:0:0:0:0:
448,192,128037,128,0,128137:0:0:0:25:rock2_7_d2.wav
320,192,128237,128,8,128337:0:0:0:0:
448,192,128237,128,0,128337:0:0:0:25:rock2_7_d2.wav
192,192,128437,128,8,128537:0:0:0:0:
320,192,128437,128,2,128737:0:0:0:0:
448,192,128437,128,0,128737:0:0:0:25:rock2_7_d2.wav
64,192,128637,128,8,128737:0:0:0:0:
192,192,128637,128,0,128737:0:0:0:25:rock2_7_d2.wav
64,192,128837,128,8,129137:0:0:0:0:
192,192,128837,128,2,129137:0:0:0:0:
320,192,128837,128,0,128937:0:0:0:25:rock2_7_d2.wav
320,192,129037,128,10,129137:0:0:0:0:
448,192,129037,128,0,129137:0:0:0:25:rock2_7_d2.wav
64,192,129237,128,4,129437:0:0:0:0:
192,192,129237,128,2,129437:0:0:0:0:
320,192,129237,128,0,129337:0:0:0:0:
448,192,129237,128,0,129337:0:0:0:0:
320,192,129437,128,8,129537:0:0:0:0:
448,192,129437,128,2,129537:0:0:0:0:
64,192,129537,128,8,129637:0:0:0:0:
192,192,129537,128,0,129637:0:0:0:0:
320,192,129637,128,8,129737:0:0:0:0:
448,192,129637,128,2,129737:0:0:0:0:
64,192,129737,128,8,129837:0:0:0:0:
192,192,129737,128,0,129837:0:0:0:0:
320,192,129837,128,8,130037:0:0:0:0:
448,192,129837,128,2,130037:0:0:0:0:
64,192,129937,128,8,130037:0:0:0:0:
192,192,129937,128,0,130037:0:0:0:0:
320,192,130237,128,0,130637:0:0:0:0:
192,192,130437,128,0,130637:0:0:0:0:
448,192,130637,1,0,0:0:0:0:
64,192,130837,128,0,131037:0:0:0:0:
320,192,131037,128,0,131237:0:0:0:0:
192,192,131237,1,0,0:0:0:0:
448,192,131437,128,0,131637:0:0:0:0:
448,192,131837,128,0,132037:0:0:0:0:
320,192,132037,128,0,132237:0:0:0:0:
192,192,132237,128,0,132437:0:0:0:0:
64,192,132437,128,0,132637:0:0:0:0:
320,192,132637,1,0,0:0:0:0:
192,192,132837,128,0,132937:0:0:0:0:
192,192,133237,128,0,133837:0:0:0:0:
320,192,133837,1,0,0:0:0:0:
64,192,134037,128,2,134637:0:0:0:0:
192,192,134037,128,4,134137:0:0:0:0:
320,192,134037,128,0,134237:0:0:0:0:
448,192,134037,128,0,134237:0:0:0:0:
192,192,134237,128,0,134637:0:0:0:0:
320,192,134437,128,8,134537:0:0:0:0:
448,192,134437,128,0,134637:0:0:0:0:
320,192,134637,128,0,134837:0:0:0:0:
64,192,134837,128,2,135037:0:0:0:0:
192,192,134837,128,0,135237:0:0:0:0:
320,192,135037,128,2,135237:0:0:0:0:
448,192,135037,128,0,135137:0:0:0:0:
64,192,135237,128,8,135337:0:0:0:0:
448,192,135237,128,0,135637:0:0:0:0:
64,192,135437,128,0,135637:0:0:0:0:
320,192,135437,128,0,135537:0:0:0:0:
192,192,135637,128,2,136037:0:0:0:0:
320,192,135637,128,0,135837:0:0:0:0:
64,192,135837,128,0,136037:0:0:0:0:
320,192,136037,128,8,136237:0:0:0:0:
448,192,136037,128,0,136437:0:0:0:0:
64,192,136237,128,2,136337:0:0:0:0:
192,192,136237,128,8,136337:0:0:0:0:
64,192,136437,128,0,136837:0:0:0:0:
192,192,136437,128,0,136637:0:0:0:0:
320,192,136637,128,2,136737:0:0:0:0:
448,192,136637,128,0,136737:0:0:0:0:
192,192,136837,128,8,136937:0:0:0:0:
320,192,136837,128,0,137237:0:0:0:0:
192,192,137037,128,0,137237:0:0:0:0:
64,192,137237,128,2,137637:0:0:0:0:
448,192,137237,128,0,137437:0:0:0:0:
192,192,137437,128,0,137637:0:0:0:0:
320,192,137437,128,0,137537:0:0:0:0:
320,192,137637,128,8,137737:0:0:0:0:
448,192,137637,128,0,138037:0:0:0:0:
64,192,137837,128,0,137937:0:0:0:0:
192,192,137837,128,0,138037:0:0:0:0:
64,192,138037,128,2,138237:0:0:0:0:
320,192,138037,128,0,138237:0:0:0:0:
192,192,138237,128,2,138437:0:0:0:0:
448,192,138237,128,0,138637:0:0:0:0:
64,192,138437,128,8,138537:0:0:0:0:
320,192,138437,128,0,138637:0:0:0:0:
192,192,138637,128,0,139137:0:0:0:0:
64,192,138837,128,2,139137:0:0:0:0:
320,192,138837,128,0,139237:0:0:0:0:
448,192,139037,128,0,139237:0:0:0:0:
64,192,139237,128,8,139337:0:0:0:0:
192,192,139237,128,0,139337:0:0:0:0:
192,192,139437,128,2,139637:0:0:0:0:
320,192,139437,128,0,139537:0:0:0:0:
64,192,139637,128,0,139737:0:0:0:0:
320,192,139837,128,2,140237:0:0:0:0:
448,192,139837,128,0,139937:0:0:0:0:
192,192,140037,128,8,140137:0:0:0:0:
448,192,140037,128,0,140237:0:0:0:0:
64,192,140237,128,2,140337:0:0:0:0:
192,192,140237,128,0,140437:0:0:0:0:
64,192,140437,128,2,140637:0:0:0:0:
320,192,140437,128,4,140837:0:0:0:0:
448,192,140437,128,0,140537:0:0:0:0:
192,192,140637,128,0,140837:0:0:0:0:
64,192,140837,128,8,140937:0:0:0:0:
448,192,140837,128,0,141037:0:0:0:0:
64,192,141037,128,0,141437:0:0:0:0:
192,192,141037,128,0,141137:0:0:0:0:
192,192,141237,128,2,141437:0:0:0:0:
448,192,141237,128,0,141337:0:0:0:0:
320,192,141437,128,2,141637:0:0:0:0:
448,192,141437,128,0,141637:0:0:0:0:
64,192,141637,128,8,142037:0:0:0:0:
192,192,141637,128,0,141937:0:0:0:0:
320,192,141837,128,0,141937:0:0:0:0:
448,192,141837,128,0,142037:0:0:0:0:
192,192,142037,128,2,142437:0:0:0:0:
320,192,142037,128,0,142137:0:0:0:0:
320,192,142237,128,0,142437:0:0:0:0:
64,192,142437,128,8,142537:0:0:0:0:
448,192,142437,128,0,142637:0:0:0:0:
192,192,142637,128,2,143037:0:0:0:0:
320,192,142637,128,8,142837:0:0:0:0:
64,192,142837,128,0,143037:0:0:0:0:
320,192,143037,128,2,143137:0:0:0:0:
448,192,143037,128,0,143437:0:0:0:0:
64,192,143237,128,8,143337:0:0:0:0:
320,192,143237,128,0,143437:0:0:0:0:
64,192,143437,128,0,143537:0:0:0:0:
192,192,143437,128,0,143637:0:0:0:0:
64,192,143637,128,2,143837:0:0:0:0:
320,192,143637,128,0,143737:0:0:0:0:
448,192,143637,128,0,143837:0:0:0:0:
320,192,143837,128,0,144237:0:0:0:0:
64,192,144037,128,8,144137:0:0:0:0:
192,192,144037,128,0,144137:0:0:0:0:
448,192,144037,128,0,144237:0:0:0:0:
64,192,144237,128,0,144337:0:0:0:0:
192,192,144437,128,2,144637:0:0:0:0:
448,192,144437,128,0,144537:0:0:0:0:
64,192,144637,128,2,144737:0:0:0:0:
448,192,144637,128,0,145037:0:0:0:0:
64,192,144837,128,8,144937:0:0:0:0:
320,192,144837,128,0,145037:0:0:0:0:
64,192,145037,128,0,145537:0:0:0:30:rock2_7_a1.wav
192,192,145037,128,0,145137:0:0:0:0:
192,192,145237,128,2,145537:0:0:0:0:
320,192,145237,128,4,145337:0:0:0:0:
448,192,145237,128,0,145337:0:0:0:0:
320,192,145437,128,2,145537:0:0:0:0:
448,192,145437,128,0,145837:0:0:0:0:
64,192,145637,128,8,146037:0:0:0:0:
192,192,145637,128,0,145737:0:0:0:0:
192,192,145837,128,2,146037:0:0:0:0:
320,192,145837,128,0,145937:0:0:0:0:
320,192,146037,128,2,146237:0:0:0:0:
448,192,146037,128,0,146437:0:0:0:0:
64,192,146237,128,8,146337:0:0:0:0:
192,192,146237,128,0,146337:0:0:0:0:
320,192,146337,128,8,146437:0:0:0:0:
64,192,146437,128,8,146737:0:0:0:0:
192,192,146437,128,0,146737:0:0:0:0:
320,192,146637,128,0,146737:0:0:0:25:rock2_7_d2.wav
448,192,146637,128,0,146737:0:0:0:0:
64,192,146837,128,2,147437:0:0:0:0:
192,192,146837,128,4,146937:0:0:0:0:
320,192,146837,128,0,147037:0:0:0:0:
448,192,146837,128,0,147037:0:0:0:0:
192,192,147037,128,0,147437:0:0:0:0:
320,192,147237,128,8,147337:0:0:0:0:
448,192,147237,128,0,147437:0:0:0:0:
320,192,147437,128,0,147637:0:0:0:0:
64,192,147637,128,2,148037:0:0:0:0:
192,192,147637,128,0,147837:0:0:0:0:
320,192,147837,128,2,148037:0:0:0:0:
448,192,147837,128,0,147937:0:0:0:0:
192,192,148037,128,8,148237:0:0:0:0:
448,192,148037,128,0,148437:0:0:0:0:
64,192,148237,128,0,148437:0:0:0:0:
320,192,148237,128,0,148337:0:0:0:0:
192,192,148437,128,2,148637:0:0:0:0:
320,192,148437,128,0,148837:0:0:0:0:
448,192,148637,128,0,148837:0:0:0:0:
64,192,148837,128,8,149237:0:0:0:0:
192,192,148837,128,0,149037:0:0:0:0:
320,192,149037,128,8,149137:0:0:0:0:
448,192,149037,128,2,149137:0:0:0:0:
320,192,149237,128,0,149437:0:0:0:0:
448,192,149237,128,0,149637:0:0:0:0:
64,192,149437,128,2,149537:0:0:0:0:
192,192,149437,128,0,149537:0:0:0:0:
64,192,149637,128,8,150037:0:0:0:0:
320,192,149637,128,0,149737:0:0:0:0:
320,192,149837,128,0,150037:0:0:0:0:
192,192,150037,128,2,150237:0:0:0:0:
448,192,150037,128,0,150437:0:0:0:0:
64,192,150237,128,0,150337:0:0:0:0:
320,192,150237,128,0,150437:0:0:0:0:
64,192,150437,128,8,150837:0:0:0:0:
192,192,150437,128,0,150537:0:0:0:0:
192,192,150637,128,0,150837:0:0:0:0:
448,192,150637,128,0,150737:0:0:0:0:
320,192,150837,128,2,150937:0:0:0:0:
448,192,150837,128,0,151037:0:0:0:0:
64,192,151037,128,2,151437:0:0:0:0:
320,192,151037,128,0,151237:0:0:0:0:
192,192,151237,128,8,151437:0:0:0:0:
448,192,151237,128,0,151337:0:0:0:0:
320,192,151437,128,0,151837:0:0:0:0:
64,192,151637,128,2,152037:0:0:0:0:
448,192,151637,128,0,151837:0:0:0:0:
192,192,151837,128,0,152037:0:0:0:0:
320,192,152037,128,8,152137:0:0:0:0:
448,192,152037,128,0,152137:0:0:0:0:
64,192,152237,128,2,152337:0:0:0:0:
448,192,152237,128,0,152437:0:0:0:0:
192,192,152637,128,2,152837:0:0:0:0:
320,192,152637,128,4,152737:0:0:0:0:
448,192,152637,128,0,153037:0:0:0:0:
64,192,152837,128,8,152937:0:0:0:0:
320,192,152837,128,0,153037:0:0:0:0:
64,192,153037,128,0,153237:0:0:0:25:rock2_7_d2.wav
192,192,153037,128,0,153137:0:0:0:0:
192,192,153237,128,2,153637:0:0:0:0:
320,192,153237,128,4,153437:0:0:0:0:
448,192,153237,128,0,153337:0:0:0:0:
64,192,153437,128,0,153637:0:0:0:0:
320,192,153637,128,8,153837:0:0:0:0:
448,192,153637,128,0,153837:0:0:0:0:
64,192,153837,128,0,154237:0:0:0:0:
192,192,153837,128,0,153937:0:0:0:0:
192,192,154037,128,2,154237:0:0:0:0:
448,192,154037,128,0,154137:0:0:0:0:
320,192,154237,128,2,154337:0:0:0:0:
448,192,154237,128,0,154437:0:0:0:0:
64,192,154437,128,8,154837:0:0:0:0:
192,192,154437,128,0,154537:0:0:0:0:
192,192,154637,128,0,154737:0:0:0:0:
448,192,154637,128,0,154837:0:0:0:0:
192,192,154837,128,2,155237:0:0:0:0:
320,192,154837,128,0,154937:0:0:0:0:
320,192,155037,128,0,155237:0:0:0:0:
64,192,155237,128,8,155437:0:0:0:0:
448,192,155237,128,0,155337:0:0:0:0:
320,192,155437,128,2,155537:0:0:0:0:
448,192,155437,128,8,155637:0:0:0:0:
320,192,155637,128,0,155737:0:0:0:0:
64,192,155837,128,2,156237:0:0:0:0:
192,192,155837,128,0,156037:0:0:0:0:
320,192,156037,128,8,156137:0:0:0:0:
448,192,156037,128,0,156237:0:0:0:0:
192,192,156237,128,0,156337:0:0:0:0:
320,192,156237,128,0,156437:0:0:0:0:
64,192,156437,128,2,156637:0:0:0:0:
192,192,156437,128,4,156537:0:0:0:0:
448,192,156437,128,0,156637:0:0:0:0:
192,192,156637,128,0,156837:0:0:0:0:
320,192,156637,128,0,156737:0:0:0:0:
320,192,156837,128,8,157137:0:0:0:0:
448,192,156837,128,0,157137:0:0:0:0:
64,192,157037,128,2,157137:0:0:0:0:
192,192,157037,128,0,157137:0:0:0:0:
64,192,157237,128,8,157337:0:0:0:0:
320,192,157237,128,0,157437:0:0:0:0:
64,192,157437,128,2,157837:0:0:0:0:
192,192,157437,128,0,157537:0:0:0:0:
192,192,157637,128,8,157837:0:0:0:0:
448,192,157637,128,0,157737:0:0:0:0:
320,192,157837,128,2,157937:0:0:0:0:
448,192,157837,128,0,158237:0:0:0:30:rock2_7_a1.wav
64,192,158037,128,2,158137:0:0:0:0:
192,192,158037,128,4,158137:0:0:0:0:
320,192,158037,128,0,158237:0:0:0:0:
64,192,158237,128,8,158637:0:0:0:0:
192,192,158237,128,0,158637:0:0:0:25:rock2_7_d2.wav
320,192,158437,128,10,158537:0:0:0:0:
448,192,158437,128,0,158537:0:0:0:25:rock2_7_d2.wav
320,192,158637,128,8,158837:0:0:0:0:
448,192,158637,128,0,158837:0:0:0:25:rock2_7_d2.wav
64,192,158837,128,10,159237:0:0:0:0:
192,192,158837,128,0,159037:0:0:0:25:rock2_7_d2.wav
320,192,159037,128,8,159137:0:0:0:0:
448,192,159037,128,0,159137:0:0:0:0:
192,192,159137,128,8,159237:0:0:0:0:
320,192,159237,128,8,159537:0:0:0:0:
448,192,159237,128,2,159537:0:0:0:0:
64,192,159437,128,0,159537:0:0:0:25:rock2_7_d2.wav
192,192,159437,128,0,159537:0:0:0:0:
64,192,159637,1,2,0:0:0:0:
192,192,159637,128,4,160037:0:0:0:0:
320,192,159637,1,0,0:0:0:0:
448,192,159637,128,0,159837:0:0:0:0:
320,192,159837,1,0,0:0:0:0:
64,192,160037,1,8,0:0:0:0:
448,192,160037,1,0,0:0:0:0:
192,192,160237,128,0,160637:0:0:0:0:
448,192,160237,128,0,160437:0:0:0:0:
64,192,160437,1,2,0:0:0:0:
320,192,160437,1,0,0:0:0:0:
320,192,160637,1,2,0:0:0:0:
448,192,160637,1,0,0:0:0:0:
64,192,160837,128,8,161037:0:0:0:0:
448,192,160837,128,0,161237:0:0:0:0:
320,192,161037,1,0,0:0:0:0:
64,192,161237,1,2,0:0:0:0:
192,192,161237,1,0,0:0:0:0:
64,192,161437,128,0,161637:0:0:0:0:
448,192,161437,128,0,161837:0:0:0:0:
192,192,161637,1,8,0:0:0:0:
320,192,161637,1,0,0:0:0:0:
64,192,161837,1,2,0:0:0:0:
192,192,161837,1,0,0:0:0:0:
64,192,162037,128,0,162437:0:0:0:0:
320,192,162037,128,0,162237:0:0:0:0:
192,192,162237,1,2,0:0:0:0:
448,192,162237,1,0,0:0:0:0:
320,192,162437,128,8,162837:0:0:0:0:
448,192,162437,128,0,162637:0:0:0:0:
192,192,162637,1,0,0:0:0:0:
64,192,162837,128,2,163237:0:0:0:0:
448,192,162837,128,0,163037:0:0:0:0:
192,192,163037,1,0,0:0:0:0:
320,192,163237,1,8,0:0:0:0:
448,192,163237,1,0,0:0:0:0:
64,192,163437,128,0,163837:0:0:0:0:
448,192,163437,128,0,163637:0:0:0:0:
192,192,163637,1,2,0:0:0:0:
320,192,163637,1,0,0:0:0:0:
320,192,163837,1,2,0:0:0:0:
448,192,163837,1,0,0:0:0:0:
192,192,164037,128,8,164237:0:0:0:0:
448,192,164037,128,0,164437:0:0:0:0:
320,192,164237,1,0,0:0:0:0:
64,192,164437,1,2,0:0:0:0:
192,192,164437,1,0,0:0:0:0:
64,192,164637,128,0,164837:0:0:0:0:
320,192,164637,128,0,165037:0:0:0:0:
192,192,164837,1,8,0:0:0:0:
448,192,164837,1,0,0:0:0:0:
64,192,165037,1,2,0:0:0:0:
192,192,165037,1,0,0:0:0:0:
64,192,165237,128,0,166037:0:0:0:0:
448,192,165237,128,0,165437:0:0:0:0:
192,192,165437,1,2,0:0:0:0:
320,192,165437,1,0,0:0:0:0:
320,192,165637,1,8,0:0:0:0:
448,192,165637,1,0,0:0:0:0:
192,192,165837,1,0,0:0:0:0:
192,192,166037,128,2,166437:0:0:0:0:
320,192,166037,128,4,166237:0:0:0:0:
448,192,166037,1,0,0:0:0:0:
64,192,166237,1,0,0:0:0:0:
320,192,166437,1,8,0:0:0:0:
448,192,166437,1,0,0:0:0:0:
192,192,166637,128,0,167037:0:0:0:0:
320,192,166637,128,0,166837:0:0:0:0:
64,192,166837,1,2,0:0:0:0:
448,192,166837,1,0,0:0:0:0:
320,192,167037,1,2,0:0:0:0:
448,192,167037,1,0,0:0:0:0:
64,192,167237,128,8,167637:0:0:0:0:
320,192,167237,128,0,167437:0:0:0:0:
192,192,167437,1,0,0:0:0:0:
320,192,167637,1,2,0:0:0:0:
448,192,167637,1,0,0:0:0:0:
64,192,167837,128,0,168237:0:0:0:0:
320,192,167837,128,0,168037:0:0:0:0:
192,192,168037,1,8,0:0:0:0:
448,192,168037,1,0,0:0:0:0:
320,192,168237,1,2,0:0:0:0:
448,192,168237,1,0,0:0:0:0:
64,192,168437,128,0,168637:0:0:0:0:
320,192,168437,128,0,168837:0:0:0:0:
192,192,168637,1,2,0:0:0:0:
448,192,168637,1,0,0:0:0:0:
64,192,168837,128,8,169237:0:0:0:0:
448,192,168837,128,0,169037:0:0:0:0:
192,192,169037,1,0,0:0:0:0:
192,192,169237,128,2,169437:0:0:0:0:
448,192,169237,128,0,169637:0:0:0:0:
64,192,169437,1,0,0:0:0:0:
64,192,169637,1,8,0:0:0:0:
192,192,169637,1,4,0:0:0:0:
320,192,169637,1,0,0:0:0:0:
192,192,169837,128,8,170037:0:0:0:0:
448,192,169837,128,0,170237:0:0:0:0:
64,192,170037,1,0,0:0:0:30:rock2_7_a1.wav
320,192,170137,1,0,0:0:0:25:rock2_7_d2.wav
64,192,170237,1,2,0:0:0:0:
192,192,170237,1,0,0:0:0:0:
192,192,170437,128,8,170837:0:0:0:0:
320,192,170437,128,4,170637:0:0:0:0:
448,192,170437,1,0,0:0:0:0:
64,192,170837,128,2,171037:0:0:0:0:
320,192,170837,128,4,171237:0:0:0:0:
448,192,170837,1,0,0:0:0:0:
192,192,171037,1,0,0:0:0:0:
64,192,171237,1,8,0:0:0:0:
448,192,171237,1,0,0:0:0:0:
64,192,171437,128,2,171637:0:0:0:0:
320,192,171437,128,0,171837:0:0:0:0:
192,192,171637,1,0,0:0:0:0:
64,192,171837,1,2,0:0:0:0:
192,192,171837,1,0,0:0:0:0:
64,192,172037,128,8,172437:0:0:0:0:
448,192,172037,128,0,172237:0:0:0:0:
192,192,172237,1,0,0:0:0:0:
320,192,172437,1,0,0:0:0:0:
64,192,172637,128,2,173037:0:0:0:0:
448,192,172637,128,0,172837:0:0:0:0:
192,192,172837,1,8,0:0:0:0:
320,192,172837,1,0,0:0:0:0:
448,192,173037,1,0,0:0:0:0:
192,192,173237,128,2,173437:0:0:0:0:
448,192,173237,128,0,173637:0:0:0:0:
64,192,173437,1,2,0:0:0:0:
320,192,173437,1,0,0:0:0:0:
64,192,173637,128,8,173837:0:0:0:0:
192,192,173637,128,0,174037:0:0:0:0:
320,192,173837,1,0,0:0:0:0:
64,192,174037,128,2,174237:0:0:0:0:
448,192,174037,128,0,174437:0:0:0:0:
320,192,174237,1,0,0:0:0:0:
64,192,174437,1,8,0:0:0:0:
192,192,174437,1,0,0:0:0:0:
64,192,174637,128,2,174837:0:0:0:0:
448,192,174637,128,0,175037:0:0:0:0:
320,192,174837,1,0,0:0:0:0:
64,192,175037,1,2,0:0:0:0:
192,192,175037,1,0,0:0:0:0:
64,192,175237,128,8,175637:0:0:0:0:
320,192,175237,128,0,175437:0:0:0:0:
192,192,175437,1,0,0:0:0:0:
320,192,175637,1,0,0:0:0:0:
192,192,175837,128,2,176237:0:0:0:0:
448,192,175837,128,0,176037:0:0:0:0:
64,192,176037,1,8,0:0:0:0:
320,192,176037,1,0,0:0:0:0:
448,192,176237,1,0,0:0:0:0:
64,192,176437,128,2,176637:0:0:0:0:
448,192,176437,128,0,177237:0:0:0:0:
192,192,176637,1,2,0:0:0:0:
320,192,176637,1,0,0:0:0:0:
64,192,176837,1,8,0:0:0:0:
192,192,176837,1,0,0:0:0:0:
320,192,177037,1,0,0:0:0:0:
64,192,177237,1,2,0:0:0:0:
192,192,177237,128,4,177437:0:0:0:0:
320,192,177237,128,0,177637:0:0:0:0:
448,192,177437,1,0,0:0:0:0:
64,192,177637,1,8,0:0:0:0:
192,192,177637,1,0,0:0:0:0:
192,192,177837,128,2,178037:0:0:0:0:
320,192,177837,128,0,178237:0:0:0:0:
448,192,178037,1,0,0:0:0:0:
64,192,178237,1,2,0:0:0:0:
192,192,178237,1,0,0:0:0:0:
192,192,178437,128,8,178637:0:0:0:0:
448,192,178437,128,0,178837:0:0:0:0:
320,192,178637,1,0,0:0:0:0:
64,192,178837,1,0,0:0:0:0:
192,192,179037,128,2,179237:0:0:0:0:
448,192,179037,128,0,179437:0:0:0:0:
64,192,179237,1,8,0:0:0:0:
320,192,179237,1,0,0:0:0:0:
192,192,179437,1,0,0:0:0:0:
64,192,179637,128,2,180037:0:0:0:0:
320,192,179637,128,0,179837:0:0:0:0:
192,192,179837,1,2,0:0:0:0:
448,192,179837,1,0,0:0:0:0:
320,192,180037,128,8,180437:0:0:0:0:
448,192,180037,128,0,180237:0:0:0:0:
192,192,180237,1,0,0:0:0:0:
64,192,180437,128,2,180837:0:0:0:0:
448,192,180437,128,0,180637:0:0:0:0:
192,192,180637,1,0,0:0:0:0:
192,192,180837,1,8,0:0:0:0:
320,192,180837,1,4,0:0:0:0:
448,192,180837,1,0,0:0:0:0:
64,192,181037,128,2,181437:0:0:0:0:
320,192,181037,128,0,181237:0:0:0:0:
192,192,181137,1,0,0:0:0:0:
448,192,181237,1,0,0:0:0:0:
192,192,181437,1,8,0:0:0:0:
320,192,181437,1,2,0:0:0:0:
64,192,181637,1,8,0:0:0:0:
192,192,181637,128,4,182037:0:0:0:0:
448,192,181637,1,0,0:0:0:0:
320,192,181837,1,8,0:0:0:0:
448,192,181837,1,0,0:0:0:0:
64,192,182037,1,0,0:0:0:0:
448,192,182237,128,0,182637:0:0:0:0:
64,192,182437,128,0,182637:0:0:0:0:
192,192,182837,128,0,186837:0:0:0:0:
448,192,182837,128,0,186837:0:0:0:0:
