osu file format v14

[General]
AudioFilename: audio.mp3
AudioLeadIn: 0
PreviewTime: -1
Countdown: 1
SampleSet: Soft
StackLeniency: 0.7
Mode: 0
LetterboxInBreaks: 0
WidescreenStoryboard: 1

[Editor]
Bookmarks: 10666,21333,31999,42666,53333,58666,63999,69333,74666
DistanceSpacing: 2
BeatDivisor: 4
GridSize: 16
TimelineZoom: 2.3

[Metadata]
Title:Seven Bridge (Tomggg Remix)
TitleUnicode:Seven Bridge (Tomggg Remix)
Artist:In The Blue Shirt
ArtistUnicode:In The Blue Shirt
Creator:MatthewRobo
Version:Seven Bridge
Source:
Tags:
BeatmapID:1301626
BeatmapSetID:608691

[Difficulty]
HPDrainRate:6
CircleSize:3.5
OverallDifficulty:7
ApproachRate:9.2
SliderMultiplier:1.10000000596046
SliderTickRate:1

[Events]
//Background and Video events
0,0,"bg.png",0,0
//Break Periods
//Storyboard Layer 0 (Background)
//Storyboard Layer 1 (Fail)
//Storyboard Layer 2 (Pass)
//Storyboard Layer 3 (Foreground)
//Storyboard Sound Samples

[TimingPoints]
0,333.333333333333,4,2,1,50,1,0
42666,-50,4,2,1,50,0,0
50666,-133.333333333333,4,2,1,50,0,0
51166,-100,4,2,1,50,0,0
51666,-66.6666666666667,4,2,1,50,0,0
52166,-50,4,2,1,50,0,0
52666,-200,4,2,1,5,0,1
52667,-200,4,2,1,5,0,0
53333,-50,4,2,1,50,0,0

[Colours]
Combo1 : 0,204,255
Combo2 : 0,255,204

[HitObjects]
96,96,0,5,0,0:0:0:0:
64,240,166,1,0,0:0:0:0:
192,304,333,1,0,0:0:0:0:
304,221,499,2,0,P|330:254|303:221,1,165.000000894069
304,288,1333,5,0,0:0:0:0:
432,192,1499,1,0,0:0:0:0:
272,160,1666,1,0,0:0:0:0:
115,249,1833,2,0,P|150:292|121:245,1,165.000000894069,0|2,0:0|0:0,0:0:0:0:
218,156,2666,5,0,0:0:0:0:
160,32,2833,1,0,0:0:0:0:
304,48,2999,1,0,0:0:0:0:
352,197,3166,2,0,P|396:173|352:195,3,165.000000894069
361,201,4999,1,2,0:0:0:0:
80,112,5333,5,0,0:0:0:0:
128,256,5499,2,0,L|98:314,1,55.0000002980232
272,304,5833,1,0,0:0:0:0:
272,288,6333,1,0,0:0:0:0:
284,362,6666,6,0,L|227:390,1,55.0000002980232
224,144,6999,1,0,0:0:0:0:
107,242,7166,2,0,P|149:277|109:240,1,165.000000894069,0|2,0:0|0:0,0:0:0:0:
112,256,7999,5,0,0:0:0:0:
294,105,8166,1,0,0:0:0:0:
224,240,8333,1,0,0:0:0:0:
94,175,8499,2,0,P|58:215|96:177,1,165.000000894069
256,64,9166,1,0,0:0:0:0:
256,64,9249,1,0,0:0:0:0:
256,64,9333,2,0,L|317:104,1,55.0000002980232
128,64,9666,1,0,0:0:0:0:
51,195,9833,2,0,P|101:219|52:193,1,165.000000894069
336,80,10666,5,2,0:0:0:0:
400,64,10999,6,0,L|459:25,1,55.0000002980232
368,192,11333,1,0,0:0:0:0:
464,80,11499,1,0,0:0:0:0:
320,128,11666,1,2,0:0:0:0:
432,16,11833,1,0,0:0:0:0:
288,64,11999,2,0,L|221:98,1,55.0000002980232
112,112,12333,1,0,0:0:0:0:
32,112,12666,6,0,L|32:176,1,55.000000298023
176,96,12999,1,0,0:0:0:0:
176,96,13166,1,0,0:0:0:0:
176,96,13333,6,0,P|220:84|291:126,1,110.000000596046
192,240,13833,2,0,L|241:282,2,55.000000298023
64,96,14333,2,0,P|64:144|83:159,1,55.000000298023
256,176,14666,5,6,0:0:0:0:
256,176,14833,1,0,0:0:0:0:
256,176,14999,1,0,0:0:0:0:
256,176,15166,1,4,0:0:0:0:
272,176,15333,6,0,L|272:144,1,27.5000001490115,2|0,0:0|0:0,0:0:0:0:
320,144,15499,2,0,L|320:112,1,27.5000001490115
368,112,15666,2,0,L|368:80,1,27.5000001490115
400,192,15833,6,0,P|368:192|407:208,1,110.000000596046,4|0,0:0|0:0,0:0:0:0:
186,105,16333,2,0,L|128:128,1,55.000000298023,8|0,0:0|0:0,0:0:0:0:
320,224,16666,1,0,0:0:0:0:
137,123,16833,2,0,L|90:157,1,55.000000298023,0|2,0:0|0:0,0:0:0:0:
192,320,17166,1,0,0:0:0:0:
336,256,17333,6,0,L|384:208,1,55.0000002980232
256,192,17666,2,0,L|208:160,1,55.0000002980232
368,144,17999,2,0,L|352:176,2,27.5000001490116
256,64,18333,2,0,L|192:80,1,55.0000002980232,2|0,0:0|0:0,0:0:0:0:
320,256,18666,1,2,0:0:0:0:
208,64,18833,6,0,L|160:112,1,55.0000002980232
336,144,19166,1,0,0:0:0:0:
169,102,19333,2,0,L|137:166,1,55.0000002980232
304,192,19666,2,0,L|272:240,2,55.0000002980232,0|0|2,0:0|0:0|0:0,0:0:0:0:
208,80,20166,5,0,0:0:0:0:
176,128,20333,2,0,L|141:178,1,55.0000002980232
288,192,20666,2,0,P|333:191|288:176,1,110.000000596046,0|2,0:0|0:0,0:0:0:0:
288,176,21333,6,0,L|240:208,1,55.000000298023,4|0,0:0|0:0,0:0:0:0:
125,89,21666,2,0,L|157:137,1,55.000000298023,0|2,0:0|0:0,0:0:0:0:
352,128,21999,2,0,L|352:160,1,27.5000001490115
288,144,22166,2,0,L|288:176,1,27.5000001490115
160,176,22333,2,0,L|160:208,1,27.5000001490115
96,192,22499,2,0,L|96:224,1,27.5000001490115
224,160,22666,1,4,0:0:0:0:
32,32,22999,5,4,0:0:0:0:
96,176,23166,1,2,0:0:0:0:
240,96,23333,2,0,L|272:144,1,55.000000298023
96,176,23666,1,2,0:0:0:0:
96,176,23833,1,0,0:0:0:0:
240,240,23999,6,4,P|261:259|256:224,2,82.5000004470345
96,192,24666,1,2,0:0:0:0:
240,144,24833,1,0,0:0:0:0:
208,288,24999,1,0,0:0:0:0:
144,160,25166,1,0,0:0:0:0:
192,80,25333,6,0,L|256:64,1,55.000000298023,12|0,0:0|0:0,0:0:0:0:
96,176,25666,2,0,L|75:227,1,55.000000298023
224,144,25999,2,0,L|192:176,1,27.5000001490115
288,192,26166,2,0,L|256:208,1,27.5000001490115
336,256,26333,2,0,L|304:256,1,27.5000001490115
368,272,26499,2,0,L|336:320,1,55.000000298023,0|12,0:0|0:0,0:0:0:0:
368,160,26833,6,0,L|336:208,1,55.000000298023
320,48,27166,1,0,0:0:0:0:
224,176,27333,2,0,L|288:144,2,55.000000298023
96,208,27833,1,8,0:0:0:0:
224,112,27999,6,0,L|288:64,1,55.000000298023
288,272,28333,2,0,L|243:304,1,55.000000298023
309,124,28666,2,0,L|382:155,1,55.000000298023
341,204,28999,2,0,L|347:258,1,55.000000298023
416,320,29333,1,0,0:0:0:0:
400,192,29499,6,0,L|464:224,1,55.000000298023
304,112,29833,2,0,L|368:144,1,55.000000298023,0|8,0:0|0:0,0:0:0:0:
176,80,30166,1,0,0:0:0:0:
320,128,30333,1,0,0:0:0:0:
176,176,30499,2,0,B|224:144,1,55.000000298023,0|4,0:0|0:0,0:0:0:0:
384,160,30833,6,0,L|320:176,2,55.000000298023
320,256,31333,2,0,P|324:288|325:256,2,82.5000004470345,10|0|0,0:0|0:0|0:0,0:0:0:0:
112,160,31999,6,0,L|144:96,1,55.000000298023,4|0,0:0|0:0,0:0:0:0:
300,332,32333,2,0,L|228:336,1,55.000000298023
355,83,32666,1,0,0:0:0:0:
128,64,32833,1,0,0:0:0:0:
336,176,32999,1,0,0:0:0:0:
112,160,33166,1,0,0:0:0:0:
304,48,33333,6,0,L|336:48,1,27.5000001490115
288,112,33499,2,0,L|320:128,1,27.5000001490115
240,160,33666,2,0,L|272:192,1,27.5000001490115
176,176,33833,2,0,L|192:224,1,27.5000001490115
112,176,33999,2,0,L|112:224,1,27.5000001490115
32,176,34166,6,0,L|64:224,1,55.000000298023,0|8,0:0|0:0,0:0:0:0:
352,256,34499,2,4,L|416:240,1,55.000000298023,0|4,0:0|0:0,0:0:0:0:
464,112,34833,5,0,0:0:0:0:
368,224,34999,1,8,0:0:0:0:
272,112,35166,2,0,L|288:176,1,55.000000298023,4|0,0:0|0:0,0:0:0:0:
192,304,35499,2,0,L|160:256,1,55.000000298023,4|8,0:0|0:0,0:0:0:0:
80,144,35833,1,0,0:0:0:0:
192,48,35999,5,4,0:0:0:0:
192,192,36166,1,0,0:0:0:0:
336,240,36333,2,0,L|272:192,1,55.000000298023,8|4,0:0|0:0,0:0:0:0:
288,48,36666,2,0,L|224:64,1,55.000000298023
336,192,36999,1,0,0:0:0:0:
352,192,37166,2,0,P|360:150|350:192,1,110.000000596046,4|8,0:0|0:0,0:0:0:0:
144,272,37666,5,4,0:0:0:0:
80,224,37833,1,0,0:0:0:0:
176,48,37999,2,0,L|224:80,1,55.000000298023,4|8,0:0|0:0,0:0:0:0:
256,208,38333,2,0,L|304:240,1,55.000000298023,2|0,0:0|0:0,0:0:0:0:
144,304,38666,6,0,L|96:288,1,27.5000001490115
288,288,38833,2,0,L|336:272,1,27.5000001490115
160,240,38999,2,0,L|128:208,1,27.5000001490115
304,224,39166,2,0,L|336:192,1,27.5000001490115
160,192,39333,2,0,L|144:144,1,27.5000001490115
256,192,39499,6,0,P|252:230|257:192,1,110.000000596046,2|2,0:0|0:0,0:0:0:0:
96,192,39999,5,4,0:0:0:0:
240,160,40166,2,0,P|256:192|240:224,1,55.000000298023
448,192,40499,1,0,0:0:0:0:
96,192,40666,5,4,0:0:0:0:
288,208,40833,2,0,P|304:176|288:144,1,55.000000298023
448,192,41166,1,0,0:0:0:0:
96,192,41333,5,4,0:0:0:0:
320,176,41500,2,0,P|336:208|320:240,1,55.000000298023
416,192,41833,1,0,0:0:0:0:
256,48,41999,6,0,L|176:80,1,82.5000004470345
288,112,42333,2,0,L|352:176,1,82.5000004470345
416,96,42666,6,0,L|288:64,1,110.000000596046,12|0,0:0|0:0,0:0:0:0:
256,192,42999,1,4,0:0:0:0:
96,288,43166,6,0,L|224:320,1,110.000000596046,12|0,0:0|0:0,0:0:0:0:
256,192,43499,1,4,0:0:0:0:
304,272,43666,2,0,P|354:293|304:256,1,165.000000894069,12|0,0:0|0:0,0:0:0:0:
240,224,43999,1,4,0:0:0:0:
304,80,44166,6,0,L|384:160,1,110.000000596046,4|12,0:0|0:0,0:0:0:0:
320,288,44499,1,0,0:0:0:0:
176,208,44666,2,0,L|368:224,1,165.000000894069
288,160,44999,2,0,L|112:144,1,165.000000894069
240,96,45333,6,0,L|87:82,1,110.000000596046
32,192,45666,1,4,0:0:0:0:
192,160,45833,2,0,L|176:288,1,110.000000596046,4|0,0:0|0:0,0:0:0:0:
304,175,46166,1,0,0:0:0:0:
144,175,46333,2,0,L|256:224,1,110.000000596046,4|0,0:0|0:0,0:0:0:0:
336,256,46666,1,0,0:0:0:0:
400,96,46833,2,4,L|304:176,1,110.000000596046,4|0,0:0|0:0,0:0:0:0:
144,160,47166,1,4,0:0:0:0:
304,192,47333,6,4,L|128:240,1,165.000000894069,6|0,0:0|0:0,0:0:0:0:
304,192,47666,2,0,B|264:160|264:160|144:192,1,165.000000894069,2|0,0:0|0:0,0:0:0:0:
304,192,47999,2,0,L|432:160,1,110.000000596046,4|0,0:0|0:0,0:0:0:0:
192,224,48333,1,4,0:0:0:0:
48,160,48499,2,0,L|160:208,1,110.000000596046,4|0,0:0|0:0,0:0:0:0:
256,224,48833,1,0,0:0:0:0:
368,160,48999,2,0,L|480:208,1,110.000000596046,0|4,0:0|0:0,0:0:0:0:
224,96,49333,6,0,L|160:128,1,55.000000298023
288,128,49499,2,0,L|352:160,1,55.000000298023,12|0,0:0|0:0,0:0:0:0:
224,160,49666,2,0,L|160:192,1,55.000000298023,4|0,0:0|0:0,0:0:0:0:
288,192,49833,2,0,L|352:224,1,55.000000298023
240,224,49999,6,0,L|176:256,3,55.000000298023,6|0|0|0,0:0|0:0|0:0|0:0,0:0:0:0:
304,256,50333,6,0,L|368:288,3,55.000000298023,6|0|0|0,0:0|0:0|0:0|0:0,0:0:0:0:
368,240,50666,6,0,L|336:192,1,41.2500017970799
368,240,50999,1,0,0:0:0:0:
345,205,51166,2,0,L|281:166,1,55.000000298023
368,240,51499,1,0,0:0:0:0:
298,176,51666,2,0,L|194:143,1,82.5000035941599
368,240,51999,1,0,0:0:0:0:
219,151,52166,2,0,L|80:128,1,110.000000596046
368,240,52499,1,0,0:0:0:0:
110,133,52666,2,0,L|160:112,1,55.000000298023
496,320,53333,5,0,0:0:0:0:
496,320,53583,2,4,L|464:208,1,110.000000596046
380,160,53833,1,4,0:0:0:0:
160,208,53999,2,0,L|32:208,1,110.000000596046,8|0,0:0|0:0,0:0:0:0:
340,144,54333,1,4,0:0:0:0:
46,208,54499,2,0,L|48:96,1,110.000000596046,0|4,0:0|0:0,0:0:0:0:
336,240,54833,5,4,0:0:0:0:
336,240,54916,2,0,L|384:112,1,110.000000596046,4|0,0:0|0:0,0:0:0:0:
374,137,55166,1,4,0:0:0:0:
96,104,55333,6,0,L|96:224,1,110.000000596046,2|0,0:0|0:0,0:0:0:0:
320,240,55666,2,0,L|320:368,1,110.000000596046,4|0,0:0|0:0,0:0:0:0:
92,208,55999,6,4,L|96:96,1,110.000000596046,4|0,0:0|0:0,0:0:0:0:
244,152,56249,1,4,0:0:0:0:
20,352,56416,1,4,0:0:0:0:
20,352,56499,1,4,0:0:0:0:
320,292,56666,2,0,L|320:176,1,110.000000596046,8|0,0:0|0:0,0:0:0:0:
24,176,56999,2,0,L|32:64,1,110.000000596046,4|8,0:0|0:0,0:0:0:0:
320,176,57333,1,0,0:0:0:0:
76,352,57499,6,0,L|192:336,1,110.000000596046,8|12,0:0|0:0,0:0:0:0:
56,56,57833,1,0,0:0:0:0:
56,56,57916,1,0,0:0:0:0:
56,56,57999,2,0,L|64:176,1,110.000000596046,10|0,0:0|0:0,0:0:0:0:
284,304,58333,2,0,L|384:208,1,110.000000596046
20,212,58666,6,4,L|80:96,1,110.000000596046,4|0,0:0|0:0,0:0:0:0:
32,32,58916,1,4,0:0:0:0:
320,128,59083,2,4,L|256:160,1,55.000000298023
332,208,59333,2,0,L|336:320,1,110.000000596046,8|0,0:0|0:0,0:0:0:0:
496,32,59666,2,0,L|416:128,1,110.000000596046
96,64,59999,5,0,0:0:0:0:
384,208,60166,1,0,0:0:0:0:
384,208,60249,1,0,0:0:0:0:
384,208,60333,1,0,0:0:0:0:
420,72,60499,1,0,0:0:0:0:
420,72,60583,1,0,0:0:0:0:
420,72,60666,2,0,L|464:192,1,110.000000596046,8|4,0:0|0:0,0:0:0:0:
128,56,60999,1,2,0:0:0:0:
256,288,61166,6,0,L|368:256,1,110.000000596046,0|4,0:0|0:0,0:0:0:0:
408,44,61499,1,0,0:0:0:0:
408,44,61583,2,0,L|272:80,1,110.000000596046
224,160,61833,1,4,0:0:0:0:
64,320,62000,2,0,L|196:288,1,110.000000596046,2|0,0:0|0:0,0:0:0:0:
384,320,62333,1,4,0:0:0:0:
368,96,62499,6,0,L|256:160,1,110.000000596046,8|0,0:0|0:0,0:0:0:0:
416,288,62833,1,8,0:0:0:0:
152,76,62999,2,8,B|184:119|184:119|177:195,1,110.000000596046,4|0,0:0|0:0,0:0:0:0:
152,76,63333,2,0,L|134:252,2,165.000000894069
152,76,63999,6,4,L|208:80,1,55.000000298023,4|4,0:0|0:0,0:0:0:0:
188,136,64166,2,4,L|256:144,1,55.000000298023,4|4,0:0|0:0,0:0:0:0:
208,200,64333,1,4,0:0:0:0:
416,64,64499,1,4,0:0:0:0:
174,309,64666,2,0,L|212:200,1,110.000000596046,8|4,0:0|0:0,0:0:0:0:
480,64,64999,2,0,L|350:129,1,110.000000596046,6|0,0:0|0:0,0:0:0:0:
128,64,65333,5,4,0:0:0:0:
90,298,65499,6,4,L|32:256,1,55.000000298023
157,248,65666,2,4,L|100:232,1,55.000000298023
222,199,65833,2,4,L|168:208,1,55.000000298023
152,84,65999,1,4,0:0:0:0:
192,320,66166,1,4,0:0:0:0:
288,96,66333,1,2,0:0:0:0:
96,224,66499,1,0,0:0:0:0:
268,112,66666,6,4,L|224:160,1,55.000000298023
336,160,66833,2,4,L|288:208,1,55.000000298023
400,208,66999,2,4,L|496:128,1,110.000000596046
252,64,67333,2,0,L|192:48,1,55.000000298023,12|0,0:0|0:0,0:0:0:0:
289,120,67499,2,0,L|224:112,1,55.000000298023,4|0,0:0|0:0,0:0:0:0:
326,176,67666,2,0,L|256:176,3,55.000000298023,6|0|0|0,0:0|0:0|0:0|0:0,0:0:0:0:
384,96,67999,6,0,L|400:32,1,55.000000298023
464,160,68166,2,0,L|432:80,1,55.000000298023
368,224,68333,2,0,L|384:144,1,55.000000298023
464,272,68499,2,0,L|432:208,1,55.000000298023
296,261,68666,6,0,L|327:316,1,55.000000298023,4|0,0:0|0:0,0:0:0:0:
217,308,68833,2,0,L|185:244,1,55.000000298023,4|4,0:0|0:0,0:0:0:0:
118,185,68999,2,0,L|86:121,1,55.000000298023,2|0,0:0|0:0,0:0:0:0:
198,135,69166,2,0,L|230:199,1,55.000000298023
160,128,69333,6,4,L|208:80,4,55.000000298023
336,316,69833,1,4,0:0:0:0:
332,116,69999,2,0,L|464:128,1,110.000000596046,8|4,0:0|0:0,0:0:0:0:
47,0,70333,2,0,L|160:16,1,110.000000596046,2|0,0:0|0:0,0:0:0:0:
368,268,70666,5,0,0:0:0:0:
76,192,70833,2,0,L|128:160,1,55.000000298023
128,208,70999,1,0,0:0:0:0:
368,332,71166,1,0,0:0:0:0:
208,64,71333,6,0,L|272:96,1,55.000000298023
176,128,71499,2,0,L|240:160,1,55.000000298023
272,144,71666,1,8,0:0:0:0:
96,192,71833,1,0,0:0:0:0:
264,96,71999,6,0,L|336:96,1,55.000000298023
288,256,72166,2,0,L|352:256,1,55.000000298023
224,128,72333,1,0,0:0:0:0:
384,270,72499,6,4,L|320:368,1,110.000000596046
96,64,72833,1,4,0:0:0:0:
384,192,72999,2,0,L|352:80,1,110.000000596046,8|0,0:0|0:0,0:0:0:0:
192,368,73333,1,0,0:0:0:0:
256,48,73499,2,0,L|368:0,1,110.000000596046
96,320,73833,1,0,0:0:0:0:
416,80,73999,2,0,L|384:324,1,220.000001192092,2|0,0:0|0:0,0:0:0:0:
