osu file format v14

[General]
AudioFilename: audio.mp3
AudioLeadIn: 0
PreviewTime: 251515
Countdown: 0
SampleSet: Soft
StackLeniency: 0.5
Mode: 0
LetterboxInBreaks: 0
WidescreenStoryboard: 0

[Editor]
Bookmarks: 9353,26650,61245,130434,165029,200704,235299,252596,283136,326379,360973,378271,408811,426108,447726,490969,508266,525564,542861,555843
DistanceSpacing: 1.5
BeatDivisor: 4
GridSize: 4
TimelineZoom: 2

[Metadata]
Title:Colossus
TitleUnicode:Colossus
Artist:In Mourning
ArtistUnicode:In Mourning
Creator:TheKingHenry
Version:Colossus, the Wrath of the Ocean
Source:
Tags:the weight of oceans progressive melodic death metal spinefarm records marathon
BeatmapID:1438946
BeatmapSetID:680555

[Difficulty]
HPDrainRate:7
CircleSize:4.4
OverallDifficulty:9.3
ApproachRate:9.8
SliderMultiplier:1.2
SliderTickRate:1

[Events]
//Background and Video events
0,0,"inmourningcolossuspic.jpg",0,0
//Break Periods
//Storyboard Layer 0 (Background)
//Storyboard Layer 1 (Fail)
//Storyboard Layer 2 (Pass)
//Storyboard Layer 3 (Foreground)
//Storyboard Sound Samples

[TimingPoints]
705,270.27027027027,4,2,1,10,1,0
705,-500,4,2,1,10,0,0
9353,-100,4,2,1,40,0,0
9556,-100,4,2,99,40,0,0
9623,-100,4,2,4,30,0,0
10164,-100,4,2,1,40,0,0
11718,-100,4,2,99,40,0,0
11786,-100,4,2,4,30,0,0
12326,-100,4,2,1,40,0,0
13137,-100,4,2,2,40,0,0
13677,-100,4,2,1,40,0,0
13880,-100,4,2,99,40,0,0
13948,-100,4,2,4,30,0,0
14488,-100,4,2,1,40,0,0
16042,-100,4,2,99,40,0,0
16110,-100,4,2,4,30,0,0
16650,-100,4,2,1,40,0,0
17461,-100,4,2,2,50,0,0
17596,-200,4,2,2,50,0,0
17934,-100,4,2,99,40,0,0
18002,-100,4,2,1,40,0,0
18204,-100,4,2,99,40,0,0
18272,-100,4,2,4,30,0,0
18813,-100,4,2,1,40,0,0
20367,-100,4,2,99,40,0,0
20434,-100,4,2,4,30,0,0
20975,-100,4,2,1,40,0,0
21786,-100,4,2,2,40,0,0
22326,-100,4,2,1,40,0,0
22529,-100,4,2,99,40,0,0
22596,-100,4,2,4,30,0,0
23137,-100,4,2,1,40,0,0
24691,-100,4,2,99,40,0,0
24759,-100,4,2,4,30,0,0
25299,-100,4,2,1,40,0,0
26110,-100,4,2,1,50,0,0
26650,-200,4,2,1,50,0,0
27056,-200,4,2,1,40,0,0
27732,-200,4,2,2,30,0,0
28813,-200,4,2,1,40,0,0
29894,-200,4,2,2,30,0,0
30975,-200,4,2,1,40,0,0
32056,-200,4,2,2,30,0,0
33137,-200,4,2,1,40,0,0
34218,-200,4,2,2,30,0,0
35299,-200,4,2,1,40,0,0
36380,-200,4,2,2,30,0,0
37461,-200,4,2,1,40,0,0
38542,-200,4,2,2,30,0,0
39623,-200,4,2,1,40,0,0
40704,-200,4,2,2,30,0,0
41786,-133.333333333333,4,2,1,40,0,0
42056,-133.333333333333,4,2,2,30,0,0
42191,-133.333333333333,4,2,1,40,0,0
42461,-133.333333333333,4,2,99,40,0,0
42596,-133.333333333333,4,2,1,40,0,0
42799,-133.333333333333,4,2,99,40,0,0
42867,-133.333333333333,4,2,2,40,0,0
43137,-133.333333333333,4,2,2,37,0,0
43407,-133.333333333333,4,2,2,34,0,0
43677,-133.333333333333,4,2,2,30,0,0
43948,-200,4,2,1,40,0,0
45029,-200,4,2,2,30,0,0
46110,-200,4,2,1,40,0,0
47191,-200,4,2,2,30,0,0
48272,-200,4,2,1,40,0,0
49353,-200,4,2,2,30,0,0
50434,-200,4,2,1,40,0,0
51515,-200,4,2,2,30,0,0
52596,-200,4,2,1,40,0,0
53677,-200,4,2,2,30,0,0
54759,-200,4,2,1,40,0,0
55840,-200,4,2,2,30,0,0
56921,-200,4,2,1,40,0,0
58002,-200,4,2,2,30,0,0
59083,-133.333333333333,4,2,1,40,0,0
59353,-133.333333333333,4,2,2,30,0,0
59488,-133.333333333333,4,2,1,40,0,0
59759,-133.333333333333,4,2,99,40,0,0
59894,-133.333333333333,4,2,1,40,0,0
60096,-133.333333333333,4,2,99,40,0,0
60164,-133.333333333333,4,2,1,40,0,0
60434,-133.333333333333,4,2,2,60,0,0
60704,-333.333333333333,4,2,2,30,0,0
61177,-333.333333333333,4,2,99,40,0,0
61245,-133.333333333333,4,2,1,40,0,0
61448,-133.333333333333,4,2,99,40,0,0
61515,-133.333333333333,4,2,1,40,0,0
61921,-133.333333333333,4,2,2,30,0,0
62056,-133.333333333333,4,2,1,40,0,0
62191,-133.333333333333,4,2,2,30,0,0
63407,-133.333333333333,4,2,1,40,0,0
63610,-133.333333333333,4,2,99,40,0,0
63677,-133.333333333333,4,2,1,40,0,0
64083,-133.333333333333,4,2,2,30,0,0
64218,-133.333333333333,4,2,1,40,0,0
64353,-133.333333333333,4,2,2,30,0,0
65232,-133.333333333333,4,2,99,30,0,0
65299,-133.333333333333,4,2,2,30,0,0
65569,-133.333333333333,4,2,1,40,0,0
65772,-133.333333333333,4,2,99,40,0,0
65840,-133.333333333333,4,2,1,40,0,0
66245,-133.333333333333,4,2,2,30,0,0
66380,-133.333333333333,4,2,1,40,0,0
66515,-133.333333333333,4,2,2,30,0,0
67732,-133.333333333333,4,2,1,40,0,0
67934,-133.333333333333,4,2,99,40,0,0
68002,-133.333333333333,4,2,1,40,0,0
68407,-133.333333333333,4,2,2,30,0,0
68542,-133.333333333333,4,2,1,40,0,0
68677,-133.333333333333,4,2,2,30,0,0
69015,-133.333333333333,4,2,99,30,0,0
69083,-133.333333333333,4,2,2,30,0,0
69556,-133.333333333333,4,2,99,30,0,0
69623,-133.333333333333,4,2,2,30,0,0
69894,-133.333333333333,4,2,1,40,0,0
70096,-133.333333333333,4,2,99,40,0,0
70164,-133.333333333333,4,2,1,40,0,0
70569,-133.333333333333,4,2,2,30,0,0
70704,-133.333333333333,4,2,1,40,0,0
70840,-133.333333333333,4,2,2,30,0,0
72056,-133.333333333333,4,2,1,40,0,0
72259,-133.333333333333,4,2,99,40,0,0
72326,-133.333333333333,4,2,1,40,0,0
72732,-133.333333333333,4,2,2,30,0,0
72867,-133.333333333333,4,2,1,40,0,0
73002,-100,4,2,2,30,0,0
73340,-100,4,2,99,30,0,0
73407,-100,4,2,2,30,0,0
73610,-100,4,2,99,30,0,0
73677,-133.333333333333,4,2,2,30,0,0
74218,-133.333333333333,4,2,1,40,0,0
74421,-133.333333333333,4,2,99,40,0,0
74488,-133.333333333333,4,2,1,40,0,0
74894,-133.333333333333,4,2,2,30,0,0
75029,-133.333333333333,4,2,1,40,0,0
75164,-133.333333333333,4,2,2,30,0,0
76380,-133.333333333333,4,2,1,40,0,0
76583,-133.333333333333,4,2,99,40,0,0
76650,-133.333333333333,4,2,4,40,0,0
76921,-133.333333333333,4,2,1,40,0,0
77326,-83.3333333333333,4,2,1,40,0,0
77529,-83.3333333333333,4,2,99,40,0,0
77596,-83.3333333333333,4,2,1,40,0,0
77799,-83.3333333333333,4,2,99,40,0,0
77867,-133.333333333333,4,2,1,40,0,0
78745,-133.333333333333,4,2,99,40,0,0
78813,-133.333333333333,4,2,1,40,0,0
79218,-133.333333333333,4,2,2,30,0,0
79353,-133.333333333333,4,2,1,40,0,0
79488,-133.333333333333,4,2,2,30,0,0
80704,-133.333333333333,4,2,1,40,0,0
80907,-133.333333333333,4,2,99,40,0,0
80975,-133.333333333333,4,2,1,40,0,0
81380,-133.333333333333,4,2,2,30,0,0
81515,-133.333333333333,4,2,1,40,0,0
81650,-133.333333333333,4,2,2,30,0,0
82529,-133.333333333333,4,2,99,30,0,0
82596,-133.333333333333,4,2,2,30,0,0
82867,-133.333333333333,4,2,1,40,0,0
83069,-133.333333333333,4,2,99,40,0,0
83137,-133.333333333333,4,2,1,40,0,0
83542,-133.333333333333,4,2,2,30,0,0
83677,-133.333333333333,4,2,1,40,0,0
83813,-133.333333333333,4,2,2,30,0,0
85029,-133.333333333333,4,2,1,40,0,0
85232,-133.333333333333,4,2,99,40,0,0
85299,-133.333333333333,4,2,1,40,0,0
85704,-133.333333333333,4,2,2,30,0,0
85840,-133.333333333333,4,2,1,40,0,0
85975,-133.333333333333,4,2,2,30,0,0
86853,-133.333333333333,4,2,99,30,0,0
86921,-133.333333333333,4,2,2,30,0,0
87191,-133.333333333333,4,2,1,40,0,0
87394,-133.333333333333,4,2,99,40,0,0
87461,-133.333333333333,4,2,1,40,0,0
87867,-133.333333333333,4,2,2,30,0,0
88002,-133.333333333333,4,2,1,40,0,0
88137,-133.333333333333,4,2,2,30,0,0
89353,-133.333333333333,4,2,1,40,0,0
89556,-133.333333333333,4,2,99,40,0,0
89623,-133.333333333333,4,2,1,40,0,0
90029,-133.333333333333,4,2,2,30,0,0
90164,-133.333333333333,4,2,1,40,0,0
90299,-133.333333333333,4,2,2,30,0,0
90434,-100,4,2,2,30,0,0
90637,-100,4,2,99,30,0,0
90704,-100,4,2,2,30,0,0
90907,-100,4,2,99,30,0,0
90975,-133.333333333333,4,2,2,30,0,0
91515,-133.333333333333,4,2,1,40,0,0
91718,-133.333333333333,4,2,99,40,0,0
91786,-133.333333333333,4,2,1,40,0,0
92191,-133.333333333333,4,2,2,30,0,0
92326,-133.333333333333,4,2,1,40,0,0
92461,-133.333333333333,4,2,2,30,0,0
93677,-133.333333333333,4,2,1,40,0,0
93948,-133.333333333333,4,2,4,30,0,0
94218,-133.333333333333,4,2,4,40,0,0
94488,-83.3333333333333,4,2,1,50,0,0
94691,-83.3333333333333,4,2,99,40,0,0
94759,-133.333333333333,4,2,1,40,0,0
95029,-133.333333333333,4,2,4,30,0,0
95299,-133.333333333333,4,2,4,40,0,0
95569,-200,4,2,1,40,0,0
95772,-200,4,2,99,40,0,0
95840,-133.333333333333,4,2,1,40,0,0
96042,-133.333333333333,4,2,99,40,0,0
96110,-133.333333333333,4,2,1,40,0,0
96515,-133.333333333333,4,2,2,30,0,0
96650,-133.333333333333,4,2,1,40,0,0
96786,-133.333333333333,4,2,2,30,0,0
98002,-133.333333333333,4,2,1,40,0,0
98204,-133.333333333333,4,2,99,40,0,0
98272,-133.333333333333,4,2,1,40,0,0
98677,-133.333333333333,4,2,2,30,0,0
98813,-133.333333333333,4,2,1,40,0,0
98948,-133.333333333333,4,2,2,30,0,0
99826,-133.333333333333,4,2,99,30,0,0
99894,-133.333333333333,4,2,2,30,0,0
100164,-133.333333333333,4,2,1,40,0,0
100367,-133.333333333333,4,2,99,40,0,0
100434,-133.333333333333,4,2,1,40,0,0
100840,-133.333333333333,4,2,2,30,0,0
100975,-133.333333333333,4,2,1,40,0,0
101110,-133.333333333333,4,2,2,30,0,0
102326,-133.333333333333,4,2,1,40,0,0
102529,-133.333333333333,4,2,99,40,0,0
102596,-133.333333333333,4,2,1,40,0,0
103002,-133.333333333333,4,2,2,30,0,0
103137,-133.333333333333,4,2,1,40,0,0
103272,-133.333333333333,4,2,2,30,0,0
104150,-133.333333333333,4,2,99,30,0,0
104218,-133.333333333333,4,2,2,30,0,0
104488,-133.333333333333,4,2,1,40,0,0
104691,-133.333333333333,4,2,99,40,0,0
104759,-133.333333333333,4,2,1,40,0,0
105164,-133.333333333333,4,2,2,30,0,0
105299,-133.333333333333,4,2,1,40,0,0
105434,-133.333333333333,4,2,2,30,0,0
106650,-133.333333333333,4,2,1,40,0,0
106853,-133.333333333333,4,2,99,40,0,0
106921,-133.333333333333,4,2,1,40,0,0
107326,-133.333333333333,4,2,2,30,0,0
107461,-133.333333333333,4,2,1,40,0,0
107596,-133.333333333333,4,2,2,30,0,0
107732,-100,4,2,2,30,0,0
107934,-100,4,2,99,30,0,0
108002,-100,4,2,2,30,0,0
108204,-100,4,2,99,30,0,0
108272,-133.333333333333,4,2,2,30,0,0
108813,-133.333333333333,4,2,1,40,0,0
109015,-133.333333333333,4,2,99,40,0,0
109083,-133.333333333333,4,2,1,40,0,0
109488,-133.333333333333,4,2,2,30,0,0
109623,-133.333333333333,4,2,1,40,0,0
109759,-133.333333333333,4,2,2,30,0,0
110975,-100,4,2,1,40,0,0
111177,-100,4,2,99,40,0,0
111245,-133.333333333333,4,2,1,40,0,0
113340,-133.333333333333,4,2,99,40,0,0
113407,-133.333333333333,4,2,1,40,0,0
113813,-133.333333333333,4,2,2,30,0,0
113948,-133.333333333333,4,2,1,40,0,0
114083,-133.333333333333,4,2,2,30,0,0
115299,-133.333333333333,4,2,1,40,0,0
115502,-133.333333333333,4,2,99,40,0,0
115569,-133.333333333333,4,2,1,40,0,0
115975,-133.333333333333,4,2,2,30,0,0
116110,-133.333333333333,4,2,1,40,0,0
116245,-133.333333333333,4,2,2,30,0,0
117461,-133.333333333333,4,2,1,40,0,0
117664,-133.333333333333,4,2,99,40,0,0
117732,-133.333333333333,4,2,1,40,0,0
118137,-133.333333333333,4,2,2,30,0,0
118272,-133.333333333333,4,2,1,40,0,0
118407,-133.333333333333,4,2,2,30,0,0
119623,-133.333333333333,4,2,1,40,0,0
119826,-133.333333333333,4,2,99,40,0,0
119894,-133.333333333333,4,2,1,40,0,0
120299,-133.333333333333,4,2,2,30,0,0
120434,-133.333333333333,4,2,1,40,0,0
120569,-133.333333333333,4,2,2,30,0,0
120704,-100,4,2,2,30,0,0
120907,-100,4,2,99,30,0,0
120975,-100,4,2,2,30,0,0
121177,-100,4,2,99,30,0,0
121245,-133.333333333333,4,2,2,30,0,0
121786,-133.333333333333,4,2,1,40,0,0
121988,-133.333333333333,4,2,99,40,0,0
122056,-133.333333333333,4,2,1,40,0,0
122461,-133.333333333333,4,2,2,30,0,0
122596,-133.333333333333,4,2,1,40,0,0
122732,-133.333333333333,4,2,2,30,0,0
123948,-133.333333333333,4,2,1,40,0,0
124150,-133.333333333333,4,2,99,40,0,0
124218,-133.333333333333,4,2,1,40,0,0
124623,-133.333333333333,4,2,2,30,0,0
124759,-133.333333333333,4,2,1,40,0,0
124894,-133.333333333333,4,2,2,30,0,0
125029,-100,4,2,2,30,0,0
125232,-100,4,2,99,30,0,0
125299,-100,4,2,2,30,0,0
125502,-100,4,2,99,30,0,0
125569,-133.333333333333,4,2,2,30,0,0
126110,-133.333333333333,4,2,1,40,0,0
126313,-133.333333333333,4,2,99,40,0,0
126380,-133.333333333333,4,2,1,40,0,0
126786,-133.333333333333,4,2,2,30,0,0
126921,-133.333333333333,4,2,1,40,0,0
127056,-133.333333333333,4,2,2,30,0,0
127191,-133.333333333333,4,2,2,40,0,0
128002,-133.333333333333,4,2,1,40,0,0
128272,-100,4,2,1,40,0,0
128475,-100,4,2,99,40,0,0
128542,-100,4,2,1,40,0,0
130096,-100,4,2,99,40,0,0
130164,-100,4,2,1,40,0,0
130434,-100,4,2,3,40,0,0
165029,-66.6666666666667,4,2,3,40,0,0
172867,-66.6666666666667,4,2,3,30,0,0
173137,-66.6666666666667,4,2,3,40,0,0
173407,-66.6666666666667,4,2,3,30,0,0
173677,-66.6666666666667,4,2,3,40,0,0
181515,-66.6666666666667,4,2,3,30,0,0
181786,-66.6666666666667,4,2,3,40,0,0
182056,-66.6666666666667,4,2,3,30,0,0
182326,-66.6666666666667,4,2,3,40,0,0
190164,-66.6666666666667,4,2,3,30,0,0
190434,-66.6666666666667,4,2,3,40,0,0
190704,-66.6666666666667,4,2,3,30,0,0
190975,-66.6666666666667,4,2,3,40,0,0
198813,-66.6666666666667,4,2,3,30,0,0
199083,-66.6666666666667,4,2,3,40,0,0
199353,-66.6666666666667,4,2,3,30,0,0
199623,-66.6666666666667,4,2,3,40,0,0
200096,-66.6666666666667,4,2,99,40,0,0
200164,-69.9300699300699,4,2,3,40,0,0
200637,-69.9300699300699,4,2,99,40,0,0
200704,-66.6666666666667,4,2,3,40,0,0
202867,-83.3333333333333,4,2,3,40,0,0
203069,-83.3333333333333,4,2,99,40,0,0
203137,-66.6666666666667,4,2,3,40,0,0
203677,-66.6666666666667,4,2,4,30,0,0
203948,-66.6666666666667,4,2,4,40,0,0
204759,-66.6666666666667,4,2,3,40,0,0
208475,-66.6666666666667,4,2,99,40,0,0
208542,-66.6666666666667,4,2,3,40,0,0
208813,-66.6666666666667,4,2,4,40,0,0
209353,-66.6666666666667,4,2,3,40,0,0
211515,-83.3333333333333,4,2,3,40,0,0
211718,-83.3333333333333,4,2,99,40,0,0
211786,-66.6666666666667,4,2,3,40,0,0
212326,-66.6666666666667,4,2,4,30,0,0
212596,-66.6666666666667,4,2,4,40,0,0
213137,-66.6666666666667,4,2,3,40,0,0
213407,-66.6666666666667,4,2,4,40,0,0
213677,-66.6666666666667,4,2,3,40,0,0
217123,-66.6666666666667,4,2,99,40,0,0
217191,-66.6666666666667,4,2,3,40,0,0
217461,-66.6666666666667,4,2,4,40,0,0
218002,-66.6666666666667,4,2,3,40,0,0
226110,-55.5555555555556,4,2,3,50,0,0
226650,-66.6666666666667,4,2,3,50,0,0
226786,-66.6666666666667,4,2,3,40,0,0
234421,-66.6666666666667,4,2,99,40,0,0
234488,-66.6666666666667,4,2,3,40,0,0
234759,-66.6666666666667,4,2,4,40,0,0
235299,-66.6666666666667,4,2,3,40,0,0
243137,-66.6666666666667,4,2,3,30,0,0
243407,-66.6666666666667,4,2,3,40,0,0
243677,-66.6666666666667,4,2,3,30,0,0
243948,-66.6666666666667,4,2,3,40,0,0
251786,-62.5,4,2,3,30,0,0
252056,-55.5555555555556,4,2,3,40,0,0
252596,270.27027027027,7,2,3,60,1,1
252596,-50,7,2,3,60,0,1
267731,-45.4545454545455,7,2,3,60,0,1
280974,270.27027027027,4,2,3,60,1,0
280974,-45.4545454545455,7,2,3,60,0,1
283136,-50,7,2,3,50,0,1
283474,-50,4,2,99,60,0,0
283541,-100,7,2,3,50,0,1
283676,-100,7,2,2,40,0,0
285298,-133.333333333333,7,2,3,40,0,0
285636,-133.333333333333,7,2,99,40,0,0
285703,-133.333333333333,7,2,3,40,0,0
285838,-133.333333333333,7,2,2,40,0,0
286649,-133.333333333333,7,2,2,30,0,0
286784,-133.333333333333,7,2,3,40,0,0
286919,-133.333333333333,7,2,2,30,0,0
287190,-133.333333333333,7,2,3,40,0,0
287460,-100,7,2,3,60,0,0
287798,-100,7,2,99,60,0,0
287865,-200,7,2,3,60,0,0
288474,-200,7,2,99,60,0,0
288541,-100,7,2,2,40,0,0
289622,-66.6666666666667,7,2,3,40,0,0
289960,-66.6666666666667,7,2,99,40,0,0
290028,-66.6666666666667,7,2,3,40,0,0
290163,-66.6666666666667,7,2,2,40,0,0
290703,-100,7,2,4,40,0,0
291244,-100,7,2,4,30,0,0
291784,-100,7,2,3,40,0,0
292798,-100,7,2,99,40,0,0
292865,-100,7,2,2,40,0,0
293406,-100,7,2,2,50,0,0
293946,-100,7,2,3,40,0,0
296446,-100,7,2,99,40,0,0
296514,-200,7,2,3,40,0,0
297122,-200,7,2,99,40,0,0
297190,-100,7,2,2,40,0,0
298271,-100,7,2,3,40,0,0
298609,-100,7,2,99,40,0,0
298676,-100,7,2,3,40,0,0
298811,-100,7,2,2,50,0,0
299352,-100,7,2,2,40,0,0
300095,-100,7,2,99,40,0,0
300163,-100,7,2,3,40,0,0
300771,-100,7,2,99,40,0,0
300838,-100,7,2,3,40,0,0
300974,-100,7,2,2,40,0,0
302257,-100,7,2,99,40,0,0
302325,-100,7,2,3,40,0,0
305095,-100,7,2,99,40,0,0
305163,-133.333333333333,7,2,3,40,0,0
305771,-133.333333333333,7,2,99,40,0,0
305838,-100,7,2,3,40,0,0
306379,-100,7,2,2,50,0,0
306919,-100,7,2,3,40,0,0
307865,-100,7,2,2,30,0,0
308001,-100,7,2,2,40,0,0
308744,-100,7,2,99,40,0,0
308811,-83.3333333333333,7,2,3,40,0,0
309419,-83.3333333333333,7,2,99,40,0,0
309487,-133.333333333333,7,2,3,40,0,0
310095,-133.333333333333,7,2,99,40,0,0
310163,-100,7,2,3,40,0,0
310433,-100,7,2,2,30,0,0
310703,-200,7,2,2,40,0,0
311244,-100,7,2,3,40,0,0
313744,-100,7,2,99,40,0,0
313811,-133.333333333333,7,2,3,40,0,0
314419,-133.333333333333,7,2,99,40,0,0
314487,-100,7,2,2,40,0,0
315028,-200,7,2,2,40,0,0
315501,-200,7,2,99,40,0,0
315568,-100,7,2,3,40,0,0
315906,-100,7,2,99,40,0,0
315973,-100,7,2,3,40,0,0
316109,-133.333333333333,7,2,2,40,0,0
316582,-133.333333333333,7,2,99,40,0,0
316649,-100,7,2,2,40,0,0
317190,-133.333333333333,7,2,2,40,0,0
317392,-133.333333333333,7,2,99,40,0,0
317460,-100,7,2,3,40,0,0
318068,-100,7,2,99,40,0,0
318136,-100,7,2,3,40,0,0
318271,-133.333333333333,7,2,2,40,0,0
318744,-133.333333333333,7,2,99,40,0,0
318811,-100,7,2,2,40,0,0
319352,-133.333333333333,7,2,2,40,0,0
319825,-133.333333333333,7,2,99,40,0,0
319892,-100,7,2,3,40,0,0
320230,-100,7,2,99,40,0,0
320298,-100,7,2,3,40,0,0
320433,-133.333333333333,7,2,2,50,0,0
320906,-133.333333333333,7,2,99,50,0,0
320973,-100,7,2,3,40,0,0
321311,-100,7,2,99,40,0,0
321379,-100,7,2,3,40,0,0
321514,-100,7,2,2,50,0,0
321784,-100,7,2,3,40,0,0
322392,-100,7,2,99,40,0,0
322460,-100,7,2,3,40,0,0
323068,-100,7,2,99,40,0,0
323136,-100,7,2,2,40,0,0
324217,-76.9230769230769,7,2,3,40,0,0
324555,-76.9230769230769,7,2,99,40,0,0
324622,-76.9230769230769,7,2,3,40,0,0
324960,-76.9230769230769,7,2,99,40,0,0
325028,-76.9230769230769,7,2,3,40,0,0
325230,-76.9230769230769,7,2,99,40,0,0
325298,-100,7,2,4,40,0,0
328541,-66.6666666666667,7,2,3,40,0,0
330501,-66.6666666666667,7,2,4,20,0,0
330703,-100,7,2,3,40,0,0
331041,-100,7,2,99,40,0,0
331109,-100,7,2,3,40,0,0
333203,-100,7,2,99,40,0,0
333271,-100,7,2,3,40,0,0
335028,-66.6666666666667,7,2,3,40,0,0
335568,-71.4285714285714,7,2,3,40,0,0
336109,-76.9230769230769,7,2,3,40,0,0
336649,-83.3333333333333,7,2,3,40,0,0
337190,-100,7,2,3,40,0,0
339082,-66.6666666666667,7,2,4,30,0,0
339352,-76.9230769230769,7,2,3,40,0,0
339690,-76.9230769230769,7,2,99,40,0,0
339757,-76.9230769230769,7,2,3,40,0,0
340095,-76.9230769230769,7,2,99,40,0,0
340163,-100,7,2,3,40,0,0
340973,-66.6666666666667,7,2,3,40,0,0
341176,-66.6666666666667,7,2,99,40,0,0
341244,-66.6666666666667,7,2,4,30,0,0
341514,-100,7,2,3,40,0,0
341784,-100,7,2,4,40,0,0
343676,-66.6666666666667,7,2,3,40,0,0
345838,-76.9230769230769,7,2,3,40,0,0
346176,-76.9230769230769,7,2,99,40,0,0
346244,-76.9230769230769,7,2,3,40,0,0
347663,-76.9230769230769,7,2,99,40,0,0
347730,-100,7,2,4,30,0,0
348001,-100,7,2,3,40,0,0
349622,-100,7,2,3,25,0,0
350163,-66.6666666666667,7,2,3,40,0,0
350365,-66.6666666666667,7,2,99,40,0,0
350433,-83.3333333333333,7,2,3,40,0,0
350771,-83.3333333333333,7,2,99,40,0,0
350838,-71.4285714285714,7,2,3,40,0,0
351176,-71.4285714285714,7,2,99,40,0,0
351244,-90.9090909090909,7,2,3,40,0,0
351582,-90.9090909090909,7,2,99,40,0,0
351649,-100,7,2,3,40,0,0
356041,-100,7,2,99,40,0,0
356109,-100,7,2,3,40,0,0
356379,-100,7,2,3,30,0,0
356649,-100,7,2,3,40,0,0
360095,-100,7,2,99,40,0,0
360163,-100,7,2,3,40,0,0
360973,-66.6666666666667,7,2,3,40,0,0
368811,-66.6666666666667,7,2,3,30,0,0
369082,-66.6666666666667,7,2,3,40,0,0
369352,-66.6666666666667,7,2,3,30,0,0
369622,-66.6666666666667,7,2,3,40,0,0
377460,-62.5,4,2,3,30,0,0
377730,-55.5555555555556,4,2,3,40,0,0
378271,270.27027027027,7,2,3,60,1,1
378271,-50,7,2,3,60,0,1
393406,-45.4545454545455,7,2,3,70,0,1
406649,270.27027027027,4,2,3,70,1,1
406649,-45.4545454545455,7,2,3,70,0,1
408811,-66.6666666666667,4,2,3,60,0,1
409013,-66.6666666666667,4,2,99,60,0,0
409081,-66.6666666666667,4,2,3,40,0,0
409892,-66.6666666666667,4,2,2,40,0,0
410973,-66.6666666666667,4,2,3,40,0,0
411176,-66.6666666666667,4,2,99,40,0,0
411243,-66.6666666666667,4,2,3,40,0,0
412054,-66.6666666666667,4,2,2,40,0,0
412594,-133.333333333333,4,2,3,40,0,0
413067,-133.333333333333,4,2,99,40,0,0
413135,-66.6666666666667,4,2,3,40,0,0
413338,-66.6666666666667,4,2,99,40,0,0
413405,-66.6666666666667,4,2,3,40,0,0
414216,-66.6666666666667,4,2,2,40,0,0
415297,-66.6666666666667,4,2,3,40,0,0
415500,-66.6666666666667,4,2,99,40,0,0
415567,-66.6666666666667,4,2,3,40,0,0
416378,-66.6666666666667,4,2,2,40,0,0
417459,-66.6666666666667,4,2,3,40,0,0
417662,-66.6666666666667,4,2,99,40,0,0
417730,-66.6666666666667,4,2,3,40,0,0
418540,-66.6666666666667,4,2,2,40,0,0
419621,-66.6666666666667,4,2,3,40,0,0
419824,-66.6666666666667,4,2,99,40,0,0
419892,-66.6666666666667,4,2,3,40,0,0
420905,-66.6666666666667,4,2,99,40,0,0
420973,-66.6666666666667,4,2,3,40,0,0
421986,-66.6666666666667,4,2,99,40,0,0
422054,-66.6666666666667,4,2,3,40,0,0
422865,-66.6666666666667,4,2,2,40,0,0
423405,-133.333333333333,4,2,3,40,0,0
423878,-133.333333333333,4,2,99,40,0,0
423946,-66.6666666666667,4,2,3,40,0,0
424149,-66.6666666666667,4,2,99,40,0,0
424216,-66.6666666666667,4,2,3,40,0,0
425027,-66.6666666666667,4,2,2,40,0,0
426108,270.27027027027,3,2,3,50,1,0
426108,-50,3,2,3,50,0,0
426310,-50,3,2,99,50,0,0
426378,-50,3,2,3,50,0,0
427121,-50,3,2,99,50,0,0
427189,-50,3,2,3,50,0,0
427932,-50,3,2,99,50,0,0
427999,-50,3,2,3,50,0,0
428540,270.27027027027,5,2,3,50,1,0
428540,-50,5,2,3,50,0,0
428742,-50,5,2,99,50,0,0
428810,-50,5,2,3,50,0,0
429283,-50,5,2,99,50,0,0
429350,-50,5,2,3,50,0,0
429891,270.27027027027,4,2,3,50,1,0
429891,-50,4,2,3,50,0,0
430093,-50,4,2,99,50,0,0
430161,-50,4,2,3,50,0,0
430634,-50,4,2,99,50,0,0
430701,-50,4,2,3,50,0,0
430972,270.27027027027,3,2,3,50,1,0
430972,-50,3,2,3,50,0,0
431174,-50,3,2,99,50,0,0
431242,-50,3,2,3,50,0,0
431985,-50,3,2,99,50,0,0
432053,-50,3,2,3,50,0,0
432796,-50,3,2,99,50,0,0
432863,-50,3,2,3,50,0,0
433404,270.27027027027,5,2,3,50,1,0
433404,-50,5,2,3,50,0,0
433606,-50,5,2,99,50,0,0
433674,-50,5,2,3,50,0,0
434147,-50,5,2,99,50,0,0
434214,-50,5,2,3,50,0,0
434755,270.27027027027,4,2,3,50,1,0
434755,-50,4,2,3,50,0,0
434957,-50,4,2,99,50,0,0
435025,-50,4,2,3,50,0,0
435498,-50,4,2,99,50,0,0
435565,-50,4,2,3,50,0,0
435836,270.27027027027,3,2,3,50,1,0
435836,-50,3,2,3,50,0,0
436038,-50,3,2,99,50,0,0
436106,-50,3,2,3,50,0,0
436849,-50,3,2,99,50,0,0
436917,-50,3,2,3,50,0,0
437660,-50,3,2,99,50,0,0
437727,-50,3,2,3,50,0,0
438268,270.27027027027,5,2,3,50,1,0
438268,-50,5,2,3,50,0,0
438470,-50,5,2,99,50,0,0
438538,-50,5,2,3,50,0,0
439011,-50,5,2,99,50,0,0
439078,-50,5,2,3,50,0,0
439619,270.27027027027,4,2,3,50,1,0
439619,-50,4,2,3,50,0,0
439821,-50,4,2,99,50,0,0
439889,-50,4,2,3,50,0,0
440362,-50,4,2,99,50,0,0
440429,-50,4,2,3,50,0,0
440700,270.27027027027,3,2,3,50,1,0
440700,-50,3,2,3,50,0,0
440902,-50,3,2,99,50,0,0
440970,-50,3,2,3,50,0,0
441713,-50,3,2,99,50,0,0
441781,-50,3,2,3,50,0,0
442524,-50,3,2,99,50,0,0
442591,-50,3,2,3,50,0,0
443132,270.27027027027,5,2,3,50,1,0
443132,-50,5,2,3,50,0,0
443334,-50,5,2,99,50,0,0
443402,-50,5,2,3,50,0,0
443875,-50,5,2,99,50,0,0
443942,-50,5,2,3,50,0,0
444483,270.27027027027,4,2,3,50,1,0
444483,-50,4,2,3,50,0,0
444685,-50,4,2,99,50,0,0
444753,-50,4,2,3,50,0,0
445023,-55.5555555555556,4,2,3,50,0,0
445226,-55.5555555555556,4,2,99,50,0,0
445293,-55.5555555555556,4,2,3,50,0,0
445564,-62.5,4,2,3,45,0,0
445766,-62.5,4,2,99,45,0,0
445834,-62.5,4,2,3,45,0,0
446104,-76.9230769230769,4,2,3,45,0,0
446307,-76.9230769230769,4,2,99,45,0,0
446374,-76.9230769230769,4,2,3,45,0,0
446645,-100,4,2,3,40,0,0
446847,-100,4,2,99,40,0,0
446915,-100,4,2,3,40,0,0
447118,-100,4,2,99,40,0,0
447185,-200,4,2,3,40,0,0
447658,-200,4,2,99,40,0,0
447726,-100,4,2,3,40,0,0
448266,-100,4,2,2,40,0,0
449888,-100,4,2,2,100,0,0
450158,-100,4,2,2,30,0,0
450293,-100,4,2,2,100,0,0
450564,-100,4,2,2,30,0,0
450699,-100,4,2,2,100,0,0
450834,-100,4,2,2,30,0,0
450969,-100,4,2,2,100,0,0
451239,-100,4,2,2,40,0,0
452050,-100,4,2,3,40,0,0
452455,-100,4,2,2,40,0,0
454212,-100,4,2,3,40,0,0
454955,-100,4,2,99,40,0,0
455023,-76.9230769230769,4,2,3,40,0,0
455226,-100,4,2,99,40,0,0
455293,-100,4,2,3,40,0,0
455564,-100,4,2,4,50,0,0
455969,-100,4,2,4,40,0,0
456374,-100,4,2,3,40,0,0
464753,-100,4,2,2,30,0,0
465023,-100,4,2,3,40,0,0
473334,-100,4,2,99,40,0,0
473401,-100,4,2,3,40,0,0
477726,-100,4,2,2,30,0,0
477996,-100,4,2,3,40,0,0
490158,-100,4,2,4,40,0,0
490969,-66.6666666666667,4,2,3,40,0,1
491104,-66.6666666666667,4,2,3,40,0,0
508266,-58.8235294117647,4,2,3,40,0,0
523401,-50,4,2,3,40,0,1
523537,-50,4,2,3,40,0,0
523807,-50,4,2,3,40,0,1
523942,-50,4,2,3,40,0,0
524212,-50,4,2,3,40,0,1
524347,-50,4,2,3,40,0,0
524482,-50,4,2,3,40,0,1
524618,-50,4,2,3,40,0,0
524888,-50,4,2,3,40,0,1
525023,-50,4,2,3,40,0,0
525293,-50,4,2,3,40,0,1
525428,-50,4,2,3,40,0,0
525564,-50,4,2,3,40,0,1
540834,-50,4,2,3,40,0,0
541104,-50,4,2,4,50,0,1
541239,-50,4,2,3,40,0,0
541510,-50,4,2,3,40,0,1
541645,-50,4,2,3,40,0,0
541915,-50,4,2,4,50,0,1
542050,-50,4,2,3,40,0,0
542320,-50,4,2,3,40,0,1
542455,-50,4,2,3,40,0,0
542591,-50,4,2,3,40,0,1
542726,-50,4,2,3,40,0,0
542861,-50,4,2,2,40,0,1
545428,-50,4,2,4,40,0,1
545496,-50,4,2,2,40,0,1
546239,-50,4,2,4,40,0,1
546307,-50,4,2,2,40,0,1
549888,-50,4,2,4,40,0,1
549955,-50,4,2,2,40,0,1
550023,-50,4,2,4,40,0,1
550091,-50,4,2,2,40,0,1
550158,-50,4,2,4,40,0,1
550226,-50,4,2,2,40,0,1
550428,-50,4,2,4,40,0,1
550496,-50,4,2,2,40,0,1
550564,-50,4,2,4,40,0,1
550631,-50,4,2,2,40,0,1
550699,-50,4,2,4,40,0,1
550766,-50,4,2,2,40,0,1
550969,-50,4,2,4,30,0,1
551037,-50,4,2,2,40,0,1
551104,-50,4,2,4,30,0,1
551172,-50,4,2,2,40,0,1
551239,-50,4,2,4,30,0,1
551307,-50,4,2,2,40,0,1
554753,272.727272727273,4,2,2,40,1,1
554753,-50,4,2,2,40,0,1
555843,304.568527918782,4,2,3,40,1,1
555843,-200,4,2,3,40,0,1
555919,-200,4,2,3,40,0,0
557061,306.122448979592,4,2,3,40,1,1
557061,-200,4,2,3,40,0,1
557137,-200,4,2,3,40,0,0
558285,333.333333333333,4,2,3,40,1,1
558285,-200,4,2,3,40,0,1
558368,-200,4,2,3,40,0,0
558951,303.030303030303,4,2,3,40,1,0
558951,-200,4,2,3,40,0,0
559557,387.096774193548,4,2,3,40,1,1
559621,-100,4,2,3,20,0,0
559944,-100,4,2,4,40,0,0
560331,468.75,4,2,4,40,1,0
560409,-100,4,2,4,30,0,0
560799,652.173913043478,4,2,4,40,1,0
560799,-200,4,2,4,40,0,0
561288,-200,4,2,99,40,0,0
561451,-200,4,2,3,40,0,1
561614,-200,4,2,3,20,0,0
568625,-100,4,2,2,10,0,0

[Colours]
Combo1 : 255,255,108
Combo2 : 0,255,255
Combo3 : 55,111,111
Combo4 : 223,223,0
Combo5 : 81,81,81
Combo6 : 0,0,174

[HitObjects]
430,368,705,6,0,P|381:373|340:353,7,96
321,263,9353,6,0,P|319:211|350:163,1,90,6|0,0:0|0:0,0:0:0:0:
393,133,9623,1,10,0:0:0:0:
398,234,9759,1,2,0:0:0:0:
326,107,9894,1,10,0:0:0:0:
297,115,10164,1,2,0:0:0:0:
237,205,10434,1,8,0:0:0:0:
237,205,11515,22,0,P|185:197|149:164,1,90,6|0,0:0|0:0,0:0:0:0:
121,111,11785,1,10,0:0:0:0:
221,124,11921,1,2,0:0:0:0:
84,172,12056,1,10,0:0:0:0:
87,202,12326,1,2,0:0:0:0:
165,277,12596,1,8,0:0:0:0:
168,307,12867,1,2,0:0:0:0:
283,342,13137,5,0,0:0:0:0:
287,334,13272,1,0,0:0:0:0:
291,326,13407,1,0,0:0:0:0:
295,318,13542,1,0,0:0:0:0:
300,310,13677,22,0,P|286:259|248:228,1,89.9999972534181,6|0,0:0|0:0,0:0:0:0:
193,206,13948,1,10,0:0:0:0:
217,304,14083,1,2,0:0:0:0:
249,161,14218,1,10,0:0:0:0:
279,160,14488,1,2,0:0:0:0:
362,229,14758,1,8,0:0:0:0:
362,229,15840,6,0,P|395:268|399:317,1,89.9999972534181,6|0,0:0|0:0,0:0:0:0:
385,376,16110,1,10,0:0:0:0:
319,300,16246,1,2,0:0:0:0:
454,356,16381,1,10,0:0:0:0:
472,332,16651,1,2,0:0:0:0:
463,224,16921,1,8,0:0:0:0:
481,200,17191,1,2,0:0:0:0:
362,135,17461,21,4,0:0:0:0:
391,234,17596,2,0,P|348:239|311:224,1,75,4|0,0:0|0:0,0:0:0:0:
297,207,18002,6,0,P|248:187|201:198,1,89.9999972534181,6|0,0:0|0:0,0:0:0:0:
148,229,18272,1,10,0:0:0:0:
243,272,18408,1,2,0:0:0:0:
146,157,18543,1,10,0:0:0:0:
164,132,18813,1,2,0:0:0:0:
268,108,19083,1,8,0:0:0:0:
268,108,20164,22,0,P|297:149|343:166,1,89.9999972534181,6|0,0:0|0:0,0:0:0:0:
404,168,20434,1,10,0:0:0:0:
347,84,20569,1,2,0:0:0:0:
366,229,20705,1,10,0:0:0:0:
339,240,20975,1,2,0:0:0:0:
237,204,21245,1,8,0:0:0:0:
209,215,21515,1,2,0:0:0:0:
77,178,21786,5,0,0:0:0:0:
82,170,21921,1,0,0:0:0:0:
88,163,22056,1,0,0:0:0:0:
94,156,22191,1,0,0:0:0:0:
99,148,22326,22,0,P|151:140|195:162,1,89.9999972534181,6|0,0:0|0:0,0:0:0:0:
237,204,22596,1,10,0:0:0:0:
138,221,22732,1,2,0:0:0:0:
256,134,22867,1,10,0:0:0:0:
245,107,23137,1,2,0:0:0:0:
148,59,23407,1,8,0:0:0:0:
148,59,24488,6,0,P|115:98|67:110,1,89.9999972534181,6|0,0:0|0:0,0:0:0:0:
6,106,24759,1,10,0:0:0:0:
70,26,24894,1,2,0:0:0:0:
38,170,25029,1,10,0:0:0:0:
64,184,25299,1,2,0:0:0:0:
170,157,25569,1,8,0:0:0:0:
196,170,25839,1,2,0:0:0:0:
354,83,26110,21,8,0:0:0:0:
288,276,26245,1,8,0:0:0:0:
348,66,26380,1,8,0:0:0:0:
441,274,26515,1,8,0:0:0:0:
342,49,26650,6,0,P|298:18|256:18,2,90,6|2|2,0:0|0:0|0:0,0:0:0:0:
354,181,27732,2,0,L|296:209,1,60,8|0,0:0|0:0,0:0:0:0:
376,267,28272,2,0,L|322:294,1,60
441,205,28813,22,0,P|441:151|417:116,2,90,2|2|2,0:0|0:0|0:0,0:0:0:0:
299,207,29894,2,0,L|244:168,1,60,8|0,0:0|0:0,0:0:0:0:
176,224,30434,2,0,L|225:259,1,60
168,134,30975,6,0,P|202:92|243:81,2,90,2|2|2,0:0|0:0|0:0,0:0:0:0:
112,254,32056,2,0,L|52:273,1,60,8|0,0:0|0:0,0:0:0:0:
166,325,32596,2,0,L|109:344,1,60
201,242,33137,22,0,P|179:192|144:169,2,90,2|2|2,0:0|0:0|0:0,0:0:0:0:
253,357,34218,2,0,L|328:370,1,60,8|0,0:0|0:0,0:0:0:0:
357,288,34759,2,0,L|298:278,1,60
402,366,35299,6,0,P|439:327|446:285,2,90,2|2|2,0:0|0:0|0:0,0:0:0:0:
298,278,36380,2,0,L|287:209,1,60,8|0,0:0|0:0,0:0:0:0:
368,169,36921,2,0,L|378:229,1,60
287,124,37461,22,0,P|235:138|208:171,2,90,2|2|2,0:0|0:0|0:0,0:0:0:0:
431,112,38542,2,0,L|470:61,1,60,8|0,0:0|0:0,0:0:0:0:
345,81,39083,2,0,L|382:34,1,60
368,169,39623,6,0,P|414:196|456:194,2,90,2|2|2,0:0|0:0|0:0,0:0:0:0:
294,59,40704,2,0,L|276:2,1,60,8|0,0:0|0:0,0:0:0:0:
201,52,41245,2,0,L|219:109,1,60
289,192,41786,22,0,P|282:237|236:279,1,90.0000034332277,2|0,0:0|0:0,0:0:0:0:
199,199,42191,2,0,P|170:164|128:150,1,90.0000034332277,2|0,0:0|0:0,0:0:0:0:
119,240,42596,2,0,P|87:270|47:278,1,67.5000025749207,2|0,0:0|0:0,0:0:0:0:
51,198,42867,5,8,0:0:0:0:
180,360,43137,1,0,0:0:0:0:
199,199,43407,1,0,0:0:0:0:
119,240,43677,1,0,0:0:0:0:
195,289,43948,22,0,P|247:276|276:245,2,90,2|2|2,0:0|0:0|0:0,0:0:0:0:
128,150,45029,2,0,L|125:84,1,60,8|0,0:0|0:0,0:0:0:0:
218,118,45569,2,0,L|216:59,1,60
200,214,46110,6,0,P|164:240|120:246,2,90,2|2|2,0:0|0:0|0:0,0:0:0:0:
315,149,47191,2,0,L|398:130,1,60,8|0,0:0|0:0,0:0:0:0:
367,229,47732,2,0,L|426:216,1,60
272,235,48272,22,0,P|284:277|316:308,2,90,2|2|2,0:0|0:0|0:0,0:0:0:0:
255,104,49353,2,0,L|271:39,1,60,8|0,0:0|0:0,0:0:0:0:
166,66,49894,2,0,L|181:8,1,60
178,162,50434,6,0,P|209:191|253:201,2,90,2|2|2,0:0|0:0|0:0,0:0:0:0:
40,167,51515,2,0,L|5:234,1,60,8|0,0:0|0:0,0:0:0:0:
126,208,52056,2,0,L|99:262,1,60
120,113,52596,22,0,P|89:82|46:70,2,90,2|2|2,0:0|0:0|0:0,0:0:0:0:
199,219,53677,2,0,L|256:263,1,60,8|0,0:0|0:0,0:0:0:0:
339,207,54218,2,0,L|292:171,1,60
329,304,54759,6,0,P|298:336|256:349,2,90,2|2|2,0:0|0:0|0:0,0:0:0:0:
410,199,55840,2,0,L|397:120,1,60,8|0,0:0|0:0,0:0:0:0:
298,106,56380,2,0,L|308:166,1,60
374,46,56921,22,0,P|418:42|458:61,2,90,2|2|2,0:0|0:0|0:0,0:0:0:0:
243,65,58002,2,0,L|170:49,1,60,8|0,0:0|0:0,0:0:0:0:
130,131,58542,2,0,L|188:143,1,60
301,219,59083,6,0,P|354:219|397:174,1,90.0000034332277,2|0,0:0|0:0,0:0:0:0:
322,132,59488,2,0,P|320:87|345:50,1,90.0000034332277,2|0,0:0|0:0,0:0:0:0:
410,114,59894,2,0,P|462:112|486:96,1,67.5000025749207,2|0,0:0|0:0,0:0:0:0:
432,38,60164,21,8,0:0:0:0:
421,13,60434,1,0,0:0:0:0:
477,184,60569,1,0,0:0:0:0:
345,50,60704,6,0,P|310:35|282:36,1,62.9999980773926,4|0,0:0|0:0,0:0:0:0:
258,56,61245,22,0,P|214:73|178:67,1,67.5000025749207,6|0,0:0|0:0,0:0:0:0:
163,57,61515,1,0,0:0:0:0:
200,168,61650,1,2,0:0:0:0:
85,144,61786,2,0,L|40:119,1,45.0000017166138
55,243,62056,2,0,L|94:264,1,45.0000017166138,2|0,0:0|0:0,0:0:0:0:
200,168,62326,5,8,0:0:0:0:
215,159,62596,1,0,0:0:0:0:
233,155,62866,1,0,0:0:0:0:
251,155,63136,1,0,0:0:0:0:
268,159,63407,22,0,P|301:157|331:143,1,67.5000025749207,2|0,0:0|0:0,0:0:0:0:
354,118,63677,1,0,0:0:0:0:
401,226,63813,1,2,0:0:0:0:
470,132,63948,2,0,L|495:77,1,45.0000017166138
401,7,64218,2,0,L|381:47,1,45.0000017166138,2|0,0:0|0:0,0:0:0:0:
401,226,64488,6,0,P|369:261|315:276,1,90.0000034332277,8|0,0:0|0:0,0:0:0:0:
216,89,65029,2,0,P|249:81|282:87,1,67.5000025749207
300,102,65299,1,0,0:0:0:0:
288,13,65434,1,0,0:0:0:0:
251,155,65569,22,0,P|218:162|185:156,1,67.5000025749207,2|0,0:0|0:0,0:0:0:0:
158,135,65840,1,0,0:0:0:0:
101,237,65975,1,2,0:0:0:0:
218,235,66110,2,0,L|275:230,1,45.0000017166138
254,352,66380,2,0,L|209:355,1,45.0000017166138,2|0,0:0|0:0,0:0:0:0:
101,237,66650,5,8,0:0:0:0:
98,219,66920,1,0,0:0:0:0:
101,200,67190,1,0,0:0:0:0:
108,184,67460,1,0,0:0:0:0:
118,170,67732,22,0,P|133:140|137:108,1,67.5000025749207,2|0,0:0|0:0,0:0:0:0:
127,75,68002,1,0,0:0:0:0:
208,159,68137,1,2,0:0:0:0:
240,47,68272,2,0,L|294:24,1,45.0000017166138
374,109,68542,2,0,L|332:126,1,45.0000017166138,2|0,0:0|0:0,0:0:0:0:
208,159,68813,6,0,P|203:204|215:231,1,67.5000025749207,8|0,0:0|0:0,0:0:0:0:
235,262,69083,1,0,0:0:0:0:
287,189,69218,1,0,0:0:0:0:
170,316,69353,22,0,P|206:342|235:345,1,67.5000025749207
272,344,69623,1,0,0:0:0:0:
235,262,69758,1,0,0:0:0:0:
355,343,69894,6,0,P|372:314|378:281,1,67.5000025749207,2|0,0:0|0:0,0:0:0:0:
369,249,70164,1,0,0:0:0:0:
479,288,70299,1,2,0:0:0:0:
458,173,70434,2,0,L|430:116,1,45.0000017166138
316,103,70704,2,0,L|335:143,1,45.0000017166138,2|0,0:0|0:0,0:0:0:0:
300,285,70975,21,8,0:0:0:0:
290,299,71245,1,0,0:0:0:0:
276,312,71515,1,0,0:0:0:0:
260,320,71785,1,0,0:0:0:0:
243,325,72056,6,0,P|192:312|174:293,1,67.5000025749207,2|0,0:0|0:0,0:0:0:0:
168,272,72326,1,0,0:0:0:0:
80,349,72461,1,2,0:0:0:0:
56,234,72596,2,0,L|73:181,1,45.0000017166138
187,200,72867,2,0,L|204:147,1,45.0000017166138,2|0,0:0|0:0,0:0:0:0:
300,285,73137,22,0,P|340:298|396:279,1,90,8|0,0:0|0:0,0:0:0:0:
344,221,73407,2,0,P|307:195|290:154,1,90
367,146,73677,5,0,0:0:0:0:
390,160,73948,1,0,0:0:0:0:
362,42,74083,1,0,0:0:0:0:
344,221,74218,22,0,P|313:236|280:239,1,67.5000025749207,2|0,0:0|0:0,0:0:0:0:
249,226,74488,1,0,0:0:0:0:
286,115,74623,1,2,0:0:0:0:
171,139,74759,2,0,L|147:193,1,45.0000017166138
27,187,75029,2,0,L|45:145,1,45.0000017166138
166,69,75299,5,8,0:0:0:0:
182,69,75569,1,0,0:0:0:0:
201,74,75839,1,0,0:0:0:0:
215,83,76109,1,0,0:0:0:0:
229,97,76380,22,0,P|243:147|235:172,1,67.5000025749207,6|0,0:0|0:0,0:0:0:0:
231,196,76650,1,2,0:0:0:0:
106,106,76786,1,2,0:0:0:0:
108,304,76921,5,8,0:0:0:0:
105,331,77191,1,8,0:0:0:0:
231,196,77326,22,0,P|281:179|333:197,1,107.999996704102,6|0,0:0|0:0,0:0:0:0:
350,219,77596,2,0,P|400:235|450:218,1,107.999996704102,6|0,0:0|0:0,0:0:0:0:
467,194,77867,1,2,0:0:0:0:
426,346,78002,5,8,0:0:0:0:
430,373,78272,1,8,0:0:0:0:
400,159,78407,1,8,0:0:0:0:
270,329,78542,22,0,P|223:320|195:297,1,67.5000025749207,6|0,0:0|0:0,0:0:0:0:
192,279,78813,1,0,0:0:0:0:
308,263,78948,1,2,0:0:0:0:
236,171,79083,2,0,L|185:159,1,45.0000017166138
203,40,79353,2,0,L|246:50,1,45.0000017166138,2|0,0:0|0:0,0:0:0:0:
331,167,79623,5,12,0:0:0:0:
343,179,79893,1,0,0:0:0:0:
359,189,80163,1,0,0:0:0:0:
376,194,80433,1,0,0:0:0:0:
394,196,80704,22,0,P|441:174|456:152,1,67.5000025749207,2|0,0:0|0:0,0:0:0:0:
460,131,80975,1,0,0:0:0:0:
348,97,81110,1,2,0:0:0:0:
433,17,81245,2,0,L|486:23,1,45.0000017166138
504,136,81515,2,0,L|459:130,1,45.0000017166138,2|0,0:0|0:0,0:0:0:0:
325,23,81786,6,0,P|280:19|239:36,1,90.0000034332277,8|0,0:0|0:0,0:0:0:0:
229,252,82326,2,0,P|262:254|294:242,1,67.5000025749207
309,224,82596,1,0,0:0:0:0:
301,320,82731,1,0,0:0:0:0:
252,180,82867,22,0,P|218:178|186:189,1,67.5000025749207,2|0,0:0|0:0,0:0:0:0:
163,216,83137,1,0,0:0:0:0:
108,113,83272,1,2,0:0:0:0:
46,212,83407,2,0,L|34:268,1,45.0000017166138
131,332,83677,2,0,L|140:287,1,45.0000017166138,2|0,0:0|0:0,0:0:0:0:
196,125,83948,5,8,0:0:0:0:
210,116,84218,1,0,0:0:0:0:
228,110,84488,1,0,0:0:0:0:
246,110,84758,1,0,0:0:0:0:
264,113,85029,22,0,P|304:146|313:171,1,67.5000025749207,2|0,0:0|0:0,0:0:0:0:
313,193,85299,1,0,0:0:0:0:
390,105,85434,1,2,0:0:0:0:
428,216,85569,2,0,L|415:275,1,45.0000017166138
297,310,85840,2,0,L|306:266,1,45.0000017166138,2|0,0:0|0:0,0:0:0:0:
390,105,86110,6,0,P|433:95|476:106,1,90.0000034332277,8|0,0:0|0:0,0:0:0:0:
306,266,86650,2,0,P|275:250|254:224,1,67.5000025749207
249,201,86921,1,0,0:0:0:0:
215,294,87056,1,0,0:0:0:0:
323,192,87191,22,0,P|311:160|287:136,1,67.5000025749207
257,123,87461,1,0,0:0:0:0:
346,47,87596,1,2,0:0:0:0:
235,8,87732,2,0,L|173:11,1,45.0000017166138
141,121,88002,2,0,L|185:118,1,45.0000017166138,2|0,0:0|0:0,0:0:0:0:
346,47,88272,5,12,0:0:0:0:
361,51,88542,1,0,0:0:0:0:
378,61,88812,1,0,0:0:0:0:
389,75,89082,1,0,0:0:0:0:
398,91,89353,22,0,P|398:143|384:165,1,67.5000025749207,2|0,0:0|0:0,0:0:0:0:
377,186,89623,1,0,0:0:0:0:
299,98,89759,1,2,0:0:0:0:
262,209,89894,2,0,L|289:268,1,45.0000017166138
156,274,90164,2,0,L|137:233,1,45.0000017166138,2|0,0:0|0:0,0:0:0:0:
96,85,90434,6,0,P|137:79|189:107,1,90,8|0,0:0|0:0,0:0:0:0:
128,156,90704,2,0,P|87:174|63:212,1,90
137,233,90974,21,0,0:0:0:0:
163,224,91245,1,0,0:0:0:0:
96,336,91380,1,0,0:0:0:0:
245,235,91515,6,0,P|242:201|226:171,1,67.5000025749207,2|0,0:0|0:0,0:0:0:0:
201,149,91786,1,0,0:0:0:0:
283,66,91921,1,2,0:0:0:0:
314,178,92056,2,0,L|321:234,1,45.0000017166138
444,201,92326,2,0,L|438:156,1,45.0000017166138,2|0,0:0|0:0,0:0:0:0:
283,66,92596,21,8,0:0:0:0:
264,61,92866,1,0,0:0:0:0:
246,63,93136,1,0,0:0:0:0:
229,69,93406,1,0,0:0:0:0:
214,79,93677,5,6,0:0:0:0:
260,130,93948,1,2,0:0:0:0:
262,143,94015,1,2,0:0:0:0:
262,156,94083,1,2,0:0:0:0:
261,170,94150,1,2,0:0:0:0:
257,183,94218,21,10,0:0:0:0:
144,110,94353,1,10,0:0:0:0:
174,287,94488,2,0,P|222:315|301:310,1,107.999996704102,6|0,0:0|0:0,0:0:0:0:
338,294,94759,5,6,0:0:0:0:
333,212,95029,1,8,0:0:0:0:
337,198,95096,1,8,0:0:0:0:
343,187,95164,1,8,0:0:0:0:
351,175,95231,1,8,0:0:0:0:
361,166,95299,21,10,0:0:0:0:
447,252,95434,1,10,0:0:0:0:
426,134,95569,2,0,P|410:112|384:97,1,45,6|0,0:0|0:0,0:0:0:0:
367,93,95840,6,0,P|333:97|301:88,1,67.5000025749207,6|0,0:0|0:0,0:0:0:0:
276,66,96110,1,0,0:0:0:0:
260,182,96245,1,2,0:0:0:0:
168,110,96380,2,0,L|155:58,1,45.0000017166138
68,149,96650,2,0,L|78:192,1,45.0000017166138,2|0,0:0|0:0,0:0:0:0:
260,182,96921,21,12,0:0:0:0:
277,179,97191,1,0,0:0:0:0:
295,182,97461,1,0,0:0:0:0:
312,189,97731,1,0,0:0:0:0:
326,200,98002,6,0,P|357:211|390:209,1,67.5000025749207,2|0,0:0|0:0,0:0:0:0:
422,195,98272,1,0,0:0:0:0:
329,124,98407,1,2,0:0:0:0:
437,79,98542,2,0,L|455:24,1,45.0000017166138
334,0,98813,2,0,L|320:42,1,45.0000017166138,2|0,0:0|0:0,0:0:0:0:
326,199,99083,22,0,P|369:211|412:202,1,90.0000034332277,8|0,0:0|0:0,0:0:0:0:
195,117,99623,2,0,P|177:145|173:179,1,67.5000025749207
181,200,99893,1,0,0:0:0:0:
122,89,100028,1,0,0:0:0:0:
249,171,100164,6,0,P|255:203|247:236,1,67.5000025749207,2|0,0:0|0:0,0:0:0:0:
234,268,100434,1,0,0:0:0:0:
337,213,100569,1,2,0:0:0:0:
334,330,100704,2,0,L|357:375,1,45.0000017166138
476,358,100975,2,0,L|455:317,1,45.0000017166138,2|0,0:0|0:0,0:0:0:0:
337,213,101245,21,12,0:0:0:0:
336,195,101515,1,0,0:0:0:0:
342,177,101785,1,0,0:0:0:0:
351,162,102055,1,0,0:0:0:0:
363,149,102326,6,0,P|377:119|380:86,1,67.5000025749207,2|0,0:0|0:0,0:0:0:0:
371,53,102596,1,0,0:0:0:0:
287,135,102732,1,2,0:0:0:0:
258,22,102867,2,0,L|209:7,1,45.0000017166138
145,108,103137,2,0,L|188:121,1,45.0000017166138,2|0,0:0|0:0,0:0:0:0:
363,149,103407,22,0,P|388:185|394:229,1,90.0000034332277,8|0,0:0|0:0,0:0:0:0:
218,300,103948,2,0,P|204:269|205:235,1,67.5000025749207
216,214,104218,1,0,0:0:0:0:
141,315,104353,1,0,0:0:0:0:
275,255,104488,6,0,P|286:223|283:189,1,67.5000025749207,2|0,0:0|0:0,0:0:0:0:
269,159,104759,1,0,0:0:0:0:
380,195,104894,1,2,0:0:0:0:
356,80,105029,2,0,L|335:30,1,45.0000017166138
217,40,105299,2,0,L|234:81,1,45.0000017166138,2|0,0:0|0:0,0:0:0:0:
275,255,105569,21,12,0:0:0:0:
271,271,105839,1,0,0:0:0:0:
263,288,106109,1,0,0:0:0:0:
251,302,106379,1,0,0:0:0:0:
237,313,106650,6,0,P|185:320|161:309,1,67.5000025749207,2|0,0:0|0:0,0:0:0:0:
145,294,106921,1,0,0:0:0:0:
223,207,107056,1,2,0:0:0:0:
109,183,107191,2,0,L|60:205,1,45.0000017166138
74,80,107461,2,0,L|115:61,1,45.0000017166138,2|0,0:0|0:0,0:0:0:0:
223,207,107732,22,0,P|257:230|316:227,1,90,8|0,0:0|0:0,0:0:0:0:
282,157,108002,2,0,P|253:121|248:77,1,90
325,91,108272,5,0,0:0:0:0:
343,111,108543,1,0,0:0:0:0:
186,144,108677,1,0,0:0:0:0:
297,18,108813,22,0,P|329:14|361:22,1,67.5000025749207,2|0,0:0|0:0,0:0:0:0:
388,46,109083,1,0,0:0:0:0:
496,1,109218,1,0,0:0:0:0:
481,117,109353,2,0,L|426:141,1,45.0000017166138
421,255,109623,2,0,L|462:237,1,45.0000017166138
326,156,109894,5,12,0:0:0:0:
308,153,110164,1,0,0:0:0:0:
290,156,110434,1,0,0:0:0:0:
273,163,110704,1,0,0:0:0:0:
259,174,110975,22,0,P|227:185|162:176,1,90,6|0,0:0|0:0,0:0:0:0:
135,154,111245,1,8,0:0:0:0:
193,310,111380,1,8,0:0:0:0:
209,95,111515,1,6,0:0:0:0:
217,79,111785,1,2,0:0:0:0:
230,66,112056,5,10,0:0:0:0:
309,230,112191,1,8,0:0:0:0:
288,29,112326,1,6,0:0:0:0:
275,15,112596,1,6,0:0:0:0:
260,6,112866,1,10,0:0:0:0:
216,191,113002,1,8,0:0:0:0:
376,66,113137,22,0,P|409:75|435:95,1,67.5000025749207,6|0,0:0|0:0,0:0:0:0:
448,127,113407,1,0,0:0:0:0:
334,153,113542,1,2,0:0:0:0:
413,240,113677,2,0,L|427:301,1,45.0000017166138
313,347,113948,2,0,L|302:303,1,45.0000017166138,2|0,0:0|0:0,0:0:0:0:
334,153,114218,6,0,P|306:116|176:131,1,180.000006866455,12|0,0:0|0:0,0:0:0:0:
165,153,115029,1,0,0:0:0:0:
155,188,115299,22,0,P|123:200|89:200,1,67.5000025749207,2|0,0:0|0:0,0:0:0:0:
59,187,115569,1,0,0:0:0:0:
0,288,115704,1,2,0:0:0:0:
118,288,115840,2,0,L|167:270,1,45.0000017166138
241,369,116110,2,0,L|290:351,1,45.0000017166138,2|0,0:0|0:0,0:0:0:0:
310,212,116380,6,0,P|302:166|180:118,1,180.000006866455,12|0,0:0|0:0,0:0:0:0:
163,136,117191,1,0,0:0:0:0:
142,165,117461,22,0,P|113:182|80:188,1,67.5000025749207,2|0,0:0|0:0,0:0:0:0:
47,180,117732,1,0,0:0:0:0:
2,72,117867,1,2,0:0:0:0:
118,87,118002,2,0,L|164:52,1,45.0000017166138
277,86,118272,2,0,L|241:113,1,45.0000017166138,2|0,0:0|0:0,0:0:0:0:
164,240,118542,6,0,P|185:280|316:286,1,180.000006866455,12|0,0:0|0:0,0:0:0:0:
332,268,119353,1,0,0:0:0:0:
346,235,119623,22,0,P|346:201|334:170,1,67.5000025749207,2|0,0:0|0:0,0:0:0:0:
311,145,119894,1,0,0:0:0:0:
427,161,120029,1,2,0:0:0:0:
383,53,120164,2,0,L|356:12,1,45.0000017166138
217,29,120434,2,0,L|241:66,1,45.0000017166138
346,235,120704,6,0,P|315:264|257:271,1,90,8|0,0:0|0:0,0:0:0:0:
279,196,120974,2,0,P|300:156|298:112,1,90
225,138,121244,21,0,0:0:0:0:
211,161,121515,1,0,0:0:0:0:
309,42,121650,1,0,0:0:0:0:
279,196,121786,6,0,P|257:221|227:236,1,67.5000025749207,2|0,0:0|0:0,0:0:0:0:
194,237,122056,1,0,0:0:0:0:
262,332,122191,1,2,0:0:0:0:
145,343,122326,2,0,L|96:313,1,45.0000017166138
89,195,122596,2,0,L|127:218,1,45.0000017166138,2|0,0:0|0:0,0:0:0:0:
262,332,122867,22,0,P|307:338|389:235,1,180.000006866455,12|0,0:0|0:0,0:0:0:0:
380,213,123677,1,0,0:0:0:0:
362,182,123948,6,0,P|383:156|413:141,1,67.5000025749207,2|0,0:0|0:0,0:0:0:0:
447,141,124218,1,0,0:0:0:0:
463,25,124353,1,2,0:0:0:0:
355,69,124488,2,0,L|325:26,1,45.0000017166138
285,151,124759,2,0,L|259:114,1,45.0000017166138,2|0,0:0|0:0,0:0:0:0:
263,306,125029,22,0,P|305:306|353:272,1,90,8|0,0:0|0:0,0:0:0:0:
285,230,125299,2,0,P|242:215|213:181,1,90
285,151,125569,5,0,0:0:0:0:
311,158,125840,1,0,0:0:0:0:
243,31,125975,1,0,0:0:0:0:
138,177,126110,22,0,P|142:210|160:238,1,67.5000025749207,2|0,0:0|0:0,0:0:0:0:
183,264,126380,1,0,0:0:0:0:
228,156,126515,1,2,0:0:0:0:
300,248,126650,2,0,L|353:263,1,45.0000017166138
429,167,126921,2,0,L|385:154,1,45.0000017166138,2|0,0:0|0:0,0:0:0:0:
228,156,127191,5,4,0:0:0:0:
160,238,127732,1,0,0:0:0:0:
217,296,128002,1,2,0:0:0:0:
228,156,128272,22,0,P|196:135|123:138,1,90,2|0,0:0|0:0,0:0:0:0:
129,138,128542,1,8,0:0:0:0:
306,25,128677,1,8,0:0:0:0:
113,146,128813,1,8,0:0:0:0:
336,218,128948,1,8,0:0:0:0:
97,155,129083,1,14,0:0:0:0:
81,163,129353,5,8,0:0:0:0:
155,360,129488,1,8,0:0:0:0:
228,156,129623,1,6,0:0:0:0:
223,139,129894,2,0,P|198:189|205:249,1,90,10|0,0:0|0:0,0:0:0:0:
212,265,130164,1,8,0:0:0:0:
166,79,130299,1,8,0:0:0:0:
287,286,130434,22,0,P|231:341|142:297,2,180,2|2|2,0:0|0:0|0:0,0:0:0:0:
297,130,131515,2,0,B|294:101|285:87|268:78|260:73|252:65|251:52|250:35|254:21|261:13|270:8|275:3|282:0|292:0|302:0|308:0|315:0|326:4|331:10|337:15|339:22|341:29|344:40|344:45|344:55|343:59|342:64|341:66|340:69|338:73,1,240,8|0,0:0|0:0,0:0:0:0:
342,56,132596,6,0,P|262:50|210:132,2,180,2|2|2,0:0|0:0|0:0,0:0:0:0:
416,172,133677,2,0,B|437:213|486:218|486:218|430:217|395:287|447:343,1,240,8|0,0:0|0:0,0:0:0:0:
490,285,134488,1,2,0:0:0:0:
484,141,134759,22,0,P|431:99|344:158,2,180,6|2|2,0:0|0:0|0:0,0:0:0:0:
345,236,135840,2,0,B|289:234|237:190|266:142|209:99|172:101|139:137,1,240,8|0,0:0|0:0,0:0:0:0:
156,122,136921,6,0,P|181:89|311:122,2,180,2|2|2,0:0|0:0|0:0,0:0:0:0:
102,294,138002,2,0,B|91:327|66:333|38:319|24:294|23:271|30:249|45:232|66:216|86:210|111:215|128:221|141:229|149:236|154:242|159:253,1,240,8|0,0:0|0:0,0:0:0:0:
156,246,138813,1,2,0:0:0:0:
93,97,138948,1,2,0:0:0:0:
165,262,139083,22,0,P|192:292|319:248,2,180,6|2|2,0:0|0:0|0:0,0:0:0:0:
311,179,140164,2,0,B|336:178|352:183|366:193|375:204|387:213|395:221|391:236|391:250|399:255|416:260|431:260|440:261|450:252|461:241|465:227|465:210|438:180,1,240,8|0,0:0|0:0,0:0:0:0:
441,183,141245,6,0,P|411:266|312:307,2,180,2|2|2,0:0|0:0|0:0,0:0:0:0:
343,61,142326,2,0,B|305:39|256:53|235:98|235:98|181:90|168:44|189:-2,1,240,8|0,0:0|0:0,0:0:0:0:
305,128,143137,1,2,0:0:0:0:
183,276,143407,22,0,P|117:218|128:109,2,180,6|2|2,0:0|0:0|0:0,0:0:0:0:
361,202,144488,2,0,B|399:162|440:189|447:238|414:280|360:294|302:261|299:219,1,240,8|0,0:0|0:0,0:0:0:0:
304,236,145569,6,0,P|379:266|426:183,2,180,2|2|2,0:0|0:0|0:0,0:0:0:0:
302,88,146650,2,0,B|243:41|197:96|194:96|192:96|150:143|81:81,1,240,8|0,0:0|0:0,0:0:0:0:
68,71,147461,1,8,0:0:0:0:
255,149,147596,1,8,0:0:0:0:
36,136,147732,22,0,P|-4:64|65:-2,2,180,2|2|2,0:0|0:0|0:0,0:0:0:0:
262,147,148813,2,0,B|314:153|316:223|276:222|272:222|268:222|233:233|208:302|278:344,1,240,8|0,0:0|0:0,0:0:0:0:
267,336,149894,6,0,P|331:311|400:213,2,180,2|2|2,0:0|0:0|0:0,0:0:0:0:
206,186,150975,2,0,B|172:145|194:83|244:47|282:81|306:97|355:47,1,240,8|0,0:0|0:0,0:0:0:0:
354,41,151786,1,2,0:0:0:0:
215,5,151921,1,2,0:0:0:0:
261,146,152056,22,0,P|258:230|177:248,2,180,6|2|2,0:0|0:0|0:0,0:0:0:0:
102,217,153137,2,0,B|90:260|101:284|125:310|125:310|66:322|22:285|7:232,1,240,8|0,0:0|0:0,0:0:0:0:
13,249,154218,6,0,P|75:307|169:286,2,180,6|2|2,0:0|0:0|0:0,0:0:0:0:
203,219,155299,2,0,B|250:243|248:283|249:288|252:298|260:336|316:328|316:328|316:297|330:268|353:258,1,240,8|4,0:0|0:0,0:0:0:0:
357,259,156110,1,2,0:0:0:0:
246,158,156245,1,2,0:0:0:0:
374,252,156380,22,0,P|413:173|380:81,2,180,6|2|2,0:0|0:0|0:0,0:0:0:0:
240,89,157461,2,0,B|229:62|250:48|249:18|228:3|196:-5|170:1|154:14|150:35|156:56|165:70|163:83|157:98|148:111|131:117|111:122,1,240,8|0,0:0|0:0,0:0:0:0:
128,116,158542,6,0,P|167:182|289:195,2,180,2|2|2,0:0|0:0|0:0,0:0:0:0:
296,132,159623,2,0,B|331:142|345:163|339:205|365:222|401:220|426:200|438:176|440:152|426:132|406:121|391:115,1,240,8|0,0:0|0:0,0:0:0:0:
262,204,160434,1,2,0:0:0:0:
385,326,160704,22,0,P|439:321|491:196,2,180,6|2|2,0:0|0:0|0:0,0:0:0:0:
262,204,161786,2,0,B|238:172|196:142|153:151|132:186|110:193|90:194|62:188|37:172,1,240,8|0,0:0|0:0,0:0:0:0:
42,175,162867,6,0,P|49:253|146:276,2,180,2|2|0,0:0|0:0|0:0,0:0:0:0:
48,161,163745,1,2,0:0:0:0:
54,147,163813,1,2,0:0:0:0:
61,134,163880,1,2,0:0:0:0:
88,97,163948,21,14,0:0:0:0:
88,97,165029,5,6,0:0:0:0:
159,152,165164,1,2,0:0:0:0:
247,170,165299,2,0,P|276:130|294:74,1,90.0000034332277,2|2,0:0|0:0,0:0:0:0:
156,237,165569,21,10,0:0:0:0:
244,257,165704,1,2,0:0:0:0:
324,215,165840,2,0,P|353:175|371:119,1,90.0000034332277,2|2,0:0|0:0,0:0:0:0:
284,327,166110,5,2,0:0:0:0:
401,260,166245,2,0,P|430:220|448:164,1,90.0000034332277,2|2,0:0|0:0,0:0:0:0:
322,338,166515,21,2,0:0:0:0:
425,251,166650,2,0,P|446:206|454:148,1,90.0000034332277,10|2,0:0|0:0,0:0:0:0:
361,341,166921,5,2,0:0:0:0:
447,237,167056,2,0,P|460:189|458:130,1,90.0000034332277,2|2,0:0|0:0,0:0:0:0:
400,337,167326,21,2,0:0:0:0:
466,219,167461,2,0,P|471:169|458:112,1,90.0000034332277,2|2,0:0|0:0,0:0:0:0:
437,325,167732,5,10,0:0:0:0:
481,197,167867,2,0,P|477:147|455:93,1,90.0000034332277,2|2,0:0|0:0,0:0:0:0:
386,35,168137,1,2,0:0:0:0:
321,203,168272,22,0,P|273:234|214:240,1,90.0000034332277,6|2,0:0|0:0,0:0:0:0:
147,145,168542,2,0,P|195:114|254:108,1,90.0000034332277,2|2,0:0|0:0,0:0:0:0:
307,301,168813,2,0,P|256:315|211:311,1,90.0000034332277,14|2,0:0|0:0,0:0:0:0:
161,47,169083,2,0,P|212:33|257:37,1,90.0000034332277,2|2,0:0|0:0,0:0:0:0:
397,293,169353,5,6,0:0:0:0:
307,301,169488,1,2,0:0:0:0:
239,239,169623,2,0,P|229:196|230:151,1,90.0000034332277,2|2,0:0|0:0,0:0:0:0:
397,293,169894,21,10,0:0:0:0:
464,233,170029,1,2,0:0:0:0:
466,143,170164,2,0,P|438:100|393:63,1,90.0000034332277,2|2,0:0|0:0,0:0:0:0:
333,227,170434,5,2,0:0:0:0:
170,246,170569,2,0,P|158:196|163:139,1,90.0000034332277,2|2,0:0|0:0,0:0:0:0:
323,236,170840,21,2,0:0:0:0:
160,255,170975,2,0,P|144:206|144:148,1,90.0000034332277,10|2,0:0|0:0,0:0:0:0:
313,245,171245,5,2,0:0:0:0:
150,264,171380,2,0,P|129:217|124:159,1,90.0000034332277,2|2,0:0|0:0,0:0:0:0:
303,254,171650,21,2,0:0:0:0:
140,273,171785,2,0,P|115:228|105:171,1,90.0000034332277,2|2,0:0|0:0,0:0:0:0:
293,263,172056,5,10,0:0:0:0:
130,282,172191,2,0,P|105:237|95:180,1,90.0000034332277,2|2,0:0|0:0,0:0:0:0:
163,82,172461,1,0,0:0:0:0:
283,272,172596,21,2,0:0:0:0:
174,191,172732,1,2,0:0:0:0:
330,147,172867,2,0,P|369:167|403:218,1,90.0000034332277,6|2,0:0|0:0,0:0:0:0:
300,354,173137,5,2,0:0:0:0:
254,199,173272,1,2,0:0:0:0:
415,280,173407,2,0,P|460:253|478:207,1,90.0000034332277,6|2,0:0|0:0,0:0:0:0:
370,64,173677,21,6,0:0:0:0:
330,147,173813,1,2,0:0:0:0:
254,199,173948,2,0,P|210:187|171:165,1,90.0000034332277,2|2,0:0|0:0,0:0:0:0:
330,147,174218,5,10,0:0:0:0:
337,238,174353,1,2,0:0:0:0:
300,321,174488,2,0,P|254:327|210:322,1,90.0000034332277,2|2,0:0|0:0,0:0:0:0:
240,116,174759,21,2,0:0:0:0:
413,187,174894,2,0,P|429:235|429:293,1,90.0000034332277,2|2,0:0|0:0,0:0:0:0:
227,120,175164,5,2,0:0:0:0:
409,159,175299,2,0,P|434:204|444:261,1,90.0000034332277,10|2,0:0|0:0,0:0:0:0:
214,126,175569,21,2,0:0:0:0:
401,133,175704,2,0,P|434:173|454:227,1,90.0000034332277,2|2,0:0|0:0,0:0:0:0:
204,134,175975,5,2,0:0:0:0:
389,109,176110,2,0,P|428:142|457:193,1,90.0000034332277,2|2,0:0|0:0,0:0:0:0:
194,144,176380,21,10,0:0:0:0:
373,87,176515,2,0,P|417:113|454:158,1,90.0000034332277,2|2,0:0|0:0,0:0:0:0:
391,286,176786,1,2,0:0:0:0:
266,110,176921,6,0,P|228:71|156:75,1,90.0000034332277,6|2,0:0|0:0,0:0:0:0:
239,266,177191,2,0,P|277:305|349:301,1,90.0000034332277,2|2,0:0|0:0,0:0:0:0:
343,108,177461,2,0,P|327:62|293:22,1,90.0000034332277,14|2,0:0|0:0,0:0:0:0:
162,268,177732,2,0,P|178:314|212:354,1,90.0000034332277,2|2,0:0|0:0,0:0:0:0:
407,170,178002,21,6,0:0:0:0:
343,108,178137,1,2,0:0:0:0:
255,125,178272,2,0,P|231:169|222:227,1,90.0000034332277,2|2,0:0|0:0,0:0:0:0:
343,108,178542,5,10,0:0:0:0:
279,46,178677,1,2,0:0:0:0:
191,63,178812,2,0,P|160:102|142:158,1,90.0000034332277,2|2,0:0|0:0,0:0:0:0:
310,312,179083,21,2,0:0:0:0:
414,160,179218,2,0,P|381:129|342:107,1,90.0000034332277,2|2,0:0|0:0,0:0:0:0:
299,298,179488,5,2,0:0:0:0:
423,156,179623,2,0,P|396:119|361:91,1,90.0000034332277,10|2,0:0|0:0,0:0:0:0:
288,286,179894,21,2,0:0:0:0:
432,153,180029,2,0,P|412:112|382:79,1,90.0000034332277,2|2,0:0|0:0,0:0:0:0:
277,274,180299,5,2,0:0:0:0:
441,154,180434,2,0,P|436:109|419:67,1,90.0000034332277,2|2,0:0|0:0,0:0:0:0:
266,262,180704,21,10,0:0:0:0:
451,156,180840,2,0,P|453:111|444:67,1,90.0000034332277,2|2,0:0|0:0,0:0:0:0:
269,30,181110,1,2,0:0:0:0:
360,236,181245,5,10,0:0:0:0:
161,97,181380,1,10,0:0:0:0:
218,314,181515,2,0,P|257:333|314:316,1,90.0000034332277,6|2,0:0|0:0,0:0:0:0:
306,89,181786,21,10,0:0:0:0:
150,287,181921,1,10,0:0:0:0:
113,46,182056,2,0,P|152:27|211:47,1,90.0000034332277,6|2,0:0|0:0,0:0:0:0:
269,240,182326,5,6,0:0:0:0:
301,324,182461,1,2,0:0:0:0:
388,348,182596,2,0,P|428:328|462:299,1,90.0000034332277,2|2,0:0|0:0,0:0:0:0:
269,240,182867,21,14,0:0:0:0:
194,288,183002,1,2,0:0:0:0:
109,259,183137,2,0,P|87:219|77:175,1,90.0000034332277,2|2,0:0|0:0,0:0:0:0:
247,116,183407,5,2,0:0:0:0:
269,240,183542,2,0,P|229:273|175:293,1,90.0000034332277,2|2,0:0|0:0,0:0:0:0:
237,108,183813,21,2,0:0:0:0:
277,237,183948,2,0,P|244:276|194:306,1,90.0000034332277,10|2,0:0|0:0,0:0:0:0:
227,100,184218,5,2,0:0:0:0:
284,232,184353,2,0,P|258:277|215:315,1,90.0000034332277,2|2,0:0|0:0,0:0:0:0:
217,92,184623,21,2,0:0:0:0:
291,227,184759,2,0,P|273:275|237:320,1,90.0000034332277,2|2,0:0|0:0,0:0:0:0:
207,84,185029,5,10,0:0:0:0:
296,220,185164,2,0,P|287:271|259:321,1,90.0000034332277,2|2,0:0|0:0,0:0:0:0:
121,331,185434,1,2,0:0:0:0:
258,153,185569,22,0,P|301:143|366:182,1,90.0000034332277,6|2,0:0|0:0,0:0:0:0:
221,222,185840,2,0,P|178:232|113:193,1,90.0000034332277,2|2,0:0|0:0,0:0:0:0:
283,72,186110,2,0,P|331:76|381:97,1,90.0000034332277,14|2,0:0|0:0,0:0:0:0:
196,303,186380,2,0,P|148:299|98:278,1,90.0000034332277,2|2,0:0|0:0,0:0:0:0:
343,157,186650,5,6,0:0:0:0:
367,244,186786,1,2,0:0:0:0:
329,325,186921,2,0,P|285:348|227:358,1,90.0000034332277,2|2,0:0|0:0,0:0:0:0:
239,152,187191,21,10,0:0:0:0:
283,72,187326,1,2,0:0:0:0:
367,42,187461,2,0,P|414:56|462:90,1,90.0000034332277,2|2,0:0|0:0,0:0:0:0:
295,232,187732,5,2,0:0:0:0:
170,115,187867,2,0,P|189:67|227:23,1,90.0000034332277,2|2,0:0|0:0,0:0:0:0:
304,201,188137,21,2,0:0:0:0:
160,107,188272,2,0,P|170:56|200:7,1,90.0000034332277,10|2,0:0|0:0,0:0:0:0:
307,168,188542,5,2,0:0:0:0:
149,101,188677,2,0,P|150:49|171:-4,1,90.0000034332277,2|2,0:0|0:0,0:0:0:0:
304,136,188948,21,2,0:0:0:0:
137,97,189083,2,0,P|129:46|140:-10,1,90.0000034332277,2|2,0:0|0:0,0:0:0:0:
296,104,189353,5,10,0:0:0:0:
125,95,189488,2,0,P|109:46|110:-11,1,90.0000034332277,2|2,0:0|0:0,0:0:0:0:
282,73,189759,1,2,0:0:0:0:
76,164,189894,21,2,0:0:0:0:
202,36,190029,1,2,0:0:0:0:
211,225,190164,2,0,P|245:266|304:275,1,90.0000034332277,6|2,0:0|0:0,0:0:0:0:
429,250,190434,5,2,0:0:0:0:
298,373,190569,1,2,0:0:0:0:
262,169,190704,2,0,P|211:150|156:172,1,90.0000034332277,6|2,0:0|0:0,0:0:0:0:
209,363,190975,21,6,0:0:0:0:
298,373,191110,1,2,0:0:0:0:
375,326,191245,2,0,P|396:286|406:242,1,90.0000034332277,2|2,0:0|0:0,0:0:0:0:
211,225,191515,5,10,0:0:0:0:
300,219,191650,1,2,0:0:0:0:
368,159,191785,2,0,P|382:116|384:71,1,90.0000034332277,2|2,0:0|0:0,0:0:0:0:
189,88,192056,21,2,0:0:0:0:
312,97,192191,2,0,P|312:52|301:8,1,90.0000034332277,2|2,0:0|0:0,0:0:0:0:
179,118,192461,5,0,0:0:0:0:
303,92,192596,2,0,P|299:47|284:5,1,90.0000034332277,10|2,0:0|0:0,0:0:0:0:
169,148,192867,21,0,0:0:0:0:
285,85,193002,2,0,P|274:42|252:3,1,90.0000034332277,2|2,0:0|0:0,0:0:0:0:
159,178,193272,5,0,0:0:0:0:
266,82,193407,2,0,P|247:41|219:6,1,90.0000034332277,2|2,0:0|0:0,0:0:0:0:
149,208,193677,21,8,0:0:0:0:
247,82,193813,2,0,P|221:45|187:15,1,90.0000034332277,2|2,0:0|0:0,0:0:0:0:
70,152,194083,1,2,0:0:0:0:
267,260,194218,6,0,P|324:257|375:228,1,90.0000034332277,6|2,0:0|0:0,0:0:0:0:
291,151,194488,2,0,P|233:153|182:182,1,90.0000034332277,2|2,0:0|0:0,0:0:0:0:
311,329,194759,2,0,P|363:316|411:288,1,90.0000034332277,14|2,0:0|0:0,0:0:0:0:
247,82,195029,2,0,P|195:95|147:123,1,90.0000034332277,2|2,0:0|0:0,0:0:0:0:
228,364,195299,21,2,0:0:0:0:
311,329,195434,1,2,0:0:0:0:
344,245,195569,2,0,P|341:200|328:157,1,90.0000034332277,2|2,0:0|0:0,0:0:0:0:
184,295,195840,5,2,0:0:0:0:
101,260,195975,1,2,0:0:0:0:
68,176,196110,2,0,P|70:131|83:88,1,90.0000034332277,2|2,0:0|0:0,0:0:0:0:
256,232,196380,21,2,0:0:0:0:
159,359,196515,2,0,P|114:350|74:331,1,90.0000034332277,2|2,0:0|0:0,0:0:0:0:
259,238,196786,5,2,0:0:0:0:
141,346,196921,2,0,P|99:330|62:304,1,90.0000034332277,10|2,0:0|0:0,0:0:0:0:
260,244,197191,21,2,0:0:0:0:
125,330,197326,2,0,P|86:307|54:275,1,90.0000034332277,2|2,0:0|0:0,0:0:0:0:
260,250,197597,5,2,0:0:0:0:
112,311,197732,2,0,P|77:281|52:244,1,90.0000034332277,2|2,0:0|0:0,0:0:0:0:
259,256,198002,21,10,0:0:0:0:
103,291,198137,2,0,P|74:256|55:215,1,90.0000034332277,2|2,0:0|0:0,0:0:0:0:
199,106,198407,1,2,0:0:0:0:
285,333,198542,5,10,0:0:0:0:
108,154,198677,1,10,0:0:0:0:
338,204,198813,2,0,P|356:247|345:295,1,90.0000034332277,6|2,0:0|0:0,0:0:0:0:
103,291,199083,21,10,0:0:0:0:
267,100,199218,1,10,0:0:0:0:
285,333,199353,2,0,P|319:360|364:364,1,90.0000034332277,6|2,0:0|0:0,0:0:0:0:
382,127,199623,6,0,P|261:107|337:203,1,315.000012016297,6|0,0:0|0:0,0:0:0:0:
317,141,200164,2,0,P|310:263|398:180,1,300.300004123993,6|0,0:0|0:0,0:0:0:0:
336,203,200704,21,2,0:0:0:0:
384,330,200840,1,2,0:0:0:0:
478,177,200975,2,0,L|431:71,1,90.0000034332277,12|0,0:0|0:0,0:0:0:0:
279,236,201245,2,0,L|315:318,1,90.0000034332277,12|0,0:0|0:0,0:0:0:0:
401,191,201515,1,2,0:0:0:0:
168,171,201650,6,0,L|92:239,1,90.0000034332277,12|0,0:0|0:0,0:0:0:0:
315,318,201921,2,0,L|382:257,1,90.0000034332277,12|0,0:0|0:0,0:0:0:0:
294,122,202191,1,2,0:0:0:0:
156,322,202326,22,0,L|61:344,1,90.0000034332277,12|0,0:0|0:0,0:0:0:0:
87,109,202596,2,0,L|174:88,1,90.0000034332277,12|0,0:0|0:0,0:0:0:0:
279,236,202867,6,0,P|236:263|181:249,1,107.999996704102,2|0,0:0|0:0,0:0:0:0:
168,171,203137,1,6,0:0:0:0:
168,171,203677,21,10,0:0:0:0:
146,178,203744,1,10,0:0:0:0:
128,191,203812,1,10,0:0:0:0:
114,208,203879,1,10,0:0:0:0:
105,229,203947,5,8,0:0:0:0:
9,180,204083,1,8,0:0:0:0:
118,274,204218,21,8,0:0:0:0:
19,261,204354,1,2,0:0:0:0:
143,312,204488,5,2,0:0:0:0:
55,332,204624,1,2,0:0:0:0:
252,344,204759,21,6,0:0:0:0:
183,250,204894,1,2,0:0:0:0:
356,300,205029,5,6,0:0:0:0:
418,235,205164,1,2,0:0:0:0:
406,146,205299,1,2,0:0:0:0:
313,114,205434,2,0,P|358:114|425:137,1,90.0000034332277,2|2,0:0|0:0,0:0:0:0:
342,226,205704,2,0,P|297:226|230:203,1,90.0000034332277,2|2,0:0|0:0,0:0:0:0:
214,104,205975,1,2,0:0:0:0:
110,204,206110,21,10,0:0:0:0:
135,290,206245,1,0,0:0:0:0:
223,309,206380,1,2,0:0:0:0:
253,214,206515,2,0,P|253:258|229:325,1,90.0000034332277,2|2,0:0|0:0,0:0:0:0:
110,204,206786,1,2,0:0:0:0:
271,148,206921,1,2,0:0:0:0:
271,148,207056,1,2,0:0:0:0:
80,114,207191,5,6,0:0:0:0:
80,114,207326,1,2,0:0:0:0:
251,64,207461,2,0,P|273:107|269:150,1,90.0000034332277,2|2,0:0|0:0,0:0:0:0:
290,64,207732,2,0,P|292:108|271:147,1,90.0000034332277,2|2,0:0|0:0,0:0:0:0:
319,80,208001,1,10,0:0:0:0:
152,150,208137,1,10,0:0:0:0:
383,182,208272,22,0,P|412:243|386:304,1,135.000005149841,6|0,0:0|0:0,0:0:0:0:
323,322,208542,1,8,0:0:0:0:
474,144,208677,1,8,0:0:0:0:
334,244,208813,5,8,0:0:0:0:
319,80,208948,1,8,0:0:0:0:
383,182,209083,21,2,0:0:0:0:
269,147,209218,1,2,0:0:0:0:
426,79,209353,5,2,0:0:0:0:
455,211,209488,1,2,0:0:0:0:
319,80,209623,2,0,L|225:30,1,90.0000034332277,12|0,0:0|0:0,0:0:0:0:
243,279,209894,2,0,L|322:321,1,90.0000034332277,12|0,0:0|0:0,0:0:0:0:
383,182,210164,1,0,0:0:0:0:
156,236,210299,22,0,L|165:352,1,90.0000034332277,12|0,0:0|0:0,0:0:0:0:
389,271,210569,2,0,L|382:181,1,90.0000034332277,12|0,0:0|0:0,0:0:0:0:
299,51,210840,1,2,0:0:0:0:
156,236,210975,6,0,L|51:214,1,90.0000034332277,12|0,0:0|0:0,0:0:0:0:
153,0,211245,2,0,L|241:18,1,90.0000034332277,12|0,0:0|0:0,0:0:0:0:
382,181,211515,22,0,P|340:209|285:203,1,107.999996704102,2|0,0:0|0:0,0:0:0:0:
236,143,211786,1,6,0:0:0:0:
236,143,212326,5,10,0:0:0:0:
255,131,212393,1,10,0:0:0:0:
276,125,212461,1,10,0:0:0:0:
299,125,212528,1,10,0:0:0:0:
320,133,212596,21,8,0:0:0:0:
306,25,212732,1,8,0:0:0:0:
366,156,212867,5,2,0:0:0:0:
387,59,213003,1,2,0:0:0:0:
436,231,213137,21,4,0:0:0:0:
436,231,213272,1,4,0:0:0:0:
284,202,213407,5,10,0:0:0:0:
440,157,213542,1,10,0:0:0:0:
340,273,213677,21,6,0:0:0:0:
250,285,213813,1,2,0:0:0:0:
195,214,213948,1,2,0:0:0:0:
198,115,214083,2,0,P|211:157|210:228,1,90.0000034332277,2|2,0:0|0:0,0:0:0:0:
100,177,214353,2,0,P|86:134|87:63,1,90.0000034332277,2|2,0:0|0:0,0:0:0:0:
203,27,214623,1,2,0:0:0:0:
284,202,214759,5,10,0:0:0:0:
374,207,214894,1,2,0:0:0:0:
428,135,215029,1,2,0:0:0:0:
375,50,215164,2,0,P|409:78|447:138,1,90.0000034332277,2|2,0:0|0:0,0:0:0:0:
408,274,215434,1,2,0:0:0:0:
334,120,215569,1,2,0:0:0:0:
334,120,215704,1,2,0:0:0:0:
333,319,215840,21,6,0:0:0:0:
333,319,215975,1,2,0:0:0:0:
241,139,216110,2,0,P|211:182|211:222,1,90.0000034332277,2|2,0:0|0:0,0:0:0:0:
204,133,216380,2,0,P|194:184|211:220,1,90.0000034332277,2|2,0:0|0:0,0:0:0:0:
167,143,216650,1,10,0:0:0:0:
340,226,216786,1,10,0:0:0:0:
174,62,216921,6,0,P|109:88|97:182,1,135.000005149841,6|0,0:0|0:0,0:0:0:0:
116,207,217191,1,8,0:0:0:0:
38,6,217326,1,8,0:0:0:0:
167,143,217461,21,8,0:0:0:0:
2,98,217596,1,8,0:0:0:0:
174,62,217732,5,2,0:0:0:0:
87,145,217867,1,2,0:0:0:0:
278,94,218002,21,6,0:0:0:0:
304,208,218137,1,2,0:0:0:0:
386,291,218272,2,0,P|436:306|499:301,1,90.0000034332277,2|2,0:0|0:0,0:0:0:0:
450,173,218542,2,0,P|400:157|337:162,1,90.0000034332277,10|2,0:0|0:0,0:0:0:0:
314,275,218813,1,2,0:0:0:0:
226,161,218948,6,0,P|233:116|253:76,1,90.0000034332277,2|2,0:0|0:0,0:0:0:0:
391,72,219218,2,0,P|383:116|363:156,1,90.0000034332277,2|2,0:0|0:0,0:0:0:0:
251,235,219488,1,2,0:0:0:0:
124,72,219623,22,0,P|165:40|225:22,1,90.0000034332277,10|2,0:0|0:0,0:0:0:0:
226,161,219893,2,0,P|184:192|124:210,1,90.0000034332277,2|2,0:0|0:0,0:0:0:0:
10,163,220164,5,2,0:0:0:0:
2,280,220299,1,2,0:0:0:0:
104,337,220434,2,0,P|148:342|192:334,1,90.0000034332277,2|2,0:0|0:0,0:0:0:0:
237,204,220704,2,0,P|192:197|148:204,1,90.0000034332277,10|2,0:0|0:0,0:0:0:0:
266,304,220975,1,2,0:0:0:0:
372,177,221110,22,0,P|355:135|327:100,1,90.0000034332277,2|2,0:0|0:0,0:0:0:0:
190,128,221380,2,0,P|207:169|236:203,1,90.0000034332277,2|2,0:0|0:0,0:0:0:0:
370,256,221650,1,2,0:0:0:0:
241,340,221786,6,0,P|196:333|156:313,1,90.0000034332277,10|2,0:0|0:0,0:0:0:0:
152,175,222056,2,0,P|196:183|236:203,1,90.0000034332277,2|2,0:0|0:0,0:0:0:0:
406,129,222326,21,6,0:0:0:0:
326,44,222461,1,2,0:0:0:0:
212,69,222596,2,0,P|169:85|134:113,1,90.0000034332277,2|2,0:0|0:0,0:0:0:0:
159,248,222866,2,0,P|200:231|235:203,1,90.0000034332277,2|2,0:0|0:0,0:0:0:0:
389,198,223137,1,2,0:0:0:0:
243,275,223272,6,0,P|191:265|139:231,1,90.0000034332277,2|2,0:0|0:0,0:0:0:0:
242,137,223542,2,0,P|292:148|345:181,1,90.0000034332277,2|2,0:0|0:0,0:0:0:0:
390,296,223813,1,2,0:0:0:0:
463,152,223948,22,0,P|450:108|426:70,1,90.0000034332277,10|2,0:0|0:0,0:0:0:0:
288,85,224218,2,0,P|300:128|325:165,1,90.0000034332277,2|2,0:0|0:0,0:0:0:0:
457,259,224488,5,0,0:0:0:0:
417,369,224623,1,0,0:0:0:0:
300,380,224759,2,0,P|256:365|220:338,1,90.0000034332277,2|2,0:0|0:0,0:0:0:0:
241,202,225029,2,0,P|282:217|318:244,1,90.0000034332277,2|2,0:0|0:0,0:0:0:0:
181,286,225299,1,2,0:0:0:0:
126,133,225434,22,0,P|130:88|146:46,1,90.0000034332277,2|2,0:0|0:0,0:0:0:0:
284,33,225704,2,0,P|280:78|263:119,1,90.0000034332277,2|2,0:0|0:0,0:0:0:0:
150,210,225975,1,0,0:0:0:0:
341,177,226110,6,0,L|358:48,1,107.999996704102,14|2,0:0|0:0,0:0:0:0:
65,45,226380,2,0,L|50:152,1,107.999996704102,14|2,0:0|0:0,0:0:0:0:
201,320,226650,21,6,0:0:0:0:
315,291,226786,1,2,0:0:0:0:
341,177,226921,2,0,P|336:132|320:90,1,90.0000034332277,2|2,0:0|0:0,0:0:0:0:
182,77,227191,2,0,P|186:121|203:162,1,90.0000034332277,10|2,0:0|0:0,0:0:0:0:
360,242,227461,1,0,0:0:0:0:
449,91,227596,6,0,P|413:62|372:44,1,90.0000034332277,2|2,0:0|0:0,0:0:0:0:
264,131,227866,2,0,P|297:159|338:176,1,90.0000034332277,2|2,0:0|0:0,0:0:0:0:
289,31,228137,1,2,0:0:0:0:
203,162,228272,22,0,P|171:193|131:214,1,90.0000034332277,10|2,0:0|0:0,0:0:0:0:
19,138,228542,2,0,P|50:106|90:84,1,90.0000034332277,2|2,0:0|0:0,0:0:0:0:
264,131,228813,5,2,0:0:0:0:
290,245,228948,1,2,0:0:0:0:
375,325,229083,2,0,P|418:337|463:337,1,90.0000034332277,2|2,0:0|0:0,0:0:0:0:
436,202,229353,2,0,P|393:188|348:188,1,90.0000034332277,10|2,0:0|0:0,0:0:0:0:
255,309,229623,1,2,0:0:0:0:
137,181,229759,22,0,P|129:136|133:92,1,90.0000034332277,2|2,0:0|0:0,0:0:0:0:
262,42,230029,2,0,P|269:86|263:130,1,90.0000034332277,2|2,0:0|0:0,0:0:0:0:
176,256,230299,1,2,0:0:0:0:
331,327,230434,6,0,P|375:323|415:305,1,90.0000034332277,10|2,0:0|0:0,0:0:0:0:
434,167,230704,2,0,P|389:171|346:188,1,90.0000034332277,2|2,0:0|0:0,0:0:0:0:
255,309,230975,21,2,0:0:0:0:
139,326,231110,1,0,0:0:0:0:
35,272,231245,2,0,P|12:233|1:189,1,90.0000034332277,2|2,0:0|0:0,0:0:0:0:
104,98,231515,2,0,P|126:136|136:180,1,90.0000034332277,10|2,0:0|0:0,0:0:0:0:
271,233,231786,1,2,0:0:0:0:
380,112,231921,6,0,P|353:75|318:47,1,90.0000034332277,2|2,0:0|0:0,0:0:0:0:
190,104,232191,2,0,P|215:140|250:167,1,90.0000034332277,2|2,0:0|0:0,0:0:0:0:
403,187,232461,1,2,0:0:0:0:
280,301,232596,22,0,P|235:300|191:288,1,90.0000034332277,10|2,0:0|0:0,0:0:0:0:
164,154,232867,2,0,P|208:154|251:167,1,90.0000034332277,2|2,0:0|0:0,0:0:0:0:
381,292,233137,5,2,0:0:0:0:
483,235,233272,1,0,0:0:0:0:
480,118,233407,2,0,P|456:79|424:48,1,90.0000034332277,2|2,0:0|0:0,0:0:0:0:
289,93,233677,2,0,P|311:131|343:161,1,90.0000034332277,10|2,0:0|0:0,0:0:0:0:
489,11,233948,21,10,0:0:0:0:
414,223,234083,1,10,0:0:0:0:
311,23,234218,6,0,P|245:35|217:101,1,135.000005149841,2|0,0:0|0:0,0:0:0:0:
251,155,234488,1,8,0:0:0:0:
81,22,234623,1,0,0:0:0:0:
66,221,234759,21,10,0:0:0:0:
136,75,234894,1,10,0:0:0:0:
160,217,235029,5,2,0:0:0:0:
73,126,235164,1,2,0:0:0:0:
43,304,235299,21,6,0:0:0:0:
121,349,235434,1,0,0:0:0:0:
211,352,235569,2,0,P|246:324|274:289,1,90.0000034332277,2|2,0:0|0:0,0:0:0:0:
160,217,235840,5,10,0:0:0:0:
178,128,235975,1,0,0:0:0:0:
236,60,236110,2,0,P|279:51|324:54,1,90.0000034332277,2|2,0:0|0:0,0:0:0:0:
417,179,236380,21,2,0:0:0:0:
269,142,236515,2,0,P|244:97|234:40,1,90.0000034332277,2|2,0:0|0:0,0:0:0:0:
427,161,236786,5,2,0:0:0:0:
274,163,236921,2,0,P|239:126|214:73,1,90.0000034332277,10|2,0:0|0:0,0:0:0:0:
432,141,237191,21,2,0:0:0:0:
284,182,237326,2,0,P|240:155|203:111,1,90.0000034332277,2|2,0:0|0:0,0:0:0:0:
431,120,237597,5,2,0:0:0:0:
300,198,237732,2,0,P|251:183|203:150,1,90.0000034332277,2|2,0:0|0:0,0:0:0:0:
425,100,238002,21,10,0:0:0:0:
318,210,238137,2,0,P|267:208|212:188,1,90.0000034332277,2|2,0:0|0:0,0:0:0:0:
157,73,238407,1,2,0:0:0:0:
101,233,238542,6,0,P|127:283|175:318,1,90.0000034332277,6|2,0:0|0:0,0:0:0:0:
280,269,238812,2,0,P|253:218|205:183,1,90.0000034332277,2|2,0:0|0:0,0:0:0:0:
63,324,239083,2,0,P|100:361|141:380,1,90.0000034332277,14|2,0:0|0:0,0:0:0:0:
316,177,239353,2,0,P|278:139|237:120,1,90.0000034332277,2|2,0:0|0:0,0:0:0:0:
205,358,239623,21,6,0:0:0:0:
294,374,239759,1,2,0:0:0:0:
381,350,239894,2,0,P|406:312|420:270,1,90.0000034332277,2|2,0:0|0:0,0:0:0:0:
280,269,240164,5,10,0:0:0:0:
194,237,240300,1,2,0:0:0:0:
131,173,240435,2,0,P|127:128|136:84,1,90.0000034332277,2|2,0:0|0:0,0:0:0:0:
281,189,240704,21,2,0:0:0:0:
203,311,240840,2,0,P|152:304|99:280,1,90.0000034332277,2|2,0:0|0:0,0:0:0:0:
280,184,241110,5,2,0:0:0:0:
224,318,241246,2,0,P|173:321|116:306,1,90.0000034332277,10|2,0:0|0:0,0:0:0:0:
278,180,241515,21,2,0:0:0:0:
246,321,241651,2,0,P|196:333|138:328,1,90.0000034332277,2|2,0:0|0:0,0:0:0:0:
276,176,241921,5,2,0:0:0:0:
269,321,242056,2,0,P|222:341|164:347,1,90.0000034332277,2|2,0:0|0:0,0:0:0:0:
273,173,242326,21,10,0:0:0:0:
291,317,242462,2,0,P|248:345|192:360,1,90.0000034332277,2|2,0:0|0:0,0:0:0:0:
122,245,242732,1,0,0:0:0:0:
284,250,242867,5,2,0:0:0:0:
158,332,243002,1,0,0:0:0:0:
205,149,243137,2,0,P|229:115|301:105,1,90.0000034332277,6|2,0:0|0:0,0:0:0:0:
370,230,243407,21,2,0:0:0:0:
197,234,243542,1,2,0:0:0:0:
337,136,243677,2,0,P|346:92|328:52,1,90.0000034332277,6|2,0:0|0:0,0:0:0:0:
135,169,243948,5,6,0:0:0:0:
197,234,244083,1,2,0:0:0:0:
285,258,244218,2,0,P|329:249|369:229,1,90.0000034332277,2|2,0:0|0:0,0:0:0:0:
197,234,244488,21,10,0:0:0:0:
220,321,244623,1,2,0:0:0:0:
307,345,244759,2,0,P|351:336|391:316,1,90.0000034332277,2|2,0:0|0:0,0:0:0:0:
427,159,245029,5,2,0:0:0:0:
266,170,245164,2,0,P|271:220|294:274,1,90.0000034332277,2|2,0:0|0:0,0:0:0:0:
402,141,245434,21,2,0:0:0:0:
245,179,245569,2,0,P|259:228|291:276,1,90.0000034332277,10|2,0:0|0:0,0:0:0:0:
374,127,245840,5,2,0:0:0:0:
226,192,245975,2,0,P|248:238|288:280,1,90.0000034332277,2|2,0:0|0:0,0:0:0:0:
344,118,246245,21,2,0:0:0:0:
209,208,246380,2,0,P|239:249|285:284,1,90.0000034332277,2|2,0:0|0:0,0:0:0:0:
313,115,246651,5,10,0:0:0:0:
196,226,246786,2,0,P|232:261|285:287,1,90.0000034332277,2|2,0:0|0:0,0:0:0:0:
237,103,247056,1,2,0:0:0:0:
231,348,247191,22,0,P|275:355|328:325,1,90.0000034332277,6|2,0:0|0:0,0:0:0:0:
179,151,247461,2,0,P|140:173|119:230,1,90.0000034332277,2|2,0:0|0:0,0:0:0:0:
375,378,247732,2,0,P|387:330|354:278,1,90.0000034332277,14|2,0:0|0:0,0:0:0:0:
49,220,248002,2,0,P|70:264|129:283,1,90.0000034332277,2|2,0:0|0:0,0:0:0:0:
313,115,248272,5,6,0:0:0:0:
394,153,248407,1,2,0:0:0:0:
462,212,248542,2,0,P|460:256|446:299,1,90.0000034332277,2|2,0:0|0:0,0:0:0:0:
315,190,248813,21,10,0:0:0:0:
223,180,248948,1,2,0:0:0:0:
135,198,249083,2,0,P|114:237|104:281,1,90.0000034332277,2|2,0:0|0:0,0:0:0:0:
279,256,249353,5,2,0:0:0:0:
240,108,249488,2,0,P|188:105|132:119,1,90.0000034332277,2|2,0:0|0:0,0:0:0:0:
269,250,249759,21,2,0:0:0:0:
255,95,249894,2,0,P|205:83|146:88,1,90.0000034332277,10|2,0:0|0:0,0:0:0:0:
259,244,250164,5,2,0:0:0:0:
272,84,250299,2,0,P|224:63|166:58,1,90.0000034332277,2|2,0:0|0:0,0:0:0:0:
249,238,250569,21,2,0:0:0:0:
290,76,250704,2,0,P|247:48|190:32,1,90.0000034332277,2|2,0:0|0:0,0:0:0:0:
239,232,250975,5,10,0:0:0:0:
310,72,251110,2,0,P|272:37|219:11,1,90.0000034332277,2|2,0:0|0:0,0:0:0:0:
99,117,251380,1,2,0:0:0:0:
317,173,251515,21,10,0:0:0:0:
135,41,251650,1,10,0:0:0:0:
186,287,251786,2,0,P|227:308|301:279,1,96,6|2,0:0|0:0,0:0:0:0:
390,81,252056,5,10,0:0:0:0:
452,321,252191,1,10,0:0:0:0:
241,180,252326,2,0,P|259:123|326:97,1,107.999996704102,6|2,0:0|0:0,0:0:0:0:
382,315,252596,21,6,0:0:0:0:
227,300,252731,1,2,0:0:0:0:
317,173,252866,2,0,P|375:160|457:179,1,120,2|2,0:0|0:0,0:0:0:0:
335,373,253136,5,10,0:0:0:0:
195,273,253271,1,2,0:0:0:0:
350,201,253406,2,0,P|413:221|480:284,1,120,2|2,0:0|0:0,0:0:0:0:
248,375,253677,21,2,0:0:0:0:
287,185,253812,1,2,0:0:0:0:
430,315,253947,1,2,0:0:0:0:
229,376,254082,5,10,0:0:0:0:
293,169,254217,1,2,0:0:0:0:
440,327,254352,1,2,0:0:0:0:
155,244,254487,21,6,0:0:0:0:
75,377,254622,1,2,0:0:0:0:
229,376,254757,2,0,P|272:335|304:257,1,120,2|2,0:0|0:0,0:0:0:0:
98,203,255028,5,10,0:0:0:0:
94,373,255163,1,2,0:0:0:0:
241,287,255298,2,0,P|260:224|247:133,1,120,2|2,0:0|0:0,0:0:0:0:
36,121,255568,21,2,0:0:0:0:
134,280,255704,1,2,0:0:0:0:
225,111,255839,1,2,0:0:0:0:
14,121,255974,5,10,0:0:0:0:
145,294,256109,1,2,0:0:0:0:
229,96,256244,1,2,0:0:0:0:
70,304,256379,21,6,0:0:0:0:
216,352,256514,1,2,0:0:0:0:
180,203,256649,2,0,P|130:170|47:156,1,120,2|2,0:0|0:0,0:0:0:0:
128,373,256920,5,10,0:0:0:0:
293,337,257055,1,2,0:0:0:0:
176,215,257190,2,0,P|110:211|24:243,1,120,2|2,0:0|0:0,0:0:0:0:
293,337,257460,21,2,0:0:0:0:
230,152,257596,1,2,0:0:0:0:
103,296,257731,1,2,0:0:0:0:
308,336,257866,5,10,0:0:0:0:
224,137,258001,1,2,0:0:0:0:
93,309,258136,1,2,0:0:0:0:
342,192,258271,21,6,0:0:0:0:
456,293,258406,1,2,0:0:0:0:
308,336,258541,2,0,P|254:309|201:244,1,120,2|2,0:0|0:0,0:0:0:0:
408,168,258812,5,10,0:0:0:0:
460,326,258947,1,2,0:0:0:0:
296,285,259082,2,0,P|260:230|245:138,1,120,2|2,0:0|0:0,0:0:0:0:
428,239,259352,21,14,0:0:0:0:
280,114,259487,1,2,0:0:0:0:
460,49,259623,1,2,0:0:0:0:
421,255,259758,5,14,0:0:0:0:
268,102,259893,1,2,0:0:0:0:
477,46,260028,1,2,0:0:0:0:
222,173,260163,21,6,0:0:0:0:
260,25,260298,1,2,0:0:0:0:
365,137,260433,2,0,P|365:196|331:273,1,120,2|2,0:0|0:0,0:0:0:0:
172,121,260704,5,10,0:0:0:0:
289,0,260839,1,2,0:0:0:0:
328,165,260974,2,0,P|295:221|220:276,1,120,2|2,0:0|0:0,0:0:0:0:
136,36,261244,21,2,0:0:0:0:
324,69,261379,1,2,0:0:0:0:
200,216,261514,1,2,0:0:0:0:
131,18,261649,5,10,0:0:0:0:
340,74,261785,1,2,0:0:0:0:
187,227,261920,1,2,0:0:0:0:
295,0,262055,21,6,0:0:0:0:
421,90,262190,1,2,0:0:0:0:
280,155,262325,2,0,P|223:137|161:79,1,120,2|2,0:0|0:0,0:0:0:0:
371,3,262596,5,10,0:0:0:0:
441,158,262731,1,2,0:0:0:0:
271,142,262866,2,0,P|226:93|199:5,1,120,2|2,0:0|0:0,0:0:0:0:
469,46,263136,21,2,0:0:0:0:
357,203,263271,1,2,0:0:0:0:
275,27,263406,1,2,0:0:0:0:
484,48,263541,5,10,0:0:0:0:
345,215,263677,1,2,0:0:0:0:
271,11,263812,1,2,0:0:0:0:
457,214,263947,21,6,0:0:0:0:
328,301,264082,1,2,0:0:0:0:
315,146,264217,2,0,P|351:98|426:60,1,120,2|2,0:0|0:0,0:0:0:0:
427,288,264487,5,10,0:0:0:0:
256,299,264622,1,2,0:0:0:0:
329,145,264757,2,0,P|389:119|481:124,1,120,2|2,0:0|0:0,0:0:0:0:
316,350,265028,21,2,0:0:0:0:
249,168,265163,1,2,0:0:0:0:
439,203,265298,1,2,0:0:0:0:
302,361,265433,5,10,0:0:0:0:
246,151,265568,1,2,0:0:0:0:
454,207,265704,1,2,0:0:0:0:
182,191,265839,21,6,0:0:0:0:
150,343,265974,1,2,0:0:0:0:
298,294,266109,2,0,P|327:242|333:158,1,120,2|2,0:0|0:0,0:0:0:0:
115,197,266379,5,10,0:0:0:0:
168,359,266514,1,2,0:0:0:0:
282,231,266649,2,0,P|281:165|240:82,1,120,2|2,0:0|0:0,0:0:0:0:
64,271,266920,21,14,0:0:0:0:
263,305,267055,1,2,0:0:0:0:
193,113,267190,1,2,0:0:0:0:
53,286,267325,5,14,0:0:0:0:
281,305,267460,1,2,0:0:0:0:
183,99,267596,1,2,0:0:0:0:
111,353,267731,21,14,0:0:0:0:
1,205,267866,1,2,0:0:0:0:
183,182,268001,2,0,L|284:284,1,132.00000402832,2|2,0:0|0:0,0:0:0:0:
27,307,268271,5,14,0:0:0:0:
38,103,268406,1,2,0:0:0:0:
209,212,268541,2,0,L|221:369,1,132.00000402832,2|2,0:0|0:0,0:0:0:0:
19,168,268812,21,14,0:0:0:0:
227,148,268947,1,2,0:0:0:0:
139,339,269082,1,2,0:0:0:0:
23,102,269217,5,14,0:0:0:0:
259,123,269352,1,2,0:0:0:0:
124,317,269487,1,2,0:0:0:0:
155,35,269623,21,14,0:0:0:0:
334,77,269758,1,2,0:0:0:0:
209,212,269893,2,0,L|66:198,1,132.00000402832,2|2,0:0|0:0,0:0:0:0:
267,36,270163,5,14,0:0:0:0:
388,197,270298,1,2,0:0:0:0:
186,223,270433,2,0,L|74:110,1,132.00000402832,2|2,0:0|0:0,0:0:0:0:
372,109,270704,21,14,0:0:0:0:
241,274,270839,1,2,0:0:0:0:
162,79,270974,1,2,0:0:0:0:
412,164,271109,5,14,0:0:0:0:
234,323,271244,1,2,0:0:0:0:
186,91,271379,1,2,0:0:0:0:
423,259,271514,21,14,0:0:0:0:
512,98,271649,1,2,0:0:0:0:
329,99,271784,2,0,L|241:212,1,132.00000402832,2|2,0:0|0:0,0:0:0:0:
500,218,272055,5,14,2:0:0:0:
461,19,272190,1,2,2:0:0:0:
307,149,272325,2,0,L|313:306,1,132.00000402832,2|2,2:0|2:0,2:0:0:0:
498,92,272596,21,14,0:0:0:0:
286,79,272731,1,2,0:0:0:0:
382,268,272866,1,2,0:0:0:0:
483,24,273001,5,14,0:0:0:0:
247,53,273136,1,2,0:0:0:0:
390,243,273271,1,2,0:0:0:0:
306,0,273406,21,14,0:0:0:0:
134,65,273541,1,2,0:0:0:0:
274,182,273676,2,0,L|414:152,1,132.00000402832,2|2,0:0|0:0,0:0:0:0:
195,11,273947,5,14,0:0:0:0:
96,187,274082,1,2,0:0:0:0:
296,186,274217,2,0,L|392:61,1,132.00000402832,2|2,0:0|0:0,0:0:0:0:
107,81,274487,21,14,0:0:0:0:
242,242,274623,1,2,0:0:0:0:
314,44,274758,1,2,0:0:0:0:
72,148,274893,5,14,0:0:0:0:
254,300,275028,1,2,0:0:0:0:
295,66,275163,1,2,0:0:0:0:
135,308,275298,21,14,0:0:0:0:
8,172,275433,1,2,0:0:0:0:
185,130,275568,2,0,L|297:218,1,132.00000402832,2|2,0:0|0:0,0:0:0:0:
46,282,275839,5,14,0:0:0:0:
35,77,275974,1,2,0:0:0:0:
213,167,276109,2,0,L|245:321,1,132.00000402832,2|2,0:0|0:0,0:0:0:0:
25,144,276379,21,14,0:0:0:0:
230,102,276514,1,2,0:0:0:0:
160,302,276650,1,2,0:0:0:0:
17,80,276785,5,14,0:0:0:0:
253,74,276920,1,2,0:0:0:0:
137,284,277055,1,2,0:0:0:0:
69,29,277190,21,14,0:0:0:0:
11,205,277325,1,2,0:0:0:0:
188,169,277460,2,0,L|252:41,1,132.00000402832,2|2,0:0|0:0,0:0:0:0:
10,138,277731,5,14,0:0:0:0:
84,327,277866,1,2,0:0:0:0:
209,171,278001,2,0,L|173:17,1,132.00000402832,2|2,0:0|0:0,0:0:0:0:
39,266,278271,21,14,0:0:0:0:
246,227,278406,1,2,0:0:0:0:
110,66,278541,1,2,0:0:0:0:
72,329,278677,5,14,0:0:0:0:
295,245,278812,1,2,0:0:0:0:
113,92,278947,1,2,0:0:0:0:
243,337,279082,21,14,0:0:0:0:
380,213,279217,1,2,0:0:0:0:
207,155,279352,2,0,L|87:233,1,132.00000402832,2|2,0:0|0:0,0:0:0:0:
333,315,279623,5,14,0:0:0:0:
360,113,279758,1,2,0:0:0:0:
173,187,279893,2,0,L|127:337,1,132.00000402832,2|2,0:0|0:0,0:0:0:0:
380,184,280163,21,14,0:0:0:0:
181,111,280298,1,2,0:0:0:0:
218,319,280433,1,2,0:0:0:0:
383,114,280568,5,14,0:0:0:0:
149,72,280704,1,2,0:0:0:0:
230,296,280839,1,2,0:0:0:0:
345,30,280974,21,14,0:0:0:0:
478,154,281109,1,2,0:0:0:0:
306,209,281244,2,0,L|187:128,1,132.00000402832,2|2,0:0|0:0,0:0:0:0:
440,73,281514,5,14,0:0:0:0:
464,271,281649,1,2,0:0:0:0:
280,196,281784,2,0,L|236:44,1,132.00000402832,2|2,0:0|0:0,0:0:0:0:
473,203,282055,21,14,0:0:0:0:
270,263,282190,1,2,0:0:0:0:
318,57,282325,1,2,0:0:0:0:
456,281,282460,5,10,0:0:0:0:
220,309,282595,1,6,0:0:0:0:
312,90,282730,1,2,0:0:0:0:
419,346,282865,53,10,0:0:0:0:
187,148,283001,1,10,0:0:0:0:
404,212,283136,2,0,B|454:230|510:219|510:157|510:157|473:145|454:165|441:167|433:147|426:150|418:148|411:146|403:146|397:147|391:147|381:149|368:155|354:170,1,300
333,207,283541,5,6,0:0:0:0:
317,248,284217,1,4,0:0:0:0:
321,272,284757,1,4,0:0:0:0:
325,296,285298,6,0,P|296:318|221:308,1,112.500004291535
204,257,285703,1,2,0:0:0:0:
127,319,285838,1,0,0:0:0:0:
65,149,286379,22,0,P|92:111|144:89,1,90.0000034332277,12|4,0:0|0:0,0:0:0:0:
213,145,286784,1,2,0:0:0:0:
130,227,286919,5,4,0:0:0:0:
104,233,287190,1,6,0:0:0:0:
129,91,287325,1,0,0:0:0:0:
202,222,287460,22,0,P|255:210|287:123,1,150,6|0,0:0|0:0,0:0:0:0:
273,193,287865,2,0,B|320:208|346:168|350:168|354:168|378:145|404:153,1,135,6|0,0:0|0:0,0:0:0:0:
420,155,288541,5,4,0:0:0:0:
445,159,289082,1,4,0:0:0:0:
470,163,289622,22,0,P|414:76|320:138,1,225.000008583069,6|0,0:0|0:0,0:0:0:0:
326,178,290028,1,2,0:0:0:0:
256,84,290163,5,4,0:0:0:0:
261,66,290433,1,4,0:0:0:0:
395,151,290703,21,14,0:0:0:0:
399,174,290770,1,8,0:0:0:0:
396,198,290838,1,8,0:0:0:0:
386,219,290905,1,8,0:0:0:0:
369,236,290973,1,8,0:0:0:0:
348,247,291040,1,8,0:0:0:0:
324,251,291108,1,8,0:0:0:0:
301,246,291175,1,8,0:0:0:0:
280,235,291244,5,14,0:0:0:0:
265,237,291311,1,2,0:0:0:0:
251,242,291379,1,2,0:0:0:0:
238,250,291446,1,2,0:0:0:0:
227,261,291514,1,2,0:0:0:0:
219,273,291581,1,2,0:0:0:0:
213,287,291649,1,2,0:0:0:0:
211,302,291716,1,2,0:0:0:0:
211,317,291784,21,6,0:0:0:0:
211,317,292190,2,0,B|283:257|210:203|209:203|207:203|134:146|224:70,1,270
301,68,292865,5,8,0:0:0:0:
315,100,293406,1,0,0:0:0:0:
164,142,293946,22,0,P|138:60|213:1,2,180,6|2|0,0:0|0:0|0:0,0:0:0:0:
315,100,295028,2,0,P|399:118|412:212,2,180,14|2|2,0:0|0:0|0:0,0:0:0:0:
361,22,295974,1,2,0:0:0:0:
345,173,296109,6,0,P|260:154|239:91,1,150,6|0,0:0|0:0,0:0:0:0:
242,72,296514,2,0,B|227:106|199:122|197:122|195:122|171:135|152:173,1,135
166,230,297190,21,12,0:0:0:0:
186,245,297730,1,0,0:0:0:0:
206,260,298271,6,0,P|282:220|287:153,1,150,2|0,0:0|0:0,0:0:0:0:
259,115,298676,1,2,0:0:0:0:
161,184,298811,1,0,0:0:0:0:
129,44,299352,21,8,0:0:0:0:
133,20,299892,2,0,P|170:22|215:62,1,90
213,100,300163,1,2,0:0:0:0:
284,19,300298,1,2,0:0:0:0:
275,153,300433,6,0,P|211:182|136:127,1,150,6|0,0:0|0:0,0:0:0:0:
148,92,300838,1,0,0:0:0:0:
73,131,300974,1,0,0:0:0:0:
275,153,301514,21,8,0:0:0:0:
310,147,302055,2,0,P|296:112|244:81,1,90
209,88,302325,1,0,0:0:0:0:
282,21,302460,1,2,0:0:0:0:
235,158,302595,6,0,P|295:223|379:182,2,180,6|2|0,0:0|0:0|0:0,0:0:0:0:
382,117,303676,2,0,P|446:173|419:254,2,180,14|2|2,0:0|0:0|0:0,0:0:0:0:
484,100,304622,1,2,0:0:0:0:
371,194,304757,22,0,P|343:274|398:326,1,150,6|0,0:0|0:0,0:0:0:0:
418,254,305163,2,0,B|381:236|342:239|316:262|301:297|304:334|265:322|248:329|228:323,1,202.500007724762,6|0,0:0|0:0,0:0:0:0:
176,301,305838,5,8,0:0:0:0:
169,277,306379,1,0,0:0:0:0:
162,253,306919,22,0,P|131:322|221:369,2,180,6|2|0,0:0|0:0|0:0,0:0:0:0:
246,243,307865,1,0,0:0:0:0:
322,329,308001,6,8,P|364:340|434:289,1,120,8|0,0:0|0:0,0:0:0:0:
436,214,308406,1,0,0:0:0:0:
321,247,308541,2,0,P|309:205|335:150,1,90,4|0,0:0|0:0,0:0:0:0:
386,120,308811,21,8,0:0:0:0:
427,303,308946,1,0,0:0:0:0:
458,139,309082,6,0,P|450:83|330:71,1,179.999994506836,6|0,0:0|0:0,0:0:0:0:
316,133,309487,2,0,B|286:158|246:159|213:139|183:118|145:134|123:167|121:185,1,202.500007724762,6|0,0:0|0:0,0:0:0:0:
138,239,310163,21,8,0:0:0:0:
145,256,310433,1,0,0:0:0:0:
152,273,310703,2,0,P|102:312|62:304,1,105
116,346,311244,6,0,P|190:346|226:242,2,180,6|2|0,0:0|0:0|0:0,0:0:0:0:
179,196,312325,2,0,P|263:182|311:252,2,180,14|2|0,0:0|0:0|0:0,0:0:0:0:
210,98,313271,1,0,0:0:0:0:
231,259,313406,22,0,P|134:265|99:205,1,150,2|0,0:0|0:0,0:0:0:0:
179,196,313811,2,0,B|219:170|255:167|301:192|311:226|328:237|356:245|377:242,1,202.500007724762,2|0,0:0|0:0,0:0:0:0:
420,200,314487,5,8,0:0:0:0:
428,177,314757,1,0,0:0:0:0:
476,253,314892,1,0,0:0:0:0:
480,126,315028,2,0,P|426:104|379:124,1,105
356,186,315568,22,0,P|321:156|347:55,1,150,6|0,0:0|0:0,0:0:0:0:
384,119,315973,1,2,0:0:0:0:
241,87,316109,2,0,P|190:109|182:211,1,157.500006008148
241,265,316649,5,8,0:0:0:0:
270,273,316919,1,0,0:0:0:0:
175,292,317055,1,0,0:0:0:0:
280,203,317190,2,0,P|313:216|337:254,1,67.5000025749207
339,286,317460,21,2,0:0:0:0:
400,183,317595,1,2,0:0:0:0:
406,315,317730,6,0,P|347:358|273:316,1,150,6|0,0:0|0:0,0:0:0:0:
270,273,318136,1,2,0:0:0:0:
202,351,318271,2,0,B|160:348|140:328|137:295|114:264|90:255|73:253,1,157.500006008148
31,300,318811,21,8,0:0:0:0:
175,242,319352,2,0,B|152:212|134:198|117:191|72:180|66:152|64:117,1,157.500006008148,4|0,0:0|0:0,0:0:0:0:
136,119,319892,6,0,P|114:189|27:197,1,150,6|0,0:0|0:0,0:0:0:0:
65,135,320298,1,2,0:0:0:0:
109,267,320433,2,0,P|173:310|244:258,1,157.500006008148
264,148,320973,22,0,P|325:108|397:158,1,150,14|0,0:0|0:0,0:0:0:0:
328,181,321379,1,2,0:0:0:0:
266,51,321514,1,0,0:0:0:0:
273,16,321784,5,2,0:0:0:0:
207,109,321919,1,0,0:0:0:0:
378,70,322055,22,0,P|436:86|455:166,1,150,6|0,0:0|0:0,0:0:0:0:
328,181,322460,2,0,P|280:222|404:280,1,270,6|0,0:0|0:0,0:0:0:0:
396,210,323136,5,8,0:0:0:0:
382,174,323676,1,4,0:0:0:0:
368,137,324217,22,0,P|272:132|236:224,1,194.999991073609,6|0,0:0|0:0,0:0:0:0:
317,204,324622,2,0,P|256:129|164:164,1,194.999991073609,6|0,0:0|0:0,0:0:0:0:
233,211,325028,2,0,P|254:144|225:89,1,116.999994644165
172,153,325298,5,14,0:0:0:0:
155,178,325365,1,8,0:0:0:0:
149,207,325433,1,8,0:0:0:0:
153,236,325500,1,8,0:0:0:0:
167,263,325568,1,8,0:0:0:0:
189,283,325635,1,8,0:0:0:0:
217,294,325703,1,8,0:0:0:0:
246,294,325770,1,8,0:0:0:0:
275,285,325838,21,14,0:0:0:0:
280,261,325905,1,2,0:0:0:0:
292,240,325973,1,2,0:0:0:0:
309,223,326040,1,2,0:0:0:0:
329,211,326108,1,2,0:0:0:0:
352,204,326175,1,2,0:0:0:0:
376,204,326243,1,2,0:0:0:0:
400,209,326310,1,2,0:0:0:0:
421,221,326378,5,6,0:0:0:0:
446,128,326514,1,0,0:0:0:0:
335,83,326649,1,0,0:0:0:0:
437,239,326784,21,6,0:0:0:0:
476,113,326919,1,0,0:0:0:0:
322,43,327055,1,0,0:0:0:0:
447,261,327190,5,2,0:0:0:0:
408,61,327325,1,2,0:0:0:0:
367,295,327460,2,0,B|329:318|288:319|252:294|252:294|245:333|245:333|217:309|159:356,1,240,12|4,0:0|0:0,0:0:0:0:
160,366,328271,1,0,0:0:0:0:
189,256,328406,1,0,0:0:0:0:
77,341,328541,22,0,L|-6:258,1,90.0000034332277,6|0,0:0|0:0,0:0:0:0:
45,146,328811,1,0,0:0:0:0:
189,256,328946,6,0,L|282:211,1,90.0000034332277,2|4,0:0|0:0,0:0:0:0:
286,77,329217,1,0,0:0:0:0:
127,178,329352,22,0,L|111:275,1,90.0000034332277,2|2,0:0|0:0,0:0:0:0:
279,334,329622,1,12,0:0:0:0:
193,126,329757,6,0,L|226:34,1,90.0000034332277,2|0,0:0|0:0,0:0:0:0:
385,23,330028,1,2,0:0:0:0:
270,216,330163,21,6,0:0:0:0:
151,36,330298,1,0,0:0:0:0:
127,178,330433,1,2,0:0:0:0:
136,188,330500,1,10,0:0:0:0:
146,196,330568,1,10,0:0:0:0:
158,203,330635,1,10,0:0:0:0:
170,208,330703,6,0,P|208:137|296:118,1,150,6|0,0:0|0:0,0:0:0:0:
333,182,331109,2,0,B|385:227|475:177|413:103|371:135,1,180,2|2,0:0|0:0,0:0:0:0:
323,266,331784,21,12,0:0:0:0:
335,299,332325,1,4,0:0:0:0:
416,319,332595,5,2,0:0:0:0:
283,374,332730,1,2,0:0:0:0:
393,238,332865,22,0,P|335:191|266:218,1,150,6|0,0:0|0:0,0:0:0:0:
241,301,333271,2,0,P|167:338|89:263,1,180,2|2,0:0|0:0,0:0:0:0:
44,375,333811,1,2,0:0:0:0:
43,171,333946,5,12,0:0:0:0:
172,242,334082,1,2,0:0:0:0:
181,264,334352,1,2,0:0:0:0:
235,61,334487,1,12,0:0:0:0:
233,37,334757,1,8,0:0:0:0:
119,191,334892,1,8,0:0:0:0:
363,178,335028,22,0,P|400:148|420:85,1,90.0000034332277,6|0,0:0|0:0,0:0:0:0:
321,88,335298,2,0,P|284:118|264:181,1,90.0000034332277,0|2,0:0|0:0,0:0:0:0:
339,259,335568,6,0,P|381:260|422:240,1,83.9999974365235,4|0,0:0|0:0,0:0:0:0:
363,178,335838,2,0,P|321:177|280:197,1,83.9999974365235
275,308,336109,22,0,P|305:331|343:340,1,77.9999964294435,12|0,0:0|0:0,0:0:0:0:
339,259,336379,2,0,P|308:235|270:226,1,77.9999964294435
197,309,336649,6,0,P|207:344|230:372,1,71.9999978027344,4|0,0:0|0:0,0:0:0:0:
275,308,336919,2,0,P|264:273|242:245,1,71.9999978027344,2|0,0:0|0:0,0:0:0:0:
146,240,337190,21,6,0:0:0:0:
197,309,337325,1,0,0:0:0:0:
163,151,337460,1,0,0:0:0:0:
70,253,337595,1,2,0:0:0:0:
37,163,337730,5,4,0:0:0:0:
36,313,337865,1,0,0:0:0:0:
99,189,338001,1,2,0:0:0:0:
131,329,338136,1,2,0:0:0:0:
225,176,338271,21,12,0:0:0:0:
146,240,338406,1,0,0:0:0:0:
289,253,338541,1,0,0:0:0:0:
240,99,338676,1,0,0:0:0:0:
215,265,338811,5,6,0:0:0:0:
163,112,338946,1,0,0:0:0:0:
326,191,339082,1,10,0:0:0:0:
342,205,339149,1,10,0:0:0:0:
354,224,339217,1,10,0:0:0:0:
360,246,339284,1,10,0:0:0:0:
360,268,339352,22,0,P|428:316|506:225,1,194.999991073609,6|0,0:0|0:0,0:0:0:0:
431,239,339757,2,0,P|391:339|299:313,1,194.999991073609,6|0,0:0|0:0,0:0:0:0:
290,278,340163,1,2,0:0:0:0:
218,374,340298,1,2,0:0:0:0:
160,154,340433,5,8,0:0:0:0:
89,306,340568,1,0,0:0:0:0:
75,127,340703,1,0,0:0:0:0:
186,298,340838,1,0,0:0:0:0:
277,76,340973,22,0,P|332:66|412:118,1,135.000005149841,4|0,0:0|0:0,0:0:0:0:
410,120,341244,1,10,0:0:0:0:
417,141,341312,1,10,0:0:0:0:
419,163,341379,1,10,0:0:0:0:
417,186,341447,1,10,0:0:0:0:
409,207,341514,5,6,0:0:0:0:
417,243,341784,1,2,0:0:0:0:
282,154,341919,1,12,0:0:0:0:
289,118,342190,1,2,0:0:0:0:
156,239,342325,1,12,0:0:0:0:
186,62,342460,1,8,0:0:0:0:
261,258,342595,21,14,0:0:0:0:
251,286,342662,1,8,0:0:0:0:
233,310,342730,1,8,0:0:0:0:
210,329,342797,1,8,0:0:0:0:
182,340,342865,1,8,0:0:0:0:
152,343,342932,1,8,0:0:0:0:
123,338,343000,1,8,0:0:0:0:
96,325,343067,1,8,0:0:0:0:
74,305,343136,5,14,0:0:0:0:
83,283,343203,1,2,0:0:0:0:
88,259,343271,1,2,0:0:0:0:
88,235,343338,1,2,0:0:0:0:
82,212,343406,1,2,0:0:0:0:
72,190,343473,1,2,0:0:0:0:
57,172,343541,1,2,0:0:0:0:
38,157,343608,1,2,0:0:0:0:
17,146,343676,21,6,0:0:0:0:
133,33,343811,1,0,0:0:0:0:
133,33,343946,1,0,0:0:0:0:
163,212,344082,5,6,0:0:0:0:
76,81,344217,1,0,0:0:0:0:
76,81,344352,1,0,0:0:0:0:
0,244,344487,21,2,0:0:0:0:
154,106,344622,1,2,0:0:0:0:
107,325,344757,6,0,B|141:359|209:347|220:277|220:277|233:294|233:294|244:220|319:193|372:245,1,360.000013732911,12|4,0:0|0:0,0:0:0:0:
383,267,345568,1,0,0:0:0:0:
364,152,345703,1,0,0:0:0:0:
311,295,345838,22,0,P|385:344|459:256,1,194.999991073609,6|0,0:0|0:0,0:0:0:0:
439,167,346244,2,0,B|426:117|470:82|473:82|476:82|500:32|461:-20|387:8,1,233.999989288331,2|2,0:0|0:0,0:0:0:0:
364,152,346784,1,0,0:0:0:0:
262,4,346919,5,12,0:0:0:0:
243,199,347055,1,2,0:0:0:0:
253,234,347325,1,2,0:0:0:0:
113,88,347460,2,0,P|41:108|17:167,1,116.999994644165,12|0,0:0|0:0,0:0:0:0:
16,180,347730,1,10,0:0:0:0:
22,36,347865,1,10,0:0:0:0:
95,163,348001,22,0,P|169:141|175:42,2,180,6|2|2,0:0|0:0|0:0,0:0:0:0:
179,49,349082,2,0,B|241:35|291:75|293:75|295:75|343:112|411:101,1,240,6|4,0:0|0:0,0:0:0:0:
376,26,350163,6,0,P|333:68|347:155,1,135.000005149841,6|0,0:0|0:0,0:0:0:0:
408,101,350433,1,0,0:0:0:0:
403,182,350568,22,0,P|354:217|291:205,1,107.999996704102,2|0,0:0|0:0,0:0:0:0:
335,138,350838,1,0,0:0:0:0:
308,293,350973,6,0,P|250:264|231:208,1,125.999996154785
335,138,351244,1,12,0:0:0:0:
217,134,351379,22,0,P|175:157|154:212,1,99.0000030212403
231,209,351649,1,0,0:0:0:0:
159,289,351784,5,4,0:0:0:0:
82,213,351919,1,0,0:0:0:0:
36,331,352055,21,8,0:0:0:0:
69,124,352190,1,8,0:0:0:0:
117,359,352325,6,0,P|197:362|237:268,2,180,6|2|2,0:0|0:0|0:0,0:0:0:0:
154,201,353406,1,12,0:0:0:0:
171,170,353811,1,0,0:0:0:0:
188,139,354217,1,2,0:0:0:0:
229,239,354352,1,0,0:0:0:0:
257,98,354487,22,0,P|187:59|114:113,2,180,6|2|2,0:0|0:0|0:0,0:0:0:0:
293,200,355568,2,0,P|377:241|448:156,1,210,12|0,0:0|0:0,0:0:0:0:
419,112,356109,1,4,0:0:0:0:
364,158,356379,5,8,0:0:0:0:
376,200,356446,1,8,0:0:0:0:
364,243,356514,1,8,0:0:0:0:
332,274,356581,1,8,0:0:0:0:
289,283,356649,22,0,P|207:225|218:152,2,180,6|6|2,0:0|0:0|0:0,0:0:0:0:
292,127,357730,2,0,P|195:75|138:179,1,240,12|4,0:0|0:0,0:0:0:0:
157,216,358676,1,8,0:0:0:0:
152,49,358811,6,0,P|69:59|22:147,2,180,6|2|2,0:0|0:0|0:0,0:0:0:0:
262,207,359892,22,0,P|317:212|371:184,1,90,12|0,0:0|0:0,0:0:0:0:
384,167,360163,1,8,0:0:0:0:
317,353,360298,1,0,0:0:0:0:
299,122,360433,1,8,0:0:0:0:
305,99,360703,1,8,0:0:0:0:
202,282,360838,1,0,0:0:0:0:
436,229,360973,5,6,0:0:0:0:
458,141,361109,1,2,0:0:0:0:
437,54,361244,2,0,P|400:27|359:9,1,90.0000034332277,2|2,0:0|0:0,0:0:0:0:
351,189,361514,21,10,0:0:0:0:
287,253,361650,1,2,0:0:0:0:
202,282,361784,2,0,P|160:265|123:240,1,90.0000034332277,2|2,0:0|0:0,0:0:0:0:
264,158,362055,5,2,0:0:0:0:
369,269,362190,2,0,P|336:308|287:340,1,90.0000034332277,2|2,0:0|0:0,0:0:0:0:
245,157,362460,21,2,0:0:0:0:
368,248,362595,2,0,P|342:292|300:332,1,90.0000034332277,10|2,0:0|0:0,0:0:0:0:
226,159,362866,5,2,0:0:0:0:
363,227,363001,2,0,P|345:275|311:322,1,90.0000034332277,2|2,0:0|0:0,0:0:0:0:
207,164,363270,21,2,0:0:0:0:
354,208,363405,2,0,P|345:258|319:310,1,90.0000034332277,2|2,0:0|0:0,0:0:0:0:
190,172,363676,5,10,0:0:0:0:
342,189,363811,2,0,P|342:240|325:296,1,90.0000034332277,2|2,0:0|0:0,0:0:0:0:
165,289,364082,1,0,0:0:0:0:
267,141,364217,22,0,P|318:165|355:212,1,90.0000034332277,6|2,0:0|0:0,0:0:0:0:
312,317,364487,2,0,P|260:292|223:245,1,90.0000034332277,2|2,0:0|0:0,0:0:0:0:
359,99,364758,2,0,P|397:134|418:175,1,90.0000034332277,14|2,0:0|0:0,0:0:0:0:
222,358,365028,2,0,P|183:322|162:281,1,90.0000034332277,2|2,0:0|0:0,0:0:0:0:
431,243,365298,5,6,0:0:0:0:
423,333,365433,1,0,0:0:0:0:
342,371,365568,2,0,P|305:345|274:312,1,90.0000034332277,2|2,0:0|0:0,0:0:0:0:
431,243,365838,21,10,0:0:0:0:
482,168,365973,1,0,0:0:0:0:
445,87,366108,2,0,P|400:82|355:88,1,90.0000034332277,2|2,0:0|0:0,0:0:0:0:
357,252,366379,5,2,0:0:0:0:
501,255,366514,2,0,P|496:210|481:167,1,90.0000034332277,2|2,0:0|0:0,0:0:0:0:
347,247,366784,21,2,0:0:0:0:
477,295,366919,2,0,P|484:250|481:205,1,90.0000034332277,10|2,0:0|0:0,0:0:0:0:
337,242,367190,5,2,0:0:0:0:
443,327,367325,2,0,P|461:286|469:241,1,90.0000034332277,2|2,0:0|0:0,0:0:0:0:
327,237,367595,21,2,0:0:0:0:
402,349,367730,2,0,P|430:314|450:273,1,90.0000034332277,2|2,0:0|0:0,0:0:0:0:
317,232,368001,5,10,0:0:0:0:
356,360,368136,2,0,P|392:333|421:299,1,90.0000034332277,2|2,0:0|0:0,0:0:0:0:
364,158,368406,1,0,0:0:0:0:
243,291,368541,21,2,0:0:0:0:
182,161,368676,1,2,0:0:0:0:
317,232,368811,2,0,P|366:247|420:228,1,90.0000034332277,6|2,0:0|0:0,0:0:0:0:
451,92,369082,5,0,0:0:0:0:
512,271,369217,1,0,0:0:0:0:
364,158,369352,2,0,P|314:143|261:162,1,90.0000034332277,6|2,0:0|0:0,0:0:0:0:
157,308,369622,21,6,0:0:0:0:
70,287,369757,1,0,0:0:0:0:
17,214,369892,2,0,P|15:169|24:125,1,90.0000034332277,2|2,0:0|0:0,0:0:0:0:
130,232,370163,5,10,0:0:0:0:
219,219,370298,1,0,0:0:0:0:
278,151,370433,2,0,P|282:106|278:61,1,90.0000034332277,2|2,0:0|0:0,0:0:0:0:
156,154,370703,21,2,0:0:0:0:
269,282,370838,2,0,P|300:249|323:211,1,90.0000034332277,2|2,0:0|0:0,0:0:0:0:
162,181,371109,5,2,0:0:0:0:
304,276,371244,2,0,P|326:236|338:193,1,90.0000034332277,10|2,0:0|0:0,0:0:0:0:
168,208,371514,21,2,0:0:0:0:
336,261,371649,2,0,P|347:217|347:172,1,90.0000034332277,2|2,0:0|0:0,0:0:0:0:
174,235,371919,5,2,0:0:0:0:
363,238,372055,2,0,P|362:193|351:149,1,90.0000034332277,2|2,0:0|0:0,0:0:0:0:
180,262,372325,21,10,0:0:0:0:
383,209,372460,2,0,P|370:165|348:126,1,90.0000034332277,2|2,0:0|0:0,0:0:0:0:
208,100,372730,1,2,0:0:0:0:
180,262,372865,6,0,P|204:318|243:349,1,90.0000034332277,6|2,0:0|0:0,0:0:0:0:
289,249,373136,2,0,P|265:193|226:162,1,90.0000034332277,2|2,0:0|0:0,0:0:0:0:
116,296,373406,2,0,P|133:337|159:373,1,90.0000034332277,14|2,0:0|0:0,0:0:0:0:
353,215,373676,2,0,P|335:173|309:137,1,90.0000034332277,2|2,0:0|0:0,0:0:0:0:
224,337,373946,21,6,0:0:0:0:
300,288,374082,1,2,0:0:0:0:
353,215,374217,2,0,P|335:173|309:137,1,90.0000034332277,2|2,0:0|0:0,0:0:0:0:
370,332,374487,5,10,0:0:0:0:
424,259,374623,1,2,0:0:0:0:
449,173,374758,2,0,P|431:131|405:95,1,90.0000034332277,2|2,0:0|0:0,0:0:0:0:
271,212,375027,21,2,0:0:0:0:
196,99,375163,2,0,P|200:54|215:11,1,90.0000034332277,2|2,0:0|0:0,0:0:0:0:
247,234,375433,5,2,0:0:0:0:
203,105,375569,2,0,P|218:62|244:25,1,90.0000034332277,10|2,0:0|0:0,0:0:0:0:
218,249,375837,21,2,0:0:0:0:
209,113,375973,2,0,P|235:76|269:47,1,90.0000034332277,2|2,0:0|0:0,0:0:0:0:
186,256,376244,5,2,0:0:0:0:
212,122,376380,2,0,P|246:93|287:73,1,90.0000034332277,2|2,0:0|0:0,0:0:0:0:
153,254,376648,21,10,0:0:0:0:
213,132,376784,2,0,P|253:113|298:105,1,90.0000034332277,2|2,0:0|0:0,0:0:0:0:
306,286,377055,1,2,0:0:0:0:
129,148,377190,5,8,0:0:0:0:
215,365,377325,1,8,0:0:0:0:
371,158,377460,2,0,P|386:105|359:38,1,96,6|0,0:0|0:0,0:0:0:0:
133,21,377730,21,8,0:0:0:0:
313,207,377865,1,8,0:0:0:0:
44,172,378001,2,0,P|49:110|98:64,1,107.999996704102,6|2,0:0|0:0,0:0:0:0:
296,138,378271,5,14,0:0:0:0:
205,264,378406,1,2,0:0:0:0:
139,122,378541,2,0,P|156:65|214:3,1,120,2|2,0:0|0:0,0:0:0:0:
314,212,378811,21,14,0:0:0:0:
157,281,378946,1,2,0:0:0:0:
173,109,379081,2,0,P|221:64|309:37,1,120,2|2,0:0|0:0,0:0:0:0:
326,279,379352,5,14,0:0:0:0:
157,181,379487,1,2,0:0:0:0:
324,85,379622,1,2,0:0:0:0:
321,295,379757,21,14,0:0:0:0:
144,171,379892,1,2,0:0:0:0:
340,79,380027,1,2,0:0:0:0:
396,325,380162,5,14,0:0:0:0:
505,213,380297,1,2,0:0:0:0:
354,174,380432,2,0,P|301:201|250:268,1,120,2|2,0:0|0:0,0:0:0:0:
465,278,380703,21,14,0:0:0:0:
507,111,380838,1,2,0:0:0:0:
341,157,380973,2,0,P|305:212|294:303,1,120,2|2,0:0|0:0,0:0:0:0:
437,120,381243,5,14,0:0:0:0:
244,154,381379,1,2,0:0:0:0:
368,301,381514,1,2,0:0:0:0:
437,104,381649,21,14,0:0:0:0:
228,161,381784,1,2,0:0:0:0:
380,312,381919,1,2,0:0:0:0:
287,78,382054,5,14,0:0:0:0:
158,168,382189,1,2,0:0:0:0:
300,232,382324,2,0,P|356:214|418:156,1,120,2|2,0:0|0:0,0:0:0:0:
198,107,382595,21,14,0:0:0:0:
124,263,382730,1,2,0:0:0:0:
295,246,382865,2,0,P|339:197|366:109,1,120,2|2,0:0|0:0,0:0:0:0:
127,97,383135,5,14,0:0:0:0:
222,259,383271,1,2,0:0:0:0:
318,94,383406,1,2,0:0:0:0:
109,95,383541,21,14,0:0:0:0:
233,272,383676,1,2,0:0:0:0:
323,75,383811,1,2,0:0:0:0:
127,252,383946,5,14,0:0:0:0:
39,123,384081,1,2,0:0:0:0:
195,109,384216,2,0,P|242:144|281:220,1,120,2|2,0:0|0:0,0:0:0:0:
78,257,384487,21,14,0:0:0:0:
65,85,384622,1,2,0:0:0:0:
221,158,384757,2,0,P|246:218|241:311,1,120,2|2,0:0|0:0,0:0:0:0:
36,158,385027,5,14,0:0:0:0:
217,91,385162,1,2,0:0:0:0:
182,280,385298,1,2,0:0:0:0:
21,155,385433,21,14,0:0:0:0:
225,80,385568,1,2,0:0:0:0:
186,293,385703,1,2,0:0:0:0:
134,47,385838,5,14,0:0:0:0:
290,52,385973,1,2,0:0:0:0:
209,186,386108,2,0,P|152:204|68:192,1,120,2|2,0:0|0:0,0:0:0:0:
225,14,386379,21,14,0:0:0:0:
370,100,386514,1,2,0:0:0:0:
219,187,386649,2,0,P|154:173|81:116,1,120,2|2,0:0|0:0,0:0:0:0:
320,9,386919,5,14,0:0:0:0:
303,200,387054,1,2,0:0:0:0:
145,89,387189,1,2,0:0:0:0:
336,3,387325,21,14,0:0:0:0:
298,216,387460,1,2,0:0:0:0:
133,77,387595,1,2,0:0:0:0:
384,159,387730,5,14,0:0:0:0:
404,4,387865,1,2,0:0:0:0:
259,62,388000,2,0,P|233:115|233:199,1,120,2|2,0:0|0:0,0:0:0:0:
434,168,388271,21,14,0:0:0:0:
367,9,388406,1,2,0:0:0:0:
261,144,388541,2,0,P|265:209|312:289,1,120,2|2,0:0|0:0,0:0:0:0:
384,92,388811,5,14,0:0:0:0:
190,92,388946,1,2,0:0:0:0:
287,258,389081,1,2,0:0:0:0:
389,75,389216,21,14,0:0:0:0:
173,94,389352,1,2,0:0:0:0:
297,271,389487,1,2,0:0:0:0:
315,33,389622,5,14,0:0:0:0:
409,156,389757,1,2,0:0:0:0:
255,176,389892,2,0,P|205:142|163:69,1,120,2|2,0:0|0:0,0:0:0:0:
388,85,390162,21,14,0:0:0:0:
409,253,390297,1,2,0:0:0:0:
252,188,390432,2,0,P|223:129|223:36,1,120,2|2,0:0|0:0,0:0:0:0:
432,188,390703,5,14,0:0:0:0:
250,253,390838,1,2,0:0:0:0:
284,63,390973,1,2,0:0:0:0:
444,190,391108,21,14,0:0:0:0:
241,264,391243,1,2,0:0:0:0:
279,51,391379,1,2,0:0:0:0:
330,310,391514,5,14,0:0:0:0:
175,295,391649,1,2,0:0:0:0:
265,168,391784,2,0,P|323:155|405:174,1,120,2|2,0:0|0:0,0:0:0:0:
248,348,392054,21,14,0:0:0:0:
108,247,392189,1,2,0:0:0:0:
263,176,392324,2,0,P|325:195|393:258,1,120,2|2,0:0|0:0,0:0:0:0:
163,365,392595,5,14,0:0:0:0:
192,173,392730,1,2,0:0:0:0:
342,295,392865,1,2,0:0:0:0:
154,375,393000,21,14,0:0:0:0:
187,160,393135,1,2,0:0:0:0:
355,297,393271,1,2,0:0:0:0:
77,211,393406,5,14,0:0:0:0:
224,99,393541,1,2,0:0:0:0:
247,282,393676,2,0,L|145:382,1,132.00000402832,2|2,0:0|0:0,0:0:0:0:
139,112,393946,21,14,0:0:0:0:
323,120,394081,1,2,0:0:0:0:
223,275,394216,2,0,L|79:286,1,132.00000402832,2|2,0:0|0:0,0:0:0:0:
259,97,394487,5,14,0:0:0:0:
281,307,394622,1,2,0:0:0:0:
86,221,394757,1,2,0:0:0:0:
317,94,394892,21,14,0:0:0:0:
300,331,395027,1,2,0:0:0:0:
103,196,395162,1,2,0:0:0:0:
408,103,395298,5,14,0:0:0:0:
241,20,395433,1,2,0:0:0:0:
248,203,395568,2,0,L|365:284,1,132.00000402832,2|2,0:0|0:0,0:0:0:0:
330,42,395838,21,14,0:0:0:0:
130,90,395973,1,2,0:0:0:0:
265,239,396108,2,0,L|422:224,1,132.00000402832,2|2,0:0|0:0,0:0:0:0:
241,20,396379,5,14,0:0:0:0:
195,225,396514,1,2,0:0:0:0:
395,161,396649,1,2,0:0:0:0:
170,22,396784,21,14,0:0:0:0:
161,259,396919,1,2,0:0:0:0:
372,147,397054,1,2,0:0:0:0:
110,172,397189,5,14,0:0:0:0:
210,325,397324,1,2,0:0:0:0:
294,162,397459,2,0,L|232:32,1,132.00000402832,2|2,0:0|0:0,0:0:0:0:
123,283,397730,21,14,0:0:0:0:
315,341,397865,1,2,0:0:0:0:
270,144,398000,2,0,L|126:77,1,132.00000402832,2|2,0:0|0:0,0:0:0:0:
238,353,398271,5,14,0:0:0:0:
270,144,398406,1,2,0:0:0:0:
74,219,398541,1,2,0:0:0:0:
315,325,398676,21,14,0:0:0:0:
311,87,398811,1,2,0:0:0:0:
107,210,398946,1,2,0:0:0:0:
383,188,399081,5,14,0:0:0:0:
404,371,399216,1,2,0:0:0:0:
235,300,399351,2,0,L|198:161,1,132.00000402832,2|2,0:0|0:0,0:0:0:0:
451,206,399622,21,14,0:0:0:0:
339,375,399757,1,2,0:0:0:0:
247,195,399892,2,0,L|314:52,1,132.00000402832,2|2,0:0|0:0,0:0:0:0:
451,294,400162,5,14,0:0:0:0:
242,264,400298,1,2,0:0:0:0:
371,97,400433,1,2,0:0:0:0:
421,356,400568,21,14,0:0:0:0:
195,283,400703,1,2,0:0:0:0:
372,124,400838,1,2,0:0:0:0:
252,359,400973,5,14,0:0:0:0:
409,253,401108,1,2,0:0:0:0:
245,170,401243,2,0,L|115:231,1,132.00000402832,2|2,0:0|0:0,0:0:0:0:
376,315,401514,21,14,0:0:0:0:
433,113,401649,1,2,0:0:0:0:
236,159,401784,2,0,L|169:302,1,132.00000402832,2|2,0:0|0:0,0:0:0:0:
427,186,402054,5,14,0:0:0:0:
234,93,402189,1,2,0:0:0:0:
250,302,402325,1,2,0:0:0:0:
433,113,402460,21,14,0:0:0:0:
203,51,402595,1,2,0:0:0:0:
265,281,402730,1,2,0:0:0:0:
278,5,402865,5,14,0:0:0:0:
108,77,403000,1,2,0:0:0:0:
254,188,403135,2,0,L|392:150,1,132.00000402832,2|2,0:0|0:0,0:0:0:0:
149,24,403406,21,14,0:0:0:0:
56,204,403541,1,2,0:0:0:0:
259,195,403676,2,0,L|348:65,1,132.00000402832,2|2,0:0|0:0,0:0:0:0:
60,125,403946,5,14,0:0:0:0:
206,273,404081,1,2,0:0:0:0:
261,71,404216,1,2,0:0:0:0:
34,208,404352,21,14,0:0:0:0:
230,344,404487,1,2,0:0:0:0:
250,108,404622,1,2,0:0:0:0:
135,346,404757,5,14,0:0:0:0:
112,162,404892,1,2,0:0:0:0:
282,233,405027,2,0,L|318:371,1,132.00000402832,2|2,0:0|0:0,0:0:0:0:
68,231,405298,21,14,0:0:0:0:
178,59,405433,1,2,0:0:0:0:
271,239,405568,2,0,L|203:381,1,132.00000402832,2|2,0:0|0:0,0:0:0:0:
112,101,405838,5,14,0:0:0:0:
306,179,405973,1,2,0:0:0:0:
141,310,406108,1,2,0:0:0:0:
158,47,406243,21,14,0:0:0:0:
360,174,406379,1,2,0:0:0:0:
150,285,406514,1,2,0:0:0:0:
276,15,406649,5,14,0:0:0:0:
176,167,406784,1,2,0:0:0:0:
360,174,406919,2,0,L|451:63,1,132.00000402832,2|2,0:0|0:0,0:0:0:0:
167,63,407189,21,14,0:0:0:0:
190,261,407324,1,2,0:0:0:0:
350,137,407459,2,0,L|349:-20,1,132.00000402832,2|2,0:0|0:0,0:0:0:0:
107,168,407730,5,14,0:0:0:0:
304,239,407865,1,2,0:0:0:0:
269,32,408000,1,2,0:0:0:0:
103,237,408135,21,14,0:0:0:0:
336,278,408270,1,2,0:0:0:0:
255,55,408405,1,2,0:0:0:0:
121,313,408540,69,10,0:0:0:0:
353,95,408676,1,10,0:0:0:0:
73,160,408811,22,0,P|26:208|31:276,1,135.000005149841,6|0,0:0|0:0,0:0:0:0:
56,319,409081,1,2,0:0:0:0:
164,164,409216,1,2,0:0:0:0:
238,328,409892,21,12,0:0:0:0:
273,316,410432,1,4,0:0:0:0:
308,304,410973,6,0,P|313:237|265:188,1,135.000005149841,6|0,0:0|0:0,0:0:0:0:
216,181,411243,1,2,0:0:0:0:
399,134,411378,1,2,0:0:0:0:
236,54,412054,21,12,0:0:0:0:
201,48,412594,2,0,P|172:118|215:180,1,157.500006008148,6|0,0:0|0:0,0:0:0:0:
247,187,413135,6,0,P|182:205|152:266,1,135.000005149841,6|0,0:0|0:0,0:0:0:0:
160,316,413405,1,2,0:0:0:0:
100,137,413540,1,2,0:0:0:0:
235,271,414216,21,12,0:0:0:0:
269,278,414757,1,4,0:0:0:0:
303,285,415297,6,0,P|281:348|218:375,1,135.000005149841,6|0,0:0|0:0,0:0:0:0:
170,363,415567,1,2,0:0:0:0:
216,178,415703,1,2,0:0:0:0:
373,269,416378,21,12,0:0:0:0:
403,246,416919,1,4,0:0:0:0:
409,157,417189,5,8,0:0:0:0:
455,340,417324,1,8,0:0:0:0:
332,185,417459,22,0,P|335:119|385:77,1,135.000005149841,6|0,0:0|0:0,0:0:0:0:
441,77,417730,1,2,0:0:0:0:
262,17,417865,1,2,0:0:0:0:
332,185,418540,5,12,0:0:0:0:
324,219,419081,1,4,0:0:0:0:
316,253,419621,22,0,P|254:280|192:252,1,135.000005149841,6|0,0:0|0:0,0:0:0:0:
178,204,419892,1,2,0:0:0:0:
87,369,420027,1,2,0:0:0:0:
100,188,420703,6,0,P|140:134|209:130,1,135.000005149841,6|0,0:0|0:0,0:0:0:0:
246,164,420973,1,2,0:0:0:0:
144,5,421108,1,2,0:0:0:0:
178,204,421784,22,0,P|234:240|299:223,1,135.000005149841,6|0,0:0|0:0,0:0:0:0:
327,181,422054,1,2,0:0:0:0:
425,342,422189,1,2,0:0:0:0:
421,160,422865,5,12,0:0:0:0:
415,123,423405,2,0,P|346:92|281:131,1,157.500006008148,6|0,0:0|0:0,0:0:0:0:
275,163,423946,22,0,P|256:98|195:68,1,135.000005149841,6|0,0:0|0:0,0:0:0:0:
149,88,424216,1,2,0:0:0:0:
200,270,424351,1,2,0:0:0:0:
351,171,425027,5,12,0:0:0:0:
348,136,425567,1,4,0:0:0:0:
344,101,426108,22,0,P|302:175|346:248,1,180,14|0,0:0|0:0,0:0:0:0:
416,269,426378,1,2,0:0:0:0:
166,242,426513,1,2,0:0:0:0:
166,241,426918,6,0,P|123:167|37:169,1,180,14|0,0:0|0:0,0:0:0:0:
1,233,427189,1,2,0:0:0:0:
183,59,427324,1,2,0:0:0:0:
183,59,427729,22,0,P|247:115|328:85,1,180,14|0,0:0|0:0,0:0:0:0:
346,15,427999,1,2,0:0:0:0:
406,260,428135,1,0,0:0:0:0:
406,260,428540,6,0,P|364:186|408:113,1,180,14|0,0:0|0:0,0:0:0:0:
481,106,428810,1,2,0:0:0:0:
235,53,428945,1,2,0:0:0:0:
448,188,429080,22,0,P|490:262|446:335,1,180,14|0,0:0|0:0,0:0:0:0:
374,343,429350,1,2,0:0:0:0:
314,99,429485,1,2,0:0:0:0:
314,99,429891,6,0,P|246:150|168:115,1,180,14|0,0:0|0:0,0:0:0:0:
161,43,430161,1,2,0:0:0:0:
412,55,430296,1,2,0:0:0:0:
167,115,430431,22,0,P|116:183|151:261,1,180,14|0,0:0|0:0,0:0:0:0:
224,268,430701,1,2,0:0:0:0:
223,18,430836,1,2,0:0:0:0:
151,261,430972,6,0,P|74:300|3:251,1,180,14|0,0:0|0:0,0:0:0:0:
7,179,431242,1,2,0:0:0:0:
257,204,431377,1,2,0:0:0:0:
257,204,431782,22,0,P|229:122|288:59,1,180,14|0,0:0|0:0,0:0:0:0:
362,66,432053,1,2,0:0:0:0:
143,190,432188,1,2,0:0:0:0:
142,190,432593,6,0,P|192:260|154:337,1,180,14|0,0:0|0:0,0:0:0:0:
91,372,432863,1,2,0:0:0:0:
198,142,432999,1,2,0:0:0:0:
198,142,433404,22,0,P|283:149|330:78,1,180,14|0,0:0|0:0,0:0:0:0:
307,10,433674,1,2,0:0:0:0:
453,215,433809,1,2,0:0:0:0:
246,71,433944,6,0,P|160:63|113:134,1,180,14|0,0:0|0:0,0:0:0:0:
137,203,434214,1,2,0:0:0:0:
377,129,434349,1,2,0:0:0:0:
377,129,434755,22,0,P|318:191|345:273,1,180,14|0,0:0|0:0,0:0:0:0:
415,293,435025,1,2,0:0:0:0:
447,43,435160,1,2,0:0:0:0:
345,273,435295,6,0,P|259:277|214:204,1,180,14|0,0:0|0:0,0:0:0:0:
227,133,435565,1,2,0:0:0:0:
467,210,435700,1,2,0:0:0:0:
214,204,435836,22,0,P|145:255|157:340,1,180,14|0,0:0|0:0,0:0:0:0:
221,376,436106,1,2,0:0:0:0:
118,146,436241,1,2,0:0:0:0:
117,146,436646,6,0,P|150:66|235:56,1,180,14|0,0:0|0:0,0:0:0:0:
290,106,436917,1,2,0:0:0:0:
58,204,437052,1,2,0:0:0:0:
58,204,437457,22,0,P|133:245|132:331,1,180,14|0,0:0|0:0,0:0:0:0:
70,368,437727,1,2,0:0:0:0:
190,144,437863,1,2,0:0:0:0:
190,144,438268,6,0,P|207:228|289:252,1,180,14|0,0:0|0:0,0:0:0:0:
335,197,438538,1,2,0:0:0:0:
155,373,438673,1,2,0:0:0:0:
272,167,438808,22,0,P|254:82|172:58,1,180,14|0,0:0|0:0,0:0:0:0:
108,90,439078,1,2,0:0:0:0:
204,323,439213,1,2,0:0:0:0:
204,323,439619,6,0,P|265:262|348:289,1,180,14|0,0:0|0:0,0:0:0:0:
363,359,439889,1,2,0:0:0:0:
111,375,440024,1,2,0:0:0:0:
347,288,440159,22,0,P|382:209|329:141,1,180,14|0,0:0|0:0,0:0:0:0:
259,128,440429,1,2,0:0:0:0:
250,376,440564,1,2,0:0:0:0:
330,141,440700,6,0,P|401:92|477:132,1,180,14|0,0:0|0:0,0:0:0:0:
491,203,440970,1,2,0:0:0:0:
241,231,441105,1,2,0:0:0:0:
241,231,441510,22,0,P|179:171|96:197,1,180,14|0,0:0|0:0,0:0:0:0:
66,263,441781,1,2,0:0:0:0:
211,57,441916,1,2,0:0:0:0:
211,57,442321,6,0,P|266:122|350:105,1,180,14|0,0:0|0:0,0:0:0:0:
362,34,442591,1,2,0:0:0:0:
322,284,442727,1,2,0:0:0:0:
322,284,443132,22,0,P|345:201|429:182,1,180,14|0,0:0|0:0,0:0:0:0:
482,233,443402,1,2,0:0:0:0:
385,14,443537,1,2,0:0:0:0:
405,265,443672,6,0,P|381:347|297:366,1,180,14|0,0:0|0:0,0:0:0:0:
245,316,443942,1,2,0:0:0:0:
397,115,444077,1,2,0:0:0:0:
397,115,444483,22,0,P|311:110|265:183,1,180,14|0,0:0|0:0,0:0:0:0:
286,253,444753,1,2,0:0:0:0:
381,33,444888,1,2,0:0:0:0:
286,253,445023,6,0,P|212:231|198:155,1,161.999995056153,14|0,0:0|0:0,0:0:0:0:
230,90,445293,1,2,0:0:0:0:
366,258,445428,1,2,0:0:0:0:
230,90,445564,22,0,P|161:93|126:153,1,144,14|0,0:0|0:0,0:0:0:0:
133,226,445834,1,2,0:0:0:0:
307,146,445969,1,2,0:0:0:0:
133,226,446104,6,0,P|79:207|54:155,1,116.999994644165,14|0,0:0|0:0,0:0:0:0:
77,87,446374,1,2,0:0:0:0:
2,225,446510,1,2,0:0:0:0:
126,153,446645,22,0,P|167:160|203:206,1,90,6|0,0:0|0:0,0:0:0:0:
251,241,446915,2,0,P|268:200|257:157,1,90,6|0,0:0|0:0,0:0:0:0:
317,111,447185,2,0,P|336:153|341:222,1,105,6|0,0:0|0:0,0:0:0:0:
352,182,447726,6,0,P|389:159|484:237,1,180,6|0,0:0|0:0,0:0:0:0:
414,290,448266,2,0,L|409:228,1,60
336,284,448537,2,0,L|331:343,1,60
249,184,448807,21,4,0:0:0:0:
247,159,449347,2,0,L|308:138,1,60
233,82,449618,2,0,L|176:62,1,60
323,30,449888,6,0,P|374:53|409:110,1,120
303,139,450293,2,0,P|287:192|309:256,1,120
424,225,450699,2,0,L|372:194,1,60
232,273,450969,21,0,0:0:0:0:
206,298,451239,2,0,L|194:367,1,60
120,307,451510,2,0,L|109:247,1,60
39,303,451780,2,0,L|27:372,1,60
166,184,452050,6,0,P|101:163|48:188,1,120
120,307,452455,1,0,0:0:0:0:
206,298,452591,2,0,L|270:270,1,60
305,352,452861,2,0,L|369:380,1,60
407,234,453131,21,0,0:0:0:0:
396,200,453401,2,0,L|329:182,1,60
403,121,453672,2,0,L|460:105,1,60
396,43,453942,1,0,0:0:0:0:
331,105,454077,1,0,0:0:0:0:
499,170,454212,5,6,0:0:0:0:
403,121,454347,1,0,0:0:0:0:
461,227,454483,1,0,0:0:0:0:
507,53,454618,1,6,0:0:0:0:
396,200,454753,2,0,P|358:185|326:136,1,90
331,105,455023,2,0,P|316:67|230:38,1,116.999994644165,6|0,0:0|0:0,0:0:0:0:
182,73,455293,21,6,0:0:0:0:
182,73,455564,1,8,0:0:0:0:
165,98,455632,1,8,0:0:0:0:
142,116,455699,1,8,0:0:0:0:
114,127,455767,1,8,0:0:0:0:
84,127,455834,5,8,0:0:0:0:
180,188,455969,1,2,0:0:0:0:
105,45,456104,21,10,0:0:0:0:
52,185,456239,1,2,0:0:0:0:
254,109,456374,6,0,P|289:172|249:275,2,180,6|2|2,0:0|0:0|0:0,0:0:0:0:
168,254,457455,2,0,B|160:290|176:324|205:344|205:344|174:369|149:381|149:381|119:348|108:328|108:300,1,240,8|0,0:0|0:0,0:0:0:0:
111,323,458537,22,0,P|191:343|257:273,2,180,2|2|2,0:0|0:0|0:0,0:0:0:0:
234,191,459618,2,0,B|291:174|325:197|333:242|351:245|372:247|391:226|405:207|410:187|370:165|357:157,1,240,8|0,0:0|0:0,0:0:0:0:
349,150,460428,1,2,0:0:0:0:
406,290,460564,1,0,0:0:0:0:
334,139,460699,6,0,P|336:93|454:62,2,180,6|2|2,0:0|0:0|0:0,0:0:0:0:
318,294,461780,2,0,B|270:342|203:306|200:306|197:306|135:270|80:327,1,240,8|0,0:0|0:0,0:0:0:0:
90,317,462861,22,0,P|35:269|37:159,2,180,6|2|2,0:0|0:0|0:0,0:0:0:0:
191,182,463942,2,0,B|209:160|227:152|251:152|263:157|269:158|286:167|299:175|316:192|320:212|308:244|284:258|268:259|247:240|239:213,1,240,8|0,0:0|0:0,0:0:0:0:
243,222,464753,2,0,L|231:298,1,60,4|4,0:0|0:0,0:0:0:0:
368,191,465023,6,0,P|322:117|232:92,2,180,6|2|2,0:0|0:0|0:0,0:0:0:0:
258,349,466104,2,0,B|221:360|190:353|165:334|161:305|171:290|155:275|126:270|110:277|79:286|81:315|85:335|97:349|114:355,1,240,8|0,0:0|0:0,0:0:0:0:
97,343,467185,22,0,P|134:357|186:254,2,180,2|2|2,0:0|0:0|0:0,0:0:0:0:
86,187,468266,2,0,B|115:117|185:123|190:123|195:124|268:172|306:80,1,240,8|4,0:0|0:0,0:0:0:0:
298,88,469077,1,2,0:0:0:0:
314,237,469212,1,2,0:0:0:0:
234,62,469347,6,0,P|306:20|367:96,2,180,6|2|2,0:0|0:0|0:0,0:0:0:0:
220,230,470428,2,0,B|245:280|301:288|341:256|341:256|364:290|392:301|441:299,1,240,8|0,0:0|0:0,0:0:0:0:
422,299,471510,22,0,P|424:221|335:167,2,180,2|2|2,0:0|0:0|0:0,0:0:0:0:
288,203,472455,1,2,0:0:0:0:
471,86,472591,5,10,0:0:0:0:
300,30,472726,1,2,0:0:0:0:
286,19,472996,1,2,0:0:0:0:
351,253,473131,2,0,P|336:295|304:326,1,90,14|0,0:0|0:0,0:0:0:0:
261,339,473401,1,8,0:0:0:0:
495,226,473537,1,8,0:0:0:0:
255,126,473672,22,0,P|221:153|257:282,2,180,6|2|2,0:0|0:0|0:0,0:0:0:0:
421,260,474753,2,0,B|434:304|418:336|418:336|475:339|503:321|489:276|489:273|489:269|476:241|509:202,1,240,8|0,0:0|0:0,0:0:0:0:
494,225,475834,6,0,P|488:308|400:338,2,180,2|2|2,0:0|0:0|0:0,0:0:0:0:
342,111,476915,2,0,B|310:95|289:100|275:122|266:138|259:169|288:172|304:184|307:201|304:243|285:271|236:273,1,240,8|0,0:0|0:0,0:0:0:0:
253,270,477726,2,0,L|192:239,1,60,4|4,0:0|0:0,0:0:0:0:
367,177,477996,22,0,P|356:273|287:339,2,180,6|2|2,0:0|0:0|0:0,0:0:0:0:
187,169,479077,2,0,B|150:179|127:202|117:236|131:270|138:282|138:282|115:300|80:302|45:278,1,240,8|0,0:0|0:0,0:0:0:0:
47,279,480158,6,0,P|93:358|192:352,2,180,2|2|2,0:0|0:0|0:0,0:0:0:0:
165,176,481239,2,0,B|256:154|295:219|298:220|301:219|337:264|405:237,1,240,8|0,0:0|0:0,0:0:0:0:
385,242,482320,22,0,P|336:312|242:309,2,180,6|2|2,0:0|0:0|0:0,0:0:0:0:
278,112,483401,2,0,B|254:77|273:54|307:47|349:54|337:80|361:117|408:127|458:99,1,240,8|0,0:0|0:0,0:0:0:0:
452,101,484482,6,0,P|421:51|309:63,2,180,2|2|2,0:0|0:0|0:0,0:0:0:0:
306,187,485564,2,0,B|247:177|203:138|191:88|191:88|156:117|109:106,1,240,8|0,0:0|0:0,0:0:0:0:
101,99,486374,1,2,0:0:0:0:
110,268,486510,1,2,0:0:0:0:
85,90,486645,22,0,P|128:32|234:32,2,180,6|2|2,0:0|0:0|0:0,0:0:0:0:
178,225,487726,2,0,B|194:247|196:270|189:287|186:296|185:307|193:318|201:328|213:336|223:338|233:336|240:337|248:335|258:332|266:328|271:323|275:318|280:306|283:297|284:288|281:279|278:272|275:268|271:261|268:255,1,240,8|0,0:0|0:0,0:0:0:0:
269,258,488807,6,0,P|198:321|117:299,2,180,2|2|2,0:0|0:0|0:0,0:0:0:0:
271,53,489888,21,6,0:0:0:0:
271,53,490158,1,8,0:0:0:0:
293,43,490225,1,8,0:0:0:0:
316,41,490293,1,8,0:0:0:0:
340,45,490360,1,8,0:0:0:0:
361,55,490428,5,8,0:0:0:0:
246,121,490564,1,2,0:0:0:0:
413,188,490699,21,10,0:0:0:0:
315,119,490834,1,2,0:0:0:0:
392,325,490969,5,6,0:0:0:0:
392,325,491104,1,2,0:0:0:0:
413,188,491239,2,0,P|368:183|327:200,1,90.0000034332277,2|2,0:0|0:0,0:0:0:0:
250,345,491510,21,2,0:0:0:0:
250,345,491645,1,2,0:0:0:0:
167,206,491780,2,0,P|166:161|186:121,1,90.0000034332277,2|2,0:0|0:0,0:0:0:0:
374,82,492050,21,10,0:0:0:0:
374,82,492185,1,2,0:0:0:0:
367,266,492320,2,0,P|323:274|280:261,1,90.0000034332277,2|2,0:0|0:0,0:0:0:0:
240,80,492591,69,2,0:0:0:0:
240,80,492726,1,2,0:0:0:0:
92,197,492861,2,0,P|102:240|131:273,1,90.0000034332277,2|2,0:0|0:0,0:0:0:0:
304,193,493131,21,2,0:0:0:0:
304,193,493266,1,2,0:0:0:0:
251,374,493401,2,0,P|206:374|166:354,1,90.0000034332277,2|2,0:0|0:0,0:0:0:0:
161,168,493672,5,2,0:0:0:0:
161,168,493807,1,2,0:0:0:0:
345,125,493942,2,0,P|374:158|384:201,1,90.0000034332277,2|2,0:0|0:0,0:0:0:0:
226,302,494212,21,10,0:0:0:0:
226,302,494347,1,2,0:0:0:0:
238,117,494482,1,2,0:0:0:0:
238,117,494618,1,2,0:0:0:0:
63,187,494753,2,0,P|45:146|49:101,1,90.0000034332277,2|2,0:0|0:0,0:0:0:0:
236,13,495023,69,6,0:0:0:0:
161,206,495158,1,6,0:0:0:0:
354,89,495293,21,6,0:0:0:0:
354,89,495428,1,2,0:0:0:0:
329,278,495564,2,0,P|284:272|248:247,1,90.0000034332277,2|2,0:0|0:0,0:0:0:0:
190,72,495834,21,2,0:0:0:0:
190,72,495969,1,2,0:0:0:0:
86,230,496104,2,0,P|93:273|121:308,1,90.0000034332277,2|2,0:0|0:0,0:0:0:0:
228,144,496374,5,10,0:0:0:0:
228,144,496510,1,2,0:0:0:0:
390,139,496645,2,0,P|390:183|368:222,1,90.0000034332277,2|2,0:0|0:0,0:0:0:0:
211,242,496915,21,2,0:0:0:0:
211,242,497050,1,2,0:0:0:0:
178,84,497185,2,0,P|219:68|263:75,1,90.0000034332277,2|2,0:0|0:0,0:0:0:0:
303,236,497455,5,2,0:0:0:0:
303,236,497591,1,2,0:0:0:0:
454,175,497726,2,0,P|460:130|445:89,1,90.0000034332277,2|2,0:0|0:0,0:0:0:0:
294,140,497996,21,2,0:0:0:0:
294,140,498131,1,2,0:0:0:0:
270,300,498266,2,0,P|228:315|184:308,1,90.0000034332277,2|2,0:0|0:0,0:0:0:0:
111,109,498537,69,10,0:0:0:0:
111,109,498672,1,2,0:0:0:0:
38,285,498807,1,2,0:0:0:0:
38,285,498942,1,2,0:0:0:0:
31,92,499077,2,0,P|53:53|91:29,1,90.0000034332277,2|2,0:0|0:0,0:0:0:0:
289,117,499347,37,6,0:0:0:0:
84,183,499482,1,6,0:0:0:0:
222,39,499618,69,6,0:0:0:0:
222,39,499753,1,2,0:0:0:0:
215,201,499888,2,0,P|238:238|277:261,1,90.0000034332277,2|2,0:0|0:0,0:0:0:0:
427,195,500158,21,2,0:0:0:0:
427,195,500293,1,2,0:0:0:0:
369,44,500428,2,0,P|324:45|285:67,1,90.0000034332277,2|2,0:0|0:0,0:0:0:0:
281,264,500699,5,10,0:0:0:0:
281,264,500834,1,0,0:0:0:0:
140,184,500969,2,0,P|162:145|200:121,1,90.0000034332277,2|2,0:0|0:0,0:0:0:0:
354,184,501239,21,2,0:0:0:0:
354,184,501374,1,2,0:0:0:0:
308,340,501510,2,0,P|263:340|224:318,1,90.0000034332277,2|2,0:0|0:0,0:0:0:0:
266,165,501780,5,2,0:0:0:0:
266,165,501915,1,2,0:0:0:0:
137,67,502050,2,0,P|95:83|67:117,1,90.0000034332277,2|2,0:0|0:0,0:0:0:0:
120,275,502320,21,2,0:0:0:0:
120,275,502455,1,2,0:0:0:0:
197,131,502591,2,0,P|228:99|271:86,1,90.0000034332277,2|2,0:0|0:0,0:0:0:0:
399,232,502861,21,10,0:0:0:0:
399,232,502996,1,2,0:0:0:0:
371,49,503131,1,2,0:0:0:0:
371,49,503266,1,2,0:0:0:0:
481,202,503401,2,0,P|484:246|467:287,1,90.0000034332277,2|2,0:0|0:0,0:0:0:0:
268,348,503672,37,4,0:0:0:0:
345,166,503807,1,4,0:0:0:0:
372,348,503942,21,6,0:0:0:0:
372,348,504077,1,2,0:0:0:0:
303,232,504212,2,0,P|259:224|216:237,1,90.0000034332277,2|2,0:0|0:0,0:0:0:0:
150,357,504482,21,2,0:0:0:0:
150,357,504618,1,2,0:0:0:0:
108,229,504753,2,0,P|117:185|145:151,1,90.0000034332277,2|2,0:0|0:0,0:0:0:0:
284,146,505023,5,2,0:0:0:0:
284,146,505158,1,2,0:0:0:0:
370,250,505293,2,0,P|413:242|449:214,1,90.0000034332277,2|2,0:0|0:0,0:0:0:0:
402,92,505564,21,2,0:0:0:0:
402,92,505699,1,2,0:0:0:0:
273,54,505834,2,0,P|231:69|201:102,1,90.0000034332277,2|2,0:0|0:0,0:0:0:0:
216,240,506104,5,2,0:0:0:0:
216,240,506239,1,2,0:0:0:0:
82,222,506374,2,0,P|90:178|118:143,1,90.0000034332277,2|2,0:0|0:0,0:0:0:0:
257,164,506645,21,2,0:0:0:0:
257,164,506780,1,2,0:0:0:0:
277,297,506915,2,0,P|238:319|193:320,1,90.0000034332277,2|2,0:0|0:0,0:0:0:0:
189,145,507185,21,10,0:0:0:0:
189,145,507320,1,2,0:0:0:0:
119,293,507455,1,2,0:0:0:0:
119,293,507591,1,2,0:0:0:0:
34,161,507726,1,2,0:0:0:0:
34,161,507861,1,2,0:0:0:0:
192,225,507996,2,0,P|233:208|261:174,1,90.0000034332277,2|2,0:0|0:0,0:0:0:0:
198,7,508266,37,6,0:0:0:0:
198,7,508401,1,2,0:0:0:0:
367,81,508537,2,0,P|390:123|407:220,1,102.000001945496,2|2,0:0|0:0,0:0:0:0:
296,323,508807,37,2,0:0:0:0:
296,323,508942,1,2,0:0:0:0:
322,141,509077,2,0,P|285:105|242:79,1,102.000001945496,2|2,0:0|0:0,0:0:0:0:
54,151,509347,69,14,0:0:0:0:
54,151,509482,1,2,0:0:0:0:
176,290,509618,2,0,P|225:276|269:251,1,102.000001945496,2|2,0:0|0:0,0:0:0:0:
312,76,509888,21,2,0:0:0:0:
312,76,510023,1,2,0:0:0:0:
420,224,510158,2,0,P|401:271|372:313,1,102.000001945496,2|2,0:0|0:0,0:0:0:0:
235,170,510428,69,6,0:0:0:0:
235,170,510564,1,2,0:0:0:0:
259,342,510699,1,2,0:0:0:0:
338,165,510834,1,6,0:0:0:0:
165,219,510969,1,2,0:0:0:0:
165,219,511104,1,2,0:0:0:0:
282,78,511239,2,0,P|332:78|382:91,1,102.000001945496,2|2,0:0|0:0,0:0:0:0:
320,300,511510,37,14,0:0:0:0:
320,300,511645,1,2,0:0:0:0:
220,128,511780,1,2,0:0:0:0:
220,128,511915,1,2,0:0:0:0:
175,327,512050,2,0,P|221:347|271:357,1,102.000001945496,2|2,0:0|0:0,0:0:0:0:
373,193,512320,37,2,0:0:0:0:
442,374,512455,1,2,0:0:0:0:
453,152,512591,37,6,0:0:0:0:
453,152,512726,1,2,0:0:0:0:
274,287,512861,2,0,P|235:253|206:212,1,102.000001945496,2|2,0:0|0:0,0:0:0:0:
400,98,513131,37,2,0:0:0:0:
400,98,513266,1,2,0:0:0:0:
192,15,513401,2,0,P|141:20|93:36,1,102.000001945496,2|2,0:0|0:0,0:0:0:0:
92,266,513672,21,14,0:0:0:0:
92,266,513807,1,2,0:0:0:0:
225,86,513942,2,0,P|275:86|325:99,1,102.000001945496,2|2,0:0|0:0,0:0:0:0:
362,325,514212,21,0,0:0:0:0:
362,325,514347,1,0,0:0:0:0:
494,144,514482,2,0,P|480:94|455:50,1,102.000001945496,2|2,0:0|0:0,0:0:0:0:
258,156,514753,21,2,0:0:0:0:
258,156,514888,1,2,0:0:0:0:
453,215,515023,1,2,0:0:0:0:
356,24,515158,1,6,0:0:0:0:
357,231,515293,1,2,0:0:0:0:
357,231,515428,1,2,0:0:0:0:
253,54,515564,2,0,P|203:41|152:40,1,102.000001945496,2|2,0:0|0:0,0:0:0:0:
44,261,515834,37,14,0:0:0:0:
44,261,515969,1,2,0:0:0:0:
33,41,516104,1,2,0:0:0:0:
33,41,516239,1,2,0:0:0:0:
246,125,516374,1,2,0:0:0:0:
246,125,516510,1,2,0:0:0:0:
22,193,516645,37,2,0:0:0:0:
186,25,516780,1,2,0:0:0:0:
196,253,516915,37,6,0:0:0:0:
196,253,517050,1,2,0:0:0:0:
378,140,517185,2,0,P|372:89|356:41,1,102.000001945496,2|2,0:0|0:0,0:0:0:0:
174,151,517455,37,2,0:0:0:0:
174,151,517591,1,2,0:0:0:0:
377,220,517726,2,0,P|401:264|415:313,1,102.000001945496,2|2,0:0|0:0,0:0:0:0:
241,198,517996,69,14,0:0:0:0:
241,198,518131,1,2,0:0:0:0:
121,375,518266,2,0,P|71:365|24:344,1,102.000001945496,2|2,0:0|0:0,0:0:0:0:
108,147,518537,21,2,0:0:0:0:
108,147,518672,1,2,0:0:0:0:
249,308,518807,2,0,P|294:285|334:254,1,102.000001945496,2|2,0:0|0:0,0:0:0:0:
288,49,519077,69,6,0:0:0:0:
288,49,519212,1,2,0:0:0:0:
169,202,519347,1,2,0:0:0:0:
373,137,519482,1,6,0:0:0:0:
189,57,519618,1,0,0:0:0:0:
189,57,519753,1,0,0:0:0:0:
306,224,519888,2,0,P|282:268|248:307,1,102.000001945496,2|2,0:0|0:0,0:0:0:0:
60,216,520158,21,14,0:0:0:0:
60,216,520293,1,2,0:0:0:0:
234,110,520428,2,0,P|282:125|325:152,1,102.000001945496,2|2,0:0|0:0,0:0:0:0:
372,357,520699,21,2,0:0:0:0:
372,357,520834,1,2,0:0:0:0:
185,277,520969,2,0,P|192:226|210:179,1,102.000001945496,2|2,0:0|0:0,0:0:0:0:
438,172,521239,69,6,0:0:0:0:
438,172,521374,1,2,0:0:0:0:
270,21,521510,2,0,P|220:10|169:12,1,102.000001945496,2|2,0:0|0:0,0:0:0:0:
101,229,521780,37,2,0:0:0:0:
101,229,521915,1,2,0:0:0:0:
280,94,522050,2,0,P|324:117|363:151,1,102.000001945496,2|2,0:0|0:0,0:0:0:0:
250,358,522320,37,14,0:0:0:0:
250,358,522455,1,2,0:0:0:0:
174,140,522591,2,0,P|193:93|224:52,1,102.000001945496,2|2,0:0|0:0,0:0:0:0:
438,146,522861,37,2,0:0:0:0:
438,146,522996,1,2,0:0:0:0:
247,272,523131,2,0,P|204:244|169:207,1,102.000001945496,2|2,0:0|0:0,0:0:0:0:
411,52,523401,37,14,0:0:0:0:
397,305,523537,2,0,L|262:339,1,120,2|2,0:0|0:0,0:0:0:0:
222,50,523807,37,14,0:0:0:0:
38,222,523942,2,0,L|93:344,1,120,2|2,0:0|0:0,0:0:0:0:
314,154,524212,37,14,0:0:0:0:
314,154,524347,1,2,0:0:0:0:
37,77,524482,37,14,0:0:0:0:
285,25,524618,2,0,L|398:128,1,120,2|2,0:0|0:0,0:0:0:0:
211,343,524888,37,14,0:0:0:0:
118,109,525023,2,0,L|223:50,1,120,2|2,0:0|0:0,0:0:0:0:
404,281,525293,37,14,0:0:0:0:
404,281,525428,1,2,0:0:0:0:
121,190,525564,37,14,0:0:0:0:
121,190,525699,1,2,0:0:0:0:
376,178,525834,1,2,0:0:0:0:
376,178,525969,1,2,0:0:0:0:
200,358,526104,1,2,0:0:0:0:
200,358,526239,1,2,0:0:0:0:
191,110,526374,1,2,0:0:0:0:
191,110,526510,1,2,0:0:0:0:
339,334,526645,37,10,0:0:0:0:
339,334,526780,1,2,0:0:0:0:
267,97,526915,1,2,0:0:0:0:
267,97,527050,1,2,0:0:0:0:
94,280,527185,1,2,0:0:0:0:
94,280,527320,1,2,0:0:0:0:
154,36,527455,2,0,L|287:21,1,120
453,225,527726,37,10,0:0:0:0:
453,225,527861,1,2,0:0:0:0:
218,147,527996,1,2,0:0:0:0:
218,147,528131,1,2,0:0:0:0:
443,31,528266,1,2,0:0:0:0:
443,31,528401,1,2,0:0:0:0:
355,271,528537,1,0,0:0:0:0:
355,271,528672,1,0,0:0:0:0:
277,27,528807,37,10,0:0:0:0:
277,27,528942,1,2,0:0:0:0:
164,267,529077,1,2,0:0:0:0:
164,267,529212,1,2,0:0:0:0:
399,144,529347,1,2,0:0:0:0:
399,144,529482,1,2,0:0:0:0:
148,58,529618,2,0,L|66:158,1,120,2|2,0:0|0:0,0:0:0:0:
314,292,529888,37,10,0:0:0:0:
314,292,530023,1,2,0:0:0:0:
224,36,530158,1,2,0:0:0:0:
224,36,530293,1,2,0:0:0:0:
51,251,530428,1,2,0:0:0:0:
51,251,530564,1,2,0:0:0:0:
309,149,530699,1,2,0:0:0:0:
309,149,530834,1,2,0:0:0:0:
62,38,530969,37,10,0:0:0:0:
62,38,531104,1,2,0:0:0:0:
130,309,531239,1,2,0:0:0:0:
130,309,531374,1,2,0:0:0:0:
269,70,531510,1,2,0:0:0:0:
269,70,531645,1,2,0:0:0:0:
402,312,531780,2,0,L|273:368,1,120,2|2,0:0|0:0,0:0:0:0:
154,126,532050,37,10,0:0:0:0:
154,126,532185,1,2,0:0:0:0:
425,62,532320,1,2,0:0:0:0:
425,62,532455,1,2,0:0:0:0:
276,298,532591,1,2,0:0:0:0:
276,298,532726,1,2,0:0:0:0:
188,41,532861,1,2,0:0:0:0:
188,41,532996,1,2,0:0:0:0:
90,326,533131,37,2,0:0:0:0:
90,326,533266,1,2,0:0:0:0:
18,52,533401,1,2,0:0:0:0:
18,52,533537,1,2,0:0:0:0:
305,103,533672,1,2,0:0:0:0:
305,103,533807,1,2,0:0:0:0:
60,253,533942,1,8,0:0:0:0:
259,45,534077,1,0,0:0:0:0:
346,349,534212,37,14,0:0:0:0:
346,349,534347,1,2,0:0:0:0:
441,105,534482,1,2,0:0:0:0:
441,105,534618,1,2,0:0:0:0:
187,166,534753,1,2,0:0:0:0:
187,166,534888,1,2,0:0:0:0:
425,291,535023,1,2,0:0:0:0:
425,291,535158,1,2,0:0:0:0:
269,84,535293,37,10,0:0:0:0:
269,84,535428,1,2,0:0:0:0:
243,351,535564,1,2,0:0:0:0:
243,351,535699,1,2,0:0:0:0:
116,125,535834,1,2,0:0:0:0:
116,125,535969,1,2,0:0:0:0:
339,265,536104,2,0,L|409:151,1,120,2|2,0:0|0:0,0:0:0:0:
182,25,536374,37,10,0:0:0:0:
182,25,536510,1,2,0:0:0:0:
66,263,536645,1,2,0:0:0:0:
66,263,536780,1,2,0:0:0:0:
310,158,536915,1,2,0:0:0:0:
310,158,537050,1,2,0:0:0:0:
84,31,537185,1,2,0:0:0:0:
84,31,537320,1,2,0:0:0:0:
161,288,537455,37,10,0:0:0:0:
161,288,537591,1,2,0:0:0:0:
280,54,537726,1,2,0:0:0:0:
280,54,537861,1,2,0:0:0:0:
403,293,537996,1,2,0:0:0:0:
403,293,538131,1,2,0:0:0:0:
153,209,538266,2,0,L|174:80,1,120,2|2,0:0|0:0,0:0:0:0:
471,31,538537,37,14,0:0:0:0:
471,31,538672,1,2,0:0:0:0:
330,283,538807,1,2,0:0:0:0:
330,283,538942,1,2,0:0:0:0:
202,30,539077,1,2,0:0:0:0:
202,30,539212,1,2,0:0:0:0:
446,192,539347,1,2,0:0:0:0:
446,192,539482,1,2,0:0:0:0:
172,279,539618,37,14,0:0:0:0:
172,279,539753,1,2,0:0:0:0:
377,77,539888,1,2,0:0:0:0:
377,77,540023,1,2,0:0:0:0:
93,77,540158,1,2,0:0:0:0:
93,77,540293,1,2,0:0:0:0:
363,188,540428,1,2,0:0:0:0:
363,188,540564,1,2,0:0:0:0:
68,243,540699,37,14,0:0:0:0:
230,35,540834,2,0,L|332:141,1,120,2|2,0:0|0:0,0:0:0:0:
210,351,541104,37,14,0:0:0:0:
72,126,541239,2,0,L|146:22,1,120,2|2,0:0|0:0,0:0:0:0:
431,114,541510,37,14,0:0:0:0:
234,289,541645,2,0,L|131:216,1,120,2|2,0:0|0:0,0:0:0:0:
305,33,541915,37,14,0:0:0:0:
446,256,542050,2,0,L|319:236,1,120,2|2,0:0|0:0,0:0:0:0:
76,74,542320,38,0,L|-12:181,1,120,14|2,0:0|0:0,0:0:0:0:
223,370,542591,2,0,L|344:323,1,120,14|2,0:0|0:0,0:0:0:0:
331,39,542861,37,6,0:0:0:0:
277,13,542928,1,0,0:0:0:0:
218,18,542996,1,2,0:0:0:0:
168,51,543063,1,0,0:0:0:0:
142,104,543131,1,2,0:0:0:0:
145,163,543198,1,0,0:0:0:0:
177,213,543266,1,2,0:0:0:0:
230,241,543333,1,0,0:0:0:0:
289,239,543401,1,6,0:0:0:0:
339,208,543469,1,0,0:0:0:0:
396,220,543537,1,2,0:0:0:0:
429,269,543604,1,0,0:0:0:0:
421,327,543672,1,2,0:0:0:0:
375,363,543739,1,0,0:0:0:0:
317,358,543807,1,2,0:0:0:0:
277,315,543874,1,0,0:0:0:0:
277,255,543942,37,14,0:0:0:0:
331,278,544009,1,0,0:0:0:0:
391,275,544077,1,2,0:0:0:0:
443,247,544144,1,0,0:0:0:0:
478,199,544212,1,2,0:0:0:0:
489,141,544279,1,0,0:0:0:0:
473,83,544347,1,2,0:0:0:0:
434,38,544414,1,0,0:0:0:0:
379,15,544482,1,6,0:0:0:0:
320,18,544550,1,0,0:0:0:0:
267,46,544617,1,2,0:0:0:0:
232,94,544685,1,0,0:0:0:0:
222,152,544753,1,2,0:0:0:0:
184,198,544821,1,0,0:0:0:0:
129,218,544888,1,2,0:0:0:0:
70,206,544956,1,0,0:0:0:0:
26,167,545023,38,0,L|3:109,1,60,14|0,0:0|0:0,0:0:0:0:
122,108,545158,1,2,0:0:0:0:
155,156,545225,1,0,0:0:0:0:
210,177,545293,1,6,0:0:0:0:
267,160,545360,1,0,0:0:0:0:
303,114,545428,38,0,L|317:44,1,60,10|0,0:0|0:0,0:0:0:0:
213,83,545564,1,6,0:0:0:0:
211,141,545631,1,0,0:0:0:0:
174,188,545699,1,2,0:0:0:0:
117,204,545766,1,0,0:0:0:0:
62,183,545834,38,0,L|24:137,1,60,14|0,0:0|0:0,0:0:0:0:
122,108,545969,1,2,0:0:0:0:
155,156,546036,1,0,0:0:0:0:
210,177,546104,1,6,0:0:0:0:
267,160,546171,1,0,0:0:0:0:
303,114,546239,38,0,L|317:44,1,60,10|0,0:0|0:0,0:0:0:0:
213,83,546374,1,6,0:0:0:0:
211,142,546441,1,0,0:0:0:0:
245,190,546509,1,2,0:0:0:0:
300,210,546576,1,0,0:0:0:0:
357,194,546645,38,0,L|415:152,3,60,14|0|2|0,0:0|0:0|0:0|0:0,0:0:0:0:
312,292,546915,2,0,L|252:298,3,60,14|0|2|0,0:0|0:0|0:0|0:0,0:0:0:0:
462,241,547185,37,14,0:0:0:0:
493,205,547252,1,0,0:0:0:0:
505,159,547320,1,2,0:0:0:0:
494,113,547387,1,0,0:0:0:0:
463,77,547455,1,2,0:0:0:0:
419,59,547522,1,0,0:0:0:0:
372,64,547590,1,2,0:0:0:0:
332,90,547657,1,0,0:0:0:0:
309,132,547726,1,2,0:0:0:0:
308,179,547793,1,0,0:0:0:0:
290,223,547861,1,2,0:0:0:0:
256,257,547928,1,0,0:0:0:0:
212,275,547996,1,2,0:0:0:0:
164,275,548063,1,0,0:0:0:0:
120,257,548131,1,2,0:0:0:0:
86,224,548198,1,0,0:0:0:0:
67,180,548266,37,14,0:0:0:0:
110,160,548333,1,0,0:0:0:0:
158,160,548401,1,2,0:0:0:0:
201,180,548468,1,0,0:0:0:0:
233,215,548536,1,6,0:0:0:0:
248,259,548604,1,0,0:0:0:0:
280,296,548672,1,2,0:0:0:0:
322,318,548739,1,0,0:0:0:0:
369,324,548807,1,6,0:0:0:0:
415,313,548874,1,0,0:0:0:0:
454,285,548942,1,2,0:0:0:0:
481,245,549009,1,0,0:0:0:0:
491,199,549077,1,6,0:0:0:0:
484,152,549145,1,0,0:0:0:0:
461,110,549212,1,2,0:0:0:0:
424,80,549280,1,0,0:0:0:0:
378,65,549347,38,0,L|316:61,1,60,14|0,0:0|0:0,0:0:0:0:
267,216,549482,2,0,L|326:219,1,60,10|0,0:0|0:0,0:0:0:0:
289,135,549618,1,6,0:0:0:0:
241,136,549685,1,0,0:0:0:0:
202,162,549753,1,2,0:0:0:0:
183,206,549820,1,0,0:0:0:0:
191,253,549888,38,0,L|221:328,1,60,12|0,0:0|0:0,0:0:0:0:
71,359,550023,2,0,L|48:303,1,60,8|0,0:0|0:0,0:0:0:0:
118,190,550158,1,12,0:0:0:0:
156,162,550225,1,0,0:0:0:0:
203,156,550293,1,2,0:0:0:0:
247,174,550360,1,0,0:0:0:0:
277,210,550428,37,6,0:0:0:0:
313,163,550495,1,0,0:0:0:0:
368,141,550563,1,2,0:0:0:0:
427,149,550630,1,0,0:0:0:0:
473,186,550698,1,6,0:0:0:0:
495,242,550765,1,0,0:0:0:0:
486,300,550833,1,2,0:0:0:0:
449,346,550900,1,0,0:0:0:0:
394,368,550968,1,14,0:0:0:0:
335,358,551036,1,0,0:0:0:0:
288,320,551104,1,10,0:0:0:0:
230,310,551172,1,0,0:0:0:0:
174,330,551239,38,0,L|119:372,1,60,14|0,0:0|0:0,0:0:0:0:
129,185,551374,2,0,L|176:148,1,60,2|0,0:0|0:0,0:0:0:0:
334,266,551510,37,14,0:0:0:0:
381,273,551577,1,0,0:0:0:0:
427,263,551645,1,2,0:0:0:0:
467,237,551712,1,0,0:0:0:0:
495,198,551780,1,2,0:0:0:0:
506,152,551847,1,0,0:0:0:0:
500,104,551915,1,2,0:0:0:0:
477,63,551982,1,0,0:0:0:0:
440,32,552050,1,6,0:0:0:0:
395,17,552118,1,0,0:0:0:0:
347,20,552185,1,2,0:0:0:0:
304,39,552253,1,0,0:0:0:0:
271,73,552320,1,2,0:0:0:0:
226,89,552388,1,0,0:0:0:0:
179,83,552455,1,2,0:0:0:0:
140,56,552523,1,0,0:0:0:0:
117,14,552591,37,14,0:0:0:0:
115,61,552658,1,0,0:0:0:0:
97,105,552726,1,2,0:0:0:0:
65,141,552793,1,0,0:0:0:0:
26,168,552861,1,2,0:0:0:0:
6,211,552929,1,0,0:0:0:0:
9,259,552996,1,2,0:0:0:0:
36,298,553064,1,0,0:0:0:0:
78,320,553131,1,6,0:0:0:0:
125,319,553199,1,0,0:0:0:0:
166,294,553266,1,2,0:0:0:0:
191,253,553334,1,0,0:0:0:0:
231,228,553402,1,2,0:0:0:0:
279,224,553469,1,0,0:0:0:0:
323,241,553537,1,2,0:0:0:0:
356,276,553604,1,0,0:0:0:0:
369,321,553672,37,14,0:0:0:0:
321,328,553739,1,0,0:0:0:0:
276,315,553807,1,2,0:0:0:0:
239,284,553874,1,0,0:0:0:0:
219,241,553942,1,2,0:0:0:0:
219,193,554009,1,0,0:0:0:0:
239,149,554077,1,2,0:0:0:0:
239,102,554145,1,0,0:0:0:0:
220,58,554212,1,6,0:0:0:0:
184,27,554280,1,0,0:0:0:0:
138,13,554347,1,2,0:0:0:0:
91,20,554415,1,0,0:0:0:0:
51,46,554482,1,2,0:0:0:0:
26,86,554550,1,0,0:0:0:0:
19,133,554618,1,2,0:0:0:0:
33,179,554685,1,0,0:0:0:0:
65,215,554753,37,14,0:0:0:0:
87,172,554821,1,0,0:0:0:0:
125,144,554889,1,2,0:0:0:0:
172,134,554957,1,0,0:0:0:0:
218,144,555025,1,2,0:0:0:0:
256,174,555093,1,0,0:0:0:0:
278,216,555162,1,2,0:0:0:0:
314,247,555230,1,0,0:0:0:0:
359,262,555298,1,6,0:0:0:0:
407,258,555366,1,0,0:0:0:0:
450,237,555434,1,2,0:0:0:0:
481,202,555503,1,0,0:0:0:0:
497,157,555571,1,2,0:0:0:0:
495,109,555639,1,0,0:0:0:0:
475,66,555707,1,2,0:0:0:0:
441,33,555775,1,0,0:0:0:0:
396,16,555843,22,0,P|332:28|292:66,1,120,6|4,0:0|0:0,0:0:0:0:
293,64,557061,22,0,P|357:76|397:114,1,120,6|4,0:0|0:0,0:0:0:0:
395,112,558285,6,0,P|331:124|291:162,1,120,6|4,0:0|0:0,0:0:0:0:
292,160,559557,22,0,L|320:182,1,20,8|8,0:0|0:0,0:0:0:0:
423,207,559944,1,0,0:0:0:0:
423,207,560331,2,0,L|395:229,1,20,8|10,0:0|0:0,0:0:0:0:
292,254,560799,2,0,P|306:283|321:299,1,45,10|0,0:0|0:0,0:0:0:0:
358,312,561451,21,6,0:0:0:0:
256,192,561614,12,0,568625,0:0:0:0:
