osu file format v14

[General]
AudioFilename: audio.mp3
AudioLeadIn: 0
PreviewTime: 44118
Countdown: 1
SampleSet: None
StackLeniency: 0.7
Mode: 0
LetterboxInBreaks: 0
WidescreenStoryboard: 0

[Editor]
DistanceSpacing: 1
BeatDivisor: 4
GridSize: 16
TimelineZoom: 1

[Metadata]
Title:Goodbye Earth I'm Taking My Spaceship to Explore the Universe
TitleUnicode:Goodbye Earth I'm Taking My Spaceship to Explore the Universe
Artist:In Love With a Ghost
ArtistUnicode:In Love With a Ghost
Creator:viruspetya
Version:Hard
Source:
Tags:chillhop lo-fi
BeatmapID:1929313
BeatmapSetID:923857

[Difficulty]
HPDrainRate:6
CircleSize:5.7
OverallDifficulty:7
ApproachRate:8
SliderMultiplier:1.4
SliderTickRate:1

[Events]
//Background and Video events
0,0,"1278876803_seite-mikki.jpg",0,0
//Break Periods
2,52782,65337
2,67265,68694
2,70575,72108
2,73886,75315
2,77196,78729
//Storyboard Layer 0 (Background)
//Storyboard Layer 1 (Fail)
//Storyboard Layer 2 (Pass)
//Storyboard Layer 3 (Foreground)
//Storyboard Sound Samples

[TimingPoints]
9962,413.793103448276,4,1,0,100,1,0
39651,-200,4,1,0,100,0,0
40582,-100,4,1,0,100,0,0
42444,-200,4,1,0,100,0,0
44203,-100,4,1,0,100,0,0
46375,-200,4,1,0,100,0,0
48444,-100,4,1,0,100,0,0
49065,-200,4,1,0,100,0,0
50927,-100,4,1,0,100,0,0
79479,-100,4,1,0,100,0,0
92720,-200,4,1,0,100,0,0

[Colours]
Combo1 : 0,0,255
Combo2 : 255,255,255
Combo3 : 128,0,255
Combo4 : 255,0,255

[HitObjects]
64,192,9962,6,0,B|64:96|160:64,1,140
448,192,10789,6,0,B|448:288|352:320,1,140
400,48,11617,5,0,0:0:0:0:
352,96,11824,1,0,0:0:0:0:
416,112,12031,1,0,0:0:0:0:
416,272,12444,5,0,0:0:0:0:
352,288,12651,1,0,0:0:0:0:
400,336,12858,1,0,0:0:0:0:
160,272,13272,5,0,0:0:0:0:
96,288,13479,1,0,0:0:0:0:
144,336,13686,1,0,0:0:0:0:
144,112,14099,5,0,0:0:0:0:
97,64,14306,1,0,0:0:0:0:
161,48,14513,1,0,0:0:0:0:
352,96,14927,5,0,0:0:0:0:
400,48,15134,1,0,0:0:0:0:
416,112,15341,1,0,0:0:0:0:
416,272,15755,5,0,0:0:0:0:
352,288,15962,1,0,0:0:0:0:
400,336,16168,1,0,0:0:0:0:
220,328,16582,6,0,P|175:323|130:288,1,70
112,256,16996,1,0,0:0:0:0:
80,192,17203,1,0,0:0:0:0:
80,128,17410,6,0,P|96:80|112:64,1,70
176,32,17824,1,0,0:0:0:0:
240,16,18030,1,0,0:0:0:0:
304,16,18237,6,0,P|352:16|400:32,1,70
432,48,18651,1,0,0:0:0:0:
464,112,18858,1,0,0:0:0:0:
480,176,19065,6,0,P|480:224|464:256,1,70
416,288,19479,1,0,0:0:0:0:
352,320,19686,1,0,0:0:0:0:
288,336,19893,6,0,P|240:344|198:340,1,70
144,336,20306,1,0,0:0:0:0:
96,288,20513,1,0,0:0:0:0:
64,240,20720,6,0,P|48:208|64:160,1,70
80,112,21134,1,0,0:0:0:0:
128,64,21341,1,0,0:0:0:0:
192,48,21548,6,0,P|240:32|272:32,1,70
336,32,21962,1,0,0:0:0:0:
400,48,22168,1,0,0:0:0:0:
448,96,22375,6,0,P|464:144|464:176,1,70
448,240,22789,1,0,0:0:0:0:
400,288,22996,1,0,0:0:0:0:
256,192,23203,12,0,26099,0:0:0:0:
400,128,26513,6,0,P|432:160|432:208,1,70
432,256,26927,1,0,0:0:0:0:
384,304,27134,1,0,0:0:0:0:
336,256,27341,1,0,0:0:0:0:
288,208,27548,1,0,0:0:0:0:
240,160,27755,6,0,B|192:144|160:176,1,70
128,224,28168,1,0,0:0:0:0:
128,288,28375,1,0,0:0:0:0:
192,320,28582,2,0,P|224:320|272:288,1,70
320,256,28996,1,0,0:0:0:0:
384,288,29203,1,0,0:0:0:0:
416,224,29410,1,0,0:0:0:0:
352,192,29617,1,0,0:0:0:0:
288,176,29824,6,0,P|240:192|208:176,1,70
160,160,30237,1,0,0:0:0:0:
128,96,30444,1,0,0:0:0:0:
160,32,30651,2,0,P|176:16|224:16,1,70
288,32,31065,2,0,B|336:48|384:64,1,70
416,80,31479,1,0,0:0:0:0:
416,144,31686,5,0,0:0:0:0:
416,144,31789,1,0,0:0:0:0:
416,144,31893,2,0,P|368:176|336:176,1,70
288,160,32306,1,0,0:0:0:0:
224,144,32513,2,0,P|208:160|192:192,1,35
192,208,32720,2,0,L|208:256,1,35
224,272,32927,1,0,0:0:0:0:
288,320,33134,6,0,P|347:315|373:297,1,70
416,288,33548,1,0,0:0:0:0:
464,240,33755,1,0,0:0:0:0:
432,176,33962,2,0,P|416:144|368:112,1,70
320,96,34375,2,0,P|272:96|224:112,1,70
176,128,34789,1,0,0:0:0:0:
144,192,34996,1,0,0:0:0:0:
160,256,35203,2,0,B|192:304|224:304,1,70
288,304,35617,5,0,0:0:0:0:
352,288,35824,2,0,P|384:272|416:240,1,70
448,192,36237,1,0,0:0:0:0:
448,128,36444,2,0,P|448:96|416:64,1,70
368,32,36858,1,0,0:0:0:0:
304,16,37065,1,0,0:0:0:0:
240,16,37272,1,0,0:0:0:0:
176,48,37479,1,0,0:0:0:0:
128,96,37686,6,0,P|96:128|96:160,1,70
128,208,38099,1,0,0:0:0:0:
192,240,38306,1,0,0:0:0:0:
256,240,38513,2,0,P|272:272|272:320,1,70
320,352,38927,1,0,0:0:0:0:
384,352,39134,1,0,0:0:0:0:
352,288,39341,1,0,0:0:0:0:
416,272,39548,1,0,0:0:0:0:
464,224,39755,6,0,P|480:176|464:112,1,105
416,96,40582,1,0,0:0:0:0:
368,160,40789,1,0,0:0:0:0:
336,96,40996,1,0,0:0:0:0:
288,160,41203,1,0,0:0:0:0:
256,96,41410,1,0,0:0:0:0:
208,160,41617,1,0,0:0:0:0:
176,96,41824,1,0,0:0:0:0:
128,160,42030,1,0,0:0:0:0:
96,96,42237,1,0,0:0:0:0:
48,160,42444,6,0,B|48:240|96:288|192:288|224:272,1,245
304,208,44306,2,0,P|289:156|322:135,1,70
336,96,44720,1,0,0:0:0:0:
352,160,44927,1,0,0:0:0:0:
416,176,45134,2,0,P|448:160|480:192,1,70
448,240,45548,1,0,0:0:0:0:
384,256,45755,1,0,0:0:0:0:
352,192,45962,1,0,0:0:0:0:
288,192,46168,1,0,0:0:0:0:
288,128,46375,6,0,P|352:96|384:112,1,105
416,112,47203,1,0,0:0:0:0:
368,160,47410,1,0,0:0:0:0:
320,112,47617,1,0,0:0:0:0:
272,160,47824,1,0,0:0:0:0:
224,112,48030,1,0,0:0:0:0:
176,160,48237,1,0,0:0:0:0:
128,112,48444,1,0,0:0:0:0:
80,160,48651,1,0,0:0:0:0:
32,112,48858,1,0,0:0:0:0:
64,64,49065,6,0,P|144:32|240:48,1,175
288,80,50513,1,0,0:0:0:0:
256,128,50720,1,0,0:0:0:0:
256,192,50927,2,0,P|288:212|321:216,1,70
400,224,51341,1,0,0:0:0:0:
464,256,51548,1,0,0:0:0:0:
480,192,51755,2,0,P|480:160|423:136,1,70
400,96,52168,1,0,0:0:0:0:
336,112,52375,1,0,0:0:0:0:
352,48,52582,1,0,0:0:0:0:
185,108,66237,6,0,P|160:147|156:190,1,70
142,234,66651,1,0,0:0:0:0:
271,193,67065,1,0,0:0:0:0:
359,161,69444,5,0,0:0:0:0:
359,161,69547,1,0,0:0:0:0:
80,224,70375,1,0,0:0:0:0:
249,71,72858,5,0,0:0:0:0:
128,128,73272,1,0,0:0:0:0:
240,208,73686,1,0,0:0:0:0:
230,119,76065,5,0,0:0:0:0:
230,119,76168,1,0,0:0:0:0:
448,288,76996,1,0,0:0:0:0:
249,298,79479,6,0,P|161:274|99:232,1,140
64,160,80306,1,0,0:0:0:0:
160,96,80720,1,0,0:0:0:0:
272,64,81134,2,0,P|329:50|410:71,1,140
464,160,81962,1,0,0:0:0:0:
384,240,82375,1,0,0:0:0:0:
304,160,82789,1,0,0:0:0:0:
96,64,83617,5,0,0:0:0:0:
128,176,84030,1,0,0:0:0:0:
304,48,84858,2,0,P|368:32|448:64,1,140
464,96,85479,1,0,0:0:0:0:
480,144,85686,1,0,0:0:0:0:
368,160,86099,1,0,0:0:0:0:
224,336,86927,5,0,0:0:0:0:
160,240,87341,1,0,0:0:0:0:
288,64,88168,5,0,0:0:0:0:
320,176,88582,1,0,0:0:0:0:
320,176,88789,1,0,0:0:0:0:
320,176,88996,1,0,0:0:0:0:
256,272,89410,1,0,0:0:0:0:
48,176,90237,5,0,0:0:0:0:
128,96,90651,1,0,0:0:0:0:
352,144,91479,5,0,0:0:0:0:
320,32,91893,1,0,0:0:0:0:
320,32,92099,1,0,0:0:0:0:
320,32,92306,1,0,0:0:0:0:
272,48,92720,2,0,B|209:77|173:108|173:107,1,105
160,112,93548,1,0,0:0:0:0:
128,160,93962,1,0,0:0:0:0:
176,256,94789,5,0,0:0:0:0:
224,256,95203,1,0,0:0:0:0:
256,240,95410,2,0,P|322:179|327:63,1,210
327,64,96858,1,0,0:0:0:0:
272,48,97272,1,0,0:0:0:0:
160,64,98099,5,0,0:0:0:0:
112,160,98513,1,0,0:0:0:0:
112,160,98720,1,0,0:0:0:0:
112,160,98927,1,0,0:0:0:0:
160,240,99341,2,0,P|176:272|240:304,1,105
256,320,100168,1,0,0:0:0:0:
304,288,100582,1,0,0:0:0:0:
384,208,101410,5,0,0:0:0:0:
384,144,101824,1,0,0:0:0:0:
368,112,102030,2,0,P|338:65|195:39,1,210
176,64,103479,1,0,0:0:0:0:
144,112,103893,1,0,0:0:0:0:
144,224,104720,5,0,0:0:0:0:
256,192,105134,1,0,0:0:0:0:
256,192,105341,1,0,0:0:0:0:
256,192,105548,1,0,0:0:0:0:
256,192,105962,12,0,110927,0:0:0:0:
