osu file format v14

[General]
AudioFilename: audio.mp3
AudioLeadIn: 0
PreviewTime: -1
Countdown: 1
SampleSet: Soft
StackLeniency: 0.2
Mode: 0
LetterboxInBreaks: 0
WidescreenStoryboard: 1

[Editor]
DistanceSpacing: 1.5
BeatDivisor: 4
GridSize: 4
TimelineZoom: 2.2

[Metadata]
Title:The End
TitleUnicode:The End
Artist:In Flames
ArtistUnicode:In Flames
Creator:RS1
Version:The End
Source:
Tags:
BeatmapID:1104955
BeatmapSetID:512166

[Difficulty]
HPDrainRate:5
CircleSize:3.5
OverallDifficulty:9
ApproachRate:9.3
SliderMultiplier:1.6
SliderTickRate:1

[Events]
//Background and Video events
0,0,"Nu6ecQb.jpg",0,0
//Break Periods
//Storyboard Layer 0 (Background)
//Storyboard Layer 1 (Fail)
//Storyboard Layer 2 (Pass)
//Storyboard Layer 3 (Foreground)
//Storyboard Sound Samples

[TimingPoints]
231,315.789473684211,4,2,0,100,1,0
40618,-100,4,2,0,100,0,0
50723,-66.6666666666667,4,2,0,100,0,1
70933,-100,4,2,0,100,0,0
102512,-66.6666666666667,4,2,0,100,0,1
122723,-100,4,2,0,100,0,0
172618,-66.6666666666667,4,2,0,100,0,0
198512,-66.6666666666667,4,2,0,100,0,1
227565,-100,4,2,0,100,0,0

[HitObjects]
156,100,231,5,0,0:0:0:0:
276,100,388,1,0,0:0:0:0:
196,188,546,1,0,0:0:0:0:
316,188,704,1,0,0:0:0:0:
156,100,862,1,0,0:0:0:0:
316,188,1020,1,0,0:0:0:0:
164,72,2757,5,0,2:2:0:0:
116,240,2915,1,0,2:2:0:0:
204,192,3073,1,0,2:2:0:0:
96,96,3231,5,0,2:2:0:0:
320,100,3389,1,0,2:2:0:0:
200,272,3546,1,0,2:2:0:0:
432,56,4652,1,0,0:0:0:0:
402,83,4730,1,0,0:0:0:0:
374,111,4809,1,0,0:0:0:0:
346,140,4888,1,0,0:0:0:0:
318,168,4967,1,0,0:0:0:0:
287,194,5046,1,0,0:0:0:0:
255,217,5125,1,0,0:0:0:0:
219,234,5204,1,0,0:0:0:0:
180,241,5283,1,0,0:0:0:0:
36,76,5441,5,0,0:0:0:0:
224,64,5599,1,0,2:2:0:0:
248,144,5757,1,0,2:2:0:0:
280,216,5915,5,0,2:2:0:0:
400,96,6073,1,0,2:2:0:0:
76,196,6231,1,0,2:2:0:0:
344,296,6388,1,0,2:2:0:0:
264,132,6546,1,0,2:2:0:0:
156,300,6704,1,0,2:2:0:0:
236,304,6862,5,0,2:2:0:0:
348,48,7020,1,0,2:2:0:0:
392,276,7178,1,0,2:2:0:0:
168,72,7336,1,0,2:2:0:0:
256,284,7494,5,0,2:2:0:0:
316,136,7652,1,0,2:2:0:0:
348,260,7809,1,0,2:2:0:0:
220,164,7967,1,0,2:2:0:0:
56,168,8125,5,0,2:2:0:0:
176,308,8283,1,0,2:2:0:0:
212,52,8441,1,0,2:2:0:0:
344,232,8599,5,0,2:2:0:0:
344,232,8757,1,0,2:2:0:0:
148,268,8915,1,0,2:2:0:0:
148,268,9073,5,0,2:2:0:0:
316,56,9231,1,0,2:2:0:0:
316,56,9388,1,0,2:2:0:0:
396,288,9546,1,0,2:2:0:0:
92,116,9704,1,0,2:2:0:0:
308,188,9862,1,0,2:2:0:0:
140,328,10020,1,0,2:2:0:0:
216,100,10178,1,0,2:2:0:0:
332,320,10336,1,0,2:2:0:0:
320,144,10494,5,0,2:2:0:0:
216,108,10652,2,0,P|184:104|144:128,1,80,0|0,2:2|2:2,2:2:0:0:
104,212,10967,1,0,2:2:0:0:
240,292,11125,2,0,L|272:216,1,80,0|0,2:2|2:2,2:2:0:0:
268,148,11441,1,0,2:2:0:0:
280,220,11599,1,0,0:0:0:0:
384,164,11757,1,0,0:0:0:0:
340,164,11836,1,0,0:0:0:0:
288,164,11915,1,0,2:2:0:0:
156,304,12073,2,0,L|212:244,1,80,0|0,2:2|2:2,2:2:0:0:
360,80,12388,1,0,2:2:0:0:
280,344,12546,2,0,L|304:264,1,80,0|0,2:2|2:2,2:2:0:0:
428,120,12862,5,0,2:2:0:0:
60,68,13020,1,0,2:2:0:0:
204,164,13178,2,0,L|272:208,1,80,0|0,2:2|2:2,2:2:0:0:
392,312,13494,5,0,2:2:0:0:
328,148,13652,2,0,L|372:220,1,80,0|0,2:2|2:2,2:2:0:0:
248,296,13967,1,0,2:2:0:0:
156,136,14125,2,0,L|200:208,1,80,0|0,2:2|2:2,2:2:0:0:
352,84,14441,5,0,2:2:0:0:
144,272,14599,2,0,L|200:216,1,80,0|0,2:2|2:2,2:2:0:0:
352,84,14915,1,0,2:2:0:0:
380,256,15073,2,0,P|368:284|328:316,1,80,0|0,2:2|2:2,2:2:0:0:
148,220,15388,5,0,2:2:0:0:
240,120,15546,1,0,2:2:0:0:
392,200,15704,2,0,P|380:228|340:260,1,80,0|0,2:2|2:2,2:2:0:0:
256,304,16020,1,0,2:2:0:0:
460,224,16178,2,0,P|448:252|408:284,1,80,0|0,2:2|2:2,2:2:0:0:
200,216,16494,1,0,2:2:0:0:
300,96,16652,6,0,P|280:88|232:116,1,80,0|0,2:2|2:2,2:2:0:0:
312,256,16967,1,0,2:2:0:0:
371,76,17125,2,0,P|335:72|299:96,1,80,0|0,2:2|2:2,2:2:0:0:
128,192,17441,1,0,2:2:0:0:
236,288,17599,2,0,B|248:304|296:308|320:284,1,80,0|0,2:2|2:2,2:2:0:0:
316,92,17915,6,0,P|348:112|348:152,1,80,0|0,2:2|2:2,2:2:0:0:
296,308,18231,1,0,2:2:0:0:
132,160,18388,2,0,P|132:184|176:216,1,80,0|0,2:2|2:2,2:2:0:0:
344,184,18704,2,0,P|348:160|304:120,1,80,0|0,2:2|2:2,2:2:0:0:
208,308,19020,2,0,P|232:316|284:292,1,80,0|0,2:2|2:2,2:2:0:0:
184,104,19336,2,0,P|204:92|264:104,1,80,0|0,2:2|2:2,2:2:0:0:
324,184,19652,2,0,P|324:220|288:256,1,80,0|0,2:2|2:2,2:2:0:0:
124,192,20125,6,0,B|124:136|224:104|224:104,1,140,0|0,2:2|2:2,2:2:0:0:
288,144,20599,1,0,2:2:0:0:
352,224,20757,1,0,2:2:0:0:
220,120,20915,1,0,2:2:0:0:
252,272,21073,1,0,2:2:0:0:
104,248,21231,5,0,2:2:0:0:
80,132,21388,1,0,2:2:0:0:
180,212,21546,1,0,2:2:0:0:
312,76,21704,1,0,2:2:0:0:
176,76,21862,1,0,2:2:0:0:
308,200,22020,1,0,2:2:0:0:
352,288,22178,2,0,P|336:304|280:288,1,80,0|0,2:2|2:2,2:2:0:0:
84,120,22809,6,0,P|100:96|152:76,1,80,0|0,2:2|2:2,2:2:0:0:
224,72,23125,1,0,2:2:0:0:
196,188,23283,1,0,2:2:0:0:
360,48,23441,1,0,2:2:0:0:
332,176,23599,1,0,2:2:0:0:
300,312,23757,1,0,2:2:0:0:
428,240,23915,1,0,2:2:0:0:
232,164,24073,6,0,P|192:176|180:216,1,80,0|0,2:2|2:2,2:2:0:0:
360,188,24388,1,0,2:2:0:0:
248,276,24546,1,0,2:2:0:0:
112,160,24704,2,0,P|132:128|172:104,1,80,0|0,2:2|2:2,2:2:0:0:
380,96,25020,6,0,P|400:112|388:160,1,80,0|0,2:2|2:2,2:2:0:0:
336,284,25336,1,0,2:2:0:0:
88,144,25494,6,0,P|76:164|112:196,1,80,0|0,2:2|2:2,2:2:0:0:
304,256,25809,1,0,2:2:0:0:
272,48,26125,1,0,2:2:0:0:
392,200,26441,6,0,P|392:224|340:244,1,80,0|0,2:2|2:2,2:2:0:0:
260,292,26915,1,0,2:2:0:0:
100,172,27073,1,0,2:2:0:0:
260,292,27231,1,0,2:2:0:0:
64,268,27388,1,0,2:2:0:0:
264,192,27546,1,0,2:2:0:0:
408,176,27704,6,0,B|416:204|404:232|384:280|300:280,1,160,0|0,2:2|2:2,2:2:0:0:
168,224,28336,1,0,0:0:0:0:
184,80,28494,2,0,P|224:84|252:124,1,80
280,316,28809,2,0,P|244:316|208:276,1,80
320,204,29125,1,0,0:0:0:0:
168,132,29283,6,0,P|212:140|224:104,1,80
296,84,29599,1,0,0:0:0:0:
400,172,29757,2,0,P|388:216|348:236,1,80
244,264,30073,2,0,P|196:236|184:200,1,80
160,116,30388,5,0,0:0:0:0:
360,88,30546,2,0,P|328:120|312:156,1,80
192,228,30862,1,0,0:0:0:0:
316,304,31020,2,0,P|352:268|356:228,1,80
328,124,31336,1,0,0:0:0:0:
148,88,31494,6,0,P|176:72|228:84,1,80
320,96,31967,1,0,0:0:0:0:
372,216,32283,1,0,0:0:0:0:
208,312,32599,2,0,P|164:292|152:248,1,80
116,164,32915,1,0,0:0:0:0:
352,160,33073,2,0,P|360:184|324:224,1,80
440,224,33388,2,0,P|448:196|416:148,1,80
208,116,33704,1,0,0:0:0:0:
304,240,33862,2,0,P|316:224|296:168,1,80
92,192,34178,5,0,0:0:0:0:
92,312,34336,1,0,0:0:0:0:
192,252,34494,1,0,0:0:0:0:
292,324,34652,1,0,0:0:0:0:
196,156,34809,2,0,P|240:156|280:248,1,120
288,260,35125,2,0,P|336:268|408:164,1,160
320,104,35599,6,0,B|280:80|248:80|200:96|168:140,1,160
360,236,36231,1,0,0:0:0:0:
160,100,36388,1,0,0:0:0:0:
120,200,36546,1,0,0:0:0:0:
168,296,36704,2,0,B|240:336|300:272|272:212,2,160
188,140,37494,5,0,0:0:0:0:
360,168,37652,1,0,0:0:0:0:
344,336,37809,1,0,0:0:0:0:
432,228,37967,2,0,B|424:184|396:152,1,80
276,48,38441,1,0,0:0:0:0:
56,212,38757,1,0,0:0:0:0:
304,320,39073,1,0,0:0:0:0:
364,168,39388,6,0,B|332:132|296:128|260:136,1,80
132,240,39862,1,0,0:0:0:0:
400,284,40178,1,0,0:0:0:0:
112,108,40652,6,0,P|172:96|216:100,1,80
360,136,40967,1,0,0:0:0:0:
180,268,41283,2,0,P|140:248|128:132,2,160
364,208,42073,2,0,L|316:276,1,80
148,196,42388,1,0,0:0:0:0:
268,260,42546,1,0,0:0:0:0:
336,92,42862,5,0,0:0:0:0:
124,136,43178,2,0,P|156:172|208:172,1,80
272,184,43494,1,0,0:0:0:0:
408,268,43652,2,0,P|368:288|320:280,2,80
368,96,44283,6,0,B|304:80|200:76,1,160
168,104,44678,1,0,0:0:0:0:
136,136,44757,1,0,0:0:0:0:
68,200,44915,1,0,0:0:0:0:
128,272,45073,2,0,P|176:280|204:252,2,80
244,200,45546,1,0,0:0:0:0:
380,140,45704,5,0,0:0:0:0:
324,252,45862,1,0,0:0:0:0:
112,192,46020,1,0,0:0:0:0:
180,72,46178,1,0,0:0:0:0:
348,120,46336,6,0,B|376:176|344:232|272:248,1,160
140,88,46967,1,0,0:0:0:0:
224,256,47283,1,0,0:0:0:0:
304,128,47441,2,0,B|344:136|392:196|356:268|304:272,1,160
96,224,47915,5,0,0:0:0:0:
204,92,48231,1,0,0:0:0:0:
296,248,48546,1,0,0:0:0:0:
208,256,48704,2,0,P|252:172|328:168,1,160
286,150,49178,5,0,0:0:0:0:
305,202,49257,1,0,0:0:0:0:
297,258,49336,1,0,0:0:0:0:
260,298,49415,1,0,0:0:0:0:
208,304,49494,2,0,B|160:284|112:232|160:164|224:116,1,240
352,84,50125,5,0,0:0:0:0:
140,80,50441,1,0,0:0:0:0:
88,200,50757,2,0,B|136:240|228:248|300:232|336:180,1,240.000009155274
440,168,51231,1,0,0:0:0:0:
384,64,51388,1,0,0:0:0:0:
44,132,51546,1,0,0:0:0:0:
96,184,51704,6,0,P|224:160|328:200,1,240.000009155274
440,280,52178,1,0,0:0:0:0:
76,176,52336,1,0,0:0:0:0:
452,208,52494,1,0,0:0:0:0:
84,112,52652,1,0,0:0:0:0:
440,280,52809,2,0,P|396:232|336:232,1,120.000004577637
124,148,53125,5,0,0:0:0:0:
220,40,53283,1,0,0:0:0:0:
456,108,53441,1,0,0:0:0:0:
264,344,53599,1,0,0:0:0:0:
456,188,53757,5,0,0:0:0:0:
108,280,53915,1,0,0:0:0:0:
140,68,54073,1,0,0:0:0:0:
316,24,54231,1,0,0:0:0:0:
456,188,54388,1,0,0:0:0:0:
80,224,54546,5,0,0:0:0:0:
228,60,54704,1,0,0:0:0:0:
248,316,54862,1,0,0:0:0:0:
408,120,55020,1,0,0:0:0:0:
248,316,55178,1,0,0:0:0:0:
228,60,55336,1,0,0:0:0:0:
80,224,55494,1,0,0:0:0:0:
320,96,55652,1,0,0:0:0:0:
364,160,55809,6,0,P|344:240|304:268,2,120.000004577637
248,64,56283,1,0,0:0:0:0:
248,320,56441,1,0,0:0:0:0:
392,88,56599,1,0,0:0:0:0:
192,280,56757,1,0,0:0:0:0:
440,236,56915,1,0,0:0:0:0:
120,60,57073,6,0,P|96:152|120:156,2,120.000004577637
416,64,57546,1,0,0:0:0:0:
120,60,57704,1,0,0:0:0:0:
420,136,57862,1,0,0:0:0:0:
144,280,58020,6,0,P|224:248|200:200,2,120.000004577637
84,168,58494,2,0,P|110:146|204:136,1,120.000004577637
296,168,58809,5,0,0:0:0:0:
376,80,58967,1,0,0:0:0:0:
376,260,59125,1,0,0:0:0:0:
192,84,59283,1,0,0:0:0:0:
376,260,59441,1,0,0:0:0:0:
196,256,59599,1,0,0:0:0:0:
376,80,59757,1,0,0:0:0:0:
192,84,59915,1,0,0:0:0:0:
112,92,60073,5,0,0:0:0:0:
300,238,60231,1,0,0:0:0:0:
144,336,60388,1,0,0:0:0:0:
64,168,60546,1,0,0:0:0:0:
236,92,60704,1,0,0:0:0:0:
216,292,60862,6,0,P|288:276|300:232,2,120.000004577637
116,256,61336,1,0,0:0:0:0:
368,96,61494,1,0,0:0:0:0:
124,96,61652,1,0,0:0:0:0:
380,256,61809,2,0,B|304:288|244:276|224:256,1,120.000004577637
156,248,62125,5,0,0:0:0:0:
284,80,62283,1,0,0:0:0:0:
80,144,62441,1,0,0:0:0:0:
388,184,62599,1,0,0:0:0:0:
124,64,62757,1,0,0:0:0:0:
428,88,62915,1,0,0:0:0:0:
344,312,63073,6,0,P|272:312|184:272,1,120.000004577637
140,232,63388,1,0,0:0:0:0:
88,144,63546,1,0,0:0:0:0:
276,112,63704,1,0,0:0:0:0:
140,232,63862,1,0,0:0:0:0:
304,196,64020,1,0,0:0:0:0:
96,64,64178,1,0,0:0:0:0:
440,268,64336,1,0,0:0:0:0:
176,296,64494,1,0,0:0:0:0:
344,56,64652,1,0,0:0:0:0:
132,168,64809,6,0,P|192:196|240:172,2,120.000004577637
344,224,65283,1,0,0:0:0:0:
124,284,65441,1,0,0:0:0:0:
196,112,65599,1,0,0:0:0:0:
344,224,65757,1,0,0:0:0:0:
96,196,65915,6,0,P|96:136|140:100,1,120.000004577637
344,224,66231,1,0,0:0:0:0:
72,76,66388,2,0,P|36:112|40:196,1,120.000004577637
344,224,66704,1,0,0:0:0:0:
152,336,66862,6,0,P|112:312|108:236,1,120.000004577637,0|0,2:0|2:2,2:0:0:0:
204,84,67178,1,0,0:0:0:0:
404,184,67336,2,0,P|392:256|348:288,1,120.000004577637
116,232,67652,1,0,0:0:0:0:
284,104,67809,1,0,0:0:0:0:
344,320,67967,1,0,0:0:0:0:
160,112,68125,1,0,0:0:0:0:
396,92,68283,1,0,0:0:0:0:
344,320,68441,1,0,0:0:0:0:
340,320,68599,5,0,0:0:0:0:
280,96,68757,1,0,0:0:0:0:
84,244,68915,2,0,P|116:308|176:292,1,120.000004577637
432,308,69231,1,0,0:0:0:0:
432,72,69388,1,0,0:0:0:0:
84,72,69546,1,0,0:0:0:0:
432,308,69704,1,0,0:0:0:0:
432,72,69862,5,0,0:0:0:0:
432,308,70020,1,0,0:0:0:0:
432,72,70178,1,0,0:0:0:0:
256,316,70336,1,0,0:0:0:0:
124,192,70494,1,0,0:0:0:0:
256,72,70652,1,0,0:0:0:0:
388,192,70809,1,0,0:0:0:0:
248,312,70967,5,0,0:0:0:0:
168,228,71125,1,0,0:0:0:0:
300,260,71283,1,0,0:0:0:0:
220,176,71441,1,0,0:0:0:0:
352,208,71599,1,0,0:0:0:0:
272,124,71757,1,0,0:0:0:0:
280,264,71915,5,0,0:0:0:0:
348,128,72073,1,0,0:0:0:0:
212,232,72231,1,0,0:0:0:0:
280,96,72389,1,0,0:0:0:0:
144,200,72546,1,0,0:0:0:0:
212,64,72704,1,0,0:0:0:0:
80,168,72862,1,0,0:0:0:0:
148,32,73020,1,0,0:0:0:0:
212,232,73178,6,0,P|252:192|304:172,1,80
368,68,73494,1,0,0:0:0:0:
368,232,73652,1,0,0:0:0:0:
212,232,73809,1,0,0:0:0:0:
368,68,73967,1,0,0:0:0:0:
212,68,74125,1,0,0:0:0:0:
368,232,74283,1,0,0:0:0:0:
368,68,74441,1,0,0:0:0:0:
228,264,74599,5,0,0:0:0:0:
192,124,74757,1,0,0:0:0:0:
156,264,74915,1,0,0:0:0:0:
124,124,75073,1,0,0:0:0:0:
330,129,75231,1,0,0:0:0:0:
132,200,75388,1,0,0:0:0:0:
332,200,75546,1,0,0:0:0:0:
136,272,75704,6,0,P|168:272|224:272,1,80
330,129,76020,1,0,0:0:0:0:
392,220,76178,1,0,0:0:0:0:
160,124,76336,2,0,P|116:164|112:192,1,80
216,272,76652,1,0,0:0:0:0:
388,108,76809,6,0,P|340:104|344:144,1,80
216,272,77125,1,0,0:0:0:0:
360,184,77283,6,0,P|408:188|404:148,1,80
280,88,77599,1,0,0:0:0:0:
200,280,77757,1,0,0:0:0:0:
72,136,77915,2,0,P|96:100|144:116,1,80
300,172,78231,6,0,P|328:144|304:128,2,80
108,276,78704,1,0,0:0:0:0:
196,156,78862,1,0,0:0:0:0:
260,292,79020,1,0,0:0:0:0:
152,216,79178,1,0,0:0:0:0:
231,227,79336,1,0,0:0:0:0:
180,288,79494,1,0,0:0:0:0:
196,156,79652,6,0,L|232:228,1,80
108,284,79967,2,0,L|152:216,1,80
259,291,80283,2,0,L|180:288,1,80
124,132,80599,6,0,P|144:99|184:80,2,80
