osu file format v14

[General]
AudioFilename: audio.mp3
AudioLeadIn: 0
PreviewTime: 48487
Countdown: 0
SampleSet: Soft
StackLeniency: 0.7
Mode: 3
LetterboxInBreaks: 0
SpecialStyle: 0
WidescreenStoryboard: 1

[Editor]
Bookmarks: 1050,17050,34050,50050,66050,82050,98050,114050,130050,147050,164050,172050,188050,204050,212050
DistanceSpacing: 0.4
BeatDivisor: 4
GridSize: 32
TimelineZoom: 2.200005

[Metadata]
Title:Take This Life
TitleUnicode:Take This Life
Artist:In Flames
ArtistUnicode:In Flames
Creator:Garalulu
Version:Wonki's Extra
Source:
Tags:Metal English Wonki Guitar Hero III: Legends of Rock melodic death alternative melodeath come clarity
BeatmapID:3491269
BeatmapSetID:1700983

[Difficulty]
HPDrainRate:8.5
CircleSize:7
OverallDifficulty:7.5
ApproachRate:10
SliderMultiplier:1.4
SliderTickRate:1

[Events]
//Background and Video events
0,0,"BG.jpg",0,0
//Break Periods
//Storyboard Layer 0 (Background)
//Storyboard Layer 1 (Fail)
//Storyboard Layer 2 (Pass)
//Storyboard Layer 3 (Foreground)
//Storyboard Layer 4 (Overlay)
//Storyboard Sound Samples

[TimingPoints]
1050,250,4,2,1,20,1,0
50050,-100,4,2,1,20,0,1
66050,-100,4,2,1,20,0,0
98050,-100,4,2,1,20,0,1
114050,-100,4,2,1,20,0,0
172050,-100,4,2,1,20,0,1
188050,-100,4,2,1,20,0,0

[HitObjects]
182,192,50,128,0,175:0:0:0:0:
402,192,175,1,0,0:0:0:0:
256,192,237,1,0,0:0:0:0:
109,192,300,128,0,425:0:0:0:0:
475,192,425,1,0,0:0:0:0:
329,192,487,1,0,0:0:0:0:
182,192,550,128,0,675:0:0:0:0:
402,192,675,1,0,0:0:0:0:
256,192,737,1,0,0:0:0:0:
109,192,800,128,0,925:0:0:0:0:
475,192,925,1,0,0:0:0:0:
329,192,987,1,0,0:0:0:0:
36,192,1050,1,0,0:0:0:0:
182,192,1050,1,0,0:0:0:0:
402,192,1050,1,0,0:0:0:0:
256,192,1175,1,0,0:0:0:0:
109,192,1175,128,0,1300:0:0:0:0:
182,192,1237,128,0,1300:0:0:0:0:
36,192,1300,1,0,0:0:0:0:
475,192,1300,1,0,0:0:0:0:
329,192,1300,1,0,0:0:0:0:
402,192,1425,128,0,1550:0:0:0:0:
256,192,1425,1,0,0:0:0:0:
329,192,1487,128,0,1550:0:0:0:0:
109,192,1550,1,0,0:0:0:0:
182,192,1550,1,0,0:0:0:0:
475,192,1550,1,0,0:0:0:0:
36,192,1675,128,0,1800:0:0:0:0:
256,192,1675,1,0,0:0:0:0:
182,192,1737,128,0,1800:0:0:0:0:
109,192,1800,1,0,0:0:0:0:
402,192,1800,1,0,0:0:0:0:
329,192,1800,1,0,0:0:0:0:
475,192,1925,128,0,2050:0:0:0:0:
256,192,1925,1,0,0:0:0:0:
329,192,1987,128,0,2050:0:0:0:0:
36,192,2050,1,0,0:0:0:0:
182,192,2050,1,0,0:0:0:0:
109,192,2050,1,0,0:0:0:0:
182,192,2175,128,0,2300:0:0:0:0:
329,192,2175,1,0,0:0:0:0:
109,192,2237,128,0,2300:0:0:0:0:
402,192,2300,1,0,0:0:0:0:
36,192,2300,1,0,0:0:0:0:
256,192,2300,1,0,0:0:0:0:
329,192,2425,128,0,2550:0:0:0:0:
182,192,2425,1,0,0:0:0:0:
402,192,2487,128,0,2550:0:0:0:0:
256,192,2550,1,0,0:0:0:0:
475,192,2550,1,0,0:0:0:0:
109,192,2550,1,0,0:0:0:0:
475,192,2675,128,0,2800:0:0:0:0:
36,192,2675,128,0,2800:0:0:0:0:
329,192,2675,1,0,0:0:0:0:
182,192,2737,128,0,2800:0:0:0:0:
329,192,2800,128,0,2925:0:0:0:0:
256,192,2800,1,0,0:0:0:0:
402,192,2925,128,0,3050:0:0:0:0:
36,192,2925,128,0,3050:0:0:0:0:
182,192,2925,1,0,0:0:0:0:
109,192,2987,128,0,3050:0:0:0:0:
329,192,3050,1,0,0:0:0:0:
475,192,3050,1,0,0:0:0:0:
256,192,3050,1,0,0:0:0:0:
182,192,3175,128,0,3300:0:0:0:0:
402,192,3175,1,0,0:0:0:0:
109,192,3237,128,0,3300:0:0:0:0:
329,192,3300,1,0,0:0:0:0:
256,192,3300,1,0,0:0:0:0:
36,192,3300,1,0,0:0:0:0:
475,192,3425,128,0,3550:0:0:0:0:
182,192,3425,1,0,0:0:0:0:
402,192,3487,128,0,3550:0:0:0:0:
109,192,3550,1,0,0:0:0:0:
256,192,3550,1,0,0:0:0:0:
329,192,3550,1,0,0:0:0:0:
36,192,3675,128,0,3800:0:0:0:0:
402,192,3675,1,0,0:0:0:0:
182,192,3737,128,0,3800:0:0:0:0:
329,192,3800,1,0,0:0:0:0:
475,192,3800,1,0,0:0:0:0:
256,192,3800,1,0,0:0:0:0:
329,192,3925,128,0,4050:0:0:0:0:
182,192,3925,1,0,0:0:0:0:
256,192,3987,128,0,4050:0:0:0:0:
109,192,4050,1,0,0:0:0:0:
36,192,4050,1,0,0:0:0:0:
475,192,4050,1,0,0:0:0:0:
182,192,4175,128,0,4300:0:0:0:0:
329,192,4175,1,0,0:0:0:0:
109,192,4237,128,0,4300:0:0:0:0:
256,192,4300,1,0,0:0:0:0:
402,192,4300,1,0,0:0:0:0:
36,192,4300,1,0,0:0:0:0:
475,192,4425,128,0,4550:0:0:0:0:
182,192,4425,1,0,0:0:0:0:
329,192,4487,128,0,4550:0:0:0:0:
109,192,4550,1,0,0:0:0:0:
256,192,4550,1,0,0:0:0:0:
36,192,4550,1,0,0:0:0:0:
182,192,4675,128,0,4800:0:0:0:0:
329,192,4675,1,0,0:0:0:0:
36,192,4737,128,0,4800:0:0:0:0:
402,192,4800,1,0,0:0:0:0:
475,192,4800,1,0,0:0:0:0:
256,192,4800,1,0,0:0:0:0:
329,192,4925,128,0,5050:0:0:0:0:
182,192,4925,1,0,0:0:0:0:
402,192,4987,128,0,5050:0:0:0:0:
109,192,5050,1,0,0:0:0:0:
475,192,5050,1,0,0:0:0:0:
36,192,5050,1,0,0:0:0:0:
256,192,5175,128,0,5300:0:0:0:0:
402,192,5175,1,0,0:0:0:0:
182,192,5237,128,0,5300:0:0:0:0:
109,192,5300,1,0,0:0:0:0:
36,192,5300,1,0,0:0:0:0:
329,192,5300,1,0,0:0:0:0:
402,192,5425,128,0,5550:0:0:0:0:
182,192,5425,1,0,0:0:0:0:
475,192,5487,128,0,5550:0:0:0:0:
256,192,5550,1,0,0:0:0:0:
109,192,5550,1,0,0:0:0:0:
329,192,5550,1,0,0:0:0:0:
36,192,5675,128,0,5800:0:0:0:0:
475,192,5675,1,0,0:0:0:0:
109,192,5737,128,0,5800:0:0:0:0:
256,192,5800,1,0,0:0:0:0:
402,192,5800,1,0,0:0:0:0:
182,192,5800,1,0,0:0:0:0:
329,192,5925,128,0,6050:0:0:0:0:
109,192,5925,1,0,0:0:0:0:
402,192,5987,128,0,6050:0:0:0:0:
36,192,6050,1,0,0:0:0:0:
182,192,6050,1,0,0:0:0:0:
256,192,6050,1,0,0:0:0:0:
109,192,6175,128,0,6300:0:0:0:0:
475,192,6175,1,0,0:0:0:0:
182,192,6237,128,0,6300:0:0:0:0:
402,192,6300,1,0,0:0:0:0:
36,192,6300,1,0,0:0:0:0:
329,192,6300,1,0,0:0:0:0:
256,192,6425,128,0,6550:0:0:0:0:
109,192,6425,1,0,0:0:0:0:
329,192,6487,128,0,6550:0:0:0:0:
36,192,6550,1,0,0:0:0:0:
475,192,6550,1,0,0:0:0:0:
182,192,6550,1,0,0:0:0:0:
109,192,6675,128,0,6800:0:0:0:0:
475,192,6675,128,0,6800:0:0:0:0:
329,192,6675,1,0,0:0:0:0:
182,192,6737,128,0,6800:0:0:0:0:
329,192,6800,128,0,6925:0:0:0:0:
256,192,6800,1,0,0:0:0:0:
402,192,6925,128,0,7050:0:0:0:0:
182,192,6925,1,0,0:0:0:0:
36,192,6925,128,0,7050:0:0:0:0:
109,192,6987,128,0,7050:0:0:0:0:
475,192,7050,1,0,0:0:0:0:
329,192,7050,1,0,0:0:0:0:
256,192,7050,1,0,0:0:0:0:
182,192,7133,1,0,0:0:0:0:
36,192,7133,1,0,0:0:0:0:
256,192,7216,1,0,0:0:0:0:
402,192,7216,1,0,0:0:0:0:
109,192,7300,1,0,0:0:0:0:
329,192,7300,1,0,0:0:0:0:
402,192,7383,1,0,0:0:0:0:
182,192,7383,1,0,0:0:0:0:
256,192,7466,1,0,0:0:0:0:
36,192,7466,1,0,0:0:0:0:
182,192,7550,1,0,0:0:0:0:
402,192,7550,1,0,0:0:0:0:
475,192,7550,1,0,0:0:0:0:
109,192,7633,1,0,0:0:0:0:
36,192,7633,1,0,0:0:0:0:
256,192,7716,1,0,0:0:0:0:
475,192,7716,1,0,0:0:0:0:
402,192,7800,1,0,0:0:0:0:
182,192,7800,1,0,0:0:0:0:
109,192,7883,1,0,0:0:0:0:
329,192,7883,1,0,0:0:0:0:
256,192,7966,1,0,0:0:0:0:
36,192,7966,1,0,0:0:0:0:
182,192,8050,1,0,0:0:0:0:
329,192,8050,1,0,0:0:0:0:
475,192,8050,1,0,0:0:0:0:
402,192,8133,1,0,0:0:0:0:
109,192,8216,1,0,0:0:0:0:
36,192,8216,1,0,0:0:0:0:
182,192,8300,1,0,0:0:0:0:
329,192,8300,1,0,0:0:0:0:
475,192,8300,1,0,0:0:0:0:
109,192,8383,1,0,0:0:0:0:
256,192,8466,1,0,0:0:0:0:
36,192,8466,1,0,0:0:0:0:
182,192,8550,1,0,0:0:0:0:
329,192,8550,1,0,0:0:0:0:
475,192,8550,1,0,0:0:0:0:
109,192,8633,1,0,0:0:0:0:
36,192,8633,1,0,0:0:0:0:
256,192,8716,1,0,0:0:0:0:
402,192,8716,1,0,0:0:0:0:
36,192,8800,1,0,0:0:0:0:
182,192,8800,1,0,0:0:0:0:
329,192,8800,1,0,0:0:0:0:
256,192,8841,1,0,0:0:0:0:
402,192,8883,1,0,0:0:0:0:
475,192,8883,1,0,0:0:0:0:
256,192,8966,1,0,0:0:0:0:
109,192,8966,1,0,0:0:0:0:
475,192,9050,1,0,0:0:0:0:
329,192,9050,1,0,0:0:0:0:
182,192,9050,1,0,0:0:0:0:
36,192,9050,1,0,0:0:0:0:
256,192,9175,1,0,0:0:0:0:
402,192,9175,128,0,9300:0:0:0:0:
329,192,9237,128,0,9300:0:0:0:0:
475,192,9300,1,0,0:0:0:0:
36,192,9300,1,0,0:0:0:0:
182,192,9300,1,0,0:0:0:0:
109,192,9425,128,0,9550:0:0:0:0:
256,192,9425,1,0,0:0:0:0:
182,192,9487,128,0,9550:0:0:0:0:
402,192,9550,1,0,0:0:0:0:
329,192,9550,1,0,0:0:0:0:
36,192,9550,1,0,0:0:0:0:
475,192,9675,128,0,9800:0:0:0:0:
256,192,9675,1,0,0:0:0:0:
329,192,9737,128,0,9800:0:0:0:0:
402,192,9800,1,0,0:0:0:0:
109,192,9800,1,0,0:0:0:0:
182,192,9800,1,0,0:0:0:0:
36,192,9925,128,0,10050:0:0:0:0:
256,192,9925,1,0,0:0:0:0:
182,192,9987,128,0,10050:0:0:0:0:
475,192,10050,1,0,0:0:0:0:
329,192,10050,1,0,0:0:0:0:
402,192,10050,1,0,0:0:0:0:
329,192,10175,128,0,10300:0:0:0:0:
182,192,10175,1,0,0:0:0:0:
402,192,10237,128,0,10300:0:0:0:0:
109,192,10300,1,0,0:0:0:0:
475,192,10300,1,0,0:0:0:0:
256,192,10300,1,0,0:0:0:0:
182,192,10425,128,0,10550:0:0:0:0:
329,192,10425,1,0,0:0:0:0:
109,192,10487,128,0,10550:0:0:0:0:
256,192,10550,1,0,0:0:0:0:
36,192,10550,1,0,0:0:0:0:
402,192,10550,1,0,0:0:0:0:
36,192,10675,128,0,10800:0:0:0:0:
475,192,10675,128,0,10800:0:0:0:0:
182,192,10675,1,0,0:0:0:0:
329,192,10737,128,0,10800:0:0:0:0:
182,192,10800,128,0,10925:0:0:0:0:
256,192,10800,1,0,0:0:0:0:
109,192,10925,128,0,11050:0:0:0:0:
475,192,10925,128,0,11050:0:0:0:0:
329,192,10925,1,0,0:0:0:0:
402,192,10987,128,0,11050:0:0:0:0:
182,192,11050,1,0,0:0:0:0:
36,192,11050,1,0,0:0:0:0:
256,192,11050,1,0,0:0:0:0:
329,192,11175,128,0,11300:0:0:0:0:
109,192,11175,1,0,0:0:0:0:
402,192,11237,128,0,11300:0:0:0:0:
182,192,11300,1,0,0:0:0:0:
256,192,11300,1,0,0:0:0:0:
475,192,11300,1,0,0:0:0:0:
36,192,11425,128,0,11550:0:0:0:0:
329,192,11425,1,0,0:0:0:0:
109,192,11487,128,0,11550:0:0:0:0:
402,192,11550,1,0,0:0:0:0:
256,192,11550,1,0,0:0:0:0:
182,192,11550,1,0,0:0:0:0:
475,192,11675,128,0,11800:0:0:0:0:
109,192,11675,1,0,0:0:0:0:
329,192,11737,128,0,11800:0:0:0:0:
182,192,11800,1,0,0:0:0:0:
36,192,11800,1,0,0:0:0:0:
256,192,11800,1,0,0:0:0:0:
182,192,11925,128,0,12050:0:0:0:0:
329,192,11925,1,0,0:0:0:0:
256,192,11987,128,0,12050:0:0:0:0:
402,192,12050,1,0,0:0:0:0:
475,192,12050,1,0,0:0:0:0:
36,192,12050,1,0,0:0:0:0:
329,192,12175,128,0,12300:0:0:0:0:
182,192,12175,1,0,0:0:0:0:
402,192,12237,128,0,12300:0:0:0:0:
256,192,12300,1,0,0:0:0:0:
109,192,12300,1,0,0:0:0:0:
475,192,12300,1,0,0:0:0:0:
36,192,12425,128,0,12550:0:0:0:0:
329,192,12425,1,0,0:0:0:0:
182,192,12487,128,0,12550:0:0:0:0:
402,192,12550,1,0,0:0:0:0:
256,192,12550,1,0,0:0:0:0:
475,192,12550,1,0,0:0:0:0:
329,192,12675,128,0,12800:0:0:0:0:
182,192,12675,1,0,0:0:0:0:
475,192,12737,128,0,12800:0:0:0:0:
109,192,12800,1,0,0:0:0:0:
36,192,12800,1,0,0:0:0:0:
256,192,12800,1,0,0:0:0:0:
182,192,12925,128,0,13050:0:0:0:0:
329,192,12925,1,0,0:0:0:0:
109,192,12987,128,0,13050:0:0:0:0:
402,192,13050,1,0,0:0:0:0:
36,192,13050,1,0,0:0:0:0:
475,192,13050,1,0,0:0:0:0:
256,192,13175,128,0,13300:0:0:0:0:
109,192,13175,1,0,0:0:0:0:
329,192,13237,128,0,13300:0:0:0:0:
402,192,13300,1,0,0:0:0:0:
475,192,13300,1,0,0:0:0:0:
182,192,13300,1,0,0:0:0:0:
109,192,13425,128,0,13550:0:0:0:0:
329,192,13425,1,0,0:0:0:0:
36,192,13487,128,0,13550:0:0:0:0:
256,192,13550,1,0,0:0:0:0:
402,192,13550,1,0,0:0:0:0:
182,192,13550,1,0,0:0:0:0:
475,192,13675,128,0,13800:0:0:0:0:
36,192,13675,1,0,0:0:0:0:
402,192,13737,128,0,13800:0:0:0:0:
256,192,13800,1,0,0:0:0:0:
109,192,13800,1,0,0:0:0:0:
329,192,13800,1,0,0:0:0:0:
182,192,13925,128,0,14050:0:0:0:0:
402,192,13925,1,0,0:0:0:0:
109,192,13987,128,0,14050:0:0:0:0:
475,192,14050,1,0,0:0:0:0:
329,192,14050,1,0,0:0:0:0:
256,192,14050,1,0,0:0:0:0:
402,192,14175,128,0,14300:0:0:0:0:
36,192,14175,1,0,0:0:0:0:
329,192,14237,128,0,14300:0:0:0:0:
109,192,14300,1,0,0:0:0:0:
475,192,14300,1,0,0:0:0:0:
182,192,14300,1,0,0:0:0:0:
256,192,14425,128,0,14550:0:0:0:0:
402,192,14425,1,0,0:0:0:0:
182,192,14487,128,0,14550:0:0:0:0:
475,192,14550,1,0,0:0:0:0:
36,192,14550,1,0,0:0:0:0:
329,192,14550,1,0,0:0:0:0:
402,192,14675,128,0,14800:0:0:0:0:
36,192,14675,128,0,14800:0:0:0:0:
182,192,14675,1,0,0:0:0:0:
329,192,14737,128,0,14800:0:0:0:0:
182,192,14800,128,0,14925:0:0:0:0:
256,192,14800,1,0,0:0:0:0:
109,192,14925,128,0,15050:0:0:0:0:
329,192,14925,1,0,0:0:0:0:
475,192,14925,128,0,15050:0:0:0:0:
402,192,14987,128,0,15050:0:0:0:0:
36,192,15050,1,0,0:0:0:0:
182,192,15050,1,0,0:0:0:0:
256,192,15050,1,0,0:0:0:0:
329,192,15133,1,0,0:0:0:0:
475,192,15133,1,0,0:0:0:0:
109,192,15216,1,0,0:0:0:0:
402,192,15216,1,0,0:0:0:0:
329,192,15300,1,0,0:0:0:0:
36,192,15300,1,0,0:0:0:0:
182,192,15383,1,0,0:0:0:0:
475,192,15383,1,0,0:0:0:0:
329,192,15466,1,0,0:0:0:0:
109,192,15466,1,0,0:0:0:0:
36,192,15550,1,0,0:0:0:0:
256,192,15550,1,0,0:0:0:0:
402,192,15550,1,0,0:0:0:0:
182,192,15633,1,0,0:0:0:0:
475,192,15633,1,0,0:0:0:0:
329,192,15716,1,0,0:0:0:0:
109,192,15716,1,0,0:0:0:0:
475,192,15800,1,0,0:0:0:0:
256,192,15800,1,0,0:0:0:0:
36,192,15883,1,0,0:0:0:0:
329,192,15883,1,0,0:0:0:0:
109,192,15966,1,0,0:0:0:0:
402,192,15966,1,0,0:0:0:0:
182,192,16050,1,0,0:0:0:0:
256,192,16050,1,0,0:0:0:0:
475,192,16050,1,0,0:0:0:0:
109,192,16133,1,0,0:0:0:0:
36,192,16133,1,0,0:0:0:0:
256,192,16216,1,0,0:0:0:0:
402,192,16216,1,0,0:0:0:0:
182,192,16300,1,0,0:0:0:0:
329,192,16300,1,0,0:0:0:0:
109,192,16383,1,0,0:0:0:0:
402,192,16383,1,0,0:0:0:0:
256,192,16466,1,0,0:0:0:0:
36,192,16466,1,0,0:0:0:0:
182,192,16550,1,0,0:0:0:0:
329,192,16550,1,0,0:0:0:0:
475,192,16550,1,0,0:0:0:0:
182,192,16675,1,0,0:0:0:0:
109,192,16800,1,0,0:0:0:0:
36,192,16800,1,0,0:0:0:0:
402,192,16800,1,0,0:0:0:0:
402,192,16925,1,0,0:0:0:0:
329,192,17050,1,0,0:0:0:0:
36,192,17050,1,0,0:0:0:0:
475,192,17050,1,0,0:0:0:0:
182,192,17050,128,0,17300:0:0:0:0:
329,192,17175,1,0,0:0:0:0:
109,192,17175,128,0,17300:0:0:0:0:
329,192,17300,1,0,0:0:0:0:
329,192,17425,1,0,0:0:0:0:
36,192,17425,128,0,17675:0:0:0:0:
109,192,17550,128,0,17925:0:0:0:0:
402,192,17550,1,0,0:0:0:0:
475,192,17550,1,0,0:0:0:0:
182,192,17675,128,0,17925:0:0:0:0:
402,192,17675,1,0,0:0:0:0:
36,192,17800,128,0,17925:0:0:0:0:
402,192,17800,1,0,0:0:0:0:
402,192,17925,1,0,0:0:0:0:
475,192,18050,128,0,18300:0:0:0:0:
109,192,18050,1,0,0:0:0:0:
182,192,18050,1,0,0:0:0:0:
329,192,18175,128,0,18300:0:0:0:0:
109,192,18175,1,0,0:0:0:0:
109,192,18300,1,0,0:0:0:0:
109,192,18425,1,0,0:0:0:0:
329,192,18425,128,0,18675:0:0:0:0:
402,192,18550,128,0,18925:0:0:0:0:
36,192,18550,1,0,0:0:0:0:
182,192,18550,1,0,0:0:0:0:
475,192,18675,128,0,18925:0:0:0:0:
182,192,18675,1,0,0:0:0:0:
329,192,18800,128,0,18925:0:0:0:0:
182,192,18800,1,0,0:0:0:0:
182,192,18925,1,0,0:0:0:0:
36,192,19050,128,0,19300:0:0:0:0:
402,192,19050,1,0,0:0:0:0:
475,192,19050,1,0,0:0:0:0:
182,192,19175,128,0,19300:0:0:0:0:
402,192,19175,1,0,0:0:0:0:
402,192,19300,1,0,0:0:0:0:
402,192,19425,1,0,0:0:0:0:
329,192,19425,128,0,19675:0:0:0:0:
475,192,19550,128,0,19925:0:0:0:0:
36,192,19550,1,0,0:0:0:0:
182,192,19550,1,0,0:0:0:0:
182,192,19675,1,0,0:0:0:0:
402,192,19675,128,0,19925:0:0:0:0:
182,192,19800,1,0,0:0:0:0:
329,192,19800,128,0,19925:0:0:0:0:
182,192,19925,1,0,0:0:0:0:
36,192,20050,128,0,20300:0:0:0:0:
329,192,20050,1,0,0:0:0:0:
475,192,20050,1,0,0:0:0:0:
109,192,20175,128,0,20300:0:0:0:0:
475,192,20175,1,0,0:0:0:0:
475,192,20300,1,0,0:0:0:0:
475,192,20425,1,0,0:0:0:0:
402,192,20425,128,0,20675:0:0:0:0:
329,192,20550,128,0,20925:0:0:0:0:
36,192,20550,1,0,0:0:0:0:
182,192,20550,1,0,0:0:0:0:
475,192,20675,128,0,20925:0:0:0:0:
182,192,20675,1,0,0:0:0:0:
402,192,20800,128,0,20925:0:0:0:0:
182,192,20800,1,0,0:0:0:0:
182,192,20925,1,0,0:0:0:0:
329,192,21050,1,0,0:0:0:0:
475,192,21050,1,0,0:0:0:0:
109,192,21050,128,0,21300:0:0:0:0:
475,192,21175,1,0,0:0:0:0:
182,192,21175,128,0,21300:0:0:0:0:
475,192,21300,1,0,0:0:0:0:
475,192,21425,1,0,0:0:0:0:
36,192,21425,128,0,21675:0:0:0:0:
109,192,21550,128,0,21925:0:0:0:0:
256,192,21550,1,0,0:0:0:0:
402,192,21550,1,0,0:0:0:0:
182,192,21675,128,0,21925:0:0:0:0:
402,192,21675,1,0,0:0:0:0:
36,192,21800,128,0,21925:0:0:0:0:
402,192,21800,1,0,0:0:0:0:
402,192,21925,1,0,0:0:0:0:
475,192,22050,128,0,22300:0:0:0:0:
109,192,22050,1,0,0:0:0:0:
182,192,22050,1,0,0:0:0:0:
329,192,22175,128,0,22300:0:0:0:0:
109,192,22175,1,0,0:0:0:0:
109,192,22300,1,0,0:0:0:0:
109,192,22425,1,0,0:0:0:0:
329,192,22425,128,0,22675:0:0:0:0:
402,192,22550,128,0,22925:0:0:0:0:
36,192,22550,1,0,0:0:0:0:
182,192,22550,1,0,0:0:0:0:
475,192,22675,128,0,22925:0:0:0:0:
182,192,22675,1,0,0:0:0:0:
329,192,22800,128,0,22925:0:0:0:0:
182,192,22800,1,0,0:0:0:0:
182,192,22925,1,0,0:0:0:0:
36,192,23050,128,0,23300:0:0:0:0:
402,192,23050,1,0,0:0:0:0:
475,192,23050,1,0,0:0:0:0:
182,192,23175,128,0,23300:0:0:0:0:
402,192,23175,1,0,0:0:0:0:
402,192,23300,1,0,0:0:0:0:
402,192,23425,1,0,0:0:0:0:
329,192,23425,128,0,23675:0:0:0:0:
475,192,23550,128,0,23925:0:0:0:0:
36,192,23550,1,0,0:0:0:0:
182,192,23550,1,0,0:0:0:0:
182,192,23675,1,0,0:0:0:0:
402,192,23675,128,0,23925:0:0:0:0:
182,192,23800,1,0,0:0:0:0:
329,192,23800,128,0,23925:0:0:0:0:
36,192,23800,1,0,0:0:0:0:
182,192,23925,1,0,0:0:0:0:
36,192,23925,1,0,0:0:0:0:
475,192,24050,128,0,24300:0:0:0:0:
256,192,24050,1,0,0:0:0:0:
329,192,24175,128,0,24425:0:0:0:0:
36,192,24175,1,0,0:0:0:0:
182,192,24300,128,0,24550:0:0:0:0:
402,192,24300,1,0,0:0:0:0:
36,192,24425,128,0,24675:0:0:0:0:
256,192,24425,1,0,0:0:0:0:
475,192,24550,128,0,24925:0:0:0:0:
109,192,24550,1,0,0:0:0:0:
402,192,24550,1,0,0:0:0:0:
329,192,24675,128,0,24925:0:0:0:0:
256,192,24675,1,0,0:0:0:0:
182,192,24800,128,0,24925:0:0:0:0:
109,192,24800,1,0,0:0:0:0:
36,192,24925,1,0,0:0:0:0:
109,192,25050,1,0,0:0:0:0:
256,192,25050,1,0,0:0:0:0:
402,192,25050,128,0,25300:0:0:0:0:
182,192,25175,128,0,25425:0:0:0:0:
329,192,25175,128,0,25300:0:0:0:0:
109,192,25300,128,0,25425:0:0:0:0:
36,192,25300,128,0,25550:0:0:0:0:
329,192,25425,128,0,25550:0:0:0:0:
475,192,25425,128,0,25675:0:0:0:0:
109,192,25550,128,0,25675:0:0:0:0:
402,192,25550,128,0,25675:0:0:0:0:
182,192,25550,128,0,25800:0:0:0:0:
36,192,25675,1,0,0:0:0:0:
329,192,25675,1,0,0:0:0:0:
256,192,25800,128,0,26050:0:0:0:0:
109,192,25800,128,0,25925:0:0:0:0:
402,192,25800,128,0,25925:0:0:0:0:
182,192,25925,1,0,0:0:0:0:
475,192,25925,1,0,0:0:0:0:
109,192,26050,128,0,26300:0:0:0:0:
402,192,26050,1,0,0:0:0:0:
36,192,26050,1,0,0:0:0:0:
329,192,26175,128,0,26425:0:0:0:0:
182,192,26175,128,0,26300:0:0:0:0:
402,192,26300,128,0,26425:0:0:0:0:
475,192,26300,128,0,26550:0:0:0:0:
182,192,26425,128,0,26550:0:0:0:0:
36,192,26425,128,0,26675:0:0:0:0:
402,192,26550,128,0,26675:0:0:0:0:
109,192,26550,128,0,26675:0:0:0:0:
329,192,26550,128,0,26800:0:0:0:0:
475,192,26675,1,0,0:0:0:0:
182,192,26675,1,0,0:0:0:0:
256,192,26800,128,0,27050:0:0:0:0:
402,192,26800,128,0,26925:0:0:0:0:
109,192,26800,128,0,26925:0:0:0:0:
329,192,26925,1,0,0:0:0:0:
36,192,26925,1,0,0:0:0:0:
402,192,27050,128,0,27300:0:0:0:0:
182,192,27050,1,0,0:0:0:0:
109,192,27050,1,0,0:0:0:0:
475,192,27175,128,0,27300:0:0:0:0:
256,192,27175,128,0,27425:0:0:0:0:
36,192,27300,128,0,27550:0:0:0:0:
182,192,27300,128,0,27425:0:0:0:0:
475,192,27425,128,0,27675:0:0:0:0:
402,192,27425,128,0,27550:0:0:0:0:
182,192,27550,128,0,27800:0:0:0:0:
329,192,27550,128,0,27675:0:0:0:0:
109,192,27550,128,0,27675:0:0:0:0:
256,192,27675,1,0,0:0:0:0:
36,192,27675,1,0,0:0:0:0:
329,192,27800,128,0,27925:0:0:0:0:
109,192,27800,128,0,27925:0:0:0:0:
475,192,27800,128,0,28050:0:0:0:0:
402,192,27925,1,0,0:0:0:0:
36,192,27925,1,0,0:0:0:0:
256,192,28050,1,0,0:0:0:0:
182,192,28050,128,0,28300:0:0:0:0:
329,192,28050,1,0,0:0:0:0:
36,192,28175,128,0,28300:0:0:0:0:
402,192,28175,128,0,28425:0:0:0:0:
475,192,28300,128,0,28550:0:0:0:0:
256,192,28300,128,0,28425:0:0:0:0:
36,192,28425,128,0,28675:0:0:0:0:
109,192,28425,128,0,28550:0:0:0:0:
402,192,28550,128,0,28675:0:0:0:0:
329,192,28550,128,0,28800:0:0:0:0:
182,192,28550,128,0,28675:0:0:0:0:
256,192,28675,1,0,0:0:0:0:
475,192,28675,1,0,0:0:0:0:
36,192,28800,128,0,29050:0:0:0:0:
182,192,28800,128,0,28925:0:0:0:0:
402,192,28800,128,0,28925:0:0:0:0:
109,192,28925,1,0,0:0:0:0:
329,192,28925,1,0,0:0:0:0:
402,192,29050,1,0,0:0:0:0:
256,192,29050,1,0,0:0:0:0:
475,192,29050,128,0,29300:0:0:0:0:
182,192,29175,128,0,29425:0:0:0:0:
329,192,29175,128,0,29300:0:0:0:0:
109,192,29300,128,0,29425:0:0:0:0:
36,192,29300,128,0,29550:0:0:0:0:
256,192,29425,128,0,29550:0:0:0:0:
475,192,29425,128,0,29675:0:0:0:0:
109,192,29550,128,0,29675:0:0:0:0:
402,192,29550,128,0,29675:0:0:0:0:
182,192,29550,128,0,29800:0:0:0:0:
36,192,29675,1,0,0:0:0:0:
329,192,29675,1,0,0:0:0:0:
256,192,29800,128,0,30050:0:0:0:0:
109,192,29800,128,0,29925:0:0:0:0:
402,192,29800,128,0,29925:0:0:0:0:
182,192,29925,1,0,0:0:0:0:
329,192,29925,1,0,0:0:0:0:
109,192,30050,128,0,30300:0:0:0:0:
475,192,30050,1,0,0:0:0:0:
36,192,30050,1,0,0:0:0:0:
329,192,30175,128,0,30425:0:0:0:0:
182,192,30175,128,0,30300:0:0:0:0:
402,192,30300,128,0,30425:0:0:0:0:
475,192,30300,128,0,30550:0:0:0:0:
182,192,30425,128,0,30550:0:0:0:0:
36,192,30425,128,0,30675:0:0:0:0:
402,192,30550,128,0,30675:0:0:0:0:
109,192,30550,128,0,30675:0:0:0:0:
329,192,30550,128,0,30800:0:0:0:0:
475,192,30675,1,0,0:0:0:0:
182,192,30675,1,0,0:0:0:0:
256,192,30800,128,0,31050:0:0:0:0:
402,192,30800,128,0,30925:0:0:0:0:
109,192,30800,128,0,30925:0:0:0:0:
329,192,30925,1,0,0:0:0:0:
36,192,30925,1,0,0:0:0:0:
402,192,31050,128,0,31300:0:0:0:0:
182,192,31050,1,0,0:0:0:0:
109,192,31050,1,0,0:0:0:0:
475,192,31175,128,0,31300:0:0:0:0:
256,192,31175,128,0,31425:0:0:0:0:
36,192,31300,128,0,31550:0:0:0:0:
109,192,31300,128,0,31425:0:0:0:0:
475,192,31425,128,0,31675:0:0:0:0:
329,192,31425,128,0,31550:0:0:0:0:
182,192,31550,128,0,31800:0:0:0:0:
402,192,31550,128,0,31675:0:0:0:0:
109,192,31550,128,0,31675:0:0:0:0:
256,192,31675,1,0,0:0:0:0:
36,192,31675,1,0,0:0:0:0:
329,192,31800,128,0,31925:0:0:0:0:
109,192,31800,128,0,31925:0:0:0:0:
475,192,31800,128,0,32050:0:0:0:0:
402,192,31925,1,0,0:0:0:0:
36,192,31925,1,0,0:0:0:0:
329,192,32050,1,0,0:0:0:0:
182,192,32050,128,0,32300:0:0:0:0:
256,192,32050,1,0,0:0:0:0:
402,192,32175,128,0,32425:0:0:0:0:
36,192,32175,128,0,32300:0:0:0:0:
256,192,32300,128,0,32425:0:0:0:0:
475,192,32300,128,0,32550:0:0:0:0:
109,192,32425,128,0,32550:0:0:0:0:
36,192,32425,128,0,32675:0:0:0:0:
182,192,32550,128,0,32675:0:0:0:0:
329,192,32550,128,0,32800:0:0:0:0:
402,192,32550,128,0,32675:0:0:0:0:
475,192,32675,1,0,0:0:0:0:
256,192,32675,1,0,0:0:0:0:
182,192,32800,128,0,32925:0:0:0:0:
36,192,32800,128,0,33050:0:0:0:0:
402,192,32800,128,0,32925:0:0:0:0:
329,192,32925,1,0,0:0:0:0:
109,192,32925,1,0,0:0:0:0:
256,192,33050,128,0,33175:0:0:0:0:
475,192,33050,128,0,33300:0:0:0:0:
402,192,33050,1,0,0:0:0:0:
182,192,33175,128,0,33425:0:0:0:0:
36,192,33175,1,0,0:0:0:0:
109,192,33175,1,0,0:0:0:0:
402,192,33300,128,0,33550:0:0:0:0:
256,192,33300,1,0,0:0:0:0:
329,192,33300,1,0,0:0:0:0:
109,192,33425,128,0,33675:0:0:0:0:
475,192,33425,1,0,0:0:0:0:
36,192,33425,1,0,0:0:0:0:
329,192,33550,128,0,33800:0:0:0:0:
182,192,33550,1,0,0:0:0:0:
256,192,33550,1,0,0:0:0:0:
36,192,33675,128,0,33925:0:0:0:0:
402,192,33675,1,0,0:0:0:0:
475,192,33675,1,0,0:0:0:0:
256,192,33800,128,0,34050:0:0:0:0:
109,192,33800,1,0,0:0:0:0:
182,192,33800,1,0,0:0:0:0:
475,192,33925,128,0,34050:0:0:0:0:
329,192,33925,1,0,0:0:0:0:
402,192,33925,1,0,0:0:0:0:
182,192,34050,1,0,0:0:0:0:
36,192,34050,1,0,0:0:0:0:
109,192,34050,1,0,0:0:0:0:
329,192,34175,128,0,34300:0:0:0:0:
256,192,34175,1,0,0:0:0:0:
402,192,34237,128,0,34362:0:0:0:0:
475,192,34300,128,0,34425:0:0:0:0:
182,192,34300,1,0,0:0:0:0:
109,192,34300,1,0,0:0:0:0:
256,192,34425,128,0,34550:0:0:0:0:
329,192,34425,1,0,0:0:0:0:
182,192,34487,128,0,34612:0:0:0:0:
109,192,34550,128,0,34675:0:0:0:0:
402,192,34550,1,0,0:0:0:0:
475,192,34550,1,0,0:0:0:0:
329,192,34675,1,0,0:0:0:0:
36,192,34675,1,0,0:0:0:0:
109,192,34800,1,0,0:0:0:0:
182,192,34800,1,0,0:0:0:0:
475,192,34800,128,0,34925:0:0:0:0:
402,192,34862,128,0,34987:0:0:0:0:
329,192,34925,128,0,35050:0:0:0:0:
256,192,34925,1,0,0:0:0:0:
36,192,35050,128,0,35175:0:0:0:0:
475,192,35050,1,0,0:0:0:0:
182,192,35050,1,0,0:0:0:0:
109,192,35112,128,0,35237:0:0:0:0:
256,192,35175,128,0,35300:0:0:0:0:
402,192,35175,1,0,0:0:0:0:
182,192,35300,1,0,0:0:0:0:
36,192,35300,1,0,0:0:0:0:
475,192,35300,128,0,35425:0:0:0:0:
402,192,35425,128,0,35550:0:0:0:0:
256,192,35425,1,0,0:0:0:0:
329,192,35487,128,0,35612:0:0:0:0:
36,192,35550,128,0,35675:0:0:0:0:
182,192,35550,1,0,0:0:0:0:
475,192,35550,1,0,0:0:0:0:
109,192,35612,128,0,35737:0:0:0:0:
182,192,35675,128,0,35800:0:0:0:0:
402,192,35675,1,0,0:0:0:0:
256,192,35737,128,0,35862:0:0:0:0:
475,192,35800,128,0,35925:0:0:0:0:
36,192,35800,1,0,0:0:0:0:
329,192,35800,1,0,0:0:0:0:
402,192,35862,128,0,35987:0:0:0:0:
329,192,35925,128,0,36050:0:0:0:0:
182,192,35925,1,0,0:0:0:0:
256,192,35987,128,0,36112:0:0:0:0:
475,192,36050,1,0,0:0:0:0:
109,192,36050,1,0,0:0:0:0:
36,192,36050,1,0,0:0:0:0:
182,192,36175,1,0,0:0:0:0:
256,192,36300,128,0,36425:0:0:0:0:
402,192,36300,1,0,0:0:0:0:
475,192,36300,1,0,0:0:0:0:
182,192,36362,128,0,36487:0:0:0:0:
109,192,36425,128,0,36550:0:0:0:0:
329,192,36425,1,0,0:0:0:0:
475,192,36550,128,0,36675:0:0:0:0:
256,192,36550,1,0,0:0:0:0:
36,192,36550,1,0,0:0:0:0:
402,192,36612,128,0,36737:0:0:0:0:
329,192,36675,128,0,36800:0:0:0:0:
182,192,36675,1,0,0:0:0:0:
36,192,36800,128,0,36925:0:0:0:0:
256,192,36800,1,0,0:0:0:0:
475,192,36800,1,0,0:0:0:0:
109,192,36862,128,0,36987:0:0:0:0:
182,192,36925,128,0,37050:0:0:0:0:
329,192,36925,1,0,0:0:0:0:
402,192,37050,128,0,37300:0:0:0:0:
475,192,37050,1,0,0:0:0:0:
36,192,37050,1,0,0:0:0:0:
256,192,37175,128,0,37300:0:0:0:0:
182,192,37175,1,0,0:0:0:0:
36,192,37300,1,0,0:0:0:0:
329,192,37300,1,0,0:0:0:0:
182,192,37425,128,0,37612:0:0:0:0:
402,192,37425,1,0,0:0:0:0:
256,192,37550,128,0,37675:0:0:0:0:
36,192,37550,1,0,0:0:0:0:
475,192,37550,1,0,0:0:0:0:
329,192,37612,128,0,37737:0:0:0:0:
402,192,37675,128,0,37800:0:0:0:0:
109,192,37675,1,0,0:0:0:0:
475,192,37737,128,0,37862:0:0:0:0:
36,192,37800,128,0,37925:0:0:0:0:
256,192,37800,1,0,0:0:0:0:
109,192,37862,128,0,37987:0:0:0:0:
182,192,37925,128,0,38050:0:0:0:0:
402,192,37925,1,0,0:0:0:0:
256,192,37987,128,0,38112:0:0:0:0:
475,192,38050,1,0,0:0:0:0:
329,192,38050,1,0,0:0:0:0:
36,192,38112,1,0,0:0:0:0:
182,192,38112,1,0,0:0:0:0:
329,192,38175,1,0,0:0:0:0:
475,192,38175,1,0,0:0:0:0:
182,192,38300,128,0,38425:0:0:0:0:
402,192,38300,1,0,0:0:0:0:
256,192,38300,1,0,0:0:0:0:
109,192,38362,128,0,38487:0:0:0:0:
36,192,38425,128,0,38550:0:0:0:0:
329,192,38425,1,0,0:0:0:0:
182,192,38550,1,0,0:0:0:0:
475,192,38550,128,0,38675:0:0:0:0:
256,192,38550,1,0,0:0:0:0:
402,192,38612,128,0,38737:0:0:0:0:
329,192,38675,128,0,38800:0:0:0:0:
109,192,38675,1,0,0:0:0:0:
36,192,38800,128,0,39050:0:0:0:0:
256,192,38800,1,0,0:0:0:0:
182,192,38800,1,0,0:0:0:0:
109,192,38925,128,0,39050:0:0:0:0:
329,192,38925,1,0,0:0:0:0:
182,192,39050,1,0,0:0:0:0:
475,192,39050,128,0,39300:0:0:0:0:
402,192,39050,1,0,0:0:0:0:
329,192,39175,128,0,39300:0:0:0:0:
256,192,39175,1,0,0:0:0:0:
36,192,39300,1,0,0:0:0:0:
182,192,39300,1,0,0:0:0:0:
256,192,39425,1,0,0:0:0:0:
109,192,39425,128,0,39550:0:0:0:0:
329,192,39425,1,0,0:0:0:0:
402,192,39550,128,0,39675:0:0:0:0:
36,192,39550,1,0,0:0:0:0:
475,192,39550,1,0,0:0:0:0:
329,192,39612,128,0,39737:0:0:0:0:
256,192,39675,128,0,39800:0:0:0:0:
182,192,39675,1,0,0:0:0:0:
109,192,39800,128,0,39925:0:0:0:0:
36,192,39800,1,0,0:0:0:0:
475,192,39800,1,0,0:0:0:0:
182,192,39862,128,0,39987:0:0:0:0:
256,192,39925,128,0,40050:0:0:0:0:
329,192,39925,1,0,0:0:0:0:
109,192,40050,1,0,0:0:0:0:
402,192,40050,1,0,0:0:0:0:
36,192,40112,1,0,0:0:0:0:
475,192,40112,1,0,0:0:0:0:
182,192,40175,1,0,0:0:0:0:
329,192,40237,1,0,0:0:0:0:
36,192,40300,1,0,0:0:0:0:
475,192,40300,1,0,0:0:0:0:
182,192,40362,1,0,0:0:0:0:
329,192,40362,1,0,0:0:0:0:
402,192,40425,1,0,0:0:0:0:
109,192,40487,1,0,0:0:0:0:
182,192,40550,1,0,0:0:0:0:
329,192,40550,1,0,0:0:0:0:
36,192,40612,1,0,0:0:0:0:
475,192,40612,1,0,0:0:0:0:
402,192,40675,1,0,0:0:0:0:
109,192,40737,1,0,0:0:0:0:
36,192,40800,1,0,0:0:0:0:
475,192,40800,1,0,0:0:0:0:
182,192,40862,1,0,0:0:0:0:
329,192,40862,1,0,0:0:0:0:
109,192,40925,1,0,0:0:0:0:
402,192,40987,1,0,0:0:0:0:
36,192,41050,1,0,0:0:0:0:
256,192,41050,1,0,0:0:0:0:
329,192,41133,1,0,0:0:0:0:
109,192,41133,1,0,0:0:0:0:
402,192,41216,1,0,0:0:0:0:
182,192,41216,1,0,0:0:0:0:
36,192,41300,1,0,0:0:0:0:
329,192,41300,1,0,0:0:0:0:
402,192,41383,1,0,0:0:0:0:
109,192,41383,1,0,0:0:0:0:
475,192,41466,1,0,0:0:0:0:
182,192,41466,1,0,0:0:0:0:
109,192,41550,1,0,0:0:0:0:
329,192,41550,1,0,0:0:0:0:
402,192,41550,1,0,0:0:0:0:
109,192,41800,1,0,0:0:0:0:
329,192,41800,1,0,0:0:0:0:
402,192,41800,1,0,0:0:0:0:
182,192,42050,1,0,0:0:0:0:
402,192,42050,1,0,0:0:0:0:
475,192,42050,1,0,0:0:0:0:
256,192,42175,1,0,0:0:0:0:
329,192,42175,1,0,0:0:0:0:
36,192,42175,128,0,42300:0:0:0:0:
475,192,42175,1,0,0:0:0:0:
182,192,42300,1,0,0:0:0:0:
109,192,42300,1,0,0:0:0:0:
402,192,42300,1,0,0:0:0:0:
36,192,42425,128,0,42550:0:0:0:0:
329,192,42425,1,0,0:0:0:0:
475,192,42425,1,0,0:0:0:0:
109,192,42425,1,0,0:0:0:0:
182,192,42550,1,0,0:0:0:0:
256,192,42550,1,0,0:0:0:0:
402,192,42550,1,0,0:0:0:0:
329,192,42675,128,0,42800:0:0:0:0:
109,192,42675,1,0,0:0:0:0:
36,192,42675,1,0,0:0:0:0:
402,192,42675,1,0,0:0:0:0:
256,192,42800,1,0,0:0:0:0:
182,192,42800,1,0,0:0:0:0:
475,192,42800,1,0,0:0:0:0:
329,192,42925,128,0,43050:0:0:0:0:
402,192,42925,1,0,0:0:0:0:
109,192,42925,1,0,0:0:0:0:
182,192,42925,1,0,0:0:0:0:
36,192,43050,1,0,0:0:0:0:
256,192,43050,1,0,0:0:0:0:
475,192,43050,1,0,0:0:0:0:
182,192,43175,128,0,43300:0:0:0:0:
402,192,43175,1,0,0:0:0:0:
109,192,43175,1,0,0:0:0:0:
475,192,43175,1,0,0:0:0:0:
256,192,43300,1,0,0:0:0:0:
329,192,43300,1,0,0:0:0:0:
36,192,43300,1,0,0:0:0:0:
182,192,43425,128,0,43550:0:0:0:0:
402,192,43425,1,0,0:0:0:0:
475,192,43425,1,0,0:0:0:0:
36,192,43425,1,0,0:0:0:0:
109,192,43550,1,0,0:0:0:0:
256,192,43550,1,0,0:0:0:0:
402,192,43550,1,0,0:0:0:0:
475,192,43675,128,0,43800:0:0:0:0:
182,192,43675,128,0,43800:0:0:0:0:
256,192,43675,1,0,0:0:0:0:
109,192,43800,1,0,0:0:0:0:
36,192,43800,128,0,43925:0:0:0:0:
329,192,43800,1,0,0:0:0:0:
475,192,43925,128,0,44050:0:0:0:0:
402,192,43925,128,0,44050:0:0:0:0:
329,192,43925,1,0,0:0:0:0:
36,192,44050,1,0,0:0:0:0:
182,192,44050,1,0,0:0:0:0:
256,192,44050,1,0,0:0:0:0:
109,192,44175,128,0,44300:0:0:0:0:
256,192,44175,1,0,0:0:0:0:
402,192,44175,1,0,0:0:0:0:
475,192,44175,1,0,0:0:0:0:
36,192,44300,1,0,0:0:0:0:
329,192,44300,1,0,0:0:0:0:
475,192,44300,1,0,0:0:0:0:
109,192,44425,128,0,44550:0:0:0:0:
182,192,44425,1,0,0:0:0:0:
256,192,44425,1,0,0:0:0:0:
329,192,44425,1,0,0:0:0:0:
36,192,44550,1,0,0:0:0:0:
475,192,44550,1,0,0:0:0:0:
402,192,44550,1,0,0:0:0:0:
402,192,44675,128,0,44800:0:0:0:0:
182,192,44675,1,0,0:0:0:0:
329,192,44675,1,0,0:0:0:0:
36,192,44675,1,0,0:0:0:0:
475,192,44800,1,0,0:0:0:0:
109,192,44800,1,0,0:0:0:0:
256,192,44800,1,0,0:0:0:0:
402,192,44925,128,0,45050:0:0:0:0:
329,192,44925,1,0,0:0:0:0:
36,192,44925,1,0,0:0:0:0:
256,192,44925,1,0,0:0:0:0:
182,192,45050,1,0,0:0:0:0:
475,192,45050,1,0,0:0:0:0:
109,192,45050,1,0,0:0:0:0:
36,192,45175,128,0,45300:0:0:0:0:
109,192,45175,1,0,0:0:0:0:
329,192,45175,1,0,0:0:0:0:
402,192,45175,1,0,0:0:0:0:
256,192,45300,1,0,0:0:0:0:
475,192,45300,1,0,0:0:0:0:
182,192,45300,1,0,0:0:0:0:
36,192,45425,128,0,45550:0:0:0:0:
329,192,45425,1,0,0:0:0:0:
475,192,45425,1,0,0:0:0:0:
109,192,45425,1,0,0:0:0:0:
256,192,45550,1,0,0:0:0:0:
402,192,45550,1,0,0:0:0:0:
182,192,45550,1,0,0:0:0:0:
475,192,45675,128,0,45800:0:0:0:0:
182,192,45675,1,0,0:0:0:0:
36,192,45675,1,0,0:0:0:0:
329,192,45675,1,0,0:0:0:0:
109,192,45800,1,0,0:0:0:0:
256,192,45800,1,0,0:0:0:0:
402,192,45800,1,0,0:0:0:0:
475,192,45925,128,0,46050:0:0:0:0:
36,192,45925,1,0,0:0:0:0:
402,192,45925,1,0,0:0:0:0:
182,192,45925,1,0,0:0:0:0:
109,192,46050,1,0,0:0:0:0:
182,192,46050,1,0,0:0:0:0:
329,192,46112,1,0,0:0:0:0:
402,192,46112,1,0,0:0:0:0:
109,192,46175,1,0,0:0:0:0:
182,192,46175,128,0,46300:0:0:0:0:
402,192,46300,1,0,0:0:0:0:
256,192,46300,1,0,0:0:0:0:
36,192,46300,1,0,0:0:0:0:
182,192,46425,128,0,46550:0:0:0:0:
329,192,46425,1,0,0:0:0:0:
475,192,46425,1,0,0:0:0:0:
36,192,46425,1,0,0:0:0:0:
402,192,46550,1,0,0:0:0:0:
256,192,46550,1,0,0:0:0:0:
109,192,46550,1,0,0:0:0:0:
329,192,46675,128,0,46800:0:0:0:0:
36,192,46675,1,0,0:0:0:0:
256,192,46675,1,0,0:0:0:0:
475,192,46675,1,0,0:0:0:0:
109,192,46800,1,0,0:0:0:0:
402,192,46800,1,0,0:0:0:0:
182,192,46800,1,0,0:0:0:0:
329,192,46925,128,0,47050:0:0:0:0:
256,192,46925,1,0,0:0:0:0:
36,192,46925,1,0,0:0:0:0:
109,192,46925,1,0,0:0:0:0:
182,192,47050,1,0,0:0:0:0:
402,192,47050,1,0,0:0:0:0:
475,192,47050,1,0,0:0:0:0:
256,192,47175,1,0,0:0:0:0:
329,192,47175,1,0,0:0:0:0:
109,192,47175,128,0,47300:0:0:0:0:
475,192,47175,1,0,0:0:0:0:
182,192,47300,1,0,0:0:0:0:
36,192,47300,1,0,0:0:0:0:
402,192,47300,1,0,0:0:0:0:
109,192,47425,128,0,47550:0:0:0:0:
36,192,47425,1,0,0:0:0:0:
329,192,47425,1,0,0:0:0:0:
256,192,47425,1,0,0:0:0:0:
182,192,47550,1,0,0:0:0:0:
475,192,47550,1,0,0:0:0:0:
402,192,47550,1,0,0:0:0:0:
402,192,47675,128,0,47800:0:0:0:0:
36,192,47675,1,0,0:0:0:0:
109,192,47675,128,0,47800:0:0:0:0:
256,192,47800,1,0,0:0:0:0:
329,192,47800,1,0,0:0:0:0:
182,192,47800,128,0,47925:0:0:0:0:
402,192,47925,128,0,48050:0:0:0:0:
36,192,47925,1,0,0:0:0:0:
475,192,47925,128,0,48050:0:0:0:0:
109,192,48050,1,0,0:0:0:0:
329,192,48050,1,0,0:0:0:0:
256,192,48112,1,0,0:0:0:0:
36,192,48112,1,0,0:0:0:0:
402,192,48175,1,0,0:0:0:0:
182,192,48237,1,0,0:0:0:0:
109,192,48300,1,0,0:0:0:0:
36,192,48300,1,0,0:0:0:0:
402,192,48362,1,0,0:0:0:0:
475,192,48362,1,0,0:0:0:0:
182,192,48425,1,0,0:0:0:0:
329,192,48487,1,0,0:0:0:0:
109,192,48550,1,0,0:0:0:0:
402,192,48550,1,0,0:0:0:0:
182,192,48612,1,0,0:0:0:0:
475,192,48612,1,0,0:0:0:0:
36,192,48675,1,0,0:0:0:0:
329,192,48737,1,0,0:0:0:0:
402,192,48800,1,0,0:0:0:0:
475,192,48800,1,0,0:0:0:0:
182,192,48862,1,0,0:0:0:0:
109,192,48862,1,0,0:0:0:0:
402,192,48925,1,0,0:0:0:0:
475,192,48925,1,0,0:0:0:0:
182,192,48987,1,0,0:0:0:0:
109,192,48987,1,0,0:0:0:0:
36,192,49050,1,0,0:0:0:0:
329,192,49050,1,0,0:0:0:0:
475,192,49050,1,0,0:0:0:0:
256,192,49133,1,0,0:0:0:0:
402,192,49133,1,0,0:0:0:0:
182,192,49216,1,0,0:0:0:0:
329,192,49216,1,0,0:0:0:0:
109,192,49216,1,0,0:0:0:0:
36,192,49300,1,0,0:0:0:0:
182,192,49362,1,0,0:0:0:0:
329,192,49425,1,0,0:0:0:0:
475,192,49487,1,0,0:0:0:0:
109,192,49550,1,0,0:0:0:0:
36,192,49550,1,0,0:0:0:0:
402,192,49550,1,0,0:0:0:0:
256,192,49550,1,0,0:0:0:0:
36,192,49675,1,0,0:0:0:0:
109,192,49675,1,0,0:0:0:0:
402,192,49675,1,0,0:0:0:0:
182,192,49800,1,0,0:0:0:0:
256,192,49800,1,0,0:0:0:0:
329,192,49800,1,0,0:0:0:0:
475,192,49800,1,0,0:0:0:0:
182,192,49925,1,0,0:0:0:0:
329,192,49925,1,0,0:0:0:0:
475,192,49925,1,0,0:0:0:0:
36,192,50050,1,0,0:0:0:0:
256,192,50050,1,0,0:0:0:0:
402,192,50050,128,0,50300:0:0:0:0:
109,192,50050,128,0,50175:0:0:0:0:
475,192,50175,128,0,50300:0:0:0:0:
329,192,50175,1,0,0:0:0:0:
36,192,50300,128,0,50550:0:0:0:0:
256,192,50300,128,0,50425:0:0:0:0:
182,192,50300,1,0,0:0:0:0:
402,192,50425,128,0,50550:0:0:0:0:
329,192,50425,1,0,0:0:0:0:
182,192,50550,128,0,50800:0:0:0:0:
475,192,50550,128,0,50675:0:0:0:0:
256,192,50550,1,0,0:0:0:0:
329,192,50675,128,0,50800:0:0:0:0:
36,192,50675,1,0,0:0:0:0:
475,192,50800,128,0,51050:0:0:0:0:
109,192,50800,128,0,50925:0:0:0:0:
402,192,50800,1,0,0:0:0:0:
256,192,50925,128,0,51050:0:0:0:0:
182,192,50925,1,0,0:0:0:0:
36,192,51050,128,0,51300:0:0:0:0:
329,192,51050,128,0,51175:0:0:0:0:
109,192,51050,1,0,0:0:0:0:
182,192,51175,128,0,51300:0:0:0:0:
256,192,51175,1,0,0:0:0:0:
402,192,51300,128,0,51550:0:0:0:0:
475,192,51300,128,0,51425:0:0:0:0:
329,192,51300,1,0,0:0:0:0:
256,192,51425,128,0,51550:0:0:0:0:
36,192,51425,1,0,0:0:0:0:
109,192,51550,128,0,51800:0:0:0:0:
182,192,51550,128,0,51675:0:0:0:0:
475,192,51550,1,0,0:0:0:0:
329,192,51675,128,0,51800:0:0:0:0:
402,192,51675,1,0,0:0:0:0:
475,192,51800,128,0,52050:0:0:0:0:
256,192,51800,128,0,51925:0:0:0:0:
182,192,51800,1,0,0:0:0:0:
36,192,51925,128,0,52050:0:0:0:0:
329,192,51925,1,0,0:0:0:0:
109,192,52050,128,0,52300:0:0:0:0:
402,192,52050,128,0,52175:0:0:0:0:
256,192,52050,1,0,0:0:0:0:
182,192,52050,1,0,0:0:0:0:
36,192,52175,128,0,52300:0:0:0:0:
182,192,52175,1,0,0:0:0:0:
256,192,52300,128,0,52425:0:0:0:0:
475,192,52300,128,0,52550:0:0:0:0:
329,192,52300,1,0,0:0:0:0:
109,192,52425,128,0,52550:0:0:0:0:
182,192,52425,1,0,0:0:0:0:
36,192,52550,128,0,52675:0:0:0:0:
329,192,52550,128,0,52800:0:0:0:0:
256,192,52550,1,0,0:0:0:0:
182,192,52675,128,0,52800:0:0:0:0:
475,192,52675,1,0,0:0:0:0:
402,192,52800,128,0,52925:0:0:0:0:
36,192,52800,128,0,53050:0:0:0:0:
109,192,52800,1,0,0:0:0:0:
256,192,52925,128,0,53050:0:0:0:0:
329,192,52925,1,0,0:0:0:0:
182,192,53050,128,0,53175:0:0:0:0:
402,192,53050,1,0,0:0:0:0:
475,192,53050,128,0,53300:0:0:0:0:
256,192,53175,1,0,0:0:0:0:
329,192,53175,128,0,53300:0:0:0:0:
36,192,53300,128,0,53425:0:0:0:0:
182,192,53300,1,0,0:0:0:0:
109,192,53300,128,0,53550:0:0:0:0:
475,192,53425,1,0,0:0:0:0:
256,192,53425,128,0,53550:0:0:0:0:
402,192,53550,128,0,53800:0:0:0:0:
36,192,53550,1,0,0:0:0:0:
329,192,53550,128,0,53675:0:0:0:0:
109,192,53675,1,0,0:0:0:0:
182,192,53675,128,0,53800:0:0:0:0:
36,192,53800,128,0,54050:0:0:0:0:
329,192,53800,1,0,0:0:0:0:
256,192,53800,128,0,53925:0:0:0:0:
402,192,53925,1,0,0:0:0:0:
475,192,53925,128,0,54050:0:0:0:0:
329,192,54050,128,0,54300:0:0:0:0:
256,192,54050,1,0,0:0:0:0:
182,192,54050,1,0,0:0:0:0:
109,192,54050,128,0,54175:0:0:0:0:
36,192,54175,128,0,54300:0:0:0:0:
182,192,54175,1,0,0:0:0:0:
402,192,54300,128,0,54550:0:0:0:0:
475,192,54300,1,0,0:0:0:0:
109,192,54300,128,0,54425:0:0:0:0:
182,192,54425,128,0,54550:0:0:0:0:
256,192,54425,1,0,0:0:0:0:
109,192,54550,128,0,54800:0:0:0:0:
475,192,54550,128,0,54675:0:0:0:0:
329,192,54550,1,0,0:0:0:0:
402,192,54675,128,0,54800:0:0:0:0:
256,192,54675,1,0,0:0:0:0:
36,192,54800,128,0,55050:0:0:0:0:
329,192,54800,128,0,54925:0:0:0:0:
182,192,54800,1,0,0:0:0:0:
402,192,54925,128,0,55050:0:0:0:0:
256,192,54925,1,0,0:0:0:0:
182,192,55050,128,0,55300:0:0:0:0:
475,192,55050,128,0,55175:0:0:0:0:
109,192,55050,1,0,0:0:0:0:
329,192,55175,128,0,55300:0:0:0:0:
256,192,55175,1,0,0:0:0:0:
475,192,55300,128,0,55550:0:0:0:0:
36,192,55300,128,0,55425:0:0:0:0:
109,192,55300,1,0,0:0:0:0:
256,192,55425,128,0,55550:0:0:0:0:
402,192,55425,1,0,0:0:0:0:
109,192,55550,128,0,55800:0:0:0:0:
329,192,55550,128,0,55675:0:0:0:0:
36,192,55550,1,0,0:0:0:0:
182,192,55675,128,0,55800:0:0:0:0:
475,192,55675,1,0,0:0:0:0:
402,192,55800,128,0,56050:0:0:0:0:
256,192,55800,128,0,55925:0:0:0:0:
329,192,55800,1,0,0:0:0:0:
109,192,55925,128,0,56050:0:0:0:0:
182,192,55925,1,0,0:0:0:0:
256,192,56050,1,0,0:0:0:0:
36,192,56050,1,0,0:0:0:0:
475,192,56050,1,0,0:0:0:0:
182,192,56175,1,0,0:0:0:0:
329,192,56175,1,0,0:0:0:0:
402,192,56237,1,0,0:0:0:0:
475,192,56300,1,0,0:0:0:0:
256,192,56300,1,0,0:0:0:0:
182,192,56362,1,0,0:0:0:0:
109,192,56425,1,0,0:0:0:0:
402,192,56425,1,0,0:0:0:0:
329,192,56487,1,0,0:0:0:0:
36,192,56550,1,0,0:0:0:0:
256,192,56550,1,0,0:0:0:0:
109,192,56612,1,0,0:0:0:0:
182,192,56675,1,0,0:0:0:0:
329,192,56675,1,0,0:0:0:0:
402,192,56737,1,0,0:0:0:0:
475,192,56800,1,0,0:0:0:0:
36,192,56800,1,0,0:0:0:0:
182,192,56800,1,0,0:0:0:0:
256,192,56862,1,0,0:0:0:0:
109,192,56925,1,0,0:0:0:0:
402,192,56925,1,0,0:0:0:0:
329,192,56925,1,0,0:0:0:0:
182,192,56987,1,0,0:0:0:0:
256,192,57050,1,0,0:0:0:0:
36,192,57050,1,0,0:0:0:0:
475,192,57050,1,0,0:0:0:0:
402,192,57112,1,0,0:0:0:0:
329,192,57175,1,0,0:0:0:0:
182,192,57175,1,0,0:0:0:0:
109,192,57237,1,0,0:0:0:0:
256,192,57237,1,0,0:0:0:0:
36,192,57300,1,0,0:0:0:0:
402,192,57300,1,0,0:0:0:0:
182,192,57362,1,0,0:0:0:0:
109,192,57425,1,0,0:0:0:0:
329,192,57425,1,0,0:0:0:0:
402,192,57487,1,0,0:0:0:0:
256,192,57487,1,0,0:0:0:0:
182,192,57550,1,0,0:0:0:0:
36,192,57550,1,0,0:0:0:0:
475,192,57550,1,0,0:0:0:0:
109,192,57675,1,0,0:0:0:0:
329,192,57675,1,0,0:0:0:0:
402,192,57675,1,0,0:0:0:0:
182,192,57800,1,0,0:0:0:0:
256,192,57800,1,0,0:0:0:0:
329,192,57925,1,0,0:0:0:0:
402,192,57925,1,0,0:0:0:0:
475,192,58050,128,0,58175:0:0:0:0:
36,192,58050,1,0,0:0:0:0:
182,192,58050,1,0,0:0:0:0:
329,192,58175,128,0,58300:0:0:0:0:
256,192,58175,1,0,0:0:0:0:
402,192,58175,1,0,0:0:0:0:
475,192,58300,128,0,58425:0:0:0:0:
182,192,58300,1,0,0:0:0:0:
36,192,58300,1,0,0:0:0:0:
329,192,58425,128,0,58550:0:0:0:0:
256,192,58425,1,0,0:0:0:0:
402,192,58425,1,0,0:0:0:0:
475,192,58550,128,0,58675:0:0:0:0:
256,192,58550,1,0,0:0:0:0:
182,192,58550,1,0,0:0:0:0:
109,192,58550,1,0,0:0:0:0:
329,192,58675,128,0,58800:0:0:0:0:
36,192,58675,1,0,0:0:0:0:
402,192,58675,1,0,0:0:0:0:
475,192,58800,128,0,58925:0:0:0:0:
109,192,58800,1,0,0:0:0:0:
182,192,58800,1,0,0:0:0:0:
329,192,58925,128,0,59050:0:0:0:0:
36,192,58925,1,0,0:0:0:0:
402,192,58925,1,0,0:0:0:0:
475,192,59050,128,0,59175:0:0:0:0:
182,192,59050,1,0,0:0:0:0:
256,192,59050,1,0,0:0:0:0:
329,192,59175,128,0,59300:0:0:0:0:
109,192,59175,1,0,0:0:0:0:
36,192,59175,1,0,0:0:0:0:
475,192,59300,128,0,59425:0:0:0:0:
256,192,59300,1,0,0:0:0:0:
182,192,59300,1,0,0:0:0:0:
329,192,59425,128,0,59550:0:0:0:0:
109,192,59425,1,0,0:0:0:0:
36,192,59425,1,0,0:0:0:0:
475,192,59550,128,0,59675:0:0:0:0:
256,192,59550,1,0,0:0:0:0:
402,192,59550,1,0,0:0:0:0:
109,192,59550,1,0,0:0:0:0:
329,192,59675,128,0,59800:0:0:0:0:
36,192,59675,1,0,0:0:0:0:
182,192,59675,1,0,0:0:0:0:
475,192,59800,128,0,59925:0:0:0:0:
256,192,59800,1,0,0:0:0:0:
402,192,59800,1,0,0:0:0:0:
329,192,59925,128,0,60050:0:0:0:0:
182,192,59925,1,0,0:0:0:0:
36,192,59925,1,0,0:0:0:0:
109,192,60050,128,0,60175:0:0:0:0:
402,192,60050,1,0,0:0:0:0:
475,192,60050,1,0,0:0:0:0:
182,192,60175,128,0,60300:0:0:0:0:
256,192,60175,1,0,0:0:0:0:
36,192,60175,1,0,0:0:0:0:
109,192,60300,128,0,60425:0:0:0:0:
402,192,60300,1,0,0:0:0:0:
475,192,60300,1,0,0:0:0:0:
182,192,60425,128,0,60550:0:0:0:0:
256,192,60425,1,0,0:0:0:0:
36,192,60425,1,0,0:0:0:0:
109,192,60550,128,0,60675:0:0:0:0:
256,192,60550,1,0,0:0:0:0:
329,192,60550,1,0,0:0:0:0:
402,192,60550,1,0,0:0:0:0:
182,192,60675,128,0,60800:0:0:0:0:
36,192,60675,1,0,0:0:0:0:
475,192,60675,1,0,0:0:0:0:
109,192,60800,128,0,60925:0:0:0:0:
329,192,60800,1,0,0:0:0:0:
402,192,60800,1,0,0:0:0:0:
182,192,60925,128,0,61050:0:0:0:0:
475,192,60925,1,0,0:0:0:0:
36,192,60925,1,0,0:0:0:0:
109,192,61050,128,0,61175:0:0:0:0:
256,192,61050,1,0,0:0:0:0:
329,192,61050,1,0,0:0:0:0:
182,192,61175,128,0,61300:0:0:0:0:
402,192,61175,1,0,0:0:0:0:
475,192,61175,1,0,0:0:0:0:
109,192,61300,128,0,61425:0:0:0:0:
329,192,61300,1,0,0:0:0:0:
256,192,61300,1,0,0:0:0:0:
182,192,61425,128,0,61550:0:0:0:0:
402,192,61425,1,0,0:0:0:0:
475,192,61425,1,0,0:0:0:0:
109,192,61550,128,0,61675:0:0:0:0:
36,192,61550,1,0,0:0:0:0:
329,192,61550,1,0,0:0:0:0:
475,192,61550,1,0,0:0:0:0:
182,192,61675,128,0,61800:0:0:0:0:
256,192,61675,1,0,0:0:0:0:
402,192,61675,1,0,0:0:0:0:
109,192,61800,128,0,61925:0:0:0:0:
329,192,61800,1,0,0:0:0:0:
475,192,61800,1,0,0:0:0:0:
182,192,61925,128,0,62050:0:0:0:0:
402,192,61925,1,0,0:0:0:0:
256,192,61925,1,0,0:0:0:0:
36,192,62050,1,0,0:0:0:0:
109,192,62050,1,0,0:0:0:0:
329,192,62050,128,0,62175:0:0:0:0:
109,192,62175,1,0,0:0:0:0:
36,192,62175,1,0,0:0:0:0:
475,192,62175,128,0,62300:0:0:0:0:
329,192,62300,1,0,0:0:0:0:
402,192,62300,1,0,0:0:0:0:
182,192,62300,128,0,62425:0:0:0:0:
36,192,62425,128,0,62550:0:0:0:0:
402,192,62425,1,0,0:0:0:0:
329,192,62425,1,0,0:0:0:0:
109,192,62550,1,0,0:0:0:0:
182,192,62550,1,0,0:0:0:0:
475,192,62550,128,0,62675:0:0:0:0:
182,192,62675,1,0,0:0:0:0:
109,192,62675,1,0,0:0:0:0:
329,192,62675,128,0,62800:0:0:0:0:
402,192,62800,1,0,0:0:0:0:
475,192,62800,1,0,0:0:0:0:
36,192,62800,128,0,62925:0:0:0:0:
402,192,62925,1,0,0:0:0:0:
475,192,62925,1,0,0:0:0:0:
182,192,62925,128,0,63050:0:0:0:0:
36,192,63050,1,0,0:0:0:0:
329,192,63050,128,0,63175:0:0:0:0:
109,192,63050,1,0,0:0:0:0:
36,192,63175,1,0,0:0:0:0:
109,192,63175,1,0,0:0:0:0:
475,192,63175,128,0,63300:0:0:0:0:
402,192,63300,1,0,0:0:0:0:
329,192,63300,1,0,0:0:0:0:
182,192,63300,128,0,63425:0:0:0:0:
402,192,63425,1,0,0:0:0:0:
36,192,63425,128,0,63550:0:0:0:0:
329,192,63425,1,0,0:0:0:0:
182,192,63550,1,0,0:0:0:0:
109,192,63550,1,0,0:0:0:0:
475,192,63550,128,0,63675:0:0:0:0:
182,192,63675,1,0,0:0:0:0:
109,192,63675,1,0,0:0:0:0:
329,192,63675,128,0,63800:0:0:0:0:
36,192,63800,128,0,63925:0:0:0:0:
402,192,63800,1,0,0:0:0:0:
475,192,63800,1,0,0:0:0:0:
402,192,63925,1,0,0:0:0:0:
475,192,63925,1,0,0:0:0:0:
182,192,63925,128,0,64050:0:0:0:0:
109,192,64050,1,0,0:0:0:0:
36,192,64050,1,0,0:0:0:0:
329,192,64050,1,0,0:0:0:0:
36,192,64175,1,0,0:0:0:0:
109,192,64175,1,0,0:0:0:0:
256,192,64175,1,0,0:0:0:0:
475,192,64300,1,0,0:0:0:0:
402,192,64300,1,0,0:0:0:0:
182,192,64300,1,0,0:0:0:0:
256,192,64425,1,0,0:0:0:0:
402,192,64425,1,0,0:0:0:0:
475,192,64425,1,0,0:0:0:0:
329,192,64550,1,0,0:0:0:0:
182,192,64550,1,0,0:0:0:0:
475,192,64550,1,0,0:0:0:0:
475,192,64800,1,0,0:0:0:0:
182,192,64800,1,0,0:0:0:0:
402,192,64800,1,0,0:0:0:0:
475,192,64925,1,0,0:0:0:0:
402,192,64925,1,0,0:0:0:0:
256,192,64925,1,0,0:0:0:0:
109,192,65050,1,0,0:0:0:0:
329,192,65050,1,0,0:0:0:0:
36,192,65050,1,0,0:0:0:0:
36,192,65175,1,0,0:0:0:0:
109,192,65175,1,0,0:0:0:0:
256,192,65175,1,0,0:0:0:0:
182,192,65300,1,0,0:0:0:0:
329,192,65300,1,0,0:0:0:0:
36,192,65300,1,0,0:0:0:0:
109,192,65425,1,0,0:0:0:0:
256,192,65425,1,0,0:0:0:0:
329,192,65425,1,0,0:0:0:0:
36,192,65550,1,0,0:0:0:0:
182,192,65550,1,0,0:0:0:0:
182,192,65675,1,0,0:0:0:0:
329,192,65675,1,0,0:0:0:0:
329,192,65800,1,0,0:0:0:0:
475,192,65800,1,0,0:0:0:0:
475,192,65925,1,0,0:0:0:0:
182,192,65925,1,0,0:0:0:0:
109,192,66050,1,0,0:0:0:0:
36,192,66050,1,0,0:0:0:0:
256,192,66050,1,0,0:0:0:0:
402,192,66050,1,0,0:0:0:0:
109,192,66175,1,0,0:0:0:0:
256,192,66175,1,0,0:0:0:0:
402,192,66175,1,0,0:0:0:0:
36,192,66300,1,0,0:0:0:0:
182,192,66300,1,0,0:0:0:0:
329,192,66300,1,0,0:0:0:0:
36,192,66425,1,0,0:0:0:0:
182,192,66425,1,0,0:0:0:0:
329,192,66425,1,0,0:0:0:0:
36,192,66550,1,0,0:0:0:0:
475,192,66550,1,0,0:0:0:0:
109,192,66550,128,0,66675:0:0:0:0:
256,192,66550,128,0,66675:0:0:0:0:
182,192,66675,128,0,66800:0:0:0:0:
402,192,66675,128,0,66800:0:0:0:0:
109,192,66800,128,0,66925:0:0:0:0:
36,192,66800,128,0,66925:0:0:0:0:
182,192,66925,128,0,67050:0:0:0:0:
329,192,66925,128,0,67050:0:0:0:0:
256,192,67050,128,0,67175:0:0:0:0:
475,192,67050,128,0,67175:0:0:0:0:
36,192,67175,128,0,67300:0:0:0:0:
109,192,67175,128,0,67300:0:0:0:0:
329,192,67300,128,0,67425:0:0:0:0:
475,192,67300,128,0,67425:0:0:0:0:
256,192,67425,128,0,67550:0:0:0:0:
182,192,67425,128,0,67550:0:0:0:0:
109,192,67550,1,0,0:0:0:0:
36,192,67550,1,0,0:0:0:0:
402,192,67550,1,0,0:0:0:0:
36,192,67675,1,0,0:0:0:0:
109,192,67675,1,0,0:0:0:0:
402,192,67675,1,0,0:0:0:0:
182,192,67800,1,0,0:0:0:0:
329,192,67800,1,0,0:0:0:0:
475,192,67800,1,0,0:0:0:0:
182,192,67925,1,0,0:0:0:0:
329,192,67925,1,0,0:0:0:0:
475,192,67925,1,0,0:0:0:0:
109,192,68050,1,0,0:0:0:0:
256,192,68050,1,0,0:0:0:0:
402,192,68050,1,0,0:0:0:0:
109,192,68175,1,0,0:0:0:0:
256,192,68175,1,0,0:0:0:0:
402,192,68175,1,0,0:0:0:0:
36,192,68300,1,0,0:0:0:0:
329,192,68300,1,0,0:0:0:0:
475,192,68300,1,0,0:0:0:0:
36,192,68425,1,0,0:0:0:0:
329,192,68425,1,0,0:0:0:0:
475,192,68425,1,0,0:0:0:0:
109,192,68550,1,0,0:0:0:0:
36,192,68550,1,0,0:0:0:0:
256,192,68550,1,0,0:0:0:0:
402,192,68550,1,0,0:0:0:0:
256,192,68675,1,0,0:0:0:0:
402,192,68675,1,0,0:0:0:0:
109,192,68675,1,0,0:0:0:0:
36,192,68800,1,0,0:0:0:0:
182,192,68800,1,0,0:0:0:0:
475,192,68800,1,0,0:0:0:0:
36,192,68925,1,0,0:0:0:0:
182,192,68925,1,0,0:0:0:0:
475,192,68925,1,0,0:0:0:0:
329,192,69050,1,0,0:0:0:0:
402,192,69050,1,0,0:0:0:0:
109,192,69050,1,0,0:0:0:0:
329,192,69175,1,0,0:0:0:0:
402,192,69175,1,0,0:0:0:0:
109,192,69175,1,0,0:0:0:0:
36,192,69300,1,0,0:0:0:0:
182,192,69300,1,0,0:0:0:0:
475,192,69300,1,0,0:0:0:0:
36,192,69425,1,0,0:0:0:0:
182,192,69425,1,0,0:0:0:0:
475,192,69425,1,0,0:0:0:0:
256,192,69550,1,0,0:0:0:0:
329,192,69550,1,0,0:0:0:0:
402,192,69550,1,0,0:0:0:0:
109,192,69550,1,0,0:0:0:0:
256,192,69675,1,0,0:0:0:0:
329,192,69675,1,0,0:0:0:0:
402,192,69675,1,0,0:0:0:0:
182,192,69800,1,0,0:0:0:0:
109,192,69800,1,0,0:0:0:0:
36,192,69800,1,0,0:0:0:0:
36,192,69925,1,0,0:0:0:0:
109,192,69925,1,0,0:0:0:0:
182,192,69925,1,0,0:0:0:0:
402,192,70050,1,0,0:0:0:0:
475,192,70050,1,0,0:0:0:0:
256,192,70050,1,0,0:0:0:0:
402,192,70175,1,0,0:0:0:0:
256,192,70175,1,0,0:0:0:0:
475,192,70175,1,0,0:0:0:0:
182,192,70300,1,0,0:0:0:0:
329,192,70300,1,0,0:0:0:0:
109,192,70300,1,0,0:0:0:0:
109,192,70425,1,0,0:0:0:0:
329,192,70425,1,0,0:0:0:0:
182,192,70425,1,0,0:0:0:0:
475,192,70550,1,0,0:0:0:0:
36,192,70550,1,0,0:0:0:0:
402,192,70550,128,0,70675:0:0:0:0:
256,192,70550,128,0,70675:0:0:0:0:
329,192,70675,128,0,70800:0:0:0:0:
109,192,70675,128,0,70800:0:0:0:0:
402,192,70800,128,0,70925:0:0:0:0:
475,192,70800,128,0,70925:0:0:0:0:
329,192,70925,128,0,71050:0:0:0:0:
182,192,70925,128,0,71050:0:0:0:0:
256,192,71050,128,0,71175:0:0:0:0:
36,192,71050,128,0,71175:0:0:0:0:
475,192,71175,128,0,71300:0:0:0:0:
402,192,71175,128,0,71300:0:0:0:0:
182,192,71300,128,0,71425:0:0:0:0:
36,192,71300,128,0,71425:0:0:0:0:
256,192,71425,128,0,71550:0:0:0:0:
329,192,71425,128,0,71550:0:0:0:0:
182,192,71550,128,0,71675:0:0:0:0:
402,192,71550,128,0,71675:0:0:0:0:
475,192,71675,1,0,0:0:0:0:
109,192,71675,1,0,0:0:0:0:
256,192,71675,1,0,0:0:0:0:
329,192,71800,1,0,0:0:0:0:
182,192,71800,1,0,0:0:0:0:
36,192,71800,1,0,0:0:0:0:
329,192,71925,1,0,0:0:0:0:
182,192,71925,1,0,0:0:0:0:
36,192,71925,1,0,0:0:0:0:
402,192,72050,1,0,0:0:0:0:
256,192,72050,1,0,0:0:0:0:
109,192,72050,1,0,0:0:0:0:
402,192,72175,1,0,0:0:0:0:
256,192,72175,1,0,0:0:0:0:
109,192,72175,1,0,0:0:0:0:
475,192,72300,1,0,0:0:0:0:
182,192,72300,1,0,0:0:0:0:
36,192,72300,1,0,0:0:0:0:
475,192,72425,1,0,0:0:0:0:
182,192,72425,1,0,0:0:0:0:
36,192,72425,1,0,0:0:0:0:
402,192,72550,1,0,0:0:0:0:
475,192,72550,1,0,0:0:0:0:
256,192,72550,1,0,0:0:0:0:
109,192,72550,1,0,0:0:0:0:
256,192,72675,1,0,0:0:0:0:
109,192,72675,1,0,0:0:0:0:
402,192,72675,1,0,0:0:0:0:
475,192,72800,1,0,0:0:0:0:
329,192,72800,1,0,0:0:0:0:
36,192,72800,1,0,0:0:0:0:
475,192,72925,1,0,0:0:0:0:
329,192,72925,1,0,0:0:0:0:
36,192,72925,1,0,0:0:0:0:
182,192,73050,1,0,0:0:0:0:
109,192,73050,1,0,0:0:0:0:
402,192,73050,1,0,0:0:0:0:
256,192,73112,1,0,0:0:0:0:
182,192,73175,1,0,0:0:0:0:
109,192,73175,1,0,0:0:0:0:
402,192,73175,1,0,0:0:0:0:
475,192,73300,1,0,0:0:0:0:
329,192,73300,1,0,0:0:0:0:
36,192,73300,1,0,0:0:0:0:
475,192,73425,1,0,0:0:0:0:
329,192,73425,1,0,0:0:0:0:
36,192,73425,1,0,0:0:0:0:
256,192,73550,1,0,0:0:0:0:
182,192,73550,1,0,0:0:0:0:
109,192,73550,1,0,0:0:0:0:
402,192,73550,1,0,0:0:0:0:
402,192,73675,1,0,0:0:0:0:
109,192,73675,1,0,0:0:0:0:
182,192,73675,1,0,0:0:0:0:
256,192,73800,1,0,0:0:0:0:
36,192,73800,1,0,0:0:0:0:
475,192,73800,1,0,0:0:0:0:
475,192,73925,1,0,0:0:0:0:
329,192,73925,1,0,0:0:0:0:
109,192,73925,1,0,0:0:0:0:
36,192,74050,1,0,0:0:0:0:
182,192,74050,1,0,0:0:0:0:
256,192,74050,1,0,0:0:0:0:
402,192,74050,1,0,0:0:0:0:
36,192,74175,1,0,0:0:0:0:
256,192,74175,1,0,0:0:0:0:
402,192,74175,1,0,0:0:0:0:
109,192,74300,1,0,0:0:0:0:
182,192,74300,1,0,0:0:0:0:
329,192,74300,1,0,0:0:0:0:
109,192,74425,1,0,0:0:0:0:
182,192,74425,1,0,0:0:0:0:
329,192,74425,1,0,0:0:0:0:
36,192,74550,1,0,0:0:0:0:
475,192,74550,1,0,0:0:0:0:
109,192,74550,128,0,74675:0:0:0:0:
256,192,74550,128,0,74675:0:0:0:0:
329,192,74675,128,0,74800:0:0:0:0:
402,192,74675,128,0,74800:0:0:0:0:
109,192,74800,128,0,74925:0:0:0:0:
36,192,74800,128,0,74925:0:0:0:0:
182,192,74925,128,0,75050:0:0:0:0:
329,192,74925,128,0,75050:0:0:0:0:
256,192,75050,128,0,75175:0:0:0:0:
475,192,75050,128,0,75175:0:0:0:0:
36,192,75175,128,0,75300:0:0:0:0:
182,192,75175,128,0,75300:0:0:0:0:
256,192,75300,128,0,75425:0:0:0:0:
475,192,75300,128,0,75425:0:0:0:0:
329,192,75425,128,0,75550:0:0:0:0:
182,192,75425,128,0,75550:0:0:0:0:
109,192,75550,1,0,0:0:0:0:
36,192,75550,1,0,0:0:0:0:
402,192,75550,1,0,0:0:0:0:
36,192,75675,1,0,0:0:0:0:
109,192,75675,1,0,0:0:0:0:
402,192,75675,1,0,0:0:0:0:
182,192,75800,1,0,0:0:0:0:
329,192,75800,1,0,0:0:0:0:
475,192,75800,1,0,0:0:0:0:
182,192,75925,1,0,0:0:0:0:
329,192,75925,1,0,0:0:0:0:
475,192,75925,1,0,0:0:0:0:
109,192,76050,1,0,0:0:0:0:
256,192,76050,1,0,0:0:0:0:
402,192,76050,1,0,0:0:0:0:
109,192,76175,1,0,0:0:0:0:
256,192,76175,1,0,0:0:0:0:
402,192,76175,1,0,0:0:0:0:
36,192,76300,1,0,0:0:0:0:
329,192,76300,1,0,0:0:0:0:
475,192,76300,1,0,0:0:0:0:
36,192,76425,1,0,0:0:0:0:
329,192,76425,1,0,0:0:0:0:
475,192,76425,1,0,0:0:0:0:
109,192,76550,1,0,0:0:0:0:
329,192,76550,1,0,0:0:0:0:
256,192,76550,1,0,0:0:0:0:
402,192,76550,1,0,0:0:0:0:
256,192,76675,1,0,0:0:0:0:
402,192,76675,1,0,0:0:0:0:
109,192,76675,1,0,0:0:0:0:
36,192,76800,1,0,0:0:0:0:
182,192,76800,1,0,0:0:0:0:
475,192,76800,1,0,0:0:0:0:
36,192,76925,1,0,0:0:0:0:
182,192,76925,1,0,0:0:0:0:
475,192,76925,1,0,0:0:0:0:
329,192,77050,1,0,0:0:0:0:
402,192,77050,1,0,0:0:0:0:
109,192,77050,1,0,0:0:0:0:
329,192,77175,1,0,0:0:0:0:
402,192,77175,1,0,0:0:0:0:
109,192,77175,1,0,0:0:0:0:
36,192,77300,1,0,0:0:0:0:
182,192,77300,1,0,0:0:0:0:
475,192,77300,1,0,0:0:0:0:
36,192,77425,1,0,0:0:0:0:
182,192,77425,1,0,0:0:0:0:
475,192,77425,1,0,0:0:0:0:
256,192,77550,1,0,0:0:0:0:
329,192,77550,1,0,0:0:0:0:
402,192,77550,1,0,0:0:0:0:
109,192,77550,1,0,0:0:0:0:
256,192,77675,1,0,0:0:0:0:
329,192,77675,1,0,0:0:0:0:
402,192,77675,1,0,0:0:0:0:
182,192,77800,1,0,0:0:0:0:
109,192,77800,1,0,0:0:0:0:
36,192,77800,1,0,0:0:0:0:
36,192,77925,1,0,0:0:0:0:
109,192,77925,1,0,0:0:0:0:
182,192,77925,1,0,0:0:0:0:
402,192,78050,1,0,0:0:0:0:
475,192,78050,1,0,0:0:0:0:
329,192,78050,1,0,0:0:0:0:
402,192,78175,1,0,0:0:0:0:
329,192,78175,1,0,0:0:0:0:
475,192,78175,1,0,0:0:0:0:
182,192,78300,1,0,0:0:0:0:
256,192,78300,1,0,0:0:0:0:
36,192,78300,1,0,0:0:0:0:
36,192,78425,1,0,0:0:0:0:
256,192,78425,1,0,0:0:0:0:
182,192,78425,1,0,0:0:0:0:
475,192,78550,1,0,0:0:0:0:
109,192,78550,1,0,0:0:0:0:
402,192,78550,128,0,78675:0:0:0:0:
256,192,78550,128,0,78675:0:0:0:0:
329,192,78675,128,0,78800:0:0:0:0:
36,192,78675,128,0,78800:0:0:0:0:
256,192,78800,128,0,78925:0:0:0:0:
475,192,78800,128,0,78925:0:0:0:0:
329,192,78925,128,0,79050:0:0:0:0:
182,192,78925,128,0,79050:0:0:0:0:
256,192,79050,128,0,79175:0:0:0:0:
36,192,79050,128,0,79175:0:0:0:0:
475,192,79175,128,0,79300:0:0:0:0:
329,192,79175,128,0,79300:0:0:0:0:
256,192,79300,128,0,79425:0:0:0:0:
36,192,79300,128,0,79425:0:0:0:0:
182,192,79425,128,0,79550:0:0:0:0:
329,192,79425,128,0,79550:0:0:0:0:
109,192,79550,128,0,79675:0:0:0:0:
402,192,79550,128,0,79675:0:0:0:0:
475,192,79675,1,0,0:0:0:0:
36,192,79675,1,0,0:0:0:0:
256,192,79675,1,0,0:0:0:0:
329,192,79800,1,0,0:0:0:0:
182,192,79800,1,0,0:0:0:0:
109,192,79800,1,0,0:0:0:0:
329,192,79925,1,0,0:0:0:0:
182,192,79925,1,0,0:0:0:0:
109,192,79925,1,0,0:0:0:0:
402,192,80050,1,0,0:0:0:0:
256,192,80050,1,0,0:0:0:0:
475,192,80050,1,0,0:0:0:0:
402,192,80175,1,0,0:0:0:0:
256,192,80175,1,0,0:0:0:0:
475,192,80175,1,0,0:0:0:0:
109,192,80300,1,0,0:0:0:0:
36,192,80300,1,0,0:0:0:0:
329,192,80300,1,0,0:0:0:0:
36,192,80425,1,0,0:0:0:0:
109,192,80425,1,0,0:0:0:0:
329,192,80425,1,0,0:0:0:0:
182,192,80550,1,0,0:0:0:0:
402,192,80550,1,0,0:0:0:0:
475,192,80550,1,0,0:0:0:0:
182,192,80675,1,0,0:0:0:0:
402,192,80675,1,0,0:0:0:0:
475,192,80675,1,0,0:0:0:0:
256,192,80800,1,0,0:0:0:0:
329,192,80800,1,0,0:0:0:0:
36,192,80800,1,0,0:0:0:0:
256,192,80925,1,0,0:0:0:0:
329,192,80925,1,0,0:0:0:0:
36,192,80925,1,0,0:0:0:0:
182,192,81050,1,0,0:0:0:0:
109,192,81050,1,0,0:0:0:0:
329,192,81175,1,0,0:0:0:0:
402,192,81175,1,0,0:0:0:0:
475,192,81175,1,0,0:0:0:0:
329,192,81300,1,0,0:0:0:0:
402,192,81300,1,0,0:0:0:0:
475,192,81300,1,0,0:0:0:0:
329,192,81425,1,0,0:0:0:0:
402,192,81425,1,0,0:0:0:0:
475,192,81425,1,0,0:0:0:0:
329,192,81550,1,0,0:0:0:0:
402,192,81550,1,0,0:0:0:0:
475,192,81550,1,0,0:0:0:0:
256,192,81675,1,0,0:0:0:0:
329,192,81675,1,0,0:0:0:0:
402,192,81675,1,0,0:0:0:0:
329,192,81800,1,0,0:0:0:0:
256,192,81800,1,0,0:0:0:0:
182,192,81800,1,0,0:0:0:0:
109,192,81925,1,0,0:0:0:0:
182,192,81925,1,0,0:0:0:0:
256,192,81925,1,0,0:0:0:0:
36,192,82050,1,0,0:0:0:0:
109,192,82050,1,0,0:0:0:0:
182,192,82050,1,0,0:0:0:0:
402,192,82050,128,0,82175:0:0:0:0:
329,192,82112,128,0,82237:0:0:0:0:
182,192,82175,128,0,82300:0:0:0:0:
256,192,82175,1,0,0:0:0:0:
109,192,82237,128,0,82362:0:0:0:0:
36,192,82300,128,0,82425:0:0:0:0:
402,192,82300,1,0,0:0:0:0:
475,192,82300,1,0,0:0:0:0:
256,192,82425,128,0,82550:0:0:0:0:
182,192,82425,1,0,0:0:0:0:
329,192,82487,128,0,82612:0:0:0:0:
402,192,82550,128,0,82675:0:0:0:0:
36,192,82550,1,0,0:0:0:0:
109,192,82550,128,0,82675:0:0:0:0:
475,192,82550,1,0,0:0:0:0:
182,192,82612,128,0,82737:0:0:0:0:
256,192,82675,128,0,82800:0:0:0:0:
329,192,82675,1,0,0:0:0:0:
402,192,82800,1,0,0:0:0:0:
36,192,82800,128,0,82925:0:0:0:0:
475,192,82800,1,0,0:0:0:0:
109,192,82862,128,0,82987:0:0:0:0:
182,192,82925,128,0,83050:0:0:0:0:
256,192,82925,1,0,0:0:0:0:
475,192,83050,128,0,83175:0:0:0:0:
36,192,83050,1,0,0:0:0:0:
329,192,83050,1,0,0:0:0:0:
402,192,83112,128,0,83237:0:0:0:0:
256,192,83175,128,0,83300:0:0:0:0:
109,192,83175,1,0,0:0:0:0:
329,192,83300,1,0,0:0:0:0:
475,192,83300,1,0,0:0:0:0:
36,192,83300,128,0,83550:0:0:0:0:
182,192,83425,128,0,83550:0:0:0:0:
109,192,83425,1,0,0:0:0:0:
475,192,83550,128,0,83675:0:0:0:0:
329,192,83550,1,0,0:0:0:0:
256,192,83550,1,0,0:0:0:0:
402,192,83612,128,0,83737:0:0:0:0:
329,192,83675,128,0,83800:0:0:0:0:
109,192,83675,1,0,0:0:0:0:
256,192,83737,128,0,83862:0:0:0:0:
36,192,83800,128,0,83925:0:0:0:0:
475,192,83800,1,0,0:0:0:0:
182,192,83800,1,0,0:0:0:0:
109,192,83862,128,0,83987:0:0:0:0:
182,192,83925,128,0,84050:0:0:0:0:
329,192,83925,1,0,0:0:0:0:
256,192,83987,128,0,84112:0:0:0:0:
36,192,84050,1,0,0:0:0:0:
402,192,84050,1,0,0:0:0:0:
475,192,84050,1,0,0:0:0:0:
329,192,84175,1,0,0:0:0:0:
256,192,84300,128,0,84425:0:0:0:0:
109,192,84300,1,0,0:0:0:0:
36,192,84300,1,0,0:0:0:0:
329,192,84362,128,0,84487:0:0:0:0:
402,192,84425,128,0,84550:0:0:0:0:
182,192,84425,1,0,0:0:0:0:
36,192,84550,128,0,84675:0:0:0:0:
256,192,84550,1,0,0:0:0:0:
475,192,84550,1,0,0:0:0:0:
109,192,84612,128,0,84737:0:0:0:0:
182,192,84675,128,0,84800:0:0:0:0:
329,192,84675,1,0,0:0:0:0:
475,192,84800,128,0,85050:0:0:0:0:
256,192,84800,1,0,0:0:0:0:
36,192,84800,1,0,0:0:0:0:
329,192,84925,128,0,85050:0:0:0:0:
182,192,84925,1,0,0:0:0:0:
109,192,85050,128,0,85175:0:0:0:0:
36,192,85050,1,0,0:0:0:0:
402,192,85050,1,0,0:0:0:0:
182,192,85112,128,0,85237:0:0:0:0:
256,192,85175,128,0,85300:0:0:0:0:
329,192,85175,1,0,0:0:0:0:
36,192,85300,1,0,0:0:0:0:
475,192,85300,128,0,85425:0:0:0:0:
109,192,85300,1,0,0:0:0:0:
402,192,85362,128,0,85487:0:0:0:0:
329,192,85425,128,0,85550:0:0:0:0:
182,192,85425,1,0,0:0:0:0:
256,192,85550,128,0,85675:0:0:0:0:
475,192,85550,1,0,0:0:0:0:
36,192,85550,1,0,0:0:0:0:
182,192,85612,128,0,85737:0:0:0:0:
109,192,85675,128,0,85800:0:0:0:0:
402,192,85675,1,0,0:0:0:0:
36,192,85737,128,0,85862:0:0:0:0:
475,192,85800,128,0,85925:0:0:0:0:
256,192,85800,1,0,0:0:0:0:
402,192,85862,128,0,85987:0:0:0:0:
329,192,85925,128,0,86050:0:0:0:0:
109,192,85925,1,0,0:0:0:0:
256,192,85987,128,0,86112:0:0:0:0:
36,192,86050,1,0,0:0:0:0:
182,192,86050,1,0,0:0:0:0:
475,192,86175,1,0,0:0:0:0:
329,192,86300,128,0,86425:0:0:0:0:
256,192,86300,1,0,0:0:0:0:
36,192,86300,1,0,0:0:0:0:
402,192,86362,128,0,86487:0:0:0:0:
475,192,86425,128,0,86550:0:0:0:0:
182,192,86425,1,0,0:0:0:0:
329,192,86550,1,0,0:0:0:0:
36,192,86550,128,0,86675:0:0:0:0:
256,192,86550,1,0,0:0:0:0:
109,192,86612,128,0,86737:0:0:0:0:
182,192,86675,128,0,86800:0:0:0:0:
402,192,86675,1,0,0:0:0:0:
256,192,86800,1,0,0:0:0:0:
329,192,86800,128,0,86925:0:0:0:0:
36,192,86800,1,0,0:0:0:0:
402,192,86862,128,0,86987:0:0:0:0:
182,192,86925,1,0,0:0:0:0:
475,192,86925,128,0,87050:0:0:0:0:
329,192,87050,1,0,0:0:0:0:
36,192,87050,128,0,87300:0:0:0:0:
109,192,87050,1,0,0:0:0:0:
182,192,87175,128,0,87300:0:0:0:0:
256,192,87175,1,0,0:0:0:0:
475,192,87300,1,0,0:0:0:0:
402,192,87300,128,0,87550:0:0:0:0:
329,192,87300,1,0,0:0:0:0:
256,192,87425,128,0,87550:0:0:0:0:
182,192,87425,1,0,0:0:0:0:
109,192,87550,128,0,87675:0:0:0:0:
475,192,87550,1,0,0:0:0:0:
36,192,87550,1,0,0:0:0:0:
182,192,87612,128,0,87737:0:0:0:0:
256,192,87675,128,0,87800:0:0:0:0:
329,192,87675,1,0,0:0:0:0:
402,192,87800,128,0,87925:0:0:0:0:
475,192,87800,1,0,0:0:0:0:
36,192,87800,1,0,0:0:0:0:
329,192,87862,128,0,87987:0:0:0:0:
256,192,87925,128,0,88050:0:0:0:0:
182,192,87925,1,0,0:0:0:0:
402,192,88050,1,0,0:0:0:0:
109,192,88050,1,0,0:0:0:0:
36,192,88133,1,0,0:0:0:0:
475,192,88133,1,0,0:0:0:0:
329,192,88216,1,0,0:0:0:0:
182,192,88216,1,0,0:0:0:0:
475,192,88300,1,0,0:0:0:0:
36,192,88300,1,0,0:0:0:0:
182,192,88383,1,0,0:0:0:0:
329,192,88383,1,0,0:0:0:0:
109,192,88466,1,0,0:0:0:0:
402,192,88466,1,0,0:0:0:0:
329,192,88550,1,0,0:0:0:0:
182,192,88550,1,0,0:0:0:0:
36,192,88633,1,0,0:0:0:0:
475,192,88633,1,0,0:0:0:0:
109,192,88716,1,0,0:0:0:0:
402,192,88716,1,0,0:0:0:0:
329,192,88800,1,0,0:0:0:0:
182,192,88800,1,0,0:0:0:0:
36,192,88883,1,0,0:0:0:0:
475,192,88883,1,0,0:0:0:0:
402,192,88966,1,0,0:0:0:0:
109,192,88966,1,0,0:0:0:0:
475,192,89050,1,0,0:0:0:0:
256,192,89050,1,0,0:0:0:0:
182,192,89133,1,0,0:0:0:0:
402,192,89133,1,0,0:0:0:0:
109,192,89216,1,0,0:0:0:0:
329,192,89216,1,0,0:0:0:0:
475,192,89300,1,0,0:0:0:0:
182,192,89300,1,0,0:0:0:0:
109,192,89383,1,0,0:0:0:0:
402,192,89383,1,0,0:0:0:0:
36,192,89466,1,0,0:0:0:0:
329,192,89466,1,0,0:0:0:0:
402,192,89550,1,0,0:0:0:0:
182,192,89550,1,0,0:0:0:0:
109,192,89550,1,0,0:0:0:0:
256,192,89633,1,0,0:0:0:0:
329,192,89633,1,0,0:0:0:0:
36,192,89716,1,0,0:0:0:0:
475,192,89716,1,0,0:0:0:0:
402,192,89800,1,0,0:0:0:0:
182,192,89800,1,0,0:0:0:0:
109,192,89800,1,0,0:0:0:0:
256,192,89883,1,0,0:0:0:0:
329,192,89883,1,0,0:0:0:0:
182,192,89966,1,0,0:0:0:0:
475,192,89966,1,0,0:0:0:0:
329,192,90050,1,0,0:0:0:0:
109,192,90050,1,0,0:0:0:0:
36,192,90050,1,0,0:0:0:0:
256,192,90175,1,0,0:0:0:0:
182,192,90175,1,0,0:0:0:0:
475,192,90175,128,0,90300:0:0:0:0:
36,192,90175,1,0,0:0:0:0:
329,192,90300,1,0,0:0:0:0:
402,192,90300,1,0,0:0:0:0:
109,192,90300,1,0,0:0:0:0:
475,192,90425,128,0,90550:0:0:0:0:
182,192,90425,1,0,0:0:0:0:
36,192,90425,1,0,0:0:0:0:
402,192,90425,1,0,0:0:0:0:
329,192,90550,1,0,0:0:0:0:
256,192,90550,1,0,0:0:0:0:
109,192,90550,1,0,0:0:0:0:
182,192,90675,128,0,90800:0:0:0:0:
402,192,90675,1,0,0:0:0:0:
475,192,90675,1,0,0:0:0:0:
109,192,90675,1,0,0:0:0:0:
256,192,90800,1,0,0:0:0:0:
329,192,90800,1,0,0:0:0:0:
36,192,90800,1,0,0:0:0:0:
182,192,90925,128,0,91050:0:0:0:0:
109,192,90925,1,0,0:0:0:0:
402,192,90925,1,0,0:0:0:0:
329,192,90925,1,0,0:0:0:0:
475,192,91050,1,0,0:0:0:0:
256,192,91050,1,0,0:0:0:0:
36,192,91050,1,0,0:0:0:0:
329,192,91175,128,0,91300:0:0:0:0:
402,192,91175,1,0,0:0:0:0:
36,192,91175,1,0,0:0:0:0:
182,192,91175,1,0,0:0:0:0:
256,192,91300,1,0,0:0:0:0:
475,192,91300,1,0,0:0:0:0:
109,192,91300,1,0,0:0:0:0:
329,192,91425,128,0,91550:0:0:0:0:
36,192,91425,1,0,0:0:0:0:
256,192,91425,1,0,0:0:0:0:
182,192,91425,1,0,0:0:0:0:
402,192,91550,1,0,0:0:0:0:
475,192,91550,1,0,0:0:0:0:
109,192,91550,1,0,0:0:0:0:
36,192,91675,128,0,91800:0:0:0:0:
329,192,91675,128,0,91800:0:0:0:0:
182,192,91675,1,0,0:0:0:0:
402,192,91800,1,0,0:0:0:0:
475,192,91800,128,0,91925:0:0:0:0:
182,192,91800,1,0,0:0:0:0:
36,192,91925,128,0,92050:0:0:0:0:
329,192,91925,1,0,0:0:0:0:
109,192,91925,128,0,92050:0:0:0:0:
182,192,92050,1,0,0:0:0:0:
475,192,92050,1,0,0:0:0:0:
329,192,92050,1,0,0:0:0:0:
402,192,92175,128,0,92300:0:0:0:0:
109,192,92175,1,0,0:0:0:0:
36,192,92175,1,0,0:0:0:0:
182,192,92175,1,0,0:0:0:0:
475,192,92300,1,0,0:0:0:0:
329,192,92300,1,0,0:0:0:0:
256,192,92300,1,0,0:0:0:0:
402,192,92425,128,0,92550:0:0:0:0:
329,192,92425,1,0,0:0:0:0:
109,192,92425,1,0,0:0:0:0:
36,192,92425,1,0,0:0:0:0:
475,192,92550,1,0,0:0:0:0:
256,192,92550,1,0,0:0:0:0:
182,192,92550,1,0,0:0:0:0:
109,192,92675,128,0,92800:0:0:0:0:
402,192,92675,1,0,0:0:0:0:
36,192,92675,1,0,0:0:0:0:
475,192,92675,1,0,0:0:0:0:
256,192,92800,1,0,0:0:0:0:
182,192,92800,1,0,0:0:0:0:
329,192,92800,1,0,0:0:0:0:
109,192,92925,128,0,93050:0:0:0:0:
402,192,92925,1,0,0:0:0:0:
182,192,92925,1,0,0:0:0:0:
475,192,92925,1,0,0:0:0:0:
256,192,93050,1,0,0:0:0:0:
36,192,93050,1,0,0:0:0:0:
329,192,93050,1,0,0:0:0:0:
475,192,93175,128,0,93300:0:0:0:0:
402,192,93175,1,0,0:0:0:0:
182,192,93175,1,0,0:0:0:0:
329,192,93175,1,0,0:0:0:0:
256,192,93300,1,0,0:0:0:0:
109,192,93300,1,0,0:0:0:0:
36,192,93300,1,0,0:0:0:0:
475,192,93425,128,0,93550:0:0:0:0:
329,192,93425,1,0,0:0:0:0:
182,192,93425,1,0,0:0:0:0:
36,192,93425,1,0,0:0:0:0:
256,192,93550,1,0,0:0:0:0:
109,192,93550,1,0,0:0:0:0:
402,192,93550,1,0,0:0:0:0:
36,192,93675,128,0,93800:0:0:0:0:
256,192,93675,1,0,0:0:0:0:
182,192,93675,1,0,0:0:0:0:
329,192,93675,1,0,0:0:0:0:
109,192,93800,1,0,0:0:0:0:
329,192,93800,1,0,0:0:0:0:
475,192,93800,1,0,0:0:0:0:
36,192,93925,128,0,94050:0:0:0:0:
475,192,93925,1,0,0:0:0:0:
256,192,93925,1,0,0:0:0:0:
182,192,93925,1,0,0:0:0:0:
402,192,94050,1,0,0:0:0:0:
329,192,94050,1,0,0:0:0:0:
182,192,94112,1,0,0:0:0:0:
109,192,94112,1,0,0:0:0:0:
402,192,94175,1,0,0:0:0:0:
329,192,94175,128,0,94300:0:0:0:0:
109,192,94300,1,0,0:0:0:0:
256,192,94300,1,0,0:0:0:0:
475,192,94300,1,0,0:0:0:0:
329,192,94425,128,0,94550:0:0:0:0:
182,192,94425,1,0,0:0:0:0:
36,192,94425,1,0,0:0:0:0:
475,192,94425,1,0,0:0:0:0:
109,192,94550,1,0,0:0:0:0:
256,192,94550,1,0,0:0:0:0:
402,192,94550,1,0,0:0:0:0:
182,192,94675,128,0,94800:0:0:0:0:
475,192,94675,1,0,0:0:0:0:
329,192,94675,1,0,0:0:0:0:
109,192,94675,1,0,0:0:0:0:
402,192,94800,1,0,0:0:0:0:
36,192,94800,1,0,0:0:0:0:
256,192,94800,1,0,0:0:0:0:
182,192,94925,128,0,95050:0:0:0:0:
256,192,94925,1,0,0:0:0:0:
475,192,94925,1,0,0:0:0:0:
109,192,94925,1,0,0:0:0:0:
329,192,95050,1,0,0:0:0:0:
36,192,95050,1,0,0:0:0:0:
402,192,95050,1,0,0:0:0:0:
256,192,95175,1,0,0:0:0:0:
182,192,95175,1,0,0:0:0:0:
402,192,95175,128,0,95300:0:0:0:0:
36,192,95175,1,0,0:0:0:0:
329,192,95300,1,0,0:0:0:0:
475,192,95300,1,0,0:0:0:0:
109,192,95300,1,0,0:0:0:0:
402,192,95425,128,0,95550:0:0:0:0:
256,192,95425,1,0,0:0:0:0:
36,192,95425,1,0,0:0:0:0:
475,192,95425,1,0,0:0:0:0:
329,192,95550,1,0,0:0:0:0:
182,192,95550,1,0,0:0:0:0:
109,192,95550,1,0,0:0:0:0:
109,192,95675,128,0,95800:0:0:0:0:
36,192,95675,1,0,0:0:0:0:
402,192,95675,128,0,95800:0:0:0:0:
256,192,95800,1,0,0:0:0:0:
182,192,95800,1,0,0:0:0:0:
329,192,95800,128,0,95925:0:0:0:0:
109,192,95925,128,0,96050:0:0:0:0:
475,192,95925,1,0,0:0:0:0:
36,192,95925,128,0,96050:0:0:0:0:
402,192,96050,1,0,0:0:0:0:
182,192,96050,1,0,0:0:0:0:
256,192,96112,1,0,0:0:0:0:
475,192,96112,1,0,0:0:0:0:
109,192,96175,1,0,0:0:0:0:
329,192,96237,1,0,0:0:0:0:
402,192,96300,1,0,0:0:0:0:
475,192,96300,1,0,0:0:0:0:
109,192,96362,1,0,0:0:0:0:
36,192,96362,1,0,0:0:0:0:
329,192,96425,1,0,0:0:0:0:
182,192,96487,1,0,0:0:0:0:
402,192,96550,1,0,0:0:0:0:
109,192,96550,1,0,0:0:0:0:
329,192,96612,1,0,0:0:0:0:
36,192,96612,1,0,0:0:0:0:
475,192,96675,1,0,0:0:0:0:
182,192,96737,1,0,0:0:0:0:
109,192,96800,1,0,0:0:0:0:
36,192,96800,1,0,0:0:0:0:
329,192,96862,1,0,0:0:0:0:
402,192,96862,1,0,0:0:0:0:
109,192,96925,1,0,0:0:0:0:
36,192,96925,1,0,0:0:0:0:
329,192,96987,1,0,0:0:0:0:
402,192,96987,1,0,0:0:0:0:
475,192,97050,1,0,0:0:0:0:
182,192,97050,1,0,0:0:0:0:
36,192,97050,1,0,0:0:0:0:
256,192,97112,1,0,0:0:0:0:
109,192,97112,1,0,0:0:0:0:
329,192,97216,1,0,0:0:0:0:
182,192,97216,1,0,0:0:0:0:
402,192,97216,1,0,0:0:0:0:
36,192,97258,1,0,0:0:0:0:
475,192,97300,1,0,0:0:0:0:
329,192,97362,1,0,0:0:0:0:
182,192,97425,1,0,0:0:0:0:
36,192,97487,1,0,0:0:0:0:
402,192,97550,1,0,0:0:0:0:
475,192,97550,1,0,0:0:0:0:
109,192,97550,1,0,0:0:0:0:
256,192,97550,1,0,0:0:0:0:
475,192,97675,1,0,0:0:0:0:
402,192,97675,1,0,0:0:0:0:
109,192,97675,1,0,0:0:0:0:
329,192,97800,1,0,0:0:0:0:
256,192,97800,1,0,0:0:0:0:
182,192,97800,1,0,0:0:0:0:
36,192,97800,1,0,0:0:0:0:
329,192,97925,1,0,0:0:0:0:
182,192,97925,1,0,0:0:0:0:
36,192,97925,1,0,0:0:0:0:
475,192,98050,1,0,0:0:0:0:
256,192,98050,1,0,0:0:0:0:
109,192,98050,128,0,98300:0:0:0:0:
402,192,98050,128,0,98175:0:0:0:0:
36,192,98175,128,0,98300:0:0:0:0:
182,192,98175,1,0,0:0:0:0:
475,192,98300,128,0,98550:0:0:0:0:
256,192,98300,128,0,98425:0:0:0:0:
329,192,98300,1,0,0:0:0:0:
109,192,98425,128,0,98550:0:0:0:0:
182,192,98425,1,0,0:0:0:0:
329,192,98550,128,0,98800:0:0:0:0:
36,192,98550,128,0,98675:0:0:0:0:
256,192,98550,1,0,0:0:0:0:
182,192,98675,128,0,98800:0:0:0:0:
475,192,98675,1,0,0:0:0:0:
36,192,98800,128,0,99050:0:0:0:0:
402,192,98800,128,0,98925:0:0:0:0:
109,192,98800,1,0,0:0:0:0:
256,192,98925,128,0,99050:0:0:0:0:
329,192,98925,1,0,0:0:0:0:
475,192,99050,128,0,99300:0:0:0:0:
182,192,99050,128,0,99175:0:0:0:0:
402,192,99050,1,0,0:0:0:0:
329,192,99175,128,0,99300:0:0:0:0:
256,192,99175,1,0,0:0:0:0:
109,192,99300,128,0,99550:0:0:0:0:
36,192,99300,128,0,99425:0:0:0:0:
182,192,99300,1,0,0:0:0:0:
256,192,99425,128,0,99550:0:0:0:0:
475,192,99425,1,0,0:0:0:0:
402,192,99550,128,0,99800:0:0:0:0:
329,192,99550,128,0,99675:0:0:0:0:
36,192,99550,1,0,0:0:0:0:
182,192,99675,128,0,99800:0:0:0:0:
109,192,99675,1,0,0:0:0:0:
36,192,99800,128,0,100050:0:0:0:0:
256,192,99800,128,0,99925:0:0:0:0:
329,192,99800,1,0,0:0:0:0:
475,192,99925,128,0,100050:0:0:0:0:
182,192,99925,1,0,0:0:0:0:
402,192,100050,128,0,100300:0:0:0:0:
109,192,100050,128,0,100175:0:0:0:0:
256,192,100050,1,0,0:0:0:0:
329,192,100050,1,0,0:0:0:0:
475,192,100175,128,0,100300:0:0:0:0:
329,192,100175,1,0,0:0:0:0:
256,192,100300,128,0,100425:0:0:0:0:
36,192,100300,128,0,100550:0:0:0:0:
182,192,100300,1,0,0:0:0:0:
402,192,100425,128,0,100550:0:0:0:0:
329,192,100425,1,0,0:0:0:0:
475,192,100550,128,0,100675:0:0:0:0:
182,192,100550,128,0,100800:0:0:0:0:
256,192,100550,1,0,0:0:0:0:
329,192,100675,128,0,100800:0:0:0:0:
36,192,100675,1,0,0:0:0:0:
109,192,100800,128,0,100925:0:0:0:0:
475,192,100800,128,0,101050:0:0:0:0:
402,192,100800,1,0,0:0:0:0:
256,192,100925,128,0,101050:0:0:0:0:
182,192,100925,1,0,0:0:0:0:
329,192,101050,128,0,101175:0:0:0:0:
109,192,101050,1,0,0:0:0:0:
36,192,101050,128,0,101300:0:0:0:0:
256,192,101175,1,0,0:0:0:0:
182,192,101175,128,0,101300:0:0:0:0:
475,192,101300,128,0,101425:0:0:0:0:
329,192,101300,1,0,0:0:0:0:
402,192,101300,128,0,101550:0:0:0:0:
36,192,101425,1,0,0:0:0:0:
256,192,101425,128,0,101550:0:0:0:0:
109,192,101550,128,0,101800:0:0:0:0:
475,192,101550,1,0,0:0:0:0:
182,192,101550,128,0,101675:0:0:0:0:
402,192,101675,1,0,0:0:0:0:
329,192,101675,128,0,101800:0:0:0:0:
475,192,101800,128,0,102050:0:0:0:0:
182,192,101800,1,0,0:0:0:0:
256,192,101800,128,0,101925:0:0:0:0:
109,192,101925,1,0,0:0:0:0:
36,192,101925,128,0,102050:0:0:0:0:
182,192,102050,128,0,102300:0:0:0:0:
256,192,102050,1,0,0:0:0:0:
329,192,102050,1,0,0:0:0:0:
402,192,102050,128,0,102175:0:0:0:0:
475,192,102175,128,0,102300:0:0:0:0:
329,192,102175,1,0,0:0:0:0:
109,192,102300,128,0,102550:0:0:0:0:
36,192,102300,1,0,0:0:0:0:
402,192,102300,128,0,102425:0:0:0:0:
329,192,102425,128,0,102550:0:0:0:0:
256,192,102425,1,0,0:0:0:0:
402,192,102550,128,0,102800:0:0:0:0:
36,192,102550,128,0,102675:0:0:0:0:
182,192,102550,1,0,0:0:0:0:
109,192,102675,128,0,102800:0:0:0:0:
256,192,102675,1,0,0:0:0:0:
475,192,102800,128,0,103050:0:0:0:0:
182,192,102800,128,0,102925:0:0:0:0:
329,192,102800,1,0,0:0:0:0:
109,192,102925,128,0,103050:0:0:0:0:
256,192,102925,1,0,0:0:0:0:
329,192,103050,128,0,103300:0:0:0:0:
36,192,103050,128,0,103175:0:0:0:0:
402,192,103050,1,0,0:0:0:0:
182,192,103175,128,0,103300:0:0:0:0:
256,192,103175,1,0,0:0:0:0:
36,192,103300,128,0,103550:0:0:0:0:
475,192,103300,128,0,103425:0:0:0:0:
402,192,103300,1,0,0:0:0:0:
256,192,103425,128,0,103550:0:0:0:0:
109,192,103425,1,0,0:0:0:0:
402,192,103550,128,0,103800:0:0:0:0:
182,192,103550,128,0,103675:0:0:0:0:
475,192,103550,1,0,0:0:0:0:
329,192,103675,128,0,103800:0:0:0:0:
36,192,103675,1,0,0:0:0:0:
109,192,103800,128,0,104050:0:0:0:0:
256,192,103800,128,0,103925:0:0:0:0:
182,192,103800,1,0,0:0:0:0:
402,192,103925,128,0,104050:0:0:0:0:
329,192,103925,1,0,0:0:0:0:
256,192,104050,1,0,0:0:0:0:
475,192,104050,1,0,0:0:0:0:
36,192,104050,1,0,0:0:0:0:
329,192,104175,1,0,0:0:0:0:
182,192,104175,1,0,0:0:0:0:
109,192,104237,1,0,0:0:0:0:
36,192,104300,1,0,0:0:0:0:
256,192,104300,1,0,0:0:0:0:
475,192,104300,1,0,0:0:0:0:
329,192,104362,1,0,0:0:0:0:
402,192,104425,1,0,0:0:0:0:
109,192,104425,1,0,0:0:0:0:
182,192,104487,1,0,0:0:0:0:
475,192,104550,1,0,0:0:0:0:
256,192,104550,1,0,0:0:0:0:
36,192,104550,1,0,0:0:0:0:
402,192,104612,1,0,0:0:0:0:
329,192,104675,1,0,0:0:0:0:
182,192,104675,1,0,0:0:0:0:
109,192,104737,1,0,0:0:0:0:
36,192,104800,1,0,0:0:0:0:
475,192,104800,1,0,0:0:0:0:
329,192,104800,1,0,0:0:0:0:
256,192,104862,1,0,0:0:0:0:
402,192,104925,1,0,0:0:0:0:
109,192,104925,1,0,0:0:0:0:
182,192,104925,1,0,0:0:0:0:
329,192,104987,1,0,0:0:0:0:
256,192,105050,1,0,0:0:0:0:
475,192,105050,1,0,0:0:0:0:
36,192,105050,1,0,0:0:0:0:
109,192,105112,1,0,0:0:0:0:
182,192,105175,1,0,0:0:0:0:
329,192,105175,1,0,0:0:0:0:
402,192,105237,1,0,0:0:0:0:
256,192,105237,1,0,0:0:0:0:
475,192,105300,1,0,0:0:0:0:
109,192,105300,1,0,0:0:0:0:
36,192,105300,1,0,0:0:0:0:
329,192,105362,1,0,0:0:0:0:
402,192,105425,1,0,0:0:0:0:
182,192,105425,1,0,0:0:0:0:
109,192,105487,1,0,0:0:0:0:
256,192,105487,1,0,0:0:0:0:
329,192,105550,1,0,0:0:0:0:
475,192,105550,1,0,0:0:0:0:
36,192,105550,1,0,0:0:0:0:
402,192,105675,1,0,0:0:0:0:
182,192,105675,1,0,0:0:0:0:
109,192,105675,1,0,0:0:0:0:
329,192,105800,1,0,0:0:0:0:
256,192,105800,1,0,0:0:0:0:
182,192,105925,1,0,0:0:0:0:
109,192,105925,1,0,0:0:0:0:
329,192,106050,128,0,107050:0:0:0:0:
402,192,106050,128,0,106175:0:0:0:0:
36,192,106050,1,0,0:0:0:0:
475,192,106050,1,0,0:0:0:0:
256,192,106175,128,0,106300:0:0:0:0:
109,192,106175,1,0,0:0:0:0:
182,192,106175,1,0,0:0:0:0:
402,192,106300,128,0,106425:0:0:0:0:
36,192,106300,1,0,0:0:0:0:
475,192,106300,1,0,0:0:0:0:
256,192,106425,128,0,106550:0:0:0:0:
109,192,106425,1,0,0:0:0:0:
182,192,106425,1,0,0:0:0:0:
402,192,106550,128,0,106675:0:0:0:0:
36,192,106550,1,0,0:0:0:0:
475,192,106550,1,0,0:0:0:0:
256,192,106675,128,0,106800:0:0:0:0:
109,192,106675,1,0,0:0:0:0:
182,192,106675,1,0,0:0:0:0:
402,192,106800,128,0,106925:0:0:0:0:
36,192,106800,1,0,0:0:0:0:
475,192,106800,1,0,0:0:0:0:
256,192,106925,128,0,107050:0:0:0:0:
182,192,106925,1,0,0:0:0:0:
402,192,107050,128,0,108050:0:0:0:0:
475,192,107050,128,0,107175:0:0:0:0:
109,192,107050,1,0,0:0:0:0:
36,192,107050,1,0,0:0:0:0:
329,192,107175,128,0,107300:0:0:0:0:
182,192,107175,1,0,0:0:0:0:
256,192,107175,1,0,0:0:0:0:
475,192,107300,128,0,107425:0:0:0:0:
109,192,107300,1,0,0:0:0:0:
36,192,107300,1,0,0:0:0:0:
329,192,107425,128,0,107550:0:0:0:0:
182,192,107425,1,0,0:0:0:0:
256,192,107425,1,0,0:0:0:0:
475,192,107550,128,0,107675:0:0:0:0:
109,192,107550,1,0,0:0:0:0:
36,192,107550,1,0,0:0:0:0:
329,192,107675,128,0,107800:0:0:0:0:
182,192,107675,1,0,0:0:0:0:
256,192,107675,1,0,0:0:0:0:
475,192,107800,128,0,107925:0:0:0:0:
109,192,107800,1,0,0:0:0:0:
36,192,107800,1,0,0:0:0:0:
329,192,107925,128,0,108050:0:0:0:0:
256,192,107925,1,0,0:0:0:0:
182,192,108050,128,0,109050:0:0:0:0:
109,192,108050,128,0,108175:0:0:0:0:
36,192,108050,1,0,0:0:0:0:
475,192,108050,1,0,0:0:0:0:
256,192,108175,128,0,108300:0:0:0:0:
329,192,108175,1,0,0:0:0:0:
402,192,108175,1,0,0:0:0:0:
109,192,108300,128,0,108425:0:0:0:0:
475,192,108300,1,0,0:0:0:0:
36,192,108300,1,0,0:0:0:0:
256,192,108425,128,0,108550:0:0:0:0:
329,192,108425,1,0,0:0:0:0:
402,192,108425,1,0,0:0:0:0:
109,192,108550,128,0,108675:0:0:0:0:
475,192,108550,1,0,0:0:0:0:
36,192,108550,1,0,0:0:0:0:
256,192,108675,128,0,108800:0:0:0:0:
329,192,108675,1,0,0:0:0:0:
402,192,108675,1,0,0:0:0:0:
109,192,108800,128,0,108925:0:0:0:0:
475,192,108800,1,0,0:0:0:0:
36,192,108800,1,0,0:0:0:0:
256,192,108925,128,0,109050:0:0:0:0:
329,192,108925,1,0,0:0:0:0:
109,192,109050,128,0,110050:0:0:0:0:
36,192,109050,128,0,109175:0:0:0:0:
475,192,109050,1,0,0:0:0:0:
402,192,109050,1,0,0:0:0:0:
182,192,109175,128,0,109300:0:0:0:0:
329,192,109175,1,0,0:0:0:0:
256,192,109175,1,0,0:0:0:0:
36,192,109300,128,0,109425:0:0:0:0:
402,192,109300,1,0,0:0:0:0:
475,192,109300,1,0,0:0:0:0:
182,192,109425,128,0,109550:0:0:0:0:
329,192,109425,1,0,0:0:0:0:
256,192,109425,1,0,0:0:0:0:
36,192,109550,128,0,109675:0:0:0:0:
402,192,109550,1,0,0:0:0:0:
475,192,109550,1,0,0:0:0:0:
182,192,109675,128,0,109800:0:0:0:0:
329,192,109675,1,0,0:0:0:0:
256,192,109675,1,0,0:0:0:0:
36,192,109800,128,0,109925:0:0:0:0:
402,192,109800,1,0,0:0:0:0:
475,192,109800,1,0,0:0:0:0:
182,192,109925,128,0,110050:0:0:0:0:
329,192,109925,1,0,0:0:0:0:
36,192,110050,1,0,0:0:0:0:
256,192,110050,1,0,0:0:0:0:
402,192,110050,1,0,0:0:0:0:
475,192,110050,1,0,0:0:0:0:
182,192,110175,1,0,0:0:0:0:
329,192,110175,1,0,0:0:0:0:
109,192,110175,1,0,0:0:0:0:
109,192,110300,1,0,0:0:0:0:
256,192,110300,1,0,0:0:0:0:
402,192,110300,1,0,0:0:0:0:
182,192,110425,1,0,0:0:0:0:
329,192,110425,1,0,0:0:0:0:
475,192,110425,1,0,0:0:0:0:
182,192,110550,1,0,0:0:0:0:
36,192,110550,1,0,0:0:0:0:
402,192,110550,1,0,0:0:0:0:
109,192,110675,1,0,0:0:0:0:
256,192,110675,1,0,0:0:0:0:
329,192,110675,1,0,0:0:0:0:
329,192,110800,1,0,0:0:0:0:
402,192,110800,1,0,0:0:0:0:
182,192,110800,1,0,0:0:0:0:
475,192,110800,1,0,0:0:0:0:
109,192,110925,1,0,0:0:0:0:
36,192,110925,1,0,0:0:0:0:
256,192,110925,1,0,0:0:0:0:
402,192,111050,1,0,0:0:0:0:
475,192,111050,1,0,0:0:0:0:
109,192,111050,1,0,0:0:0:0:
36,192,111175,1,0,0:0:0:0:
329,192,111175,1,0,0:0:0:0:
182,192,111175,1,0,0:0:0:0:
182,192,111300,1,0,0:0:0:0:
256,192,111300,1,0,0:0:0:0:
402,192,111300,1,0,0:0:0:0:
109,192,111425,1,0,0:0:0:0:
329,192,111425,1,0,0:0:0:0:
475,192,111425,1,0,0:0:0:0:
256,192,111550,1,0,0:0:0:0:
329,192,111550,1,0,0:0:0:0:
402,192,111550,1,0,0:0:0:0:
36,192,111550,1,0,0:0:0:0:
182,192,111675,1,0,0:0:0:0:
109,192,111675,1,0,0:0:0:0:
475,192,111675,1,0,0:0:0:0:
329,192,111800,1,0,0:0:0:0:
402,192,111800,1,0,0:0:0:0:
182,192,111800,1,0,0:0:0:0:
109,192,111925,1,0,0:0:0:0:
256,192,111925,1,0,0:0:0:0:
475,192,111925,1,0,0:0:0:0:
36,192,112050,1,0,0:0:0:0:
182,192,112050,1,0,0:0:0:0:
329,192,112050,1,0,0:0:0:0:
36,192,112175,1,0,0:0:0:0:
329,192,112175,1,0,0:0:0:0:
475,192,112175,1,0,0:0:0:0:
182,192,112300,1,0,0:0:0:0:
256,192,112300,1,0,0:0:0:0:
402,192,112300,1,0,0:0:0:0:
402,192,112425,1,0,0:0:0:0:
182,192,112425,1,0,0:0:0:0:
109,192,112425,1,0,0:0:0:0:
36,192,112550,1,0,0:0:0:0:
256,192,112550,1,0,0:0:0:0:
329,192,112550,1,0,0:0:0:0:
36,192,112675,1,0,0:0:0:0:
329,192,112675,1,0,0:0:0:0:
402,192,112675,1,0,0:0:0:0:
182,192,112800,1,0,0:0:0:0:
256,192,112800,1,0,0:0:0:0:
475,192,112800,1,0,0:0:0:0:
36,192,112862,1,0,0:0:0:0:
329,192,112862,1,0,0:0:0:0:
182,192,112925,1,0,0:0:0:0:
109,192,112925,1,0,0:0:0:0:
475,192,112925,1,0,0:0:0:0:
256,192,112987,1,0,0:0:0:0:
402,192,112987,1,0,0:0:0:0:
36,192,113050,1,0,0:0:0:0:
329,192,113050,1,0,0:0:0:0:
109,192,113050,1,0,0:0:0:0:
36,192,113175,1,0,0:0:0:0:
182,192,113175,1,0,0:0:0:0:
402,192,113175,1,0,0:0:0:0:
109,192,113300,1,0,0:0:0:0:
256,192,113300,1,0,0:0:0:0:
475,192,113300,1,0,0:0:0:0:
109,192,113425,1,0,0:0:0:0:
329,192,113425,1,0,0:0:0:0:
329,192,113550,1,0,0:0:0:0:
182,192,113550,1,0,0:0:0:0:
36,192,113550,1,0,0:0:0:0:
329,192,113675,1,0,0:0:0:0:
182,192,113675,1,0,0:0:0:0:
36,192,113675,1,0,0:0:0:0:
329,192,113800,1,0,0:0:0:0:
182,192,113800,1,0,0:0:0:0:
36,192,113800,1,0,0:0:0:0:
329,192,113925,1,0,0:0:0:0:
182,192,113925,1,0,0:0:0:0:
36,192,113925,1,0,0:0:0:0:
402,192,114050,1,0,0:0:0:0:
475,192,114050,1,0,0:0:0:0:
256,192,114050,1,0,0:0:0:0:
109,192,114050,1,0,0:0:0:0:
402,192,114175,1,0,0:0:0:0:
256,192,114175,1,0,0:0:0:0:
109,192,114175,1,0,0:0:0:0:
475,192,114300,1,0,0:0:0:0:
329,192,114300,1,0,0:0:0:0:
182,192,114300,1,0,0:0:0:0:
475,192,114425,1,0,0:0:0:0:
329,192,114425,1,0,0:0:0:0:
182,192,114425,1,0,0:0:0:0:
475,192,114550,1,0,0:0:0:0:
36,192,114550,1,0,0:0:0:0:
402,192,114550,128,0,114675:0:0:0:0:
256,192,114550,128,0,114675:0:0:0:0:
329,192,114675,128,0,114800:0:0:0:0:
109,192,114675,128,0,114800:0:0:0:0:
402,192,114800,128,0,114925:0:0:0:0:
475,192,114800,128,0,114925:0:0:0:0:
329,192,114925,128,0,115050:0:0:0:0:
182,192,114925,128,0,115050:0:0:0:0:
256,192,115050,128,0,115175:0:0:0:0:
36,192,115050,128,0,115175:0:0:0:0:
475,192,115175,128,0,115300:0:0:0:0:
402,192,115175,128,0,115300:0:0:0:0:
182,192,115300,128,0,115425:0:0:0:0:
36,192,115300,128,0,115425:0:0:0:0:
256,192,115425,128,0,115550:0:0:0:0:
329,192,115425,128,0,115550:0:0:0:0:
402,192,115550,1,0,0:0:0:0:
475,192,115550,1,0,0:0:0:0:
109,192,115550,1,0,0:0:0:0:
475,192,115675,1,0,0:0:0:0:
402,192,115675,1,0,0:0:0:0:
109,192,115675,1,0,0:0:0:0:
329,192,115800,1,0,0:0:0:0:
182,192,115800,1,0,0:0:0:0:
36,192,115800,1,0,0:0:0:0:
329,192,115925,1,0,0:0:0:0:
182,192,115925,1,0,0:0:0:0:
36,192,115925,1,0,0:0:0:0:
402,192,116050,1,0,0:0:0:0:
256,192,116050,1,0,0:0:0:0:
109,192,116050,1,0,0:0:0:0:
402,192,116175,1,0,0:0:0:0:
256,192,116175,1,0,0:0:0:0:
109,192,116175,1,0,0:0:0:0:
475,192,116300,1,0,0:0:0:0:
182,192,116300,1,0,0:0:0:0:
36,192,116300,1,0,0:0:0:0:
475,192,116425,1,0,0:0:0:0:
182,192,116425,1,0,0:0:0:0:
36,192,116425,1,0,0:0:0:0:
402,192,116550,1,0,0:0:0:0:
475,192,116550,1,0,0:0:0:0:
256,192,116550,1,0,0:0:0:0:
109,192,116550,1,0,0:0:0:0:
256,192,116675,1,0,0:0:0:0:
109,192,116675,1,0,0:0:0:0:
402,192,116675,1,0,0:0:0:0:
475,192,116800,1,0,0:0:0:0:
329,192,116800,1,0,0:0:0:0:
36,192,116800,1,0,0:0:0:0:
475,192,116925,1,0,0:0:0:0:
329,192,116925,1,0,0:0:0:0:
36,192,116925,1,0,0:0:0:0:
182,192,117050,1,0,0:0:0:0:
109,192,117050,1,0,0:0:0:0:
402,192,117050,1,0,0:0:0:0:
182,192,117175,1,0,0:0:0:0:
109,192,117175,1,0,0:0:0:0:
402,192,117175,1,0,0:0:0:0:
475,192,117300,1,0,0:0:0:0:
329,192,117300,1,0,0:0:0:0:
36,192,117300,1,0,0:0:0:0:
475,192,117425,1,0,0:0:0:0:
329,192,117425,1,0,0:0:0:0:
36,192,117425,1,0,0:0:0:0:
256,192,117550,1,0,0:0:0:0:
182,192,117550,1,0,0:0:0:0:
109,192,117550,1,0,0:0:0:0:
402,192,117550,1,0,0:0:0:0:
256,192,117675,1,0,0:0:0:0:
182,192,117675,1,0,0:0:0:0:
109,192,117675,1,0,0:0:0:0:
329,192,117800,1,0,0:0:0:0:
402,192,117800,1,0,0:0:0:0:
475,192,117800,1,0,0:0:0:0:
475,192,117925,1,0,0:0:0:0:
402,192,117925,1,0,0:0:0:0:
329,192,117925,1,0,0:0:0:0:
109,192,118050,1,0,0:0:0:0:
36,192,118050,1,0,0:0:0:0:
256,192,118050,1,0,0:0:0:0:
109,192,118175,1,0,0:0:0:0:
256,192,118175,1,0,0:0:0:0:
36,192,118175,1,0,0:0:0:0:
329,192,118300,1,0,0:0:0:0:
182,192,118300,1,0,0:0:0:0:
402,192,118300,1,0,0:0:0:0:
402,192,118425,1,0,0:0:0:0:
182,192,118425,1,0,0:0:0:0:
329,192,118425,1,0,0:0:0:0:
36,192,118550,1,0,0:0:0:0:
475,192,118550,1,0,0:0:0:0:
109,192,118550,128,0,118675:0:0:0:0:
256,192,118550,128,0,118675:0:0:0:0:
182,192,118675,128,0,118800:0:0:0:0:
402,192,118675,128,0,118800:0:0:0:0:
109,192,118800,128,0,118925:0:0:0:0:
36,192,118800,128,0,118925:0:0:0:0:
182,192,118925,128,0,119050:0:0:0:0:
329,192,118925,128,0,119050:0:0:0:0:
256,192,119050,128,0,119175:0:0:0:0:
475,192,119050,128,0,119175:0:0:0:0:
36,192,119175,128,0,119300:0:0:0:0:
109,192,119175,128,0,119300:0:0:0:0:
329,192,119300,128,0,119425:0:0:0:0:
475,192,119300,128,0,119425:0:0:0:0:
256,192,119425,128,0,119550:0:0:0:0:
182,192,119425,128,0,119550:0:0:0:0:
329,192,119550,128,0,119675:0:0:0:0:
109,192,119550,128,0,119675:0:0:0:0:
36,192,119675,1,0,0:0:0:0:
402,192,119675,1,0,0:0:0:0:
256,192,119675,1,0,0:0:0:0:
182,192,119800,1,0,0:0:0:0:
329,192,119800,1,0,0:0:0:0:
475,192,119800,1,0,0:0:0:0:
182,192,119925,1,0,0:0:0:0:
329,192,119925,1,0,0:0:0:0:
475,192,119925,1,0,0:0:0:0:
109,192,120050,1,0,0:0:0:0:
256,192,120050,1,0,0:0:0:0:
402,192,120050,1,0,0:0:0:0:
109,192,120175,1,0,0:0:0:0:
256,192,120175,1,0,0:0:0:0:
402,192,120175,1,0,0:0:0:0:
36,192,120300,1,0,0:0:0:0:
329,192,120300,1,0,0:0:0:0:
475,192,120300,1,0,0:0:0:0:
36,192,120425,1,0,0:0:0:0:
329,192,120425,1,0,0:0:0:0:
475,192,120425,1,0,0:0:0:0:
109,192,120550,1,0,0:0:0:0:
36,192,120550,1,0,0:0:0:0:
256,192,120550,1,0,0:0:0:0:
402,192,120550,1,0,0:0:0:0:
256,192,120675,1,0,0:0:0:0:
402,192,120675,1,0,0:0:0:0:
109,192,120675,1,0,0:0:0:0:
36,192,120800,1,0,0:0:0:0:
182,192,120800,1,0,0:0:0:0:
475,192,120800,1,0,0:0:0:0:
36,192,120925,1,0,0:0:0:0:
182,192,120925,1,0,0:0:0:0:
475,192,120925,1,0,0:0:0:0:
329,192,121050,1,0,0:0:0:0:
402,192,121050,1,0,0:0:0:0:
109,192,121050,1,0,0:0:0:0:
256,192,121112,1,0,0:0:0:0:
329,192,121175,1,0,0:0:0:0:
402,192,121175,1,0,0:0:0:0:
109,192,121175,1,0,0:0:0:0:
36,192,121300,1,0,0:0:0:0:
256,192,121300,1,0,0:0:0:0:
475,192,121300,1,0,0:0:0:0:
36,192,121425,1,0,0:0:0:0:
256,192,121425,1,0,0:0:0:0:
475,192,121425,1,0,0:0:0:0:
182,192,121550,1,0,0:0:0:0:
329,192,121550,1,0,0:0:0:0:
402,192,121550,1,0,0:0:0:0:
109,192,121550,1,0,0:0:0:0:
182,192,121675,1,0,0:0:0:0:
109,192,121675,1,0,0:0:0:0:
329,192,121675,1,0,0:0:0:0:
402,192,121800,1,0,0:0:0:0:
256,192,121800,1,0,0:0:0:0:
36,192,121800,1,0,0:0:0:0:
36,192,121925,1,0,0:0:0:0:
182,192,121925,1,0,0:0:0:0:
329,192,121925,1,0,0:0:0:0:
475,192,122050,1,0,0:0:0:0:
402,192,122050,1,0,0:0:0:0:
256,192,122050,1,0,0:0:0:0:
109,192,122050,1,0,0:0:0:0:
475,192,122175,1,0,0:0:0:0:
256,192,122175,1,0,0:0:0:0:
109,192,122175,1,0,0:0:0:0:
402,192,122300,1,0,0:0:0:0:
329,192,122300,1,0,0:0:0:0:
182,192,122300,1,0,0:0:0:0:
402,192,122425,1,0,0:0:0:0:
329,192,122425,1,0,0:0:0:0:
182,192,122425,1,0,0:0:0:0:
475,192,122550,1,0,0:0:0:0:
36,192,122550,1,0,0:0:0:0:
402,192,122550,128,0,122675:0:0:0:0:
256,192,122550,128,0,122675:0:0:0:0:
182,192,122675,128,0,122800:0:0:0:0:
109,192,122675,128,0,122800:0:0:0:0:
402,192,122800,128,0,122925:0:0:0:0:
475,192,122800,128,0,122925:0:0:0:0:
329,192,122925,128,0,123050:0:0:0:0:
182,192,122925,128,0,123050:0:0:0:0:
256,192,123050,128,0,123175:0:0:0:0:
36,192,123050,128,0,123175:0:0:0:0:
475,192,123175,128,0,123300:0:0:0:0:
329,192,123175,128,0,123300:0:0:0:0:
256,192,123300,128,0,123425:0:0:0:0:
36,192,123300,128,0,123425:0:0:0:0:
182,192,123425,128,0,123550:0:0:0:0:
329,192,123425,128,0,123550:0:0:0:0:
402,192,123550,1,0,0:0:0:0:
475,192,123550,1,0,0:0:0:0:
109,192,123550,1,0,0:0:0:0:
475,192,123675,1,0,0:0:0:0:
402,192,123675,1,0,0:0:0:0:
109,192,123675,1,0,0:0:0:0:
329,192,123800,1,0,0:0:0:0:
182,192,123800,1,0,0:0:0:0:
36,192,123800,1,0,0:0:0:0:
329,192,123925,1,0,0:0:0:0:
182,192,123925,1,0,0:0:0:0:
36,192,123925,1,0,0:0:0:0:
402,192,124050,1,0,0:0:0:0:
256,192,124050,1,0,0:0:0:0:
109,192,124050,1,0,0:0:0:0:
402,192,124175,1,0,0:0:0:0:
256,192,124175,1,0,0:0:0:0:
109,192,124175,1,0,0:0:0:0:
475,192,124300,1,0,0:0:0:0:
182,192,124300,1,0,0:0:0:0:
36,192,124300,1,0,0:0:0:0:
475,192,124425,1,0,0:0:0:0:
182,192,124425,1,0,0:0:0:0:
36,192,124425,1,0,0:0:0:0:
402,192,124550,1,0,0:0:0:0:
182,192,124550,1,0,0:0:0:0:
256,192,124550,1,0,0:0:0:0:
109,192,124550,1,0,0:0:0:0:
256,192,124675,1,0,0:0:0:0:
109,192,124675,1,0,0:0:0:0:
402,192,124675,1,0,0:0:0:0:
475,192,124800,1,0,0:0:0:0:
329,192,124800,1,0,0:0:0:0:
36,192,124800,1,0,0:0:0:0:
475,192,124925,1,0,0:0:0:0:
329,192,124925,1,0,0:0:0:0:
36,192,124925,1,0,0:0:0:0:
182,192,125050,1,0,0:0:0:0:
109,192,125050,1,0,0:0:0:0:
402,192,125050,1,0,0:0:0:0:
182,192,125175,1,0,0:0:0:0:
109,192,125175,1,0,0:0:0:0:
402,192,125175,1,0,0:0:0:0:
475,192,125300,1,0,0:0:0:0:
329,192,125300,1,0,0:0:0:0:
36,192,125300,1,0,0:0:0:0:
475,192,125425,1,0,0:0:0:0:
329,192,125425,1,0,0:0:0:0:
36,192,125425,1,0,0:0:0:0:
256,192,125550,1,0,0:0:0:0:
182,192,125550,1,0,0:0:0:0:
109,192,125550,1,0,0:0:0:0:
402,192,125550,1,0,0:0:0:0:
256,192,125675,1,0,0:0:0:0:
182,192,125675,1,0,0:0:0:0:
109,192,125675,1,0,0:0:0:0:
329,192,125800,1,0,0:0:0:0:
402,192,125800,1,0,0:0:0:0:
475,192,125800,1,0,0:0:0:0:
475,192,125925,1,0,0:0:0:0:
402,192,125925,1,0,0:0:0:0:
329,192,125925,1,0,0:0:0:0:
109,192,126050,1,0,0:0:0:0:
36,192,126050,1,0,0:0:0:0:
182,192,126050,1,0,0:0:0:0:
109,192,126175,1,0,0:0:0:0:
182,192,126175,1,0,0:0:0:0:
36,192,126175,1,0,0:0:0:0:
329,192,126300,1,0,0:0:0:0:
256,192,126300,1,0,0:0:0:0:
475,192,126300,1,0,0:0:0:0:
475,192,126425,1,0,0:0:0:0:
256,192,126425,1,0,0:0:0:0:
329,192,126425,1,0,0:0:0:0:
36,192,126550,1,0,0:0:0:0:
402,192,126550,1,0,0:0:0:0:
109,192,126550,128,0,126675:0:0:0:0:
256,192,126550,128,0,126675:0:0:0:0:
182,192,126675,128,0,126800:0:0:0:0:
475,192,126675,128,0,126800:0:0:0:0:
256,192,126800,128,0,126925:0:0:0:0:
36,192,126800,128,0,126925:0:0:0:0:
182,192,126925,128,0,127050:0:0:0:0:
329,192,126925,128,0,127050:0:0:0:0:
256,192,127050,128,0,127175:0:0:0:0:
475,192,127050,128,0,127175:0:0:0:0:
36,192,127175,128,0,127300:0:0:0:0:
182,192,127175,128,0,127300:0:0:0:0:
256,192,127300,128,0,127425:0:0:0:0:
475,192,127300,128,0,127425:0:0:0:0:
329,192,127425,128,0,127550:0:0:0:0:
182,192,127425,128,0,127550:0:0:0:0:
402,192,127550,128,0,127675:0:0:0:0:
109,192,127550,128,0,127675:0:0:0:0:
36,192,127675,1,0,0:0:0:0:
475,192,127675,1,0,0:0:0:0:
256,192,127675,1,0,0:0:0:0:
182,192,127800,1,0,0:0:0:0:
329,192,127800,1,0,0:0:0:0:
402,192,127800,1,0,0:0:0:0:
182,192,127925,1,0,0:0:0:0:
329,192,127925,1,0,0:0:0:0:
402,192,127925,1,0,0:0:0:0:
109,192,128050,1,0,0:0:0:0:
256,192,128050,1,0,0:0:0:0:
36,192,128050,1,0,0:0:0:0:
109,192,128175,1,0,0:0:0:0:
256,192,128175,1,0,0:0:0:0:
36,192,128175,1,0,0:0:0:0:
402,192,128300,1,0,0:0:0:0:
475,192,128300,1,0,0:0:0:0:
182,192,128300,1,0,0:0:0:0:
475,192,128425,1,0,0:0:0:0:
402,192,128425,1,0,0:0:0:0:
182,192,128425,1,0,0:0:0:0:
329,192,128550,1,0,0:0:0:0:
109,192,128550,1,0,0:0:0:0:
36,192,128550,1,0,0:0:0:0:
329,192,128675,1,0,0:0:0:0:
109,192,128675,1,0,0:0:0:0:
36,192,128675,1,0,0:0:0:0:
256,192,128800,1,0,0:0:0:0:
182,192,128800,1,0,0:0:0:0:
475,192,128800,1,0,0:0:0:0:
256,192,128925,1,0,0:0:0:0:
182,192,128925,1,0,0:0:0:0:
475,192,128925,1,0,0:0:0:0:
329,192,129050,1,0,0:0:0:0:
402,192,129050,1,0,0:0:0:0:
182,192,129175,1,0,0:0:0:0:
109,192,129175,1,0,0:0:0:0:
36,192,129175,1,0,0:0:0:0:
182,192,129300,1,0,0:0:0:0:
109,192,129300,1,0,0:0:0:0:
402,192,129300,1,0,0:0:0:0:
475,192,129425,1,0,0:0:0:0:
256,192,129425,1,0,0:0:0:0:
329,192,129425,1,0,0:0:0:0:
182,192,129550,1,0,0:0:0:0:
109,192,129550,1,0,0:0:0:0:
36,192,129550,1,0,0:0:0:0:
256,192,129675,1,0,0:0:0:0:
182,192,129675,1,0,0:0:0:0:
109,192,129675,1,0,0:0:0:0:
402,192,129800,1,0,0:0:0:0:
475,192,129800,1,0,0:0:0:0:
329,192,129800,1,0,0:0:0:0:
402,192,129925,1,0,0:0:0:0:
329,192,129925,1,0,0:0:0:0:
256,192,129925,1,0,0:0:0:0:
36,192,130050,1,0,0:0:0:0:
109,192,130050,1,0,0:0:0:0:
182,192,130050,1,0,0:0:0:0:
475,192,130050,1,0,0:0:0:0:
475,192,130175,1,0,0:0:0:0:
475,192,130300,1,0,0:0:0:0:
475,192,130425,1,0,0:0:0:0:
475,192,130550,1,0,0:0:0:0:
402,192,130550,1,0,0:0:0:0:
329,192,130550,1,0,0:0:0:0:
182,192,130550,1,0,0:0:0:0:
109,192,130550,1,0,0:0:0:0:
36,192,130550,1,0,0:0:0:0:
329,192,130675,1,0,0:0:0:0:
329,192,130800,1,0,0:0:0:0:
329,192,130925,1,0,0:0:0:0:
329,192,131050,1,0,0:0:0:0:
475,192,131050,1,0,0:0:0:0:
182,192,131050,1,0,0:0:0:0:
109,192,131050,1,0,0:0:0:0:
475,192,131175,1,0,0:0:0:0:
475,192,131300,1,0,0:0:0:0:
475,192,131425,1,0,0:0:0:0:
329,192,131550,1,0,0:0:0:0:
402,192,131550,1,0,0:0:0:0:
475,192,131550,1,0,0:0:0:0:
182,192,131550,1,0,0:0:0:0:
109,192,131550,1,0,0:0:0:0:
36,192,131550,1,0,0:0:0:0:
329,192,131675,1,0,0:0:0:0:
329,192,131800,1,0,0:0:0:0:
329,192,131925,1,0,0:0:0:0:
475,192,132050,1,0,0:0:0:0:
329,192,132050,1,0,0:0:0:0:
182,192,132050,1,0,0:0:0:0:
36,192,132050,1,0,0:0:0:0:
475,192,132175,1,0,0:0:0:0:
475,192,132300,1,0,0:0:0:0:
475,192,132425,1,0,0:0:0:0:
36,192,132550,1,0,0:0:0:0:
109,192,132550,1,0,0:0:0:0:
182,192,132550,1,0,0:0:0:0:
402,192,132550,1,0,0:0:0:0:
329,192,132550,1,0,0:0:0:0:
475,192,132550,1,0,0:0:0:0:
36,192,132675,1,0,0:0:0:0:
36,192,132800,1,0,0:0:0:0:
36,192,132925,1,0,0:0:0:0:
109,192,133050,1,0,0:0:0:0:
36,192,133050,1,0,0:0:0:0:
329,192,133050,128,0,133300:0:0:0:0:
256,192,133050,128,0,133175:0:0:0:0:
402,192,133175,128,0,133425:0:0:0:0:
182,192,133175,128,0,133300:0:0:0:0:
475,192,133300,128,0,133550:0:0:0:0:
109,192,133300,128,0,133425:0:0:0:0:
182,192,133425,128,0,133675:0:0:0:0:
256,192,133425,128,0,133550:0:0:0:0:
109,192,133550,128,0,133800:0:0:0:0:
329,192,133550,128,0,133675:0:0:0:0:
36,192,133675,128,0,133925:0:0:0:0:
402,192,133675,128,0,133800:0:0:0:0:
329,192,133800,128,0,134050:0:0:0:0:
256,192,133800,128,0,133925:0:0:0:0:
402,192,133925,128,0,134050:0:0:0:0:
182,192,133925,128,0,134050:0:0:0:0:
109,192,134050,1,0,0:0:0:0:
36,192,134050,1,0,0:0:0:0:
256,192,134050,1,0,0:0:0:0:
475,192,134050,1,0,0:0:0:0:
36,192,134175,1,0,0:0:0:0:
36,192,134300,1,0,0:0:0:0:
402,192,134300,1,0,0:0:0:0:
256,192,134300,1,0,0:0:0:0:
36,192,134425,1,0,0:0:0:0:
329,192,134425,1,0,0:0:0:0:
475,192,134425,1,0,0:0:0:0:
36,192,134550,1,0,0:0:0:0:
182,192,134550,1,0,0:0:0:0:
109,192,134550,1,0,0:0:0:0:
182,192,134675,1,0,0:0:0:0:
256,192,134675,1,0,0:0:0:0:
402,192,134675,1,0,0:0:0:0:
182,192,134800,1,0,0:0:0:0:
329,192,134800,1,0,0:0:0:0:
475,192,134800,1,0,0:0:0:0:
182,192,134925,1,0,0:0:0:0:
36,192,135050,1,0,0:0:0:0:
182,192,135050,1,0,0:0:0:0:
329,192,135050,1,0,0:0:0:0:
36,192,135175,1,0,0:0:0:0:
475,192,135175,1,0,0:0:0:0:
402,192,135175,1,0,0:0:0:0:
36,192,135300,1,0,0:0:0:0:
36,192,135425,1,0,0:0:0:0:
256,192,135425,1,0,0:0:0:0:
329,192,135425,1,0,0:0:0:0:
36,192,135550,1,0,0:0:0:0:
475,192,135550,1,0,0:0:0:0:
402,192,135550,1,0,0:0:0:0:
182,192,135550,1,0,0:0:0:0:
109,192,135550,1,0,0:0:0:0:
182,192,135675,1,0,0:0:0:0:
256,192,135800,1,0,0:0:0:0:
182,192,135800,1,0,0:0:0:0:
329,192,135800,1,0,0:0:0:0:
182,192,135925,1,0,0:0:0:0:
36,192,136050,1,0,0:0:0:0:
475,192,136050,1,0,0:0:0:0:
256,192,136050,1,0,0:0:0:0:
402,192,136050,1,0,0:0:0:0:
475,192,136175,1,0,0:0:0:0:
475,192,136300,1,0,0:0:0:0:
109,192,136300,1,0,0:0:0:0:
256,192,136300,1,0,0:0:0:0:
475,192,136425,1,0,0:0:0:0:
182,192,136425,1,0,0:0:0:0:
36,192,136425,1,0,0:0:0:0:
475,192,136550,1,0,0:0:0:0:
329,192,136550,1,0,0:0:0:0:
402,192,136550,1,0,0:0:0:0:
329,192,136675,1,0,0:0:0:0:
109,192,136675,1,0,0:0:0:0:
256,192,136675,1,0,0:0:0:0:
329,192,136800,1,0,0:0:0:0:
182,192,136800,1,0,0:0:0:0:
36,192,136800,1,0,0:0:0:0:
329,192,136925,1,0,0:0:0:0:
475,192,137050,1,0,0:0:0:0:
36,192,137050,1,0,0:0:0:0:
182,192,137050,1,0,0:0:0:0:
329,192,137050,1,0,0:0:0:0:
109,192,137175,1,0,0:0:0:0:
256,192,137175,1,0,0:0:0:0:
402,192,137175,1,0,0:0:0:0:
36,192,137300,1,0,0:0:0:0:
329,192,137300,1,0,0:0:0:0:
182,192,137300,1,0,0:0:0:0:
109,192,137425,1,0,0:0:0:0:
256,192,137425,1,0,0:0:0:0:
402,192,137425,1,0,0:0:0:0:
475,192,137550,1,0,0:0:0:0:
182,192,137550,1,0,0:0:0:0:
36,192,137550,1,0,0:0:0:0:
402,192,137675,1,0,0:0:0:0:
109,192,137675,1,0,0:0:0:0:
256,192,137675,1,0,0:0:0:0:
475,192,137800,1,0,0:0:0:0:
182,192,137800,1,0,0:0:0:0:
329,192,137800,1,0,0:0:0:0:
402,192,137925,1,0,0:0:0:0:
109,192,137925,1,0,0:0:0:0:
36,192,137925,1,0,0:0:0:0:
475,192,138050,1,0,0:0:0:0:
256,192,138050,1,0,0:0:0:0:
329,192,138050,1,0,0:0:0:0:
182,192,138050,128,0,139675:0:0:0:0:
329,192,138175,1,0,0:0:0:0:
329,192,138300,1,0,0:0:0:0:
36,192,138300,128,0,138550:0:0:0:0:
329,192,138425,1,0,0:0:0:0:
109,192,138425,128,0,138550:0:0:0:0:
475,192,138550,1,0,0:0:0:0:
402,192,138550,1,0,0:0:0:0:
329,192,138550,1,0,0:0:0:0:
475,192,138675,1,0,0:0:0:0:
36,192,138675,128,0,138925:0:0:0:0:
475,192,138800,1,0,0:0:0:0:
109,192,138800,128,0,138925:0:0:0:0:
475,192,138925,1,0,0:0:0:0:
329,192,139050,1,0,0:0:0:0:
36,192,139050,128,0,139300:0:0:0:0:
475,192,139050,1,0,0:0:0:0:
329,192,139175,1,0,0:0:0:0:
109,192,139175,128,0,139300:0:0:0:0:
329,192,139300,1,0,0:0:0:0:
329,192,139425,1,0,0:0:0:0:
36,192,139425,128,0,139925:0:0:0:0:
475,192,139550,1,0,0:0:0:0:
402,192,139550,1,0,0:0:0:0:
329,192,139550,1,0,0:0:0:0:
109,192,139550,128,0,139925:0:0:0:0:
475,192,139675,1,0,0:0:0:0:
475,192,139800,1,0,0:0:0:0:
182,192,139800,128,0,139925:0:0:0:0:
475,192,139925,1,0,0:0:0:0:
36,192,140050,1,0,0:0:0:0:
256,192,140050,1,0,0:0:0:0:
182,192,140050,1,0,0:0:0:0:
329,192,140050,128,0,140925:0:0:0:0:
36,192,140175,1,0,0:0:0:0:
36,192,140300,1,0,0:0:0:0:
475,192,140300,128,0,140550:0:0:0:0:
36,192,140425,1,0,0:0:0:0:
402,192,140425,128,0,140550:0:0:0:0:
36,192,140550,1,0,0:0:0:0:
109,192,140550,1,0,0:0:0:0:
182,192,140550,1,0,0:0:0:0:
182,192,140675,1,0,0:0:0:0:
475,192,140675,128,0,140925:0:0:0:0:
182,192,140800,1,0,0:0:0:0:
402,192,140800,128,0,140925:0:0:0:0:
182,192,140925,1,0,0:0:0:0:
36,192,141050,1,0,0:0:0:0:
475,192,141050,128,0,141300:0:0:0:0:
329,192,141050,1,0,0:0:0:0:
402,192,141175,128,0,141300:0:0:0:0:
109,192,141175,1,0,0:0:0:0:
256,192,141175,1,0,0:0:0:0:
182,192,141175,1,0,0:0:0:0:
329,192,141300,128,0,141550:0:0:0:0:
36,192,141300,1,0,0:0:0:0:
402,192,141425,128,0,141550:0:0:0:0:
182,192,141425,1,0,0:0:0:0:
256,192,141550,128,0,141800:0:0:0:0:
109,192,141550,1,0,0:0:0:0:
36,192,141550,1,0,0:0:0:0:
182,192,141675,128,0,141800:0:0:0:0:
402,192,141675,1,0,0:0:0:0:
475,192,141675,1,0,0:0:0:0:
109,192,141800,128,0,141925:0:0:0:0:
329,192,141800,1,0,0:0:0:0:
36,192,141800,1,0,0:0:0:0:
402,192,141925,1,0,0:0:0:0:
475,192,141925,1,0,0:0:0:0:
36,192,142050,1,0,0:0:0:0:
256,192,142050,1,0,0:0:0:0:
182,192,142050,1,0,0:0:0:0:
329,192,142050,128,0,143675:0:0:0:0:
182,192,142175,1,0,0:0:0:0:
402,192,142175,128,0,142300:0:0:0:0:
182,192,142300,1,0,0:0:0:0:
475,192,142300,128,0,142550:0:0:0:0:
182,192,142425,1,0,0:0:0:0:
402,192,142425,128,0,142675:0:0:0:0:
36,192,142550,1,0,0:0:0:0:
109,192,142550,1,0,0:0:0:0:
182,192,142550,1,0,0:0:0:0:
36,192,142675,1,0,0:0:0:0:
475,192,142675,128,0,142925:0:0:0:0:
36,192,142800,1,0,0:0:0:0:
402,192,142800,128,0,143050:0:0:0:0:
36,192,142925,1,0,0:0:0:0:
36,192,143050,1,0,0:0:0:0:
475,192,143050,128,0,143300:0:0:0:0:
182,192,143050,1,0,0:0:0:0:
182,192,143175,1,0,0:0:0:0:
402,192,143175,128,0,143425:0:0:0:0:
182,192,143300,1,0,0:0:0:0:
182,192,143425,1,0,0:0:0:0:
475,192,143425,128,0,143925:0:0:0:0:
36,192,143550,1,0,0:0:0:0:
109,192,143550,1,0,0:0:0:0:
182,192,143550,1,0,0:0:0:0:
402,192,143550,128,0,143925:0:0:0:0:
36,192,143675,1,0,0:0:0:0:
36,192,143800,1,0,0:0:0:0:
329,192,143800,128,0,143925:0:0:0:0:
36,192,143925,1,0,0:0:0:0:
475,192,144050,1,0,0:0:0:0:
256,192,144050,1,0,0:0:0:0:
329,192,144050,1,0,0:0:0:0:
182,192,144050,128,0,144925:0:0:0:0:
475,192,144175,1,0,0:0:0:0:
109,192,144175,128,0,144300:0:0:0:0:
475,192,144300,1,0,0:0:0:0:
36,192,144300,128,0,144550:0:0:0:0:
475,192,144425,1,0,0:0:0:0:
109,192,144425,128,0,144675:0:0:0:0:
475,192,144550,1,0,0:0:0:0:
402,192,144550,1,0,0:0:0:0:
329,192,144550,1,0,0:0:0:0:
329,192,144675,1,0,0:0:0:0:
36,192,144675,128,0,144925:0:0:0:0:
329,192,144800,1,0,0:0:0:0:
109,192,144800,128,0,144925:0:0:0:0:
329,192,144925,1,0,0:0:0:0:
475,192,145050,1,0,0:0:0:0:
36,192,145050,128,0,145300:0:0:0:0:
182,192,145050,1,0,0:0:0:0:
109,192,145175,128,0,145300:0:0:0:0:
402,192,145175,1,0,0:0:0:0:
256,192,145175,1,0,0:0:0:0:
329,192,145175,1,0,0:0:0:0:
182,192,145300,128,0,145550:0:0:0:0:
475,192,145300,1,0,0:0:0:0:
109,192,145425,128,0,145550:0:0:0:0:
329,192,145425,1,0,0:0:0:0:
256,192,145550,128,0,145800:0:0:0:0:
402,192,145550,1,0,0:0:0:0:
475,192,145550,1,0,0:0:0:0:
36,192,145550,1,0,0:0:0:0:
329,192,145675,128,0,145800:0:0:0:0:
182,192,145675,1,0,0:0:0:0:
109,192,145675,1,0,0:0:0:0:
475,192,145800,1,0,0:0:0:0:
36,192,145800,1,0,0:0:0:0:
402,192,145800,128,0,146550:0:0:0:0:
256,192,145925,1,0,0:0:0:0:
329,192,145925,128,0,146550:0:0:0:0:
109,192,146050,1,0,0:0:0:0:
36,192,146050,1,0,0:0:0:0:
475,192,146050,1,0,0:0:0:0:
256,192,146112,1,0,0:0:0:0:
182,192,146175,1,0,0:0:0:0:
109,192,146300,1,0,0:0:0:0:
36,192,146300,1,0,0:0:0:0:
475,192,146300,1,0,0:0:0:0:
36,192,146425,1,0,0:0:0:0:
109,192,146425,1,0,0:0:0:0:
475,192,146425,1,0,0:0:0:0:
256,192,146550,1,0,0:0:0:0:
36,192,146675,1,0,0:0:0:0:
402,192,146675,1,0,0:0:0:0:
475,192,146675,1,0,0:0:0:0:
36,192,146800,1,0,0:0:0:0:
402,192,146800,1,0,0:0:0:0:
475,192,146800,1,0,0:0:0:0:
109,192,146925,1,0,0:0:0:0:
182,192,146925,1,0,0:0:0:0:
329,192,146925,1,0,0:0:0:0:
36,192,147050,1,0,0:0:0:0:
256,192,147050,1,0,0:0:0:0:
402,192,147050,1,0,0:0:0:0:
475,192,147050,1,0,0:0:0:0:
402,192,147175,128,0,147300:0:0:0:0:
475,192,147175,128,0,147300:0:0:0:0:
36,192,147175,1,0,0:0:0:0:
256,192,147175,1,0,0:0:0:0:
182,192,147300,1,0,0:0:0:0:
329,192,147300,1,0,0:0:0:0:
109,192,147425,1,0,0:0:0:0:
402,192,147550,128,0,147925:0:0:0:0:
475,192,147550,128,0,147925:0:0:0:0:
256,192,147550,1,0,0:0:0:0:
36,192,147550,1,0,0:0:0:0:
182,192,147675,1,0,0:0:0:0:
329,192,147675,1,0,0:0:0:0:
109,192,147800,1,0,0:0:0:0:
36,192,147800,1,0,0:0:0:0:
256,192,147800,1,0,0:0:0:0:
182,192,147925,1,0,0:0:0:0:
329,192,147925,1,0,0:0:0:0:
36,192,148050,1,0,0:0:0:0:
109,192,148050,1,0,0:0:0:0:
256,192,148050,1,0,0:0:0:0:
402,192,148050,1,0,0:0:0:0:
36,192,148175,128,0,148300:0:0:0:0:
109,192,148175,128,0,148300:0:0:0:0:
329,192,148175,1,0,0:0:0:0:
475,192,148175,1,0,0:0:0:0:
256,192,148300,1,0,0:0:0:0:
182,192,148300,1,0,0:0:0:0:
329,192,148425,1,0,0:0:0:0:
36,192,148550,128,0,148925:0:0:0:0:
109,192,148550,128,0,148925:0:0:0:0:
402,192,148550,1,0,0:0:0:0:
475,192,148550,1,0,0:0:0:0:
182,192,148675,1,0,0:0:0:0:
256,192,148675,1,0,0:0:0:0:
329,192,148800,1,0,0:0:0:0:
402,192,148800,1,0,0:0:0:0:
475,192,148800,1,0,0:0:0:0:
256,192,148925,1,0,0:0:0:0:
182,192,148925,1,0,0:0:0:0:
329,192,149050,1,0,0:0:0:0:
402,192,149050,1,0,0:0:0:0:
36,192,149050,1,0,0:0:0:0:
109,192,149050,1,0,0:0:0:0:
329,192,149175,128,0,149300:0:0:0:0:
402,192,149175,128,0,149300:0:0:0:0:
182,192,149175,1,0,0:0:0:0:
109,192,149175,1,0,0:0:0:0:
256,192,149300,1,0,0:0:0:0:
475,192,149300,1,0,0:0:0:0:
182,192,149425,1,0,0:0:0:0:
36,192,149425,1,0,0:0:0:0:
329,192,149550,128,0,149925:0:0:0:0:
402,192,149550,128,0,149925:0:0:0:0:
475,192,149550,1,0,0:0:0:0:
109,192,149550,1,0,0:0:0:0:
256,192,149675,1,0,0:0:0:0:
36,192,149675,1,0,0:0:0:0:
475,192,149800,1,0,0:0:0:0:
182,192,149800,1,0,0:0:0:0:
109,192,149800,1,0,0:0:0:0:
256,192,149925,1,0,0:0:0:0:
36,192,149925,1,0,0:0:0:0:
402,192,150050,1,0,0:0:0:0:
475,192,150050,1,0,0:0:0:0:
109,192,150050,1,0,0:0:0:0:
182,192,150050,1,0,0:0:0:0:
402,192,150175,1,0,0:0:0:0:
329,192,150175,1,0,0:0:0:0:
109,192,150175,128,0,150300:0:0:0:0:
182,192,150175,128,0,150300:0:0:0:0:
256,192,150300,1,0,0:0:0:0:
36,192,150300,1,0,0:0:0:0:
329,192,150425,1,0,0:0:0:0:
402,192,150425,1,0,0:0:0:0:
109,192,150550,128,0,150925:0:0:0:0:
182,192,150550,128,0,150925:0:0:0:0:
256,192,150550,1,0,0:0:0:0:
475,192,150550,1,0,0:0:0:0:
36,192,150550,1,0,0:0:0:0:
329,192,150675,1,0,0:0:0:0:
256,192,150800,1,0,0:0:0:0:
402,192,150800,1,0,0:0:0:0:
475,192,150800,1,0,0:0:0:0:
329,192,150925,1,0,0:0:0:0:
36,192,150925,1,0,0:0:0:0:
109,192,151050,1,0,0:0:0:0:
256,192,151050,1,0,0:0:0:0:
402,192,151050,1,0,0:0:0:0:
475,192,151050,1,0,0:0:0:0:
402,192,151175,128,0,151300:0:0:0:0:
475,192,151175,128,0,151300:0:0:0:0:
109,192,151175,1,0,0:0:0:0:
256,192,151175,1,0,0:0:0:0:
182,192,151300,1,0,0:0:0:0:
329,192,151300,1,0,0:0:0:0:
109,192,151425,1,0,0:0:0:0:
402,192,151550,128,0,151925:0:0:0:0:
475,192,151550,128,0,151925:0:0:0:0:
256,192,151550,1,0,0:0:0:0:
36,192,151550,1,0,0:0:0:0:
182,192,151675,1,0,0:0:0:0:
329,192,151675,1,0,0:0:0:0:
109,192,151800,1,0,0:0:0:0:
36,192,151800,1,0,0:0:0:0:
256,192,151800,1,0,0:0:0:0:
182,192,151925,1,0,0:0:0:0:
329,192,151925,1,0,0:0:0:0:
36,192,152050,1,0,0:0:0:0:
109,192,152050,1,0,0:0:0:0:
256,192,152050,1,0,0:0:0:0:
402,192,152050,1,0,0:0:0:0:
36,192,152175,128,0,152300:0:0:0:0:
109,192,152175,128,0,152300:0:0:0:0:
329,192,152175,1,0,0:0:0:0:
475,192,152175,1,0,0:0:0:0:
256,192,152300,1,0,0:0:0:0:
182,192,152300,1,0,0:0:0:0:
329,192,152425,1,0,0:0:0:0:
36,192,152550,128,0,152925:0:0:0:0:
109,192,152550,128,0,152925:0:0:0:0:
402,192,152550,1,0,0:0:0:0:
475,192,152550,1,0,0:0:0:0:
182,192,152675,1,0,0:0:0:0:
256,192,152675,1,0,0:0:0:0:
329,192,152800,1,0,0:0:0:0:
402,192,152800,1,0,0:0:0:0:
475,192,152800,1,0,0:0:0:0:
256,192,152925,1,0,0:0:0:0:
182,192,152925,1,0,0:0:0:0:
329,192,153050,1,0,0:0:0:0:
402,192,153050,1,0,0:0:0:0:
36,192,153050,1,0,0:0:0:0:
109,192,153050,1,0,0:0:0:0:
329,192,153175,128,0,153300:0:0:0:0:
402,192,153175,128,0,153300:0:0:0:0:
182,192,153175,1,0,0:0:0:0:
109,192,153175,1,0,0:0:0:0:
256,192,153300,128,0,153425:0:0:0:0:
475,192,153300,128,0,153425:0:0:0:0:
182,192,153425,128,0,153550:0:0:0:0:
36,192,153425,128,0,153550:0:0:0:0:
329,192,153550,128,0,153925:0:0:0:0:
402,192,153550,128,0,153925:0:0:0:0:
475,192,153550,1,0,0:0:0:0:
109,192,153550,1,0,0:0:0:0:
256,192,153675,1,0,0:0:0:0:
36,192,153675,1,0,0:0:0:0:
475,192,153800,1,0,0:0:0:0:
182,192,153800,1,0,0:0:0:0:
109,192,153800,1,0,0:0:0:0:
256,192,153925,1,0,0:0:0:0:
36,192,153925,1,0,0:0:0:0:
402,192,154050,1,0,0:0:0:0:
475,192,154050,1,0,0:0:0:0:
109,192,154050,1,0,0:0:0:0:
182,192,154050,1,0,0:0:0:0:
402,192,154175,1,0,0:0:0:0:
329,192,154175,1,0,0:0:0:0:
182,192,154175,1,0,0:0:0:0:
256,192,154300,1,0,0:0:0:0:
36,192,154300,1,0,0:0:0:0:
109,192,154300,1,0,0:0:0:0:
329,192,154425,1,0,0:0:0:0:
402,192,154425,1,0,0:0:0:0:
256,192,154425,1,0,0:0:0:0:
475,192,154550,1,0,0:0:0:0:
36,192,154550,1,0,0:0:0:0:
182,192,154550,1,0,0:0:0:0:
36,192,154675,1,0,0:0:0:0:
182,192,154675,1,0,0:0:0:0:
475,192,154675,1,0,0:0:0:0:
256,192,154800,1,0,0:0:0:0:
402,192,154800,1,0,0:0:0:0:
109,192,154800,1,0,0:0:0:0:
109,192,154925,1,0,0:0:0:0:
256,192,154925,1,0,0:0:0:0:
402,192,154925,1,0,0:0:0:0:
475,192,155050,1,0,0:0:0:0:
329,192,155050,1,0,0:0:0:0:
109,192,155050,1,0,0:0:0:0:
36,192,155050,1,0,0:0:0:0:
109,192,155175,128,0,155300:0:0:0:0:
36,192,155175,128,0,155300:0:0:0:0:
475,192,155175,1,0,0:0:0:0:
329,192,155175,1,0,0:0:0:0:
256,192,155300,1,0,0:0:0:0:
182,192,155300,1,0,0:0:0:0:
402,192,155425,1,0,0:0:0:0:
109,192,155550,128,0,155925:0:0:0:0:
36,192,155550,128,0,155925:0:0:0:0:
256,192,155550,1,0,0:0:0:0:
475,192,155550,1,0,0:0:0:0:
329,192,155675,1,0,0:0:0:0:
182,192,155675,1,0,0:0:0:0:
402,192,155800,1,0,0:0:0:0:
475,192,155800,1,0,0:0:0:0:
256,192,155800,1,0,0:0:0:0:
329,192,155925,1,0,0:0:0:0:
182,192,155925,1,0,0:0:0:0:
475,192,156050,1,0,0:0:0:0:
402,192,156050,1,0,0:0:0:0:
256,192,156050,1,0,0:0:0:0:
109,192,156050,1,0,0:0:0:0:
475,192,156175,128,0,156300:0:0:0:0:
402,192,156175,128,0,156300:0:0:0:0:
182,192,156175,1,0,0:0:0:0:
36,192,156175,1,0,0:0:0:0:
256,192,156300,1,0,0:0:0:0:
329,192,156300,1,0,0:0:0:0:
182,192,156425,1,0,0:0:0:0:
475,192,156550,128,0,156925:0:0:0:0:
402,192,156550,128,0,156925:0:0:0:0:
109,192,156550,1,0,0:0:0:0:
36,192,156550,1,0,0:0:0:0:
329,192,156675,1,0,0:0:0:0:
256,192,156675,1,0,0:0:0:0:
182,192,156800,1,0,0:0:0:0:
109,192,156800,1,0,0:0:0:0:
36,192,156800,1,0,0:0:0:0:
256,192,156925,1,0,0:0:0:0:
329,192,156925,1,0,0:0:0:0:
182,192,157050,1,0,0:0:0:0:
109,192,157050,1,0,0:0:0:0:
475,192,157050,1,0,0:0:0:0:
402,192,157050,1,0,0:0:0:0:
182,192,157175,128,0,157300:0:0:0:0:
109,192,157175,128,0,157300:0:0:0:0:
329,192,157175,1,0,0:0:0:0:
402,192,157175,1,0,0:0:0:0:
256,192,157300,1,0,0:0:0:0:
36,192,157300,1,0,0:0:0:0:
329,192,157425,1,0,0:0:0:0:
475,192,157425,1,0,0:0:0:0:
182,192,157550,128,0,157925:0:0:0:0:
109,192,157550,128,0,157925:0:0:0:0:
36,192,157550,1,0,0:0:0:0:
402,192,157550,1,0,0:0:0:0:
256,192,157675,1,0,0:0:0:0:
475,192,157675,1,0,0:0:0:0:
36,192,157800,1,0,0:0:0:0:
329,192,157800,1,0,0:0:0:0:
402,192,157800,1,0,0:0:0:0:
256,192,157925,1,0,0:0:0:0:
475,192,157925,1,0,0:0:0:0:
109,192,158050,1,0,0:0:0:0:
36,192,158050,1,0,0:0:0:0:
402,192,158050,1,0,0:0:0:0:
329,192,158050,1,0,0:0:0:0:
109,192,158175,1,0,0:0:0:0:
182,192,158175,1,0,0:0:0:0:
402,192,158175,128,0,158300:0:0:0:0:
329,192,158175,128,0,158300:0:0:0:0:
256,192,158300,128,0,158425:0:0:0:0:
475,192,158300,128,0,158425:0:0:0:0:
182,192,158425,128,0,158550:0:0:0:0:
109,192,158425,128,0,158550:0:0:0:0:
402,192,158550,128,0,158925:0:0:0:0:
329,192,158550,128,0,158925:0:0:0:0:
256,192,158550,1,0,0:0:0:0:
36,192,158550,1,0,0:0:0:0:
475,192,158550,1,0,0:0:0:0:
182,192,158675,1,0,0:0:0:0:
256,192,158800,1,0,0:0:0:0:
109,192,158800,1,0,0:0:0:0:
36,192,158800,1,0,0:0:0:0:
182,192,158925,1,0,0:0:0:0:
475,192,158925,1,0,0:0:0:0:
402,192,159050,1,0,0:0:0:0:
256,192,159050,1,0,0:0:0:0:
109,192,159050,1,0,0:0:0:0:
36,192,159050,1,0,0:0:0:0:
109,192,159175,128,0,159300:0:0:0:0:
36,192,159175,128,0,159300:0:0:0:0:
402,192,159175,1,0,0:0:0:0:
256,192,159175,1,0,0:0:0:0:
329,192,159300,1,0,0:0:0:0:
182,192,159300,1,0,0:0:0:0:
402,192,159425,1,0,0:0:0:0:
109,192,159550,128,0,159925:0:0:0:0:
36,192,159550,128,0,159925:0:0:0:0:
256,192,159550,1,0,0:0:0:0:
475,192,159550,1,0,0:0:0:0:
329,192,159675,1,0,0:0:0:0:
182,192,159675,1,0,0:0:0:0:
402,192,159800,1,0,0:0:0:0:
475,192,159800,1,0,0:0:0:0:
256,192,159800,1,0,0:0:0:0:
329,192,159925,1,0,0:0:0:0:
182,192,159925,1,0,0:0:0:0:
475,192,160050,1,0,0:0:0:0:
402,192,160050,1,0,0:0:0:0:
256,192,160050,1,0,0:0:0:0:
109,192,160050,1,0,0:0:0:0:
475,192,160175,128,0,160300:0:0:0:0:
402,192,160175,128,0,160300:0:0:0:0:
182,192,160175,1,0,0:0:0:0:
36,192,160175,1,0,0:0:0:0:
256,192,160300,1,0,0:0:0:0:
329,192,160300,1,0,0:0:0:0:
182,192,160425,1,0,0:0:0:0:
475,192,160550,128,0,160925:0:0:0:0:
402,192,160550,128,0,160925:0:0:0:0:
109,192,160550,1,0,0:0:0:0:
36,192,160550,1,0,0:0:0:0:
329,192,160675,1,0,0:0:0:0:
256,192,160675,1,0,0:0:0:0:
182,192,160800,1,0,0:0:0:0:
109,192,160800,1,0,0:0:0:0:
36,192,160800,1,0,0:0:0:0:
256,192,160925,1,0,0:0:0:0:
329,192,160925,1,0,0:0:0:0:
182,192,161050,1,0,0:0:0:0:
109,192,161050,1,0,0:0:0:0:
475,192,161050,1,0,0:0:0:0:
402,192,161050,1,0,0:0:0:0:
182,192,161175,128,0,161300:0:0:0:0:
109,192,161175,128,0,161300:0:0:0:0:
329,192,161175,1,0,0:0:0:0:
402,192,161175,1,0,0:0:0:0:
256,192,161300,128,0,161425:0:0:0:0:
36,192,161300,128,0,161425:0:0:0:0:
329,192,161425,128,0,161550:0:0:0:0:
475,192,161425,128,0,161550:0:0:0:0:
36,192,161550,1,0,0:0:0:0:
402,192,161550,1,0,0:0:0:0:
109,192,161550,128,0,161675:0:0:0:0:
182,192,161550,128,0,161675:0:0:0:0:
256,192,161675,1,0,0:0:0:0:
475,192,161675,1,0,0:0:0:0:
36,192,161800,1,0,0:0:0:0:
329,192,161800,1,0,0:0:0:0:
402,192,161800,1,0,0:0:0:0:
109,192,161800,128,0,161925:0:0:0:0:
182,192,161800,128,0,161925:0:0:0:0:
256,192,161925,1,0,0:0:0:0:
475,192,161925,1,0,0:0:0:0:
109,192,162050,1,0,0:0:0:0:
36,192,162050,1,0,0:0:0:0:
402,192,162050,1,0,0:0:0:0:
329,192,162050,1,0,0:0:0:0:
109,192,162175,1,0,0:0:0:0:
182,192,162175,1,0,0:0:0:0:
329,192,162175,1,0,0:0:0:0:
256,192,162300,1,0,0:0:0:0:
475,192,162300,1,0,0:0:0:0:
402,192,162300,1,0,0:0:0:0:
182,192,162425,1,0,0:0:0:0:
109,192,162425,1,0,0:0:0:0:
256,192,162425,1,0,0:0:0:0:
36,192,162550,1,0,0:0:0:0:
475,192,162550,1,0,0:0:0:0:
329,192,162550,1,0,0:0:0:0:
475,192,162675,1,0,0:0:0:0:
329,192,162675,1,0,0:0:0:0:
36,192,162675,1,0,0:0:0:0:
256,192,162800,1,0,0:0:0:0:
109,192,162800,1,0,0:0:0:0:
402,192,162800,1,0,0:0:0:0:
402,192,162925,1,0,0:0:0:0:
256,192,162925,1,0,0:0:0:0:
109,192,162925,1,0,0:0:0:0:
182,192,163050,1,0,0:0:0:0:
36,192,163050,1,0,0:0:0:0:
475,192,163050,128,0,163175:0:0:0:0:
36,192,163175,1,0,0:0:0:0:
182,192,163175,1,0,0:0:0:0:
402,192,163175,128,0,163300:0:0:0:0:
182,192,163300,1,0,0:0:0:0:
36,192,163300,1,0,0:0:0:0:
329,192,163300,128,0,163425:0:0:0:0:
36,192,163425,1,0,0:0:0:0:
182,192,163425,1,0,0:0:0:0:
402,192,163425,128,0,163550:0:0:0:0:
329,192,163550,1,0,0:0:0:0:
475,192,163550,1,0,0:0:0:0:
109,192,163550,128,0,163675:0:0:0:0:
329,192,163675,1,0,0:0:0:0:
475,192,163675,1,0,0:0:0:0:
182,192,163675,128,0,163800:0:0:0:0:
329,192,163800,1,0,0:0:0:0:
475,192,163800,1,0,0:0:0:0:
109,192,163800,128,0,163925:0:0:0:0:
329,192,163925,1,0,0:0:0:0:
475,192,163925,1,0,0:0:0:0:
36,192,163925,128,0,164050:0:0:0:0:
182,192,164050,1,0,0:0:0:0:
402,192,164050,1,0,0:0:0:0:
109,192,164050,1,0,0:0:0:0:
256,192,164175,1,0,0:0:0:0:
329,192,164175,1,0,0:0:0:0:
36,192,164175,128,0,164300:0:0:0:0:
182,192,164175,1,0,0:0:0:0:
475,192,164300,1,0,0:0:0:0:
402,192,164300,1,0,0:0:0:0:
109,192,164300,1,0,0:0:0:0:
36,192,164425,128,0,164550:0:0:0:0:
256,192,164425,1,0,0:0:0:0:
475,192,164425,1,0,0:0:0:0:
182,192,164425,1,0,0:0:0:0:
109,192,164550,1,0,0:0:0:0:
256,192,164550,1,0,0:0:0:0:
402,192,164550,1,0,0:0:0:0:
329,192,164675,128,0,164800:0:0:0:0:
402,192,164675,1,0,0:0:0:0:
36,192,164675,1,0,0:0:0:0:
182,192,164675,1,0,0:0:0:0:
256,192,164800,1,0,0:0:0:0:
475,192,164800,1,0,0:0:0:0:
182,192,164800,1,0,0:0:0:0:
329,192,164925,128,0,165050:0:0:0:0:
402,192,164925,1,0,0:0:0:0:
109,192,164925,1,0,0:0:0:0:
475,192,164925,1,0,0:0:0:0:
36,192,165050,1,0,0:0:0:0:
256,192,165050,1,0,0:0:0:0:
182,192,165050,1,0,0:0:0:0:
182,192,165175,128,0,165300:0:0:0:0:
402,192,165175,1,0,0:0:0:0:
109,192,165175,1,0,0:0:0:0:
475,192,165175,1,0,0:0:0:0:
256,192,165300,1,0,0:0:0:0:
329,192,165300,1,0,0:0:0:0:
36,192,165300,1,0,0:0:0:0:
182,192,165425,128,0,165550:0:0:0:0:
402,192,165425,1,0,0:0:0:0:
475,192,165425,1,0,0:0:0:0:
329,192,165425,1,0,0:0:0:0:
109,192,165550,1,0,0:0:0:0:
36,192,165550,1,0,0:0:0:0:
256,192,165550,1,0,0:0:0:0:
475,192,165675,128,0,165800:0:0:0:0:
329,192,165675,1,0,0:0:0:0:
402,192,165675,128,0,165800:0:0:0:0:
182,192,165675,1,0,0:0:0:0:
109,192,165800,1,0,0:0:0:0:
36,192,165800,128,0,165925:0:0:0:0:
329,192,165800,1,0,0:0:0:0:
256,192,165800,1,0,0:0:0:0:
475,192,165925,128,0,166050:0:0:0:0:
182,192,165925,1,0,0:0:0:0:
402,192,165925,128,0,166050:0:0:0:0:
256,192,165925,1,0,0:0:0:0:
329,192,166050,1,0,0:0:0:0:
36,192,166050,1,0,0:0:0:0:
182,192,166050,1,0,0:0:0:0:
109,192,166175,128,0,166300:0:0:0:0:
256,192,166175,1,0,0:0:0:0:
402,192,166175,1,0,0:0:0:0:
36,192,166175,1,0,0:0:0:0:
329,192,166300,1,0,0:0:0:0:
475,192,166300,1,0,0:0:0:0:
182,192,166300,1,0,0:0:0:0:
109,192,166425,128,0,166550:0:0:0:0:
182,192,166425,1,0,0:0:0:0:
402,192,166425,1,0,0:0:0:0:
256,192,166425,1,0,0:0:0:0:
36,192,166550,1,0,0:0:0:0:
329,192,166550,1,0,0:0:0:0:
475,192,166550,1,0,0:0:0:0:
402,192,166675,128,0,166800:0:0:0:0:
182,192,166675,1,0,0:0:0:0:
109,192,166675,1,0,0:0:0:0:
329,192,166675,1,0,0:0:0:0:
36,192,166800,1,0,0:0:0:0:
256,192,166800,1,0,0:0:0:0:
475,192,166800,1,0,0:0:0:0:
402,192,166925,128,0,167050:0:0:0:0:
109,192,166925,1,0,0:0:0:0:
329,192,166925,1,0,0:0:0:0:
36,192,166925,1,0,0:0:0:0:
182,192,167050,1,0,0:0:0:0:
256,192,167050,1,0,0:0:0:0:
475,192,167050,1,0,0:0:0:0:
36,192,167175,128,0,167300:0:0:0:0:
109,192,167175,1,0,0:0:0:0:
329,192,167175,1,0,0:0:0:0:
182,192,167175,1,0,0:0:0:0:
256,192,167300,1,0,0:0:0:0:
402,192,167300,1,0,0:0:0:0:
475,192,167300,1,0,0:0:0:0:
36,192,167425,128,0,167550:0:0:0:0:
182,192,167425,1,0,0:0:0:0:
329,192,167425,1,0,0:0:0:0:
475,192,167425,1,0,0:0:0:0:
109,192,167550,1,0,0:0:0:0:
256,192,167550,1,0,0:0:0:0:
402,192,167550,1,0,0:0:0:0:
475,192,167675,128,0,167800:0:0:0:0:
182,192,167675,1,0,0:0:0:0:
36,192,167675,1,0,0:0:0:0:
402,192,167675,1,0,0:0:0:0:
109,192,167800,1,0,0:0:0:0:
256,192,167800,1,0,0:0:0:0:
329,192,167800,1,0,0:0:0:0:
475,192,167925,128,0,168050:0:0:0:0:
36,192,167925,1,0,0:0:0:0:
402,192,167925,1,0,0:0:0:0:
256,192,167925,1,0,0:0:0:0:
109,192,168050,1,0,0:0:0:0:
182,192,168050,1,0,0:0:0:0:
329,192,168112,1,0,0:0:0:0:
402,192,168112,1,0,0:0:0:0:
109,192,168175,1,0,0:0:0:0:
182,192,168175,128,0,168300:0:0:0:0:
402,192,168300,1,0,0:0:0:0:
256,192,168300,1,0,0:0:0:0:
36,192,168300,1,0,0:0:0:0:
182,192,168425,128,0,168550:0:0:0:0:
329,192,168425,1,0,0:0:0:0:
475,192,168425,1,0,0:0:0:0:
36,192,168425,1,0,0:0:0:0:
402,192,168550,1,0,0:0:0:0:
256,192,168550,1,0,0:0:0:0:
109,192,168550,1,0,0:0:0:0:
329,192,168675,128,0,168800:0:0:0:0:
36,192,168675,1,0,0:0:0:0:
182,192,168675,1,0,0:0:0:0:
256,192,168675,1,0,0:0:0:0:
109,192,168800,1,0,0:0:0:0:
402,192,168800,1,0,0:0:0:0:
475,192,168800,1,0,0:0:0:0:
329,192,168925,128,0,169050:0:0:0:0:
256,192,168925,1,0,0:0:0:0:
36,192,168925,1,0,0:0:0:0:
475,192,168925,1,0,0:0:0:0:
182,192,169050,1,0,0:0:0:0:
402,192,169050,1,0,0:0:0:0:
36,192,169050,1,0,0:0:0:0:
256,192,169175,1,0,0:0:0:0:
109,192,169175,128,0,169300:0:0:0:0:
182,192,169175,1,0,0:0:0:0:
475,192,169175,1,0,0:0:0:0:
36,192,169300,1,0,0:0:0:0:
329,192,169300,1,0,0:0:0:0:
402,192,169300,1,0,0:0:0:0:
109,192,169425,128,0,169550:0:0:0:0:
256,192,169425,1,0,0:0:0:0:
475,192,169425,1,0,0:0:0:0:
402,192,169425,1,0,0:0:0:0:
182,192,169550,1,0,0:0:0:0:
36,192,169550,1,0,0:0:0:0:
329,192,169550,1,0,0:0:0:0:
402,192,169675,128,0,169800:0:0:0:0:
475,192,169675,1,0,0:0:0:0:
256,192,169675,128,0,169800:0:0:0:0:
36,192,169675,1,0,0:0:0:0:
109,192,169800,1,0,0:0:0:0:
329,192,169800,1,0,0:0:0:0:
182,192,169800,128,0,169925:0:0:0:0:
402,192,169925,128,0,170050:0:0:0:0:
475,192,169925,128,0,170050:0:0:0:0:
256,192,169925,1,0,0:0:0:0:
109,192,169925,1,0,0:0:0:0:
329,192,170050,1,0,0:0:0:0:
182,192,170050,1,0,0:0:0:0:
256,192,170112,1,0,0:0:0:0:
36,192,170112,1,0,0:0:0:0:
402,192,170175,1,0,0:0:0:0:
182,192,170237,1,0,0:0:0:0:
109,192,170300,1,0,0:0:0:0:
36,192,170300,1,0,0:0:0:0:
402,192,170362,1,0,0:0:0:0:
475,192,170362,1,0,0:0:0:0:
182,192,170425,1,0,0:0:0:0:
329,192,170487,1,0,0:0:0:0:
109,192,170550,1,0,0:0:0:0:
402,192,170550,1,0,0:0:0:0:
182,192,170612,1,0,0:0:0:0:
475,192,170612,1,0,0:0:0:0:
36,192,170675,1,0,0:0:0:0:
329,192,170737,1,0,0:0:0:0:
402,192,170800,1,0,0:0:0:0:
475,192,170800,1,0,0:0:0:0:
182,192,170862,1,0,0:0:0:0:
109,192,170862,1,0,0:0:0:0:
402,192,170925,1,0,0:0:0:0:
475,192,170925,1,0,0:0:0:0:
182,192,170987,1,0,0:0:0:0:
109,192,170987,1,0,0:0:0:0:
36,192,171050,1,0,0:0:0:0:
329,192,171050,1,0,0:0:0:0:
475,192,171050,1,0,0:0:0:0:
256,192,171133,1,0,0:0:0:0:
402,192,171133,1,0,0:0:0:0:
182,192,171216,1,0,0:0:0:0:
329,192,171216,1,0,0:0:0:0:
109,192,171216,1,0,0:0:0:0:
36,192,171300,1,0,0:0:0:0:
182,192,171362,1,0,0:0:0:0:
329,192,171425,1,0,0:0:0:0:
475,192,171487,1,0,0:0:0:0:
109,192,171550,1,0,0:0:0:0:
36,192,171550,1,0,0:0:0:0:
402,192,171550,1,0,0:0:0:0:
256,192,171550,1,0,0:0:0:0:
36,192,171675,1,0,0:0:0:0:
109,192,171675,1,0,0:0:0:0:
402,192,171675,1,0,0:0:0:0:
182,192,171800,1,0,0:0:0:0:
256,192,171800,1,0,0:0:0:0:
329,192,171800,1,0,0:0:0:0:
475,192,171800,1,0,0:0:0:0:
182,192,171925,1,0,0:0:0:0:
329,192,171925,1,0,0:0:0:0:
475,192,171925,1,0,0:0:0:0:
109,192,172050,1,0,0:0:0:0:
36,192,172050,1,0,0:0:0:0:
256,192,172050,1,0,0:0:0:0:
402,192,172050,1,0,0:0:0:0:
182,192,172175,1,0,0:0:0:0:
329,192,172175,1,0,0:0:0:0:
402,192,172300,1,0,0:0:0:0:
475,192,172300,1,0,0:0:0:0:
36,192,172300,128,0,172425:0:0:0:0:
109,192,172362,128,0,172487:0:0:0:0:
182,192,172425,128,0,172550:0:0:0:0:
329,192,172425,1,0,0:0:0:0:
256,192,172487,128,0,172612:0:0:0:0:
329,192,172550,128,0,172800:0:0:0:0:
36,192,172550,1,0,0:0:0:0:
475,192,172550,1,0,0:0:0:0:
402,192,172612,128,0,172737:0:0:0:0:
475,192,172675,128,0,172800:0:0:0:0:
109,192,172675,1,0,0:0:0:0:
256,192,172737,128,0,172862:0:0:0:0:
182,192,172800,128,0,173050:0:0:0:0:
109,192,172862,128,0,172987:0:0:0:0:
36,192,172925,128,0,173050:0:0:0:0:
402,192,172925,1,0,0:0:0:0:
256,192,172987,128,0,173112:0:0:0:0:
329,192,173050,128,0,173300:0:0:0:0:
475,192,173050,1,0,0:0:0:0:
402,192,173112,128,0,173237:0:0:0:0:
475,192,173175,128,0,173300:0:0:0:0:
109,192,173175,1,0,0:0:0:0:
182,192,173237,128,0,173362:0:0:0:0:
36,192,173300,128,0,173425:0:0:0:0:
402,192,173362,128,0,173487:0:0:0:0:
256,192,173425,128,0,173550:0:0:0:0:
329,192,173425,1,0,0:0:0:0:
109,192,173487,128,0,173612:0:0:0:0:
475,192,173550,1,0,0:0:0:0:
36,192,173550,1,0,0:0:0:0:
182,192,173550,128,0,173862:0:0:0:0:
329,192,173612,128,0,173737:0:0:0:0:
402,192,173675,128,0,173800:0:0:0:0:
109,192,173675,1,0,0:0:0:0:
475,192,173737,128,0,173862:0:0:0:0:
256,192,173800,128,0,173925:0:0:0:0:
36,192,173800,1,0,0:0:0:0:
329,192,173862,128,0,174050:0:0:0:0:
36,192,173925,128,0,174050:0:0:0:0:
182,192,173925,1,0,0:0:0:0:
109,192,173987,128,0,174112:0:0:0:0:
182,192,174050,128,0,174175:0:0:0:0:
402,192,174050,1,0,0:0:0:0:
475,192,174050,1,0,0:0:0:0:
256,192,174112,128,0,174425:0:0:0:0:
329,192,174175,128,0,174300:0:0:0:0:
36,192,174175,1,0,0:0:0:0:
402,192,174237,128,0,174362:0:0:0:0:
475,192,174300,128,0,174425:0:0:0:0:
109,192,174300,1,0,0:0:0:0:
182,192,174362,128,0,174487:0:0:0:0:
109,192,174425,128,0,174550:0:0:0:0:
329,192,174425,1,0,0:0:0:0:
36,192,174487,128,0,174612:0:0:0:0:
256,192,174550,1,0,0:0:0:0:
402,192,174550,1,0,0:0:0:0:
475,192,174550,1,0,0:0:0:0:
182,192,174675,1,0,0:0:0:0:
329,192,174675,1,0,0:0:0:0:
109,192,174800,1,0,0:0:0:0:
36,192,174800,1,0,0:0:0:0:
402,192,174800,1,0,0:0:0:0:
256,192,174925,128,0,175050:0:0:0:0:
329,192,174925,1,0,0:0:0:0:
182,192,174987,128,0,175112:0:0:0:0:
109,192,175050,128,0,175425:0:0:0:0:
36,192,175050,1,0,0:0:0:0:
475,192,175050,1,0,0:0:0:0:
402,192,175112,128,0,175237:0:0:0:0:
329,192,175175,128,0,175300:0:0:0:0:
182,192,175175,1,0,0:0:0:0:
256,192,175237,128,0,175362:0:0:0:0:
182,192,175300,128,0,175425:0:0:0:0:
475,192,175300,1,0,0:0:0:0:
36,192,175362,128,0,175487:0:0:0:0:
475,192,175425,128,0,175550:0:0:0:0:
402,192,175487,128,0,175612:0:0:0:0:
329,192,175550,128,0,175675:0:0:0:0:
182,192,175550,1,0,0:0:0:0:
256,192,175550,1,0,0:0:0:0:
36,192,175612,128,0,175737:0:0:0:0:
109,192,175675,128,0,175800:0:0:0:0:
475,192,175675,1,0,0:0:0:0:
182,192,175737,128,0,175862:0:0:0:0:
256,192,175800,128,0,176112:0:0:0:0:
402,192,175800,1,0,0:0:0:0:
329,192,175862,128,0,175987:0:0:0:0:
402,192,175925,128,0,176050:0:0:0:0:
109,192,175925,1,0,0:0:0:0:
475,192,175987,128,0,176112:0:0:0:0:
182,192,176050,1,0,0:0:0:0:
36,192,176050,128,0,176175:0:0:0:0:
109,192,176112,128,0,176237:0:0:0:0:
329,192,176175,128,0,176425:0:0:0:0:
256,192,176175,1,0,0:0:0:0:
402,192,176237,128,0,176362:0:0:0:0:
475,192,176300,128,0,176425:0:0:0:0:
109,192,176300,1,0,0:0:0:0:
256,192,176362,128,0,176487:0:0:0:0:
182,192,176425,128,0,176550:0:0:0:0:
36,192,176425,1,0,0:0:0:0:
109,192,176487,128,0,176612:0:0:0:0:
402,192,176550,1,0,0:0:0:0:
475,192,176550,1,0,0:0:0:0:
329,192,176550,1,0,0:0:0:0:
256,192,176675,1,0,0:0:0:0:
182,192,176675,1,0,0:0:0:0:
109,192,176800,1,0,0:0:0:0:
36,192,176800,1,0,0:0:0:0:
475,192,176800,1,0,0:0:0:0:
182,192,176925,1,0,0:0:0:0:
256,192,176925,1,0,0:0:0:0:
36,192,177050,1,0,0:0:0:0:
475,192,177050,128,0,177175:0:0:0:0:
329,192,177050,1,0,0:0:0:0:
402,192,177112,128,0,177237:0:0:0:0:
329,192,177175,128,0,177487:0:0:0:0:
109,192,177175,1,0,0:0:0:0:
182,192,177237,128,0,177362:0:0:0:0:
109,192,177300,128,0,177425:0:0:0:0:
256,192,177300,1,0,0:0:0:0:
36,192,177362,128,0,177487:0:0:0:0:
256,192,177425,128,0,177550:0:0:0:0:
475,192,177425,1,0,0:0:0:0:
182,192,177487,128,0,177612:0:0:0:0:
109,192,177550,128,0,177862:0:0:0:0:
402,192,177550,1,0,0:0:0:0:
36,192,177550,1,0,0:0:0:0:
329,192,177612,128,0,177737:0:0:0:0:
402,192,177675,128,0,177800:0:0:0:0:
256,192,177675,1,0,0:0:0:0:
475,192,177737,128,0,177862:0:0:0:0:
182,192,177800,128,0,177925:0:0:0:0:
36,192,177800,1,0,0:0:0:0:
256,192,177862,128,0,177987:0:0:0:0:
329,192,177925,128,0,178050:0:0:0:0:
109,192,177925,1,0,0:0:0:0:
402,192,177987,128,0,178112:0:0:0:0:
475,192,178050,1,0,0:0:0:0:
182,192,178050,1,0,0:0:0:0:
36,192,178050,1,0,0:0:0:0:
109,192,178175,1,0,0:0:0:0:
329,192,178175,1,0,0:0:0:0:
256,192,178237,1,0,0:0:0:0:
182,192,178300,1,0,0:0:0:0:
475,192,178300,1,0,0:0:0:0:
36,192,178362,1,0,0:0:0:0:
109,192,178425,1,0,0:0:0:0:
256,192,178425,1,0,0:0:0:0:
329,192,178487,1,0,0:0:0:0:
402,192,178550,1,0,0:0:0:0:
475,192,178550,1,0,0:0:0:0:
182,192,178550,1,0,0:0:0:0:
36,192,178633,1,0,0:0:0:0:
256,192,178633,1,0,0:0:0:0:
109,192,178633,1,0,0:0:0:0:
182,192,178716,1,0,0:0:0:0:
329,192,178716,1,0,0:0:0:0:
256,192,178800,1,0,0:0:0:0:
402,192,178800,1,0,0:0:0:0:
475,192,178800,1,0,0:0:0:0:
36,192,178800,1,0,0:0:0:0:
109,192,178862,1,0,0:0:0:0:
182,192,178925,1,0,0:0:0:0:
329,192,178925,1,0,0:0:0:0:
402,192,178987,1,0,0:0:0:0:
256,192,179050,1,0,0:0:0:0:
475,192,179050,1,0,0:0:0:0:
36,192,179050,1,0,0:0:0:0:
182,192,179112,1,0,0:0:0:0:
109,192,179175,1,0,0:0:0:0:
402,192,179175,1,0,0:0:0:0:
256,192,179237,1,0,0:0:0:0:
182,192,179300,1,0,0:0:0:0:
329,192,179300,1,0,0:0:0:0:
402,192,179362,1,0,0:0:0:0:
475,192,179425,1,0,0:0:0:0:
36,192,179425,1,0,0:0:0:0:
182,192,179487,1,0,0:0:0:0:
109,192,179550,1,0,0:0:0:0:
402,192,179550,1,0,0:0:0:0:
475,192,179550,1,0,0:0:0:0:
256,192,179612,1,0,0:0:0:0:
182,192,179675,1,0,0:0:0:0:
36,192,179675,1,0,0:0:0:0:
329,192,179675,1,0,0:0:0:0:
402,192,179737,1,0,0:0:0:0:
109,192,179800,1,0,0:0:0:0:
256,192,179800,1,0,0:0:0:0:
475,192,179800,1,0,0:0:0:0:
329,192,179862,1,0,0:0:0:0:
402,192,179925,1,0,0:0:0:0:
36,192,179925,1,0,0:0:0:0:
182,192,179925,128,0,180050:0:0:0:0:
256,192,179987,128,0,180112:0:0:0:0:
475,192,180050,1,0,0:0:0:0:
36,192,180050,128,0,180175:0:0:0:0:
402,192,180050,1,0,0:0:0:0:
329,192,180050,128,0,180300:0:0:0:0:
109,192,180112,128,0,180237:0:0:0:0:
182,192,180175,128,0,180300:0:0:0:0:
256,192,180175,1,0,0:0:0:0:
402,192,180237,128,0,180362:0:0:0:0:
475,192,180300,128,0,180425:0:0:0:0:
109,192,180300,1,0,0:0:0:0:
256,192,180362,128,0,180487:0:0:0:0:
36,192,180425,128,0,180550:0:0:0:0:
329,192,180425,1,0,0:0:0:0:
182,192,180487,128,0,180612:0:0:0:0:
109,192,180550,1,0,0:0:0:0:
402,192,180550,1,0,0:0:0:0:
475,192,180550,1,0,0:0:0:0:
256,192,180675,1,0,0:0:0:0:
329,192,180675,1,0,0:0:0:0:
36,192,180800,1,0,0:0:0:0:
475,192,180800,1,0,0:0:0:0:
182,192,180800,1,0,0:0:0:0:
109,192,180925,1,0,0:0:0:0:
256,192,180925,1,0,0:0:0:0:
329,192,181050,1,0,0:0:0:0:
402,192,181050,1,0,0:0:0:0:
182,192,181050,128,0,181175:0:0:0:0:
109,192,181112,128,0,181237:0:0:0:0:
36,192,181175,128,0,181487:0:0:0:0:
256,192,181175,1,0,0:0:0:0:
475,192,181237,128,0,181362:0:0:0:0:
402,192,181300,128,0,181425:0:0:0:0:
182,192,181300,1,0,0:0:0:0:
329,192,181362,128,0,181487:0:0:0:0:
109,192,181425,128,0,181550:0:0:0:0:
256,192,181425,1,0,0:0:0:0:
182,192,181487,128,0,181612:0:0:0:0:
475,192,181550,128,0,181925:0:0:0:0:
329,192,181550,1,0,0:0:0:0:
402,192,181612,128,0,181737:0:0:0:0:
329,192,181675,128,0,181800:0:0:0:0:
109,192,181675,1,0,0:0:0:0:
256,192,181737,128,0,181862:0:0:0:0:
182,192,181800,128,0,182050:0:0:0:0:
36,192,181800,1,0,0:0:0:0:
109,192,181862,128,0,181987:0:0:0:0:
36,192,181925,128,0,182050:0:0:0:0:
329,192,181925,1,0,0:0:0:0:
256,192,181987,128,0,182300:0:0:0:0:
329,192,182050,128,0,182175:0:0:0:0:
475,192,182050,1,0,0:0:0:0:
402,192,182112,128,0,182237:0:0:0:0:
475,192,182175,128,0,182300:0:0:0:0:
109,192,182175,1,0,0:0:0:0:
182,192,182237,128,0,182362:0:0:0:0:
109,192,182300,128,0,182550:0:0:0:0:
36,192,182300,1,0,0:0:0:0:
402,192,182362,128,0,182487:0:0:0:0:
329,192,182425,128,0,182550:0:0:0:0:
256,192,182487,128,0,182612:0:0:0:0:
36,192,182550,1,0,0:0:0:0:
475,192,182550,1,0,0:0:0:0:
182,192,182550,1,0,0:0:0:0:
109,192,182675,1,0,0:0:0:0:
402,192,182675,1,0,0:0:0:0:
182,192,182800,1,0,0:0:0:0:
329,192,182800,1,0,0:0:0:0:
475,192,182800,1,0,0:0:0:0:
109,192,182925,1,0,0:0:0:0:
256,192,182925,1,0,0:0:0:0:
36,192,183050,1,0,0:0:0:0:
182,192,183050,128,0,183175:0:0:0:0:
402,192,183050,1,0,0:0:0:0:
256,192,183112,128,0,183237:0:0:0:0:
329,192,183175,128,0,183487:0:0:0:0:
109,192,183175,1,0,0:0:0:0:
36,192,183237,128,0,183362:0:0:0:0:
109,192,183300,128,0,183425:0:0:0:0:
475,192,183300,1,0,0:0:0:0:
182,192,183362,128,0,183612:0:0:0:0:
402,192,183425,128,0,183550:0:0:0:0:
256,192,183425,1,0,0:0:0:0:
475,192,183487,128,0,183612:0:0:0:0:
256,192,183550,128,0,183675:0:0:0:0:
36,192,183550,1,0,0:0:0:0:
329,192,183612,128,0,183737:0:0:0:0:
402,192,183675,128,0,183987:0:0:0:0:
109,192,183675,1,0,0:0:0:0:
182,192,183737,128,0,183862:0:0:0:0:
109,192,183800,128,0,183925:0:0:0:0:
256,192,183800,1,0,0:0:0:0:
36,192,183862,128,0,184050:0:0:0:0:
329,192,183925,128,0,184050:0:0:0:0:
475,192,183925,1,0,0:0:0:0:
256,192,183987,128,0,184112:0:0:0:0:
109,192,184050,1,0,0:0:0:0:
182,192,184050,1,0,0:0:0:0:
402,192,184050,1,0,0:0:0:0:
36,192,184175,1,0,0:0:0:0:
182,192,184175,1,0,0:0:0:0:
329,192,184175,1,0,0:0:0:0:
475,192,184237,1,0,0:0:0:0:
402,192,184300,1,0,0:0:0:0:
256,192,184300,1,0,0:0:0:0:
109,192,184300,1,0,0:0:0:0:
36,192,184362,1,0,0:0:0:0:
182,192,184425,1,0,0:0:0:0:
329,192,184425,1,0,0:0:0:0:
475,192,184425,1,0,0:0:0:0:
109,192,184487,1,0,0:0:0:0:
36,192,184550,1,0,0:0:0:0:
256,192,184550,1,0,0:0:0:0:
402,192,184550,1,0,0:0:0:0:
182,192,184675,1,0,0:0:0:0:
329,192,184675,1,0,0:0:0:0:
109,192,184675,1,0,0:0:0:0:
475,192,184737,1,0,0:0:0:0:
402,192,184800,1,0,0:0:0:0:
256,192,184800,1,0,0:0:0:0:
36,192,184800,1,0,0:0:0:0:
109,192,184862,1,0,0:0:0:0:
182,192,184925,1,0,0:0:0:0:
329,192,184925,1,0,0:0:0:0:
475,192,184925,1,0,0:0:0:0:
256,192,185050,1,0,0:0:0:0:
402,192,185050,1,0,0:0:0:0:
36,192,185050,1,0,0:0:0:0:
109,192,185112,1,0,0:0:0:0:
182,192,185112,1,0,0:0:0:0:
36,192,185175,1,0,0:0:0:0:
475,192,185175,1,0,0:0:0:0:
256,192,185237,1,0,0:0:0:0:
329,192,185237,1,0,0:0:0:0:
402,192,185300,1,0,0:0:0:0:
182,192,185300,1,0,0:0:0:0:
109,192,185300,1,0,0:0:0:0:
475,192,185362,1,0,0:0:0:0:
329,192,185425,1,0,0:0:0:0:
36,192,185425,1,0,0:0:0:0:
256,192,185425,1,0,0:0:0:0:
182,192,185487,1,0,0:0:0:0:
109,192,185550,1,0,0:0:0:0:
36,192,185550,1,0,0:0:0:0:
329,192,185550,1,0,0:0:0:0:
475,192,185550,1,0,0:0:0:0:
109,192,185675,1,0,0:0:0:0:
256,192,185675,1,0,0:0:0:0:
402,192,185675,1,0,0:0:0:0:
182,192,185800,1,0,0:0:0:0:
36,192,185800,1,0,0:0:0:0:
329,192,185800,1,0,0:0:0:0:
475,192,185862,1,0,0:0:0:0:
402,192,185925,1,0,0:0:0:0:
256,192,185925,1,0,0:0:0:0:
109,192,185925,1,0,0:0:0:0:
36,192,185987,1,0,0:0:0:0:
182,192,186050,1,0,0:0:0:0:
329,192,186050,1,0,0:0:0:0:
109,192,186050,1,0,0:0:0:0:
475,192,186050,128,0,186175:0:0:0:0:
402,192,186175,128,0,186300:0:0:0:0:
36,192,186175,1,0,0:0:0:0:
182,192,186175,1,0,0:0:0:0:
329,192,186300,128,0,186425:0:0:0:0:
36,192,186300,1,0,0:0:0:0:
182,192,186300,1,0,0:0:0:0:
402,192,186425,128,0,186550:0:0:0:0:
109,192,186425,1,0,0:0:0:0:
36,192,186425,1,0,0:0:0:0:
182,192,186550,128,0,186675:0:0:0:0:
329,192,186550,1,0,0:0:0:0:
475,192,186550,1,0,0:0:0:0:
109,192,186675,128,0,186800:0:0:0:0:
402,192,186675,1,0,0:0:0:0:
475,192,186675,1,0,0:0:0:0:
36,192,186800,128,0,186925:0:0:0:0:
475,192,186800,1,0,0:0:0:0:
402,192,186800,1,0,0:0:0:0:
256,192,186862,1,0,0:0:0:0:
109,192,186925,128,0,187050:0:0:0:0:
402,192,186925,1,0,0:0:0:0:
475,192,186925,1,0,0:0:0:0:
329,192,186987,1,0,0:0:0:0:
36,192,187050,1,0,0:0:0:0:
182,192,187050,1,0,0:0:0:0:
402,192,187050,128,0,187175:0:0:0:0:
329,192,187175,128,0,187300:0:0:0:0:
109,192,187175,1,0,0:0:0:0:
182,192,187175,1,0,0:0:0:0:
402,192,187300,128,0,187425:0:0:0:0:
109,192,187300,1,0,0:0:0:0:
182,192,187300,1,0,0:0:0:0:
475,192,187425,128,0,187550:0:0:0:0:
36,192,187425,1,0,0:0:0:0:
109,192,187425,1,0,0:0:0:0:
182,192,187550,128,0,187675:0:0:0:0:
329,192,187550,1,0,0:0:0:0:
402,192,187550,1,0,0:0:0:0:
109,192,187675,128,0,187800:0:0:0:0:
329,192,187675,1,0,0:0:0:0:
475,192,187675,1,0,0:0:0:0:
36,192,187800,128,0,187925:0:0:0:0:
329,192,187800,1,0,0:0:0:0:
475,192,187800,1,0,0:0:0:0:
182,192,187925,128,0,188050:0:0:0:0:
402,192,187925,1,0,0:0:0:0:
475,192,187925,1,0,0:0:0:0:
109,192,188050,1,0,0:0:0:0:
36,192,188050,1,0,0:0:0:0:
256,192,188050,1,0,0:0:0:0:
329,192,188050,1,0,0:0:0:0:
109,192,188175,1,0,0:0:0:0:
256,192,188175,1,0,0:0:0:0:
329,192,188175,1,0,0:0:0:0:
36,192,188300,1,0,0:0:0:0:
182,192,188300,1,0,0:0:0:0:
402,192,188300,1,0,0:0:0:0:
36,192,188425,1,0,0:0:0:0:
182,192,188425,1,0,0:0:0:0:
402,192,188425,1,0,0:0:0:0:
36,192,188550,1,0,0:0:0:0:
475,192,188550,1,0,0:0:0:0:
109,192,188550,128,0,188675:0:0:0:0:
256,192,188550,128,0,188675:0:0:0:0:
182,192,188675,128,0,188800:0:0:0:0:
402,192,188675,128,0,188800:0:0:0:0:
109,192,188800,128,0,188925:0:0:0:0:
36,192,188800,128,0,188925:0:0:0:0:
182,192,188925,128,0,189050:0:0:0:0:
329,192,188925,128,0,189050:0:0:0:0:
256,192,189050,128,0,189175:0:0:0:0:
475,192,189050,128,0,189175:0:0:0:0:
36,192,189175,128,0,189300:0:0:0:0:
109,192,189175,128,0,189300:0:0:0:0:
329,192,189300,128,0,189425:0:0:0:0:
475,192,189300,128,0,189425:0:0:0:0:
256,192,189425,128,0,189550:0:0:0:0:
182,192,189425,128,0,189550:0:0:0:0:
109,192,189550,1,0,0:0:0:0:
36,192,189550,1,0,0:0:0:0:
402,192,189550,1,0,0:0:0:0:
36,192,189675,1,0,0:0:0:0:
109,192,189675,1,0,0:0:0:0:
402,192,189675,1,0,0:0:0:0:
182,192,189800,1,0,0:0:0:0:
329,192,189800,1,0,0:0:0:0:
256,192,189800,1,0,0:0:0:0:
182,192,189925,1,0,0:0:0:0:
329,192,189925,1,0,0:0:0:0:
256,192,189925,1,0,0:0:0:0:
109,192,190050,1,0,0:0:0:0:
475,192,190050,1,0,0:0:0:0:
402,192,190050,1,0,0:0:0:0:
109,192,190175,1,0,0:0:0:0:
475,192,190175,1,0,0:0:0:0:
402,192,190175,1,0,0:0:0:0:
36,192,190300,1,0,0:0:0:0:
329,192,190300,1,0,0:0:0:0:
182,192,190300,1,0,0:0:0:0:
36,192,190425,1,0,0:0:0:0:
329,192,190425,1,0,0:0:0:0:
182,192,190425,1,0,0:0:0:0:
109,192,190550,1,0,0:0:0:0:
36,192,190550,1,0,0:0:0:0:
256,192,190550,1,0,0:0:0:0:
402,192,190550,1,0,0:0:0:0:
256,192,190675,1,0,0:0:0:0:
402,192,190675,1,0,0:0:0:0:
109,192,190675,1,0,0:0:0:0:
36,192,190800,1,0,0:0:0:0:
329,192,190800,1,0,0:0:0:0:
475,192,190800,1,0,0:0:0:0:
36,192,190925,1,0,0:0:0:0:
329,192,190925,1,0,0:0:0:0:
475,192,190925,1,0,0:0:0:0:
256,192,191050,1,0,0:0:0:0:
402,192,191050,1,0,0:0:0:0:
109,192,191050,1,0,0:0:0:0:
256,192,191175,1,0,0:0:0:0:
402,192,191175,1,0,0:0:0:0:
109,192,191175,1,0,0:0:0:0:
36,192,191300,1,0,0:0:0:0:
182,192,191300,1,0,0:0:0:0:
475,192,191300,1,0,0:0:0:0:
36,192,191425,1,0,0:0:0:0:
182,192,191425,1,0,0:0:0:0:
475,192,191425,1,0,0:0:0:0:
256,192,191550,1,0,0:0:0:0:
329,192,191550,1,0,0:0:0:0:
402,192,191550,1,0,0:0:0:0:
109,192,191550,1,0,0:0:0:0:
256,192,191675,1,0,0:0:0:0:
329,192,191675,1,0,0:0:0:0:
402,192,191675,1,0,0:0:0:0:
182,192,191800,1,0,0:0:0:0:
109,192,191800,1,0,0:0:0:0:
36,192,191800,1,0,0:0:0:0:
36,192,191925,1,0,0:0:0:0:
109,192,191925,1,0,0:0:0:0:
182,192,191925,1,0,0:0:0:0:
402,192,192050,1,0,0:0:0:0:
475,192,192050,1,0,0:0:0:0:
256,192,192050,1,0,0:0:0:0:
402,192,192175,1,0,0:0:0:0:
256,192,192175,1,0,0:0:0:0:
475,192,192175,1,0,0:0:0:0:
182,192,192300,1,0,0:0:0:0:
329,192,192300,1,0,0:0:0:0:
109,192,192300,1,0,0:0:0:0:
109,192,192425,1,0,0:0:0:0:
329,192,192425,1,0,0:0:0:0:
182,192,192425,1,0,0:0:0:0:
475,192,192550,1,0,0:0:0:0:
36,192,192550,1,0,0:0:0:0:
402,192,192550,128,0,192675:0:0:0:0:
256,192,192550,128,0,192675:0:0:0:0:
329,192,192675,128,0,192800:0:0:0:0:
109,192,192675,128,0,192800:0:0:0:0:
402,192,192800,128,0,192925:0:0:0:0:
475,192,192800,128,0,192925:0:0:0:0:
329,192,192925,128,0,193050:0:0:0:0:
182,192,192925,128,0,193050:0:0:0:0:
256,192,193050,128,0,193175:0:0:0:0:
36,192,193050,128,0,193175:0:0:0:0:
475,192,193175,128,0,193300:0:0:0:0:
402,192,193175,128,0,193300:0:0:0:0:
182,192,193300,128,0,193425:0:0:0:0:
36,192,193300,128,0,193425:0:0:0:0:
256,192,193425,128,0,193550:0:0:0:0:
329,192,193425,128,0,193550:0:0:0:0:
182,192,193550,128,0,193675:0:0:0:0:
402,192,193550,128,0,193675:0:0:0:0:
475,192,193675,1,0,0:0:0:0:
109,192,193675,1,0,0:0:0:0:
256,192,193675,1,0,0:0:0:0:
329,192,193800,1,0,0:0:0:0:
182,192,193800,1,0,0:0:0:0:
36,192,193800,1,0,0:0:0:0:
329,192,193925,1,0,0:0:0:0:
182,192,193925,1,0,0:0:0:0:
36,192,193925,1,0,0:0:0:0:
402,192,194050,1,0,0:0:0:0:
256,192,194050,1,0,0:0:0:0:
109,192,194050,1,0,0:0:0:0:
402,192,194175,1,0,0:0:0:0:
256,192,194175,1,0,0:0:0:0:
109,192,194175,1,0,0:0:0:0:
475,192,194300,1,0,0:0:0:0:
182,192,194300,1,0,0:0:0:0:
36,192,194300,1,0,0:0:0:0:
475,192,194425,1,0,0:0:0:0:
182,192,194425,1,0,0:0:0:0:
36,192,194425,1,0,0:0:0:0:
402,192,194550,1,0,0:0:0:0:
475,192,194550,1,0,0:0:0:0:
256,192,194550,1,0,0:0:0:0:
109,192,194550,1,0,0:0:0:0:
256,192,194675,1,0,0:0:0:0:
109,192,194675,1,0,0:0:0:0:
402,192,194675,1,0,0:0:0:0:
475,192,194800,1,0,0:0:0:0:
329,192,194800,1,0,0:0:0:0:
36,192,194800,1,0,0:0:0:0:
475,192,194925,1,0,0:0:0:0:
329,192,194925,1,0,0:0:0:0:
36,192,194925,1,0,0:0:0:0:
182,192,195050,1,0,0:0:0:0:
109,192,195050,1,0,0:0:0:0:
402,192,195050,1,0,0:0:0:0:
256,192,195112,1,0,0:0:0:0:
182,192,195175,1,0,0:0:0:0:
109,192,195175,1,0,0:0:0:0:
402,192,195175,1,0,0:0:0:0:
475,192,195300,1,0,0:0:0:0:
329,192,195300,1,0,0:0:0:0:
36,192,195300,1,0,0:0:0:0:
475,192,195425,1,0,0:0:0:0:
329,192,195425,1,0,0:0:0:0:
36,192,195425,1,0,0:0:0:0:
256,192,195550,1,0,0:0:0:0:
182,192,195550,1,0,0:0:0:0:
109,192,195550,1,0,0:0:0:0:
402,192,195550,1,0,0:0:0:0:
402,192,195675,1,0,0:0:0:0:
109,192,195675,1,0,0:0:0:0:
256,192,195675,1,0,0:0:0:0:
182,192,195800,1,0,0:0:0:0:
329,192,195800,1,0,0:0:0:0:
475,192,195800,1,0,0:0:0:0:
109,192,195925,1,0,0:0:0:0:
402,192,195925,1,0,0:0:0:0:
329,192,195925,1,0,0:0:0:0:
36,192,196050,1,0,0:0:0:0:
182,192,196050,1,0,0:0:0:0:
256,192,196050,1,0,0:0:0:0:
475,192,196050,1,0,0:0:0:0:
36,192,196175,1,0,0:0:0:0:
256,192,196175,1,0,0:0:0:0:
475,192,196175,1,0,0:0:0:0:
109,192,196300,1,0,0:0:0:0:
182,192,196300,1,0,0:0:0:0:
329,192,196300,1,0,0:0:0:0:
109,192,196425,1,0,0:0:0:0:
182,192,196425,1,0,0:0:0:0:
329,192,196425,1,0,0:0:0:0:
36,192,196550,1,0,0:0:0:0:
109,192,196550,128,0,196675:0:0:0:0:
256,192,196550,128,0,196675:0:0:0:0:
475,192,196550,1,0,0:0:0:0:
329,192,196675,128,0,196800:0:0:0:0:
402,192,196675,128,0,196800:0:0:0:0:
109,192,196800,128,0,196925:0:0:0:0:
36,192,196800,128,0,196925:0:0:0:0:
182,192,196925,128,0,197050:0:0:0:0:
329,192,196925,128,0,197050:0:0:0:0:
256,192,197050,128,0,197175:0:0:0:0:
475,192,197050,128,0,197175:0:0:0:0:
36,192,197175,128,0,197300:0:0:0:0:
329,192,197175,128,0,197300:0:0:0:0:
256,192,197300,128,0,197425:0:0:0:0:
475,192,197300,128,0,197425:0:0:0:0:
329,192,197425,128,0,197550:0:0:0:0:
182,192,197425,128,0,197550:0:0:0:0:
109,192,197550,1,0,0:0:0:0:
36,192,197550,1,0,0:0:0:0:
402,192,197550,1,0,0:0:0:0:
36,192,197675,1,0,0:0:0:0:
109,192,197675,1,0,0:0:0:0:
402,192,197675,1,0,0:0:0:0:
182,192,197800,1,0,0:0:0:0:
329,192,197800,1,0,0:0:0:0:
475,192,197800,1,0,0:0:0:0:
182,192,197925,1,0,0:0:0:0:
329,192,197925,1,0,0:0:0:0:
475,192,197925,1,0,0:0:0:0:
109,192,198050,1,0,0:0:0:0:
256,192,198050,1,0,0:0:0:0:
402,192,198050,1,0,0:0:0:0:
109,192,198175,1,0,0:0:0:0:
256,192,198175,1,0,0:0:0:0:
402,192,198175,1,0,0:0:0:0:
36,192,198300,1,0,0:0:0:0:
329,192,198300,1,0,0:0:0:0:
475,192,198300,1,0,0:0:0:0:
36,192,198425,1,0,0:0:0:0:
329,192,198425,1,0,0:0:0:0:
475,192,198425,1,0,0:0:0:0:
109,192,198550,1,0,0:0:0:0:
329,192,198550,1,0,0:0:0:0:
256,192,198550,1,0,0:0:0:0:
402,192,198550,1,0,0:0:0:0:
256,192,198675,1,0,0:0:0:0:
402,192,198675,1,0,0:0:0:0:
109,192,198675,1,0,0:0:0:0:
36,192,198800,1,0,0:0:0:0:
182,192,198800,1,0,0:0:0:0:
475,192,198800,1,0,0:0:0:0:
36,192,198925,1,0,0:0:0:0:
182,192,198925,1,0,0:0:0:0:
475,192,198925,1,0,0:0:0:0:
329,192,199050,1,0,0:0:0:0:
402,192,199050,1,0,0:0:0:0:
109,192,199050,1,0,0:0:0:0:
329,192,199175,1,0,0:0:0:0:
402,192,199175,1,0,0:0:0:0:
109,192,199175,1,0,0:0:0:0:
36,192,199300,1,0,0:0:0:0:
182,192,199300,1,0,0:0:0:0:
475,192,199300,1,0,0:0:0:0:
36,192,199425,1,0,0:0:0:0:
182,192,199425,1,0,0:0:0:0:
475,192,199425,1,0,0:0:0:0:
256,192,199550,1,0,0:0:0:0:
329,192,199550,1,0,0:0:0:0:
402,192,199550,1,0,0:0:0:0:
109,192,199550,1,0,0:0:0:0:
256,192,199675,1,0,0:0:0:0:
329,192,199675,1,0,0:0:0:0:
402,192,199675,1,0,0:0:0:0:
182,192,199800,1,0,0:0:0:0:
109,192,199800,1,0,0:0:0:0:
36,192,199800,1,0,0:0:0:0:
36,192,199925,1,0,0:0:0:0:
109,192,199925,1,0,0:0:0:0:
182,192,199925,1,0,0:0:0:0:
402,192,200050,1,0,0:0:0:0:
475,192,200050,1,0,0:0:0:0:
329,192,200050,1,0,0:0:0:0:
402,192,200175,1,0,0:0:0:0:
329,192,200175,1,0,0:0:0:0:
475,192,200175,1,0,0:0:0:0:
182,192,200300,1,0,0:0:0:0:
256,192,200300,1,0,0:0:0:0:
36,192,200300,1,0,0:0:0:0:
36,192,200425,1,0,0:0:0:0:
256,192,200425,1,0,0:0:0:0:
182,192,200425,1,0,0:0:0:0:
475,192,200550,1,0,0:0:0:0:
109,192,200550,1,0,0:0:0:0:
402,192,200550,128,0,200675:0:0:0:0:
256,192,200550,128,0,200675:0:0:0:0:
329,192,200675,128,0,200800:0:0:0:0:
36,192,200675,128,0,200800:0:0:0:0:
256,192,200800,128,0,200925:0:0:0:0:
475,192,200800,128,0,200925:0:0:0:0:
329,192,200925,128,0,201050:0:0:0:0:
182,192,200925,128,0,201050:0:0:0:0:
256,192,201050,128,0,201175:0:0:0:0:
36,192,201050,128,0,201175:0:0:0:0:
475,192,201175,128,0,201300:0:0:0:0:
329,192,201175,128,0,201300:0:0:0:0:
256,192,201300,128,0,201425:0:0:0:0:
36,192,201300,128,0,201425:0:0:0:0:
182,192,201425,128,0,201550:0:0:0:0:
329,192,201425,128,0,201550:0:0:0:0:
109,192,201550,128,0,201675:0:0:0:0:
402,192,201550,128,0,201675:0:0:0:0:
475,192,201675,1,0,0:0:0:0:
36,192,201675,1,0,0:0:0:0:
256,192,201675,1,0,0:0:0:0:
329,192,201800,1,0,0:0:0:0:
182,192,201800,1,0,0:0:0:0:
109,192,201800,1,0,0:0:0:0:
329,192,201925,1,0,0:0:0:0:
182,192,201925,1,0,0:0:0:0:
109,192,201925,1,0,0:0:0:0:
402,192,202050,1,0,0:0:0:0:
256,192,202050,1,0,0:0:0:0:
475,192,202050,1,0,0:0:0:0:
402,192,202175,1,0,0:0:0:0:
256,192,202175,1,0,0:0:0:0:
475,192,202175,1,0,0:0:0:0:
109,192,202300,1,0,0:0:0:0:
36,192,202300,1,0,0:0:0:0:
329,192,202300,1,0,0:0:0:0:
36,192,202425,1,0,0:0:0:0:
109,192,202425,1,0,0:0:0:0:
329,192,202425,1,0,0:0:0:0:
182,192,202550,1,0,0:0:0:0:
402,192,202550,1,0,0:0:0:0:
475,192,202550,1,0,0:0:0:0:
182,192,202675,1,0,0:0:0:0:
402,192,202675,1,0,0:0:0:0:
475,192,202675,1,0,0:0:0:0:
256,192,202800,1,0,0:0:0:0:
329,192,202800,1,0,0:0:0:0:
36,192,202800,1,0,0:0:0:0:
256,192,202925,1,0,0:0:0:0:
329,192,202925,1,0,0:0:0:0:
36,192,202925,1,0,0:0:0:0:
182,192,203050,1,0,0:0:0:0:
109,192,203050,1,0,0:0:0:0:
329,192,203175,1,0,0:0:0:0:
402,192,203175,1,0,0:0:0:0:
475,192,203175,1,0,0:0:0:0:
256,192,203300,1,0,0:0:0:0:
402,192,203300,1,0,0:0:0:0:
475,192,203300,1,0,0:0:0:0:
329,192,203425,1,0,0:0:0:0:
402,192,203425,1,0,0:0:0:0:
475,192,203425,1,0,0:0:0:0:
182,192,203550,1,0,0:0:0:0:
402,192,203550,1,0,0:0:0:0:
475,192,203550,1,0,0:0:0:0:
402,192,203675,1,0,0:0:0:0:
329,192,203675,1,0,0:0:0:0:
109,192,203675,1,0,0:0:0:0:
329,192,203800,1,0,0:0:0:0:
256,192,203800,1,0,0:0:0:0:
36,192,203800,1,0,0:0:0:0:
402,192,203925,1,0,0:0:0:0:
182,192,203925,1,0,0:0:0:0:
256,192,203925,1,0,0:0:0:0:
109,192,204050,128,0,204175:0:0:0:0:
402,192,204175,128,0,204300:0:0:0:0:
329,192,204237,128,0,204300:0:0:0:0:
109,192,204300,128,0,204425:0:0:0:0:
402,192,204425,128,0,204550:0:0:0:0:
329,192,204487,128,0,204550:0:0:0:0:
109,192,204550,128,0,204675:0:0:0:0:
402,192,204675,128,0,204800:0:0:0:0:
329,192,204737,128,0,204800:0:0:0:0:
109,192,204800,128,0,204925:0:0:0:0:
402,192,204925,128,0,205050:0:0:0:0:
329,192,204987,128,0,205050:0:0:0:0:
36,192,205050,1,0,0:0:0:0:
182,192,205050,1,0,0:0:0:0:
475,192,205050,1,0,0:0:0:0:
256,192,205175,1,0,0:0:0:0:
109,192,205175,128,0,205300:0:0:0:0:
182,192,205237,128,0,205300:0:0:0:0:
36,192,205300,1,0,0:0:0:0:
475,192,205300,1,0,0:0:0:0:
329,192,205300,1,0,0:0:0:0:
402,192,205425,128,0,205550:0:0:0:0:
256,192,205425,1,0,0:0:0:0:
329,192,205487,128,0,205550:0:0:0:0:
109,192,205550,1,0,0:0:0:0:
182,192,205550,1,0,0:0:0:0:
475,192,205550,1,0,0:0:0:0:
36,192,205675,128,0,205800:0:0:0:0:
256,192,205675,1,0,0:0:0:0:
182,192,205737,128,0,205800:0:0:0:0:
109,192,205800,1,0,0:0:0:0:
402,192,205800,1,0,0:0:0:0:
329,192,205800,1,0,0:0:0:0:
475,192,205925,128,0,206050:0:0:0:0:
256,192,205925,1,0,0:0:0:0:
329,192,205987,128,0,206050:0:0:0:0:
36,192,206050,1,0,0:0:0:0:
182,192,206050,1,0,0:0:0:0:
109,192,206050,1,0,0:0:0:0:
182,192,206175,128,0,206300:0:0:0:0:
329,192,206175,1,0,0:0:0:0:
109,192,206237,128,0,206300:0:0:0:0:
402,192,206300,1,0,0:0:0:0:
36,192,206300,1,0,0:0:0:0:
256,192,206300,1,0,0:0:0:0:
329,192,206425,128,0,206550:0:0:0:0:
182,192,206425,1,0,0:0:0:0:
402,192,206487,128,0,206550:0:0:0:0:
256,192,206550,1,0,0:0:0:0:
475,192,206550,1,0,0:0:0:0:
109,192,206550,1,0,0:0:0:0:
475,192,206675,128,0,206800:0:0:0:0:
36,192,206675,128,0,206800:0:0:0:0:
329,192,206675,1,0,0:0:0:0:
182,192,206737,128,0,206800:0:0:0:0:
329,192,206800,128,0,206925:0:0:0:0:
256,192,206800,1,0,0:0:0:0:
402,192,206925,128,0,207050:0:0:0:0:
36,192,206925,128,0,207050:0:0:0:0:
182,192,206925,1,0,0:0:0:0:
109,192,206987,128,0,207050:0:0:0:0:
329,192,207050,1,0,0:0:0:0:
475,192,207050,1,0,0:0:0:0:
256,192,207050,1,0,0:0:0:0:
182,192,207175,128,0,207300:0:0:0:0:
402,192,207175,1,0,0:0:0:0:
109,192,207237,128,0,207300:0:0:0:0:
329,192,207300,1,0,0:0:0:0:
256,192,207300,1,0,0:0:0:0:
36,192,207300,1,0,0:0:0:0:
475,192,207425,128,0,207550:0:0:0:0:
182,192,207425,1,0,0:0:0:0:
402,192,207487,128,0,207550:0:0:0:0:
109,192,207550,1,0,0:0:0:0:
256,192,207550,1,0,0:0:0:0:
329,192,207550,1,0,0:0:0:0:
36,192,207675,128,0,207800:0:0:0:0:
402,192,207675,1,0,0:0:0:0:
182,192,207737,128,0,207800:0:0:0:0:
329,192,207800,1,0,0:0:0:0:
475,192,207800,1,0,0:0:0:0:
256,192,207800,1,0,0:0:0:0:
329,192,207925,128,0,208050:0:0:0:0:
182,192,207925,1,0,0:0:0:0:
256,192,207987,128,0,208050:0:0:0:0:
109,192,208050,1,0,0:0:0:0:
36,192,208050,1,0,0:0:0:0:
475,192,208050,1,0,0:0:0:0:
182,192,208175,128,0,208300:0:0:0:0:
329,192,208175,1,0,0:0:0:0:
109,192,208237,128,0,208300:0:0:0:0:
256,192,208300,1,0,0:0:0:0:
402,192,208300,1,0,0:0:0:0:
36,192,208300,1,0,0:0:0:0:
475,192,208425,128,0,208550:0:0:0:0:
182,192,208425,1,0,0:0:0:0:
329,192,208487,128,0,208550:0:0:0:0:
109,192,208550,1,0,0:0:0:0:
256,192,208550,1,0,0:0:0:0:
36,192,208550,1,0,0:0:0:0:
182,192,208675,128,0,208800:0:0:0:0:
329,192,208675,1,0,0:0:0:0:
36,192,208737,128,0,208800:0:0:0:0:
402,192,208800,1,0,0:0:0:0:
475,192,208800,1,0,0:0:0:0:
256,192,208800,1,0,0:0:0:0:
329,192,208925,128,0,209050:0:0:0:0:
182,192,208925,1,0,0:0:0:0:
402,192,208987,128,0,209050:0:0:0:0:
109,192,209050,1,0,0:0:0:0:
475,192,209050,1,0,0:0:0:0:
36,192,209050,1,0,0:0:0:0:
256,192,209175,128,0,209300:0:0:0:0:
402,192,209175,1,0,0:0:0:0:
182,192,209237,128,0,209300:0:0:0:0:
109,192,209300,1,0,0:0:0:0:
36,192,209300,1,0,0:0:0:0:
329,192,209300,1,0,0:0:0:0:
402,192,209425,128,0,209550:0:0:0:0:
182,192,209425,1,0,0:0:0:0:
475,192,209487,128,0,209550:0:0:0:0:
256,192,209550,1,0,0:0:0:0:
109,192,209550,1,0,0:0:0:0:
329,192,209550,1,0,0:0:0:0:
36,192,209675,128,0,209800:0:0:0:0:
475,192,209675,1,0,0:0:0:0:
109,192,209737,128,0,209800:0:0:0:0:
256,192,209800,1,0,0:0:0:0:
402,192,209800,1,0,0:0:0:0:
182,192,209800,1,0,0:0:0:0:
329,192,209925,128,0,210050:0:0:0:0:
109,192,209925,1,0,0:0:0:0:
402,192,209987,128,0,210050:0:0:0:0:
36,192,210050,1,0,0:0:0:0:
182,192,210050,1,0,0:0:0:0:
256,192,210050,1,0,0:0:0:0:
109,192,210175,128,0,210300:0:0:0:0:
475,192,210175,1,0,0:0:0:0:
182,192,210237,128,0,210300:0:0:0:0:
402,192,210300,1,0,0:0:0:0:
36,192,210300,1,0,0:0:0:0:
329,192,210300,1,0,0:0:0:0:
256,192,210425,128,0,210550:0:0:0:0:
109,192,210425,1,0,0:0:0:0:
329,192,210487,128,0,210550:0:0:0:0:
36,192,210550,1,0,0:0:0:0:
475,192,210550,1,0,0:0:0:0:
182,192,210550,1,0,0:0:0:0:
109,192,210675,128,0,210800:0:0:0:0:
475,192,210675,128,0,210800:0:0:0:0:
329,192,210675,1,0,0:0:0:0:
182,192,210737,128,0,210800:0:0:0:0:
329,192,210800,128,0,210925:0:0:0:0:
256,192,210800,1,0,0:0:0:0:
402,192,210925,128,0,211050:0:0:0:0:
182,192,210925,1,0,0:0:0:0:
36,192,210925,128,0,211050:0:0:0:0:
109,192,210987,128,0,211050:0:0:0:0:
475,192,211050,1,0,0:0:0:0:
329,192,211050,1,0,0:0:0:0:
256,192,211050,1,0,0:0:0:0:
182,192,211133,1,0,0:0:0:0:
36,192,211133,1,0,0:0:0:0:
256,192,211216,1,0,0:0:0:0:
402,192,211216,1,0,0:0:0:0:
109,192,211300,1,0,0:0:0:0:
329,192,211300,1,0,0:0:0:0:
402,192,211383,1,0,0:0:0:0:
182,192,211383,1,0,0:0:0:0:
256,192,211466,1,0,0:0:0:0:
36,192,211466,1,0,0:0:0:0:
182,192,211550,1,0,0:0:0:0:
402,192,211550,1,0,0:0:0:0:
475,192,211550,1,0,0:0:0:0:
109,192,211633,1,0,0:0:0:0:
36,192,211633,1,0,0:0:0:0:
256,192,211716,1,0,0:0:0:0:
475,192,211716,1,0,0:0:0:0:
402,192,211800,1,0,0:0:0:0:
182,192,211800,1,0,0:0:0:0:
109,192,211883,1,0,0:0:0:0:
329,192,211883,1,0,0:0:0:0:
256,192,211966,1,0,0:0:0:0:
36,192,211966,1,0,0:0:0:0:
182,192,212050,1,0,0:0:0:0:
329,192,212050,1,0,0:0:0:0:
475,192,212050,1,0,0:0:0:0:
36,192,212133,1,0,0:0:0:0:
109,192,212133,1,0,0:0:0:0:
256,192,212216,1,0,0:0:0:0:
402,192,212216,1,0,0:0:0:0:
182,192,212300,1,0,0:0:0:0:
109,192,212300,1,0,0:0:0:0:
329,192,212383,1,0,0:0:0:0:
475,192,212383,1,0,0:0:0:0:
256,192,212466,1,0,0:0:0:0:
182,192,212466,1,0,0:0:0:0:
109,192,212550,1,0,0:0:0:0:
36,192,212550,1,0,0:0:0:0:
329,192,212550,1,0,0:0:0:0:
402,192,212550,1,0,0:0:0:0:
329,192,212800,1,0,0:0:0:0:
402,192,212800,1,0,0:0:0:0:
109,192,212800,1,0,0:0:0:0:
36,192,212800,1,0,0:0:0:0:
