osu file format v14

[General]
AudioFilename: audio.mp3
AudioLeadIn: 0
PreviewTime: 44321
Countdown: 0
SampleSet: Soft
StackLeniency: 0.7
Mode: 0
LetterboxInBreaks: 0
WidescreenStoryboard: 1

[Editor]
DistanceSpacing: 1.2
BeatDivisor: 2
GridSize: 4
TimelineZoom: 0.9999999

[Metadata]
Title:Zanshou no Resonance
TitleUnicode:残照のレゾナンス
Artist:Imy feat. Aitsuki Nakuru
ArtistUnicode:Imy feat. 藍月なくる
Creator:Narcissu
Version:Normal
Source:
Tags:Silky garden fuyuyu- mamayu アイミー kanau satellite VoiceCore Dont Dagger-Gazel Japanese Rock J-Rock featured artist fa osu!
BeatmapID:2620432
BeatmapSetID:1147203

[Difficulty]
HPDrainRate:3
CircleSize:3.5
OverallDifficulty:4.5
ApproachRate:6
SliderMultiplier:1
SliderTickRate:1

[Events]
//Background and Video events
0,0,"BG.jpg",0,0
//Break Periods
2,145541,155262
//Storyboard Layer 0 (Background)
//Storyboard Layer 1 (Fail)
//Storyboard Layer 2 (Pass)
//Storyboard Layer 3 (Foreground)
//Storyboard Layer 4 (Overlay)
//Storyboard Sound Samples

[TimingPoints]
-30,342.857142857143,4,2,16,70,1,0
-30,-125,4,2,16,70,0,0
12312,-142.857142857143,4,2,16,40,0,0
21741,-125,4,2,16,60,0,0
45227,-125,4,2,16,70,0,1
67170,-125,4,2,16,60,0,0
78141,-142.857142857143,4,2,16,60,0,0
87570,-125,4,2,16,60,0,0
111055,-125,4,2,16,74,0,1
132998,-125,4,2,16,70,0,0
145341,-125,4,2,16,40,0,0
156312,-113.636363636364,4,2,16,80,0,1
178170,-113.636363636364,4,2,16,80,0,0
178255,-113.636363636364,4,2,16,80,0,1
178341,-113.636363636364,4,2,16,80,0,0
201227,-113.636363636364,4,2,16,40,0,0
205427,-113.636363636364,4,2,2,40,0,0

[Colours]
Combo1 : 255,128,255
Combo2 : 128,255,255
Combo3 : 255,255,128
Combo4 : 128,128,255

[HitObjects]
108,324,1341,6,0,P|160:336|216:332,1,80,6|8,3:2|0:0,0:0:0:0:
252,268,2027,1,2,3:2:0:0:
344,296,2370,1,8,0:0:0:0:
432,260,2712,2,0,P|472:184|452:92,1,160,2|2,3:2|3:2,0:0:0:0:
384,56,3741,1,8,0:0:0:0:
304,108,4084,6,0,B|188:104|188:104|140:68,1,160,2|0,3:2|0:0,0:0:0:0:
76,20,5112,1,10,0:0:0:0:
16,96,5455,1,2,3:2:0:0:
92,156,5798,1,10,0:0:0:0:
76,252,6141,1,2,3:2:0:0:
152,312,6484,1,10,0:0:0:0:
244,288,6827,6,0,B|264:244|264:244|316:216|404:232,1,160,6|2,3:2|3:2,0:0:0:0:
442,287,7855,1,10,0:0:0:0:
464,192,8198,2,0,P|442:158|410:134,1,80,2|8,3:2|0:0,0:0:0:0:
364,128,8712,2,0,L|244:121,1,120,2|10,0:0|0:0,0:0:0:0:
172,184,9570,6,0,B|136:148|136:148|120:8,1,160,4|2,3:2|3:2,0:0:0:0:
32,68,10598,1,10,0:0:0:0:
32,68,10770,2,0,L|20:196,1,120,6|10,3:2|0:0,0:0:0:0:
51,224,11455,2,0,P|27:277|39:335,1,120,6|4,3:2|0:3,0:0:0:0:
124,288,12312,5,6,3:2:0:0:
192,336,12655,1,0,3:2:0:0:
272,308,12998,2,0,L|380:296,1,104.999996795654,0|0,3:2|0:0,0:0:0:0:
460,284,13855,1,4,0:0:0:0:
468,200,14198,2,0,L|476:116,1,69.9999978637696,2|0,0:0|0:0,0:0:0:0:
404,84,14884,1,8,0:0:0:0:
404,84,15055,6,0,B|388:128|388:128|356:160|276:164,1,139.999995727539,6|0,3:2|3:2,0:0:0:0:
236,112,16084,1,0,3:0:0:0:
152,120,16427,2,0,P|107:92|55:92,1,104.999996795654,2|2,3:2|0:0,0:0:0:0:
84,172,17284,1,8,0:0:0:0:
160,208,17627,1,8,0:0:0:0:
159,207,17798,6,0,P|221:179|238:113,1,139.999995727539,6|0,3:2|3:0,0:0:0:0:
208,32,18827,1,2,3:2:0:0:
292,48,19170,2,0,L|376:36,2,69.9999978637696,0|4|4,3:0|0:3|0:3,0:0:0:0:
236,112,20198,1,4,0:3:0:0:
236,112,20370,1,4,3:2:0:0:
407,127,21741,6,0,B|432:164|432:164|448:268,1,120,4|12,3:1|0:0,0:0:0:0:
443,238,22427,1,12,0:0:0:0:
400,324,22770,2,0,L|348:316,1,40,8|8,0:0|0:3,0:0:0:0:
312,312,23112,2,0,B|240:340|240:340|188:336,1,120,4|8,3:2|0:0,0:0:0:0:
104,320,23970,1,0,3:2:0:0:
164,248,24312,1,8,0:0:0:0:
88,188,24655,6,0,L|76:76,1,80,0|8,3:0|0:0,0:0:0:0:
68,12,25341,1,0,3:0:0:0:
156,52,25684,1,8,0:0:0:0:
156,52,25855,2,0,P|220:56|300:28,1,120,4|8,3:2|0:0,0:0:0:0:
360,80,26712,2,0,P|392:72|456:80,1,80,0|8,3:0|0:0,0:0:0:0:
464,168,27398,6,0,P|492:200|516:240,1,80,0|8,3:0|0:0,0:0:0:0:
452,308,28084,2,0,L|444:376,2,40,0|0|12,3:0|3:0|0:0,0:0:0:0:
364,268,28770,2,0,B|284:288|284:288|180:244,1,160,4|8,3:2|0:0,0:0:0:0:
196,116,29970,6,0,B|296:100|296:100|420:140,1,200,0|12,3:0|0:0,0:0:0:0:
284,288,31512,1,8,0:0:0:0:
160,216,32027,1,8,0:0:0:0:
176,360,32541,1,8,0:0:0:0:
32,336,33055,1,4,0:0:0:0:
32,336,33227,1,8,0:0:0:0:
56,244,33570,2,0,B|68:204|68:204|52:168|52:168|48:104,1,120,8|0,0:0|0:0,0:0:0:0:
76,92,34255,6,0,P|156:84|236:24,2,160,4|0|0,3:2|3:0|3:0,0:0:0:0:
108,184,35970,1,0,3:0:0:0:
204,168,36312,2,0,P|256:172|300:196,1,80,8|8,0:3|0:3,0:0:0:0:
376,164,36998,6,0,P|408:248|412:336,2,160,4|8|0,3:2|0:3|3:0,0:0:0:0:
464,124,38712,2,0,P|452:84|452:36,1,80,0|4,3:0|0:3,0:0:0:0:
360,16,39398,1,12,0:0:0:0:
300,92,41798,5,8,0:0:0:0:
204,100,42141,1,8,0:0:0:0:
80,24,42655,1,8,0:0:0:0:
80,24,42827,1,8,0:0:0:0:
40,112,43170,1,8,0:0:0:0:
40,112,43341,1,8,0:0:0:0:
92,192,43684,1,4,0:0:0:0:
204,100,45227,6,0,B|324:92|324:92|364:112,1,160,4|2,3:1|3:2,0:0:0:0:
444,152,46255,1,8,0:0:0:0:
436,248,46598,2,0,L|432:340,1,80,2|8,3:2|0:0,0:0:0:0:
336,316,47284,1,2,3:2:0:0:
324,220,47627,1,8,0:0:0:0:
248,280,47970,6,0,P|204:292|136:284,1,80,2|8,3:2|0:0,0:0:0:0:
132,260,48484,2,0,P|92:248|0:256,1,120,2|10,0:0|0:0,0:0:0:0:
40,212,49170,2,0,B|48:176|48:176|44:136|44:136|52:72,1,120,2|10,0:0|0:0,0:0:0:0:
136,48,50027,1,2,3:2:0:0:
220,96,50370,1,10,0:0:0:0:
312,64,50712,6,0,L|412:72,1,80,6|10,3:2|0:0,0:0:0:0:
444,152,51398,1,2,3:2:0:0:
500,232,51741,1,10,0:0:0:0:
500,232,51912,2,0,P|448:248|364:204,1,120,2|10,0:0|0:0,0:0:0:0:
328,152,52770,1,2,3:2:0:0:
232,168,53112,1,10,0:0:0:0:
188,84,53455,6,0,P|152:68|92:68,1,80,6|8,3:2|3:2,0:0:0:0:
24,100,54141,1,2,3:2:0:0:
24,100,54312,2,0,L|16:164,1,40,10|8,0:0|0:0,0:0:0:0:
52,172,54655,2,0,B|72:252|72:252|72:304,1,120,6|10,3:2|0:0,0:0:0:0:
44,332,55341,2,0,L|196:320,1,120,6|2,3:2|0:0,0:0:0:0:
260,316,56198,5,6,3:2:0:0:
352,348,56541,2,0,P|388:320|416:272,1,80,8|2,0:0|3:2,0:0:0:0:
500,260,57227,1,8,0:0:0:0:
500,260,57398,2,0,P|476:208|476:132,1,120,2|10,0:0|0:0,0:0:0:0:
504,56,58255,1,2,3:2:0:0:
408,72,58598,1,10,0:0:0:0:
312,84,58941,6,0,L|164:60,1,120,6|2,3:2|0:0,0:0:0:0:
148,56,59627,1,2,3:2:0:0:
64,104,59970,1,8,3:2:0:0:
64,104,60141,1,12,0:0:0:0:
64,104,60312,2,0,P|76:144|76:200,1,80,0|10,0:0|0:0,0:0:0:0:
176,180,60998,2,0,P|166:220|138:269,1,80,10|10,3:2|3:2,0:0:0:0:
76,320,61684,5,6,3:2:0:0:
168,348,62027,1,10,0:2:0:0:
240,284,62370,1,10,0:2:0:0:
332,312,62712,1,10,0:2:0:0:
424,288,63055,5,10,0:2:0:0:
404,192,63398,1,10,0:2:0:0:
312,216,63741,1,10,0:2:0:0:
332,312,64084,1,10,0:2:0:0:
424,288,64427,6,0,P|464:268|500:224,1,80,6|10,3:2|0:0,0:0:0:0:
404,192,65112,2,0,P|428:154|437:98,1,80,10|10,0:0|0:0,0:0:0:0:
432,72,65627,2,0,B|401:51|401:51|288:40,1,120,6|8,3:2|0:0,0:0:0:0:
292,84,66312,2,0,L|156:92,1,120,6|2,3:2|3:2,0:0:0:0:
128,72,66998,1,2,3:2:0:0:
128,72,67170,6,0,L|116:184,1,80,4|8,0:0|0:0,0:0:0:0:
40,204,67855,2,0,L|52:304,1,80,2|8,3:2|0:0,0:0:0:0:
136,328,68541,1,2,3:2:0:0:
232,328,68884,1,8,0:0:0:0:
312,272,69227,2,0,P|328:232|332:176,1,80,2|8,3:2|0:0,0:0:0:0:
240,168,69912,6,0,P|284:112|396:128,1,160,2|0,3:2|0:0,0:0:0:0:
428,184,70941,1,10,0:0:0:0:
488,256,71284,1,2,0:0:0:0:
416,320,71627,1,10,0:0:0:0:
328,284,71970,1,2,0:0:0:0:
256,348,72312,1,10,0:0:0:0:
172,300,72655,6,0,P|96:280|12:276,1,160,6|2,3:2|3:2,0:0:0:0:
44,184,73684,1,10,0:0:0:0:
8,96,74027,2,0,P|48:90|92:72,1,80,2|8,3:2|0:0,0:0:0:0:
112,36,74541,2,0,P|176:32|232:43,1,120,2|10,0:0|0:0,0:0:0:0:
284,124,75399,6,0,B|320:88|320:88|460:72,1,160,4|2,3:2|3:2,0:0:0:0:
440,172,76427,1,10,0:0:0:0:
440,172,76599,2,0,L|452:300,1,120,6|10,3:2|0:0,0:0:0:0:
404,288,77284,2,0,L|284:281,1,120,6|4,3:2|0:3,0:0:0:0:
188,276,78141,6,0,B|120:324|120:324|36:332,2,139.999995727539,4|8|0,3:2|0:0|3:0,0:0:0:0:
160,196,79855,1,0,0:0:0:0:
80,228,80198,2,0,P|32:208|4:140,2,104.999996795654,8|4|0,0:0|0:0|0:0,0:0:0:0:
88,144,81570,2,0,P|88:104|104:52,1,69.9999978637696,8|0,0:0|3:0,0:0:0:0:
168,36,82255,6,0,L|316:52,1,139.999995727539,4|8,3:2|0:0,0:0:0:0:
392,60,83284,1,8,0:0:0:0:
476,68,83627,2,0,L|492:160,1,69.9999978637696,2|0,3:2|0:0,0:0:0:0:
416,184,84312,2,0,B|411:234|411:234|404:256|404:256|416:276|416:276|436:344,1,139.999995727539,8|0,3:0|1:0,0:0:0:0:
356,364,85341,1,8,3:0:0:0:
272,348,85684,1,0,1:0:0:0:
188,332,86027,1,0,1:0:0:0:
188,332,86198,1,4,0:0:0:0:
104,316,87570,6,0,B|76:288|76:288|64:176,1,120,4|12,3:1|0:0,0:0:0:0:
56,112,88427,1,0,3:0:0:0:
56,112,88598,1,4,0:0:0:0:
144,152,88941,2,0,P|208:152|288:112,1,120,4|8,3:1|0:0,0:0:0:0:
316,52,89799,1,2,3:2:0:0:
404,92,90141,1,8,0:0:0:0:
492,56,90484,6,0,L|504:168,1,80,0|8,3:0|0:0,0:0:0:0:
508,232,91170,1,0,3:0:0:0:
428,288,91513,1,8,0:0:0:0:
428,288,91684,2,0,P|364:280|284:312,1,120,4|8,3:2|0:0,0:0:0:0:
232,348,92541,2,0,P|200:356|136:348,1,80,0|8,3:0|0:0,0:0:0:0:
64,320,93227,6,0,P|36:288|12:248,1,80,0|8,3:0|0:0,0:0:0:0:
36,164,93912,2,0,L|48:112,1,40,4|8,3:2|3:0,0:0:0:0:
92,112,94255,2,0,L|104:64,1,40,8|8,0:0|0:0,0:0:0:0:
148,52,94599,2,0,B|228:72|228:72|332:28,1,160,2|0,0:0|1:0,0:0:0:0:
392,60,95627,1,0,3:0:0:0:
464,184,96141,1,0,3:0:0:0:
464,184,96312,6,0,B|404:176|404:176|304:228,1,160,8|8,0:0|0:0,0:0:0:0:
304,316,97341,1,0,1:0:0:0:
168,264,97856,1,0,1:0:0:0:
252,148,98370,1,0,1:0:0:0:
112,184,98884,1,4,0:0:0:0:
112,184,99056,1,8,3:2:0:0:
64,100,99398,1,8,0:0:0:0:
124,24,99741,1,8,3:2:0:0:
168,108,100084,6,0,P|252:120|340:72,2,160,4|0|0,3:2|3:0|3:0,0:0:0:0:
112,184,101799,1,0,3:0:0:0:
168,260,102141,2,0,P|164:312|140:356,1,80,8|8,0:3|0:3,0:0:0:0:
72,284,102827,6,0,P|16:232|20:124,1,160,4|8,3:2|0:3,0:0:0:0:
40,64,103855,1,4,0:3:0:0:
132,92,104198,2,0,B|180:68|180:68|260:64|288:84|288:84|324:64|384:56,1,240,8|4,0:3|0:3,0:0:0:0:
420,132,105570,5,4,0:1:0:0:
511,160,105912,1,10,0:0:0:0:
511,257,106255,1,10,0:0:0:0:
420,287,106598,1,10,0:0:0:0:
363,209,106941,5,10,0:0:0:0:
268,204,107284,1,10,0:0:0:0:
208,280,107627,1,10,0:0:0:0:
120,236,107970,5,10,0:0:0:0:
120,236,108141,1,10,0:0:0:0:
32,272,108484,1,10,0:0:0:0:
32,272,108655,1,10,0:0:0:0:
40,176,108998,1,10,0:0:0:0:
40,176,109170,1,10,0:0:0:0:
128,140,109512,1,6,0:0:0:0:
308,100,111056,6,0,B|188:92|188:92|148:112,1,160,4|2,3:1|3:2,0:0:0:0:
68,152,112084,1,8,0:0:0:0:
76,248,112427,2,0,L|80:340,1,80,2|8,3:2|0:0,0:0:0:0:
176,316,113113,1,2,3:2:0:0:
188,220,113456,1,8,0:0:0:0:
264,280,113799,6,0,P|308:292|376:284,1,80,2|8,3:2|0:0,0:0:0:0:
380,260,114313,2,0,P|420:248|512:256,1,120,2|10,0:0|0:0,0:0:0:0:
472,212,114999,2,0,B|464:176|464:176|468:136|468:136|460:72,1,120,2|10,0:0|0:0,0:0:0:0:
376,48,115856,1,2,3:2:0:0:
292,96,116199,1,10,0:0:0:0:
200,64,116541,6,0,L|100:72,1,80,6|10,3:2|0:0,0:0:0:0:
68,152,117227,1,2,3:2:0:0:
12,232,117570,1,10,0:0:0:0:
12,232,117741,2,0,P|64:248|148:204,1,120,2|10,0:0|0:0,0:0:0:0:
184,152,118599,1,2,3:2:0:0:
280,168,118941,1,10,0:0:0:0:
324,84,119284,6,0,P|360:68|420:68,1,80,6|8,3:2|3:2,0:0:0:0:
488,100,119970,1,2,3:2:0:0:
488,100,120141,2,0,L|496:164,1,40,10|8,0:0|0:0,0:0:0:0:
460,172,120484,2,0,B|440:252|440:252|440:304,1,120,6|10,3:2|0:0,0:0:0:0:
468,332,121170,2,0,L|316:320,1,120,6|2,3:2|0:0,0:0:0:0:
252,316,122027,5,6,3:2:0:0:
160,348,122370,2,0,P|124:320|96:272,1,80,8|2,0:0|3:2,0:0:0:0:
12,260,123056,1,8,0:0:0:0:
12,260,123227,2,0,P|36:208|36:132,1,120,2|10,0:0|0:0,0:0:0:0:
8,56,124084,1,2,3:2:0:0:
104,72,124427,1,10,0:0:0:0:
200,84,124770,6,0,L|348:60,1,120,6|2,3:2|0:0,0:0:0:0:
364,56,125456,1,2,3:2:0:0:
448,104,125799,1,8,3:2:0:0:
448,104,125970,1,12,0:0:0:0:
448,104,126141,2,0,P|436:144|436:200,1,80,0|10,0:0|0:0,0:0:0:0:
336,180,126827,2,0,P|346:220|374:269,1,80,10|10,3:2|3:2,0:0:0:0:
436,320,127513,5,6,3:2:0:0:
344,348,127856,1,10,0:2:0:0:
272,284,128199,1,10,0:2:0:0:
180,312,128541,1,10,0:2:0:0:
88,288,128884,5,10,0:2:0:0:
108,192,129227,1,10,0:2:0:0:
200,216,129570,1,10,0:2:0:0:
180,312,129913,1,10,0:2:0:0:
88,288,130256,6,0,P|48:268|12:224,1,80,6|10,3:2|0:0,0:0:0:0:
108,192,130941,2,0,P|84:154|75:98,1,80,10|10,0:0|0:0,0:0:0:0:
80,72,131456,2,0,B|111:51|111:51|224:40,1,120,6|8,3:2|0:0,0:0:0:0:
220,84,132141,2,0,L|356:92,1,120,6|2,3:2|3:2,0:0:0:0:
436,96,132998,1,4,0:0:0:0:
436,96,134370,6,0,P|476:144|464:264,1,160,6|2,0:0|0:0,0:0:0:0:
412,308,135398,1,10,0:0:0:0:
324,268,135741,2,0,P|248:244|144:268,1,160,2|2,0:0|0:0,0:0:0:0:
96,316,136770,1,8,0:0:0:0:
16,260,137112,6,0,L|28:160,1,80,2|2,0:0|0:0,0:0:0:0:
96,116,137798,2,0,L|108:24,1,80,2|2,0:0|0:0,0:0:0:0:
196,72,138484,2,0,B|312:68|312:68|372:44,1,160,2|2,0:0|0:0,0:0:0:0:
380,144,139512,1,2,0:0:0:0:
468,104,139855,5,2,0:0:0:0:
460,200,140198,2,0,B|472:244|472:244|500:288,3,80,10|2|10|2,0:0|0:0|0:0|0:0,0:0:0:0:
428,348,141570,1,10,0:0:0:0:
340,308,141912,2,0,B|300:295|268:292|268:292|264:288|264:288|224:296|164:284,1,160,2|6,0:0|0:0,0:0:0:0:
96,332,142941,5,8,0:0:0:0:
28,264,143284,2,0,P|16:228|16:160,1,80,2|2,0:0|0:0,0:0:0:0:
52,156,143798,2,0,L|208:164,1,120,6|10,0:0|0:0,0:0:0:0:
196,204,144484,2,0,P|300:180|296:96,1,200,6|2,0:0|0:0,0:0:0:0:
448,120,156312,6,0,B|404:84|404:84|264:76,1,176.000005371094,4|2,3:1|0:0,0:0:0:0:
180,72,157340,1,8,0:0:0:0:
76,64,157684,2,0,L|44:168,1,88.0000026855469,2|8,3:2|0:0,0:0:0:0:
60,252,158369,1,0,3:2:0:0:
164,240,158712,1,8,3:2:0:0:
268,228,159055,6,0,P|320:244|356:284,1,88.0000026855469,2|10,3:2|0:0,0:0:0:0:
384,300,159569,2,0,L|504:292,1,88.0000026855469,2|0,0:0|0:0,0:0:0:0:
504,252,160084,1,10,0:0:0:0:
504,252,160255,2,0,B|496:216|496:216|500:176|500:176|488:104,1,132.00000402832,2|10,0:0|0:0,0:0:0:0:
476,16,161112,1,2,3:2:0:0:
396,84,161455,1,10,0:0:0:0:
292,88,161798,6,0,P|244:80|184:56,1,88.0000026855469,6|10,3:2|0:0,0:0:0:0:
112,112,162483,1,2,3:2:0:0:
44,32,162826,1,10,0:0:0:0:
44,32,162997,2,0,B|12:64|12:64|8:172,1,132.00000402832,2|10,0:0|0:0,0:0:0:0:
4,256,163855,1,2,3:2:0:0:
100,208,164197,1,10,0:0:0:0:
192,256,164541,6,0,B|220:296|220:296|236:340,1,88.0000026855469,6|8,3:2|3:2,0:0:0:0:
300,252,165226,1,2,3:2:0:0:
352,264,165398,1,10,0:0:0:0:
404,276,165570,1,8,0:0:0:0:
452,256,165741,2,0,B|480:224|480:224|496:124,1,132.00000402832,6|10,3:2|0:0,0:0:0:0:
500,84,166426,2,0,P|476:28|408:0,1,132.00000402832,6|2,3:2|0:0,0:0:0:0:
268,64,167627,6,0,L|164:48,1,88.0000026855469,6|0,1:0|0:0,0:0:0:0:
148,152,168312,1,8,0:0:0:0:
148,152,168483,2,0,P|228:168|272:232,1,132.00000402832,2|10,0:0|0:0,0:0:0:0:
208,296,169340,1,2,3:2:0:0:
112,256,169683,1,10,0:0:0:0:
36,332,170026,6,0,P|8:284|24:192,1,132.00000402832,6|2,3:2|0:0,0:0:0:0:
48,172,170712,1,2,3:2:0:0:
24,68,171055,2,0,L|100:56,1,44.0000013427735,10|12,0:0|0:0,0:0:0:0:
112,32,171398,2,0,P|135:66|192:100,1,88.0000026855469,0|2,0:0|0:0,0:0:0:0:
276,112,172084,2,0,P|317:109|374:76,1,88.0000026855469,2|10,0:0|3:2,0:0:0:0:
432,16,172769,5,6,3:2:0:0:
460,116,173112,1,10,0:2:0:0:
384,192,173455,1,10,0:2:0:0:
408,296,173797,1,10,0:2:0:0:
304,268,174140,5,10,0:2:0:0:
200,264,174483,1,10,0:2:0:0:
96,284,174826,1,10,0:2:0:0:
4,336,175169,1,10,0:2:0:0:
96,284,175512,6,0,P|112:236|112:172,1,88.0000026855469,6|10,3:2|0:0,0:0:0:0:
44,120,176198,2,0,L|0:128,2,44.0000013427735,10|2|10,0:0|3:2|0:0,0:0:0:0:
72,76,176712,2,0,B|108:100|108:100|212:112,1,132.00000402832,6|8,3:2|0:0,0:0:0:0:
220,64,177397,2,0,L|372:56,1,132.00000402832,6|2,3:2|3:2,0:0:0:0:
456,56,178255,6,0,P|504:132|488:244,1,176.000005371094,4|2,0:0|3:2,0:0:0:0:
416,280,179284,1,8,0:0:0:0:
336,208,179627,2,0,L|124:188,1,176.000005371094,2|2,3:2|3:2,0:0:0:0:
56,180,180655,1,8,0:0:0:0:
28,80,180998,6,0,P|76:76|144:48,1,88.0000026855469,2|10,3:2|0:0,0:0:0:0:
212,108,181684,2,0,P|251:80|296:22,1,88.0000026855469,0|10,0:0|0:0,0:0:0:0:
380,24,182370,1,2,0:0:0:0:
468,80,182712,1,10,0:0:0:0:
396,160,183055,1,2,1:2:0:0:
396,160,183227,1,6,0:2:0:0:
396,160,183398,1,10,0:0:0:0:
500,184,183741,6,0,P|500:240|492:292,1,88.0000026855469,6|10,3:2|0:0,0:0:0:0:
396,304,184427,2,0,P|368:340|328:368,1,88.0000026855469,0|8,0:0|0:0,0:0:0:0:
252,300,185112,1,2,0:0:0:0:
152,328,185455,1,10,0:0:0:0:
52,288,185798,2,0,P|34:249|24:200,1,88.0000026855469,2|8,0:0|0:0,0:0:0:0:
60,104,186484,6,0,B|104:132|104:132|256:124,1,176.000005371094,6|0,0:0|0:0,0:0:0:0:
256,80,187341,1,10,0:0:0:0:
256,80,187512,2,0,P|312:48|396:56,1,132.00000402832,6|2,0:0|3:2,0:0:0:0:
468,104,188370,2,0,P|489:164|467:246,1,132.00000402832,6|8,3:2|0:0,0:0:0:0:
388,284,189227,6,0,L|276:272,1,88.0000026855469,6|10,3:2|0:0,0:0:0:0:
312,168,189912,2,0,L|320:68,1,88.0000026855469,0|10,0:0|0:0,0:0:0:0:
216,64,190598,1,2,3:2:0:0:
216,64,190770,2,0,L|64:36,1,132.00000402832,2|2,0:0|3:2,0:0:0:0:
12,116,191627,1,10,0:0:0:0:
116,140,191970,6,0,P|156:204|156:268,1,132.00000402832,2|2,3:2|0:0,0:0:0:0:
80,328,192827,1,2,0:0:0:0:
180,360,193170,2,0,P|240:324|256:240,1,132.00000402832,2|10,0:0|0:0,0:0:0:0:
252,164,194027,1,2,3:2:0:0:
344,216,194370,1,10,3:2:0:0:
444,180,194712,6,0,P|476:144|496:68,1,88.0000026855469,6|8,3:2|0:0,0:0:0:0:
388,88,195398,2,0,P|397:40|377:-34,1,88.0000026855469,2|8,3:2|0:0,0:0:0:0:
296,44,196084,2,0,L|184:48,1,88.0000026855469,2|10,0:0|0:0,0:0:0:0:
104,52,196770,2,0,L|-8:56,1,88.0000026855469,2|8,0:0|0:0,0:0:0:0:
64,152,197455,5,4,3:2:0:0:
0,236,197798,1,10,0:0:0:0:
61,322,198141,1,10,0:0:0:0:
162,291,198484,1,10,0:0:0:0:
162,291,198655,2,0,L|304:304,1,132.00000402832,6|8,3:2|3:2,0:0:0:0:
400,312,199512,1,10,0:0:0:0:
476,240,199855,1,10,0:0:0:0:
476,240,200027,1,6,0:0:0:0:
372,208,201398,5,2,0:0:0:0:
256,192,201570,12,2,205512,0:0:0:0:
