osu file format v14

[General]
AudioFilename: audio.mp3
AudioLeadIn: 0
PreviewTime: 44321
Countdown: 0
SampleSet: Soft
StackLeniency: 0.7
Mode: 0
LetterboxInBreaks: 0
WidescreenStoryboard: 1

[Editor]
DistanceSpacing: 1.2
BeatDivisor: 4
GridSize: 4
TimelineZoom: 2

[Metadata]
Title:Zanshou no Resonance
TitleUnicode:残照のレゾナンス
Artist:Imy feat. Aitsuki Nakuru
ArtistUnicode:Imy feat. 藍月なくる
Creator:Narcissu
Version:Insane
Source:
Tags:Silky garden fuyuyu- mamayu アイミー kanau satellite VoiceCore Dont Dagger-Gazel Japanese Rock J-Rock featured artist fa osu!
BeatmapID:2395516
BeatmapSetID:1147203

[Difficulty]
HPDrainRate:6
CircleSize:4
OverallDifficulty:8
ApproachRate:9
SliderMultiplier:1
SliderTickRate:1

[Events]
//Background and Video events
0,0,"BG.jpg",0,0
//Break Periods
2,145541,154684
//Storyboard Layer 0 (Background)
//Storyboard Layer 1 (Fail)
//Storyboard Layer 2 (Pass)
//Storyboard Layer 3 (Foreground)
//Storyboard Layer 4 (Overlay)
//Storyboard Sound Samples

[TimingPoints]
-30,342.857142857143,4,2,16,70,1,0
-30,-58.8235294117647,4,2,16,70,0,0
12312,-71.4285714285714,4,2,16,40,0,0
21741,-62.5,4,2,16,60,0,0
28770,-71.4285714285714,4,2,16,70,0,0
41112,-62.5,4,2,16,70,0,0
44198,-62.5,4,2,16,60,0,0
44541,-74.0740740740741,4,2,16,50,0,0
44884,-83.3333333333333,4,2,16,40,0,0
45227,-58.8235294117647,4,2,16,70,0,1
67170,-58.8235294117647,4,2,16,60,0,0
78141,-71.4285714285714,4,2,16,60,0,0
78827,-100,4,2,16,60,0,0
79512,-71.4285714285714,4,2,16,60,0,0
80712,-100,4,2,16,60,0,0
81570,-71.4285714285714,4,2,16,60,0,0
83627,-100,4,2,16,60,0,0
84312,-71.4285714285714,4,2,16,60,0,0
85684,-62.5,4,2,16,60,0,0
94598,-83.3333333333333,4,2,16,60,0,0
95970,-71.4285714285714,4,2,16,60,0,0
96998,-62.5,4,2,16,60,0,0
100084,-71.4285714285714,4,2,16,60,0,0
105570,-58.8235294117647,4,2,16,60,0,0
110370,-71.4285714285714,4,2,16,50,0,0
110712,-83.3333333333333,4,2,16,40,0,0
111055,-57.4712643678161,4,2,16,74,0,1
132998,-57.4712643678161,4,2,16,70,0,0
145341,-57.4712643678161,4,2,16,40,0,0
155284,-57.4712643678161,4,2,16,60,0,0
155627,-70.4225352112676,4,2,16,50,0,0
155970,-83.3333333333333,4,2,16,40,0,0
156312,-53.1914893617021,4,2,16,80,0,1
178170,-53.1914893617021,4,2,16,80,0,0
178255,-53.1914893617021,4,2,16,80,0,1
178341,-53.1914893617021,4,2,16,80,0,0
201227,-53.1914893617021,4,2,16,40,0,0
205427,-53.1914893617021,4,2,2,40,0,0

[Colours]
Combo1 : 255,128,255
Combo2 : 128,255,255
Combo3 : 255,255,128
Combo4 : 128,128,255

[HitObjects]
456,132,998,6,0,L|412:164,1,42.5000008106231,2|2,0:0|0:0,0:0:0:0:
456,228,1170,2,0,L|412:240,1,42.5000008106231,2|2,0:0|0:0,0:0:0:0:
376,316,1341,6,0,P|308:268|216:292,1,170.000003242493,6|8,3:2|0:0,0:0:0:0:
70,268,1855,1,0,0:0:0:0:
70,268,2027,2,0,P|105:291|137:333,1,85.0000016212463,2|0,3:2|0:0,0:0:0:0:
0,180,2370,2,0,P|53:168|92:148,1,85.0000016212463,8|0,0:0|0:0,0:0:0:0:
264,0,2712,6,0,B|286:44|286:44|278:164,1,170.000003242493,2|8,3:2|0:0,0:0:0:0:
164,72,3227,1,0,0:0:0:0:
256,184,3398,2,0,P|268:276|272:380,1,170.000003242493,2|8,3:2|0:0,0:0:0:0:
496,248,3912,1,2,0:0:0:0:
496,248,3998,1,2,0:0:0:0:
496,248,4084,6,0,P|472:300|352:312,1,170.000003242493,2|8,3:2|0:0,0:0:0:0:
414,180,4598,2,0,L|424:96,2,85.0000016212463,2|0|2,0:0|0:0|0:0,0:0:0:0:
312,36,5112,2,0,L|320:131,1,85.0000016212464,10|0,0:0|0:0,0:0:0:0:
172,56,5455,6,0,P|134:37|107:4,1,85.0000016212463,2|0,3:2|0:0,0:0:0:0:
104,140,5798,2,0,P|61:142|22:127,1,85.0000016212463,10|0,0:0|0:0,0:0:0:0:
88,248,6141,2,0,P|46:257|13:280,1,85.0000016212463,2|0,3:2|0:0,0:0:0:0:
196,304,6484,2,0,P|164:332|147:369,1,85.0000016212463,10|0,0:0|0:0,0:0:0:0:
464,336,6827,6,0,B|480:284|480:284|460:152,1,170.000003242493,6|8,3:2|0:0,0:0:0:0:
444,68,7341,1,2,0:0:0:0:
444,68,7427,1,2,0:0:0:0:
444,68,7512,1,2,3:2:0:0:
272,108,7684,1,2,0:0:0:0:
368,140,7855,1,10,0:0:0:0:
104,152,8027,1,2,0:0:0:0:
199,183,8198,6,0,B|212:252|212:252|220:268|220:268|216:288|216:288|216:368,1,170.000003242493,2|8,3:2|0:0,0:0:0:0:
4,180,8712,2,0,P|8:97|80:52,1,170.000003242493,2|2,0:0|0:0,0:0:0:0:
272,108,9227,1,10,0:0:0:0:
104,152,9398,1,2,0:0:0:0:
347,180,9570,6,0,B|472:176|472:176|512:144,1,170.000003242493,4|8,3:2|0:0,0:0:0:0:
416,72,10084,1,2,0:0:0:0:
368,288,10255,1,2,3:2:0:0:
512,180,10427,1,10,0:0:0:0:
256,132,10598,1,10,0:0:0:0:
380,264,10770,6,0,P|292:252|224:316,1,170.000003242493,6|2,3:2|3:2,0:0:0:0:
212,348,11198,1,0,3:0:0:0:
212,348,11284,1,10,0:0:0:0:
0,212,11455,6,0,P|110:223|172:204,1,170.000003242493,6|8,3:2|0:0,0:0:0:0:
166,208,11884,1,8,0:3:0:0:
166,208,11970,1,4,0:3:0:0:
192,108,12141,1,4,0:3:0:0:
218,8,12312,6,0,P|256:12|312:32,1,69.9999978637695,6|0,3:2|0:0,0:0:0:0:
364,56,12655,2,0,P|394:78|433:123,1,69.9999978637695,0|2,3:2|0:0,0:0:0:0:
467,167,12998,2,0,P|482:199|491:233,2,69.9999978637695,0|0|0,3:2|0:0|3:0,0:0:0:0:
376,344,13512,6,0,P|380:308|400:256,1,69.9999978637695,0|2,0:0|3:2,0:0:0:0:
272,344,13855,2,0,P|239:357|183:367,1,69.9999978637695,4|0,0:0|3:0,0:0:0:0:
96,304,14198,1,2,0:0:0:0:
96,304,14370,2,0,P|63:295|33:278,1,69.9999978637695,0|0,3:0|0:0,0:0:0:0:
208,192,14712,1,2,3:2:0:0:
97,214,14884,1,8,0:0:0:0:
208,192,15055,6,0,P|228:124|232:40,1,139.999995727539,6|0,3:2|3:0,0:0:0:0:
160,12,15570,1,2,0:0:0:0:
299,0,15741,2,0,P|313:32|318:66,1,69.9999978637695,0|0,3:2|0:0,0:0:0:0:
208,192,16084,2,0,P|240:178|274:171,1,69.9999978637695,0|0,3:0|0:0,0:0:0:0:
416,76,16427,5,2,3:2:0:0:
416,76,16512,1,2,0:0:0:0:
416,76,16598,1,2,0:0:0:0:
416,76,16684,1,2,0:0:0:0:
416,76,16770,2,0,P|381:69|349:56,1,69.9999978637695,2|2,3:2|0:0,0:0:0:0:
476,240,17112,1,0,3:0:0:0:
380,172,17284,1,8,0:0:0:0:
284,272,17455,1,2,3:2:0:0:
376,192,17627,1,8,0:0:0:0:
392,316,17798,6,0,P|415:337|468:356,1,69.9999978637695,6|0,3:2|0:0,0:0:0:0:
284,272,18141,2,0,P|288:307|285:342,1,69.9999978637695,0|2,3:0|0:0,0:0:0:0:
176,308,18484,2,0,P|144:324|88:332,2,69.9999978637695,0|0|2,3:0|0:0|3:2,0:0:0:0:
196,196,18998,1,0,0:0:0:0:
44,232,19170,5,2,3:2:0:0:
44,232,19341,2,0,L|0:224,3,23.3333326212565,8|8|8|4,0:3|0:3|0:3|0:3,0:0:0:0:
68,72,19684,1,4,0:3:0:0:
68,72,19770,1,4,0:3:0:0:
68,72,19855,2,0,P|71:107|79:141,1,69.9999978637695,4|8,0:3|0:3,0:0:0:0:
164,92,20198,1,4,0:3:0:0:
424,192,20370,1,4,3:2:0:0:
404,220,21741,6,0,B|368:244|368:244|296:248|248:184,1,160,4|0,3:1|3:0,0:0:0:0:
208,140,22170,1,0,3:0:0:0:
208,140,22255,1,12,0:0:0:0:
64,212,22427,1,12,0:0:0:0:
212,12,22598,1,0,3:0:0:0:
240,160,22770,1,8,0:0:0:0:
240,160,22855,1,8,0:0:0:0:
240,160,22941,1,8,0:3:0:0:
240,160,23027,1,4,0:3:0:0:
240,160,23112,6,0,P|324:168|388:224,1,160,4|0,3:2|3:0,0:0:0:0:
448,72,23627,2,0,P|456:120|476:168,1,79.9999999999999,8|0,0:0|0:0,0:0:0:0:
459,300,23970,2,0,P|422:313|383:321,1,79.9999999999999,0|0,3:2|0:0,0:0:0:0:
280,156,24312,2,0,P|317:168|357:174,1,79.9999999999999,8|0,0:0|0:0,0:0:0:0:
256,260,24655,6,0,B|272:300|272:300|280:356,1,79.9999999999999,0|0,3:0|0:0,0:0:0:0:
152,144,24998,2,0,B|111:146|111:146|60:160,1,79.9999999999999,8|0,0:0|0:0,0:0:0:0:
300,64,25341,1,0,3:0:0:0:
204,52,25512,2,0,B|165:45|165:45|116:24,1,79.9999999999999,0|8,0:0|0:0,0:0:0:0:
396,76,25855,6,0,B|428:120|428:120|436:236,1,160,4|0,3:2|0:0,0:0:0:0:
332,184,26370,2,0,L|338:263,1,79.9999999999999,8|0,0:0|0:0,0:0:0:0:
492,312,26712,2,0,L|401:334,1,79.9999999999999,0|0,3:0|0:0,0:0:0:0:
232,244,27055,2,0,L|252:348,1,79.9999999999999,8|2,0:0|0:0,0:0:0:0:
441,145,27398,5,0,3:0:0:0:
441,145,27570,2,0,L|433:253,1,79.9999999999999,2|8,0:0|0:0,0:0:0:0:
296,168,27912,1,2,3:2:0:0:
304,24,28084,1,0,3:0:0:0:
212,80,28255,1,0,3:0:0:0:
80,0,28427,2,0,P|87:39|104:76,1,80,12|0,0:0|0:0,0:0:0:0:
18,181,28770,6,0,B|54:173|82:157|82:157|114:159|154:145,1,139.999995727539,4|0,3:2|3:0,0:0:0:0:
152,146,29284,1,0,3:0:0:0:
104,248,29455,2,0,P|136:318|200:332,1,139.999995727539,8|0,0:0|3:0,0:0:0:0:
272,220,29970,6,0,B|272:284|272:284|280:312|280:312|276:376,2,139.999995727539,0|0|0,3:0|3:0|3:0,0:0:0:0:
360,264,30827,1,12,0:0:0:0:
452,240,31170,1,0,3:0:0:0:
428,12,31512,6,0,L|436:100,1,69.9999978637695,8|0,0:0|3:0,0:0:0:0:
434,81,31855,1,2,0:0:0:0:
328,64,32027,2,0,L|318:151,1,69.9999978637695,8|0,0:0|3:0,0:0:0:0:
321,134,32370,1,2,0:0:0:0:
192,80,32541,2,0,L|236:20,1,69.9999978637695,8|0,0:0|3:0,0:0:0:0:
234,24,32884,1,2,0:0:0:0:
0,52,33055,5,12,0:0:0:0:
100,188,33227,2,0,L|91:118,1,69.9999978637695,8|0,0:0|3:0,0:0:0:0:
28,252,33570,2,0,P|52:272|108:280,1,69.9999978637695,8|0,0:0|3:0,0:0:0:0:
132,276,33827,1,0,3:0:0:0:
132,276,33912,2,0,L|232:284,1,69.9999978637695,8|0,0:0|0:0,0:0:0:0:
276,348,34255,6,0,B|320:324|320:324|412:316,1,139.999995727539,4|0,3:2|3:0,0:0:0:0:
508,308,34770,1,8,0:3:0:0:
508,308,34941,1,0,3:0:0:0:
396,216,35112,2,0,L|391:175,2,34.9999989318848,8|8|8,0:3|0:3|0:3,0:0:0:0:
480,136,35455,1,4,0:3:0:0:
480,136,35627,6,0,P|492:104|496:64,1,69.9999978637695,0|0,3:0|0:0,0:0:0:0:
400,80,35970,1,0,3:0:0:0:
200,104,36141,1,8,0:3:0:0:
200,104,36227,1,8,0:3:0:0:
200,104,36312,1,8,0:3:0:0:
272,36,36484,1,4,0:3:0:0:
356,156,36655,1,8,0:3:0:0:
268,196,36827,1,8,0:0:0:0:
103,152,36998,6,0,P|92:83|59:21,1,139.999995727539,4|0,3:2|3:0,0:0:0:0:
64,244,37512,1,8,0:3:0:0:
64,244,37598,1,8,0:3:0:0:
64,244,37684,2,0,P|32:272|-8:288,1,69.9999978637695,8|4,0:3|0:3,0:0:0:0:
7,283,37941,2,0,L|0:336,1,34.9999989318848,4|4,0:3|0:3,0:0:0:0:
96,344,38198,5,4,0:3:0:0:
184,304,38370,1,0,3:0:0:0:
272,344,38541,2,0,L|360:336,1,69.9999978637695,0|0,0:0|3:0,0:0:0:0:
376,244,38884,2,0,L|332:240,2,34.9999989318848,8|8|4,0:3|0:3|0:3,0:0:0:0:
496,328,39227,1,4,0:3:0:0:
412,144,39398,1,12,0:0:0:0:
482,73,41455,6,0,B|420:76|420:76|344:88,1,120,2|0,0:0|0:0,0:0:0:0:
274,117,41798,2,0,P|280:76|280:37,1,79.9999999999999,8|0,0:0|3:0,0:0:0:0:
377,243,42141,2,0,P|377:199|362:83,1,160,8|0,0:0|3:0,0:0:0:0:
468,160,42655,5,8,0:0:0:0:
204,280,42827,1,8,0:0:0:0:
476,176,43170,5,8,0:0:0:0:
196,300,43341,1,8,0:0:0:0:
488,344,43684,5,4,0:0:0:0:
456,324,44198,6,0,P|436:284|404:252,1,79.9999999999999,2|0,0:0|0:0,0:0:0:0:
304,192,44541,2,0,P|278:182|244:152,1,67.500000257492,2|0,0:0|0:0,0:0:0:0:
408,112,44884,2,0,P|396:146|394:177,1,59.9999981689453,2|0,0:0|0:0,0:0:0:0:
68,252,45227,6,0,B|113:244|113:244|161:196|153:116,1,170.000003242493,4|8,3:1|0:0,0:0:0:0:
84,56,45741,1,2,0:0:0:0:
336,104,45912,2,0,P|292:124|240:128,1,85.0000016212463,2|0,3:2|3:0,0:0:0:0:
0,204,46255,2,0,P|38:222|80:228,1,85.0000016212463,8|0,0:0|0:0,0:0:0:0:
240,300,46598,5,2,3:2:0:0:
140,316,46770,1,2,0:0:0:0:
288,156,46941,1,8,0:0:0:0:
376,244,47112,2,0,P|392:288|400:344,1,85.0000016212463,0|2,0:0|3:2,0:0:0:0:
424,68,47455,2,0,P|450:106|473:158,1,85.0000016212463,2|8,0:0|0:0,0:0:0:0:
288,156,47798,5,0,0:0:0:0:
244,0,47970,1,2,3:2:0:0:
176,116,48141,1,2,0:0:0:0:
364,76,48312,1,8,0:0:0:0:
168,92,48484,2,0,P|80:72|-20:80,1,170.000003242493,2|0,0:0|0:0,0:0:0:0:
120,204,48998,1,10,0:0:0:0:
12,348,49170,6,0,P|108:336|180:304,1,170.000003242493,2|2,0:0|0:0,0:0:0:0:
372,296,49684,1,10,0:0:0:0:
360,196,49855,1,0,0:0:0:0:
200,328,50027,1,2,3:2:0:0:
232,232,50198,1,0,0:0:0:0:
392,284,50370,1,10,0:0:0:0:
344,104,50541,1,2,0:0:0:0:
344,104,50627,1,2,0:0:0:0:
344,104,50712,6,0,B|324:144|324:144|316:212,1,85.0000016212463,6|0,3:2|0:0,0:0:0:0:
512,304,51055,2,0,B|507:263|507:263|487:223,1,85.0000016212463,10|0,0:0|0:0,0:0:0:0:
329,293,51398,2,0,B|372:301|372:301|412:296,1,85.0000016212463,2|0,3:2|0:0,0:0:0:0:
460,120,51741,1,10,0:0:0:0:
319,184,51912,6,0,P|231:168|171:92,1,170.000003242493,2|0,0:0|0:0,0:0:0:0:
0,296,52427,2,0,P|34:270|91:250,1,85.0000016212463,10|0,0:0|0:0,0:0:0:0:
64,104,52770,2,0,P|104:120|164:124,1,85.0000016212463,2|0,3:2|0:0,0:0:0:0:
140,336,53112,2,0,P|166:302|216:268,1,85.0000016212463,10|0,0:0|0:0,0:0:0:0:
456,112,53455,6,0,P|396:168|440:252,1,170.000003242493,6|8,3:2|3:2,0:0:0:0:
468,184,53884,1,0,3:0:0:0:
472,188,53970,1,0,3:0:0:0:
252,120,54141,1,2,3:2:0:0:
344,308,54312,1,10,0:0:0:0:
344,72,54484,1,8,0:0:0:0:
312,292,54655,6,0,B|192:304|192:304|132:284,1,170.000003242493,6|0,3:2|3:0,0:0:0:0:
48,252,55170,1,10,0:0:0:0:
200,120,55341,2,0,B|208:152|208:152|200:220,1,85.0000016212463,6|0,3:2|0:0,0:0:0:0:
84,136,55684,1,8,0:0:0:0:
68,124,55770,1,8,0:0:0:0:
52,112,55855,1,2,0:0:0:0:
276,52,56027,1,10,0:0:0:0:
200,120,56198,6,0,P|188:212|208:288,1,170.000003242493,6|8,3:2|0:0,0:0:0:0:
424,316,56712,1,2,0:0:0:0:
288,208,56884,2,0,P|307:255|340:296,1,85.0000016212463,2|0,3:2|0:0,0:0:0:0:
424,316,57227,1,8,0:0:0:0:
512,88,57398,6,0,P|448:132|324:120,1,170.000003242493,2|0,0:0|0:0,0:0:0:0:
246,51,57912,2,0,P|203:46|164:32,1,85.0000016212463,10|0,0:0|0:0,0:0:0:0:
2,93,58255,2,0,P|30:125|64:152,1,85.0000016212463,2|0,3:2|0:0,0:0:0:0:
255,80,58598,2,0,P|213:84|173:98,1,85.0000016212463,10|0,0:0|0:0,0:0:0:0:
24,312,58941,6,0,B|48:276|48:276|108:244|184:276,1,170.000003242493,6|8,3:2|0:0,0:0:0:0:
256,328,59455,1,2,0:0:0:0:
388,244,59627,1,2,3:2:0:0:
464,312,59798,1,2,3:2:0:0:
464,312,59970,1,8,3:2:0:0:
423,159,60141,6,0,P|341:162|295:230,1,170.000003242493,12|0,0:0|0:0,0:0:0:0:
492,84,60655,2,0,L|501:0,1,85.0000016212464,10|0,0:0|0:0,0:0:0:0:
348,120,60998,2,0,L|316:24,1,85.0000016212463,10|8,3:2|0:0,0:0:0:0:
168,88,61341,1,10,3:2:0:0:
156,68,61427,1,10,0:0:0:0:
144,48,61512,1,10,0:3:0:0:
112,228,61684,5,6,3:2:0:0:
248,168,61855,1,2,0:2:0:0:
56,140,62027,1,10,0:2:0:0:
176,312,62198,1,2,0:2:0:0:
240,192,62370,5,10,0:2:0:0:
48,288,62541,1,2,3:2:0:0:
232,216,62712,1,10,0:2:0:0:
292,320,62884,1,2,3:2:0:0:
408,284,63055,5,10,0:2:0:0:
408,284,63227,1,2,0:2:0:0:
428,92,63398,1,10,0:2:0:0:
428,92,63570,1,2,3:2:0:0:
512,232,63741,1,10,0:2:0:0:
412,248,63912,1,2,3:2:0:0:
304,92,64084,1,10,0:2:0:0:
404,116,64255,1,2,0:2:0:0:
196,104,64427,6,0,B|180:76|180:76|172:0,1,85.0000016212463,6|0,3:2|0:0,0:0:0:0:
304,264,64770,2,0,B|292:324|292:324|272:352,1,85.0000016212463,10|0,0:0|3:0,0:0:0:0:
72,204,65112,1,10,0:0:0:0:
276,248,65284,1,2,3:2:0:0:
128,316,65455,1,10,0:0:0:0:
172,124,65627,6,0,P|256:152|356:144,1,170.000003242493,6|0,3:2|3:0,0:0:0:0:
388,136,66055,1,0,3:0:0:0:
388,136,66141,1,8,0:0:0:0:
488,166,66312,2,0,P|484:84|415:39,1,170.000003242493,6|0,3:2|3:0,0:0:0:0:
448,260,66827,1,10,0:2:0:0:
415,249,66912,1,10,0:2:0:0:
382,256,66998,1,10,0:2:0:0:
357,277,67084,1,8,0:0:0:0:
345,309,67170,6,0,B|304:340|304:340|168:348,1,170.000003242493,4|8,0:0|0:0,0:0:0:0:
36,352,67684,1,0,0:0:0:0:
36,352,67856,2,0,L|56:240,1,85.0000016212463,2|0,3:2|0:0,0:0:0:0:
176,248,68199,2,0,L|168:144,1,85.0000016212463,8|0,0:0|0:0,0:0:0:0:
30,16,68541,6,0,P|12:96|68:156,1,170.000003242493,2|8,3:2|0:0,0:0:0:0:
164,68,69056,1,0,0:0:0:0:
280,124,69227,2,0,B|400:116|400:116|456:72,1,170.000003242493,2|8,3:2|0:0,0:0:0:0:
512,232,69741,1,2,0:0:0:0:
512,232,69827,1,2,0:0:0:0:
512,232,69913,6,0,L|328:224,1,170.000003242493,2|8,3:2|0:0,0:0:0:0:
231,362,70427,2,0,P|269:345|300:316,2,85.0000016212463,2|0|2,0:0|0:0|0:0,0:0:0:0:
136,328,70941,2,0,P|95:339|52:340,1,85.0000016212463,10|0,0:0|0:0,0:0:0:0:
0,120,71284,6,0,P|37:140|78:150,1,85.0000016212463,2|0,0:0|0:0,0:0:0:0:
216,8,71627,2,0,P|186:38|165:75,1,85.0000016212463,10|0,0:0|0:0,0:0:0:0:
91,233,71970,2,0,P|89:190|78:149,1,85.0000016212463,2|0,0:0|0:0,0:0:0:0:
228,196,72313,2,0,L|328:204,1,85.0000016212463,10|0,0:0|0:0,0:0:0:0:
436,60,72656,6,0,B|316:68|316:68|268:100,1,170.000003242493,6|8,3:2|0:0,0:0:0:0:
444,228,73170,1,2,0:0:0:0:
444,228,73256,1,2,0:0:0:0:
444,228,73341,1,2,3:2:0:0:
276,214,73513,1,2,0:0:0:0:
368,164,73684,1,10,0:0:0:0:
232,356,73856,1,2,0:0:0:0:
323,305,74027,6,0,B|291:317|291:317|263:313|263:313|211:341|159:329,1,170.000003242493,2|8,3:2|0:0,0:0:0:0:
24,116,74541,2,0,B|64:136|64:136|124:84|212:112,1,170.000003242493,2|2,0:0|0:0,0:0:0:0:
64,260,75056,1,10,0:0:0:0:
168,84,75227,1,2,0:0:0:0:
320,176,75399,6,0,B|316:112|316:112|308:100|308:100|296:-4,1,170.000003242493,4|8,3:2|0:0,0:0:0:0:
224,168,75913,1,2,0:0:0:0:
448,96,76084,1,2,3:2:0:0:
320,40,76255,1,10,0:0:0:0:
432,216,76427,1,10,0:0:0:0:
340,64,76599,6,0,P|348:148|340:256,1,170.000003242493,6|2,3:2|3:2,0:0:0:0:
336,284,77027,1,0,3:0:0:0:
336,284,77113,1,10,0:0:0:0:
80,324,77284,6,0,P|56:252|112:148,1,170.000003242493,6|8,3:2|0:0,0:0:0:0:
88,167,77713,1,8,0:3:0:0:
88,167,77799,1,4,0:3:0:0:
172,108,77970,1,4,0:3:0:0:
80,68,78141,5,4,3:2:0:0:
80,68,78312,2,0,L|112:228,1,139.999995727539,0|0,3:0|0:0,0:0:0:0:
196,128,78827,2,0,P|216:200|236:284,1,150,8|0,0:0|0:0,0:0:0:0:
351,331,79512,5,4,3:1:0:0:
351,331,79685,2,0,P|335:265|369:205,1,139.999995727539,0|0,3:0|0:0,0:0:0:0:
464,176,80198,2,0,B|488:144|488:144|500:44,1,139.999995727539,8|0,0:0|0:0,0:0:0:0:
388,108,80712,6,0,B|336:100|336:100|288:104|288:104|244:96|244:96|184:100,1,200,6|0,0:0|0:0,0:0:0:0:
64,52,81570,2,0,B|40:72|40:72|16:128,1,69.9999978637695,8|0,0:0|0:0,0:0:0:0:
108,128,81912,2,0,B|97:157|97:157|104:217,1,69.9999978637695,0|0,3:0|0:0,0:0:0:0:
140,336,82255,5,4,3:2:0:0:
160,254,82427,1,0,3:0:0:0:
80,275,82598,1,0,3:0:0:0:
140,336,82770,1,0,3:0:0:0:
220,312,82941,2,0,L|316:288,1,69.9999978637695,4|0,0:0|0:0,0:0:0:0:
435,255,83284,2,0,L|368:272,1,69.9999978637695,8|0,0:0|0:0,0:0:0:0:
236,220,83627,6,0,P|321:200|400:172,1,150,2|0,3:2|0:0,0:0:0:0:
472,136,84312,1,4,3:2:0:0:
488,121,84398,1,0,3:0:0:0:
501,104,84484,1,0,3:0:0:0:
512,85,84570,1,0,3:0:0:0:
380,44,84741,2,0,L|372:92,1,34.9999989318848,0|0,3:0|3:0,3:0:0:0:
380,44,84998,6,0,P|328:60|260:68,1,104.999996795654,0|8,1:0|3:0,0:0:0:0:
259,88,85341,2,0,P|294:88|329:86,1,69.9999978637695,8|4,3:0|3:0,0:0:0:0:
168,148,85684,5,8,0:0:0:0:
168,148,85770,1,8,0:3:0:0:
168,148,85855,1,4,0:3:0:0:
168,148,85941,1,4,0:3:0:0:
168,148,86027,1,8,0:0:0:0:
20,52,86198,1,4,0:0:0:0:
68,80,87570,6,0,B|76:152|76:152|72:176|72:176|84:272,1,160,4|0,3:1|3:0,0:0:0:0:
156,192,87998,1,0,3:0:0:0:
156,192,88084,1,12,0:0:0:0:
276,360,88256,1,12,0:0:0:0:
307,115,88427,1,8,3:0:0:0:
412,220,88599,1,4,0:0:0:0:
412,220,88684,1,8,0:0:0:0:
412,220,88770,1,8,0:3:0:0:
412,220,88856,1,4,0:3:0:0:
411,219,88941,6,0,P|332:221|259:252,1,160,4|0,3:1|3:0,0:0:0:0:
424,124,89456,2,0,P|460:104|496:76,1,79.9999999999999,8|0,0:0|0:0,0:0:0:0:
285,39,89799,2,0,P|300:76|308:116,1,79.9999999999999,2|0,3:2|0:0,0:0:0:0:
196,156,90141,2,0,P|156:151|116:153,1,79.9999999999999,8|0,0:0|0:0,0:0:0:0:
8,184,90484,6,0,L|16:100,1,79.9999999999999,0|0,3:0|0:0,0:0:0:0:
130,249,90827,2,0,B|144:328,1,79.9999999999999,8|0,0:0|0:0,0:0:0:0:
116,153,91170,1,0,3:0:0:0:
248,280,91341,2,0,B|284:376,1,79.9999999999999,0|8,0:0|0:0,0:0:0:0:
228,132,91684,6,0,B|264:168|264:168|404:184,1,160,4|0,3:2|0:0,0:0:0:0:
444,248,92199,2,0,B|412:268|412:268|364:276,1,79.9999999999999,8|0,0:0|0:0,0:0:0:0:
368,40,92541,2,0,B|401:27|401:27|445:23,1,79.9999999999999,0|0,3:0|0:0,0:0:0:0:
292,196,92884,2,0,B|255:185|255:185|223:157,1,79.9999999999999,8|2,0:0|0:0,0:0:0:0:
468,140,93227,5,0,3:0:0:0:
372,140,93398,1,0,3:0:0:0:
372,140,93484,1,0,3:0:0:0:
372,140,93570,1,8,0:0:0:0:
328,20,93741,1,2,3:2:0:0:
328,20,93827,1,0,0:0:0:0:
328,20,93913,1,4,3:2:0:0:
220,44,94084,1,8,3:0:0:0:
112,68,94255,1,8,0:0:0:0:
4,92,94427,1,8,0:0:0:0:
4,92,94598,6,0,B|16:136|16:136|0:172|0:172|0:220|48:276,1,179.999994506836,2|0,0:0|0:0,0:0:0:0:
72,256,95199,1,8,3:0:0:0:
72,256,95284,2,0,L|208:244,2,119.999996337891,0|0|0,1:0|3:0|0:0,0:0:0:0:
256,328,96141,5,0,3:0:0:0:
256,328,96227,1,0,3:0:0:0:
256,328,96312,2,0,L|344:336,1,69.9999978637695,8|0,0:0|0:0,0:0:0:0:
436,272,96655,1,0,3:0:0:0:
444,276,96741,1,0,3:0:0:0:
452,280,96827,1,0,3:0:0:0:
460,284,96912,1,0,3:0:0:0:
468,288,96998,2,0,L|488:380,1,79.9999999999999,8|0,0:0|0:0,0:0:0:0:
392,184,97341,6,0,P|352:200|296:204,1,79.9999999999999,0|0,1:0|0:0,0:0:0:0:
284,200,97598,1,0,3:0:0:0:
284,200,97684,1,0,3:0:0:0:
416,40,97855,2,0,P|389:73|342:105,1,79.9999999999999,0|0,1:0|0:0,0:0:0:0:
330,107,98112,1,0,3:0:0:0:
330,107,98198,1,0,3:0:0:0:
252,4,98370,2,0,P|245:46|221:97,1,79.9999999999999,0|0,1:0|0:0,0:0:0:0:
211,105,98627,1,0,3:0:0:0:
211,105,98713,1,0,3:0:0:0:
76,0,98884,5,4,0:0:0:0:
111,170,99055,2,0,L|95:91,1,79.9999999999999,8|0,3:2|0:0,0:0:0:0:
32,228,99398,2,0,P|56:252|108:268,1,79.9999999999999,8|8,0:0|3:0,0:0:0:0:
148,264,99655,1,8,3:0:0:0:
148,264,99741,2,0,L|248:256,1,79.9999999999999,8|0,3:2|0:0,0:0:0:0:
456,188,100084,6,0,B|438:326,1,139.999995727539,4|0,3:2|3:0,0:0:0:0:
324,248,100599,1,8,0:3:0:0:
324,248,100770,1,0,3:0:0:0:
268,168,100941,2,0,L|204:160,2,34.9999989318848,8|8|8,0:3|0:3|0:3,0:0:0:0:
468,96,101284,1,4,0:3:0:0:
468,96,101456,6,0,L|388:112,1,69.9999978637695,0|0,3:0|0:0,0:0:0:0:
268,32,101799,1,0,3:0:0:0:
188,88,101970,1,8,0:3:0:0:
188,88,102056,1,8,0:3:0:0:
188,88,102141,1,8,0:3:0:0:
28,56,102312,1,4,0:3:0:0:
248,12,102484,1,8,0:3:0:0:
164,68,102656,1,8,0:0:0:0:
44,40,102827,6,0,P|72:112|68:188,1,139.999995727539,4|0,3:2|3:0,0:0:0:0:
20,256,103341,1,8,0:3:0:0:
20,256,103427,1,8,0:3:0:0:
20,256,103512,1,8,0:3:0:0:
156,352,103684,2,0,L|144:292,1,34.9999989318848,4|4,0:3|0:3,0:0:0:0:
131,239,103855,1,4,0:3:0:0:
224,172,104027,1,4,0:3:0:0:
240,280,104198,6,0,L|296:284,2,46.6666652425131,8|8|8,0:3|0:3|0:3,0:0:0:0:
344,208,104541,2,0,L|380:244,2,46.6666652425131,8|8|8,0:3|0:3|0:3,0:0:0:0:
472,240,104884,5,4,0:3:0:0:
472,240,104998,2,0,L|459:173,1,46.6666652425131,4|4,0:3|0:3,0:0:0:0:
408,80,105227,1,4,0:3:0:0:
408,80,105341,2,0,L|395:147,1,46.6666652425131,4|4,0:3|0:3,0:0:0:0:
248,120,105570,6,0,P|204:116|148:92,1,85.0000016212463,4|0,0:1|0:0,0:0:0:0:
36,252,105912,1,10,0:0:0:0:
20,152,106084,1,2,0:0:0:0:
176,320,106255,1,10,0:0:0:0:
192,220,106427,1,2,0:0:0:0:
52,264,106598,1,10,0:0:0:0:
36,164,106770,1,2,0:0:0:0:
248,144,106941,5,10,0:0:0:0:
248,144,107112,1,2,0:0:0:0:
148,196,107284,1,10,0:0:0:0:
148,196,107455,1,2,0:0:0:0:
280,44,107627,1,10,0:0:0:0:
348,192,107798,1,2,3:2:0:0:
368,196,107884,1,2,3:2:0:0:
388,200,107970,1,10,0:0:0:0:
160,72,108141,1,10,0:0:0:0:
168,92,108484,5,12,0:0:0:0:
456,124,108655,1,12,0:0:0:0:
464,100,108998,5,12,0:0:0:0:
140,208,109170,1,12,0:0:0:0:
296,44,109512,5,6,0:0:0:0:
316,60,110027,6,0,P|316:108|300:168,1,85.0000016212463,2|0,0:0|0:0,0:0:0:0:
224,176,110370,2,0,P|204:204|164:232,1,69.9999978637695,2|0,0:0|0:0,0:0:0:0:
148,52,110712,2,0,P|156:92|172:128,1,59.9999981689453,2|0,0:0|0:0,0:0:0:0:
500,220,111055,6,0,B|428:192|364:228|364:228|352:288,1,174.000001460266,4|8,3:1|0:0,0:0:0:0:
336,364,111570,1,2,0:0:0:0:
108,232,111741,2,0,L|124:344,1,87.000000730133,2|0,3:2|3:0,0:0:0:0:
352,160,112084,2,0,L|340:260,1,87.000000730133,8|0,0:0|0:0,0:0:0:0:
136,108,112427,5,2,3:2:0:0:
316,36,112599,1,2,0:0:0:0:
220,192,112770,1,8,0:0:0:0:
136,108,112941,2,0,P|97:97|44:96,1,87.000000730133,0|2,0:0|3:2,0:0:0:0:
327,59,113284,2,0,P|370:56|412:45,1,87.000000730133,2|8,0:0|0:0,0:0:0:0:
192,16,113627,5,0,0:0:0:0:
272,144,113799,1,2,3:2:0:0:
176,208,113970,1,2,0:0:0:0:
300,280,114141,1,8,0:0:0:0:
134,323,114313,2,0,P|67:269|54:185,1,174.000001460266,2|0,0:0|0:0,0:0:0:0:
280,264,114827,1,10,0:0:0:0:
416,344,114998,6,0,P|482:290|495:206,1,174.000001460266,2|2,0:0|0:0,0:0:0:0:
372,60,115512,1,10,0:0:0:0:
384,228,115683,1,0,0:0:0:0:
468,92,115855,1,2,3:2:0:0:
272,24,116026,1,0,0:0:0:0:
376,100,116198,1,10,0:0:0:0:
200,152,116369,1,2,0:0:0:0:
200,152,116455,1,2,0:0:0:0:
200,152,116540,6,0,B|156:152|156:152|100:136,1,87.000000730133,6|0,3:2|0:0,0:0:0:0:
0,184,116884,1,10,0:0:0:0:
104,44,117055,1,0,0:0:0:0:
16,200,117226,2,0,B|20:248|20:248|40:300,1,87.000000730133,2|0,3:2|0:0,0:0:0:0:
114,140,117569,1,10,0:0:0:0:
148,308,117741,6,0,P|204:360|320:356,1,174.000001460266,2|0,0:0|0:0,0:0:0:0:
468,304,118255,2,0,P|452:344|428:384,1,87.000000730133,10|0,0:0|0:0,0:0:0:0:
220,184,118598,2,0,P|232:228|260:284,1,87.000000730133,2|0,3:2|0:0,0:0:0:0:
496,188,118940,2,0,P|452:208|404:212,1,87.000000730133,10|0,0:0|0:0,0:0:0:0:
279,23,119284,6,0,P|336:83|412:53,1,174.000001460266,6|8,3:2|3:2,0:0:0:0:
356,8,119712,1,0,3:0:0:0:
352,12,119798,1,0,3:0:0:0:
320,200,119969,1,2,3:2:0:0:
512,88,120140,1,10,0:0:0:0:
420,244,120312,1,8,0:0:0:0:
312,100,120484,6,0,B|256:120|256:120|216:160|216:160|144:184,1,174.000001460266,6|0,3:2|3:0,0:0:0:0:
60,212,120999,1,10,0:0:0:0:
152,68,121170,2,0,B|48:108,1,87.000000730133,6|0,3:2|0:0,0:0:0:0:
52,236,121513,1,8,0:0:0:0:
44,256,121599,1,8,0:0:0:0:
36,276,121684,1,10,0:0:0:0:
168,204,121856,1,10,0:0:0:0:
244,288,122027,6,0,B|384:308|384:308|368:272,1,174.000001460266,6|8,3:2|0:0,0:0:0:0:
324,184,122541,1,2,0:0:0:0:
471,252,122713,2,0,P|483:293|483:337,1,87.000000730133,2|0,3:2|0:0,0:0:0:0:
324,184,123056,1,8,0:0:0:0:
424,164,123227,6,0,P|472:100|472:4,1,174.000001460266,2|0,0:0|0:0,0:0:0:0:
230,134,123741,2,0,P|212:96|204:52,1,87.000000730133,10|0,0:0|0:0,0:0:0:0:
473,8,124084,2,0,P|465:52|441:96,1,87.000000730133,2|0,3:2|0:0,0:0:0:0:
324,184,124427,2,0,P|312:232|312:280,1,87.000000730133,10|0,0:0|0:0,0:0:0:0:
172,72,124770,6,0,B|52:60|52:60|0:80,1,174.000001460266,6|8,3:2|0:0,0:0:0:0:
8,300,125284,1,2,0:0:0:0:
100,252,125455,1,2,3:2:0:0:
68,152,125627,1,2,3:2:0:0:
67,151,125799,1,8,3:2:0:0:
192,304,125970,6,0,B|248:284|248:284|296:152,1,174.000001460266,12|0,0:0|0:0,0:0:0:0:
444,280,126484,2,0,L|340:296,1,87.000000730133,10|0,0:0|0:0,0:0:0:0:
424,92,126827,2,0,L|520:104,1,87.000000730133,10|8,3:2|0:0,0:0:0:0:
352,184,127170,1,10,3:2:0:0:
332,188,127256,1,10,0:0:0:0:
312,192,127341,1,10,0:3:0:0:
212,52,127513,5,6,3:2:0:0:
44,168,127684,1,2,0:2:0:0:
188,148,127856,1,10,0:2:0:0:
152,312,128027,1,2,0:2:0:0:
72,156,128199,5,10,0:2:0:0:
48,288,128370,1,2,3:2:0:0:
248,204,128541,1,10,0:2:0:0:
144,224,128713,1,2,3:2:0:0:
168,324,128884,5,10,0:2:0:0:
168,324,129056,1,2,0:2:0:0:
272,304,129227,1,10,0:2:0:0:
272,304,129399,1,2,3:2:0:0:
344,160,129570,1,10,0:2:0:0:
444,184,129741,1,2,3:2:0:0:
460,320,129913,1,10,0:2:0:0:
372,260,130084,1,2,0:2:0:0:
416,80,130256,6,0,P|456:64|524:60,1,87.000000730133,6|0,3:2|0:0,0:0:0:0:
184,100,130599,2,0,P|136:90|80:60,1,87.000000730133,10|0,0:0|3:0,0:0:0:0:
292,24,130941,1,10,0:0:0:0:
308,152,131113,1,2,3:2:0:0:
172,68,131284,1,10,0:0:0:0:
108,168,131456,6,0,B|96:212|104:252|104:252|108:264|108:264|112:296|100:344,1,174.000001460266,6|0,3:2|3:0,0:0:0:0:
132,360,131884,1,0,3:0:0:0:
132,360,131970,1,8,0:0:0:0:
252,204,132141,2,0,P|340:240|360:336,1,174.000001460266,6|8,3:2|3:2,0:0:0:0:
432,168,132655,1,10,0:2:0:0:
432,168,132740,1,10,0:2:0:0:
432,168,132826,1,10,0:2:0:0:
432,168,132912,1,8,0:0:0:0:
432,168,132998,1,4,0:0:0:0:
432,168,133855,6,0,L|440:124,3,29.0000002433777,0|0|8|8,3:0|3:0|3:0|3:0,0:0:0:0:
472,264,134198,1,2,0:0:0:0:
472,264,134284,1,2,0:0:0:0:
472,264,134370,6,0,P|376:252|328:176,1,174.000001460266,6|10,0:0|0:0,0:0:0:0:
308,92,134884,1,2,0:0:0:0:
196,268,135055,2,0,P|212:227|217:184,1,87.000000730133,2|0,0:0|0:0,0:0:0:0:
100,100,135398,1,10,0:0:0:0:
55,266,135570,1,2,0:0:0:0:
55,266,135655,1,2,0:0:0:0:
53,266,135741,6,0,P|88:238|113:203,1,87.000000730133,2|0,0:0|0:0,0:0:0:0:
284,80,136084,1,10,0:0:0:0:
284,80,136255,2,0,P|240:80|180:60,1,87.0000007301331,2|0,0:0|0:0,0:0:0:0:
46,30,136598,2,0,P|68:68|99:99,1,87.0000007301331,2|8,0:0|0:0,0:0:0:0:
272,184,136941,1,2,0:0:0:0:
272,184,137027,1,2,0:0:0:0:
272,184,137112,6,0,B|288:216|288:216|296:296,1,116.000000973511,2|2,0:0|0:0,0:0:0:0:
396,296,137455,1,10,0:0:0:0:
428,324,137570,2,0,P|464:332|512:328,1,58.0000004867554,2|2,0:0|0:0,0:0:0:0:
380,196,137798,1,2,0:0:0:0:
421,204,137913,2,0,P|456:192|495:165,1,58.0000004867554,2|0,0:0|0:0,0:0:0:0:
404,88,138141,2,0,P|428:60|449:17,2,58.0000004867554,2|2|2,0:0|0:0|0:0,0:0:0:0:
364,101,138484,5,2,0:0:0:0:
164,44,138655,1,2,0:0:0:0:
164,44,138741,1,2,0:0:0:0:
164,44,138827,2,0,P|130:78|112:137,1,87.000000730133,10|2,0:0|0:0,0:0:0:0:
36,180,139170,2,0,P|37:228|65:281,1,87.000000730133,2|0,0:0|0:0,0:0:0:0:
212,176,139512,2,0,B|264:196|324:192|324:192|300:204,1,130.5000010952,2|2,0:0|0:0,0:0:0:0:
309,199,139855,2,0,P|288:240|288:300,1,87.0000007301331,2|0,0:0|0:0,0:0:0:0:
420,156,140198,5,10,0:0:0:0:
420,156,140284,1,2,0:0:0:0:
420,156,140370,2,0,L|488:136,1,43.5000003650665,2|0,0:0|0:0,0:0:0:0:
404,272,140541,5,2,0:0:0:0:
404,272,140627,1,2,0:0:0:0:
404,272,140713,2,0,L|464:240,1,43.5000003650665,2|0,0:0|0:0,0:0:0:0:
476,352,140884,5,10,0:0:0:0:
476,352,140970,1,2,0:0:0:0:
476,352,141056,2,0,L|532:304,1,43.5000003650665,2|0,0:0|0:0,0:0:0:0:
308,312,141227,5,2,0:0:0:0:
308,312,141313,1,2,0:0:0:0:
308,312,141398,2,0,L|300:364,1,43.5000003650665,2|0,0:0|0:0,0:0:0:0:
184,272,141570,2,0,B|96:280|96:280|48:312,1,130.5000010952,10|0,0:0|0:0,0:0:0:0:
64,308,141912,5,2,0:0:0:0:
68,312,141998,1,2,0:0:0:0:
72,316,142084,1,2,0:0:0:0:
76,320,142170,1,2,0:0:0:0:
80,324,142255,1,10,0:0:0:0:
84,328,142341,1,2,0:0:0:0:
88,332,142427,1,2,0:0:0:0:
92,336,142512,1,2,0:0:0:0:
96,340,142598,6,0,B|128:296|128:296|124:264|124:264|156:216|140:160,1,174.000001460266,6|8,0:0|0:0,0:0:0:0:
76,40,143112,1,2,0:0:0:0:
40,196,143284,1,2,0:0:0:0:
264,96,143455,1,2,0:0:0:0:
84,64,143627,1,2,0:0:0:0:
240,216,143798,6,0,B|296:212|296:212|360:188|384:108,1,174.000001460266,6|2,0:0|0:0,0:0:0:0:
256,232,144312,1,10,0:0:0:0:
504,316,144484,2,0,B|476:292|444:284|444:284|432:288|432:288|332:296,1,174.000001460266,6|0,0:0|0:0,0:0:0:0:
320,324,144912,1,8,0:0:0:0:
320,324,144998,1,8,0:0:0:0:
216,332,145170,1,8,0:0:0:0:
84,284,145341,1,2,0:0:0:0:
200,80,155284,6,0,P|180:128|184:196,1,87.000000730133,2|0,0:0|0:0,0:0:0:0:
306,272,155627,2,0,P|277:251|255:223,1,70.9999964248658,2|0,0:0|0:0,0:0:0:0:
168,264,155970,2,0,P|140:284|100:296,1,59.9999981689453,2|0,0:0|0:0,0:0:0:0:
436,164,156312,6,0,B|480:200|480:200|502:329,1,187.999997131348,4|8,3:1|0:0,0:0:0:0:
324,156,156827,1,2,0:0:0:0:
384,60,156998,2,0,L|476:46,1,93.9999985656738,2|0,0:0|0:0,0:0:0:0:
304,144,157341,1,8,0:0:0:0:
108,36,157512,5,2,0:0:0:0:
232,0,157684,1,2,3:2:0:0:
200,180,157856,1,2,0:0:0:0:
4,148,158027,1,8,0:0:0:0:
83,19,158198,2,0,P|105:61|112:107,1,93.9999985656738,0|2,0:0|3:2,0:0:0:0:
92,219,158541,2,0,P|77:264|49:302,1,93.9999985656738,2|8,0:0|3:2,0:0:0:0:
312,308,158884,5,2,0:0:0:0:
272,144,159056,1,2,3:2:0:0:
316,288,159227,1,2,0:0:0:0:
204,280,159398,1,10,0:0:0:0:
432,296,159570,2,0,P|484:224|484:108,1,187.999997131348,2|0,0:0|0:0,0:0:0:0:
316,84,160084,1,10,0:0:0:0:
416,44,160255,6,0,B|380:33|348:36|348:36|296:60|224:32,1,187.999997131348,2|2,0:0|0:0,0:0:0:0:
28,136,160769,1,10,0:0:0:0:
140,116,160940,1,2,0:0:0:0:
308,240,161112,1,2,3:2:0:0:
200,212,161283,1,2,0:0:0:0:
4,312,161455,1,10,0:0:0:0:
116,288,161626,1,2,0:0:0:0:
116,288,161712,1,2,0:0:0:0:
116,288,161798,6,0,P|160:303|204:336,1,93.9999985656739,6|0,3:2|0:0,0:0:0:0:
44,116,162141,2,0,P|12:84|-4:32,1,93.9999985656738,10|0,0:0|0:0,0:0:0:0:
229,194,162483,2,0,P|276:184|320:164,1,93.9999985656738,2|0,3:2|0:0,0:0:0:0:
156,108,162826,1,10,0:0:0:0:
327,51,162998,6,0,P|411:87|424:180,1,187.999997131348,2|0,0:0|0:0,0:0:0:0:
229,194,163512,2,0,B|209:238|209:238|201:294,1,93.9999985656738,10|0,0:0|0:0,0:0:0:0:
460,184,163855,2,0,B|438:140|438:140|426:96,1,93.9999985656738,2|0,3:2|0:0,0:0:0:0:
356,288,164198,2,0,B|376:332|376:332|388:392,1,93.9999985656738,10|0,0:0|0:0,0:0:0:0:
320,68,164541,6,0,B|276:96|276:96|196:92|196:92|140:48,1,187.999997131348,6|8,3:2|3:2,0:0:0:0:
240,16,164969,1,0,3:0:0:0:
244,20,165055,1,0,3:0:0:0:
80,248,165226,1,2,3:2:0:0:
4,88,165397,1,10,0:0:0:0:
256,216,165569,1,8,0:0:0:0:
356,96,165741,6,0,B|412:88|412:88|492:112|500:196,1,187.999997131348,6|0,3:2|3:0,0:0:0:0:
472,348,166256,1,10,0:0:0:0:
372,292,166427,2,0,P|376:245|389:199,1,93.9999985656738,6|0,3:2|0:0,0:0:0:0:
260,320,166770,1,8,0:0:0:0:
228,328,166856,1,8,0:0:0:0:
196,336,166941,1,2,0:0:0:0:
96,284,167113,1,10,0:0:0:0:
96,284,167455,6,0,L|32:292,1,46.9999992828369,2|2,0:0|0:0,0:0:0:0:
116,184,167627,2,0,B|84:148|84:148|68:60|140:4,1,187.999997131348,6|0,1:0|0:0,0:0:0:0:
272,160,168141,1,2,0:0:0:0:
288,48,168313,1,8,0:0:0:0:
456,48,168484,6,0,P|511:121|511:214,1,187.999997131348,2|0,0:0|0:0,0:0:0:0:
292,348,168998,2,0,P|332:316|364:268,1,93.9999985656738,10|0,0:0|0:0,0:0:0:0:
184,280,169341,2,0,P|136:292|68:280,1,93.9999985656738,2|0,3:2|0:0,0:0:0:0:
324,124,169684,2,0,P|364:156|412:176,1,93.9999985656738,10|0,0:0|0:0,0:0:0:0:
184,4,170027,6,0,B|144:44|144:44|140:104|140:104|144:120|144:120|140:204,1,187.999997131348,6|8,3:2|0:0,0:0:0:0:
20,20,170541,1,2,0:0:0:0:
32,132,170712,1,2,3:2:0:0:
44,244,170884,1,2,3:2:0:0:
44,244,170970,1,0,3:0:0:0:
44,244,171055,2,0,L|0:280,1,46.9999992828369,10|0,0:0|3:0,0:0:0:0:
148,288,171227,2,0,P|236:248|240:136,1,187.999997131348,12|8,0:0|3:2,0:0:0:0:
460,48,171741,5,10,0:0:0:0:
460,48,171827,1,10,0:0:0:0:
460,48,171912,2,0,L|404:64,1,46.9999992828369,10|0,0:0|0:0,0:0:0:0:
436,160,172084,5,8,3:0:0:0:
436,160,172170,1,8,3:0:0:0:
436,160,172255,2,0,L|380:156,1,46.9999992828369,8|8,3:0|3:0,0:0:0:0:
392,268,172427,5,4,3:0:0:0:
392,268,172513,1,4,3:0:0:0:
392,268,172598,2,0,L|340:248,1,46.9999992828369,4|4,3:0|3:0,0:0:0:0:
180,188,172770,5,6,3:2:0:0:
96,312,172941,1,2,0:2:0:0:
240,100,173113,1,10,0:2:0:0:
252,256,173284,1,2,0:2:0:0:
48,192,173456,5,10,0:2:0:0:
160,168,173627,1,2,3:2:0:0:
112,284,173798,1,10,0:2:0:0:
264,300,173970,1,2,3:2:0:0:
264,104,174141,5,10,0:2:0:0:
264,104,174313,1,2,0:2:0:0:
372,348,174484,1,10,0:2:0:0:
372,348,174656,1,2,3:2:0:0:
496,152,174827,1,10,0:2:0:0:
352,180,174998,1,2,3:2:0:0:
400,324,175170,1,10,0:2:0:0:
488,252,175341,1,2,0:2:0:0:
288,292,175513,6,0,P|236:284|184:260,1,93.9999985656738,6|0,3:2|0:0,0:0:0:0:
88,292,175856,2,0,P|48:260|12:204,1,93.9999985656738,10|0,0:0|3:0,0:0:0:0:
92,84,176198,1,10,0:0:0:0:
248,156,176370,1,2,3:2:0:0:
120,192,176541,1,10,0:0:0:0:
248,124,176713,6,0,B|288:116|288:116|320:132|320:132|376:100|448:136,1,187.999997131348,6|0,3:2|3:0,0:0:0:0:
468,152,177141,1,0,3:0:0:0:
468,152,177227,1,8,0:0:0:0:
328,24,177398,1,6,3:2:0:0:
300,248,177570,2,0,L|296:296,3,46.9999992828369,8|8|0|0,0:0|0:0|3:0|3:0,0:0:0:0:
404,320,177912,1,10,0:2:0:0:
396,284,177997,1,10,0:2:0:0:
416,252,178083,1,10,0:2:0:0:
404,216,178169,1,8,0:0:0:0:
372,196,178255,6,0,B|408:160|408:160|432:92|392:16,1,187.999997131348,4|8,0:0|0:0,0:0:0:0:
292,68,178770,1,2,0:0:0:0:
292,68,178942,2,0,P|244:60|180:32,1,93.9999985656738,2|0,3:2|0:0,0:0:0:0:
20,130,179284,2,0,P|65:114|112:112,1,93.9999985656738,8|2,0:0|0:0,0:0:0:0:
136,140,179541,1,2,0:0:0:0:
136,140,179627,6,0,B|148:212|148:212|156:236|156:236|152:260|152:260|152:336,1,187.999997131348,2|8,3:2|0:0,0:0:0:0:
48,248,180142,1,2,0:0:0:0:
260,296,180313,2,0,P|368:280|416:208,1,187.999997131348,2|8,3:2|0:0,0:0:0:0:
500,292,180827,1,2,0:0:0:0:
412,221,180999,6,0,P|408:176|428:104,1,93.9999985656738,2|0,3:2|0:0,0:0:0:0:
500,52,181341,1,10,0:0:0:0:
352,36,181512,2,0,P|322:72|303:115,1,93.9999985656738,2|0,0:0|0:0,0:0:0:0:
208,52,181855,1,2,0:0:0:0:
208,52,182027,2,0,P|160:32|104:28,1,93.9999985656738,10|0,0:0|0:0,0:0:0:0:
4,112,182370,6,0,L|13:214,1,93.9999985656738,2|0,0:0|0:0,0:0:0:0:
192,356,182713,2,0,L|196:262,1,93.9999985656738,10|0,0:0|0:0,0:0:0:0:
80,304,183055,1,2,1:2:0:0:
200,160,183227,1,6,0:2:0:0:
308,316,183399,2,0,P|352:340|424:356,1,93.9999985656739,10|0,0:0|0:0,0:0:0:0:
512,128,183742,6,0,P|456:224|364:248,1,187.999997131348,6|10,3:2|0:0,0:0:0:0:
272,120,184255,2,0,L|256:28,1,93.9999985656739,2|0,0:0|0:0,0:0:0:0:
384,124,184598,1,2,0:0:0:0:
240,216,184770,1,8,0:0:0:0:
244,100,184941,1,2,0:0:0:0:
244,100,185027,1,2,0:0:0:0:
244,100,185112,6,0,B|220:52|220:52|168:12|60:40,1,187.999997131348,2|10,0:0|0:0,0:0:0:0:
12,184,185627,1,2,0:0:0:0:
144,120,185798,1,2,0:0:0:0:
24,208,185970,2,0,P|12:260|12:324,1,93.9999985656739,2|8,0:0|0:0,0:0:0:0:
208,352,186312,1,2,0:0:0:0:
208,352,186398,1,2,0:0:0:0:
208,352,186484,6,0,P|292:304|404:324,1,187.999997131348,6|10,0:0|0:0,0:0:0:0:
502,237,186998,2,0,P|457:226|416:204,1,93.9999985656739,2|0,0:0|0:0,0:0:0:0:
364,40,187341,1,10,0:0:0:0:
280,272,187512,1,6,0:0:0:0:
208,160,187684,6,0,B|172:152|136:160|136:160|80:188|20:160,1,187.999997131348,2|2,3:2|3:2,0:0:0:0:
76,96,188112,1,0,3:0:0:0:
76,96,188198,1,10,0:0:0:0:
260,72,188369,2,0,P|304:148|248:252,1,187.999997131348,6|8,3:2|0:0,0:0:0:0:
236,232,188798,1,8,0:0:0:0:
198,237,188884,1,8,0:0:0:0:
169,249,188970,1,8,0:3:0:0:
138,259,189055,1,4,0:3:0:0:
113,261,189141,1,4,0:3:0:0:
90,257,189227,6,0,P|36:232|0:228,1,93.9999985656739,6|0,3:2|0:0,0:0:0:0:
128,132,189570,1,10,0:0:0:0:
20,96,189741,2,0,P|111:94|177:30,1,187.999997131348,2|0,0:0|0:0,0:0:0:0:
288,52,190255,2,0,L|304:152,1,93.9999985656739,10|2,0:0|0:0,0:0:0:0:
452,40,190598,5,2,3:2:0:0:
324,128,190770,2,0,P|284:216|288:324,1,187.999997131348,2|0,0:0|0:0,0:0:0:0:
400,236,191284,1,2,3:2:0:0:
292,324,191455,1,2,0:0:0:0:
176,280,191627,1,10,0:0:0:0:
300,340,191798,1,2,0:0:0:0:
256,200,191970,6,0,P|228:160|188:124,1,93.9999985656739,2|0,3:2|0:0,0:0:0:0:
180,304,192312,1,10,0:0:0:0:
108,200,192484,2,0,P|64:176|-20:160,1,93.9999985656739,2|0,0:0|3:2,0:0:0:0:
140,40,192827,2,0,P|190:27|254:31,1,93.9999985656739,2|8,0:0|0:0,0:0:0:0:
460,64,193170,6,0,P|416:132|300:148,1,187.999997131348,2|0,0:0|0:0,0:0:0:0:
348,44,193684,1,10,0:0:0:0:
288,172,193855,1,0,0:0:0:0:
464,220,194027,1,2,3:2:0:0:
464,220,194112,1,0,3:0:0:0:
464,220,194198,2,0,L|474:276,2,46.9999992828369,2|2|10,3:2|3:2|3:2,0:0:0:0:
468,96,194541,1,2,0:0:0:0:
372,256,194712,6,0,P|292:304|192:292,1,187.999997131348,6|8,3:2|0:0,0:0:0:0:
44,320,195227,1,2,0:0:0:0:
108,228,195398,2,0,P|99:181|80:139,1,93.9999985656739,2|0,3:2|0:0,0:0:0:0:
4,56,195741,1,8,0:0:0:0:
176,88,195912,1,2,0:0:0:0:
176,88,195998,1,2,0:0:0:0:
176,88,196084,6,0,B|257:85|257:85|273:89|273:89|377:85,1,187.999997131348,2|10,0:0|0:0,0:0:0:0:
468,132,196598,1,0,0:0:0:0:
363,85,196770,2,0,P|343:45|336:-12,1,93.9999985656739,2|0,0:0|0:0,0:0:0:0:
448,168,197112,2,0,P|452:224|440:284,1,93.9999985656739,8|0,0:0|0:0,0:0:0:0:
300,336,197455,5,4,3:2:0:0:
364,212,197627,1,0,3:2:0:0:
216,296,197798,1,10,0:0:0:0:
252,200,197970,1,2,3:2:0:0:
116,320,198141,5,10,0:0:0:0:
128,224,198312,1,2,3:2:0:0:
24,276,198484,1,10,0:0:0:0:
0,144,198655,2,0,P|32:48|124:24,1,187.999997131348,6|0,3:2|3:0,0:0:0:0:
152,40,199084,1,0,3:0:0:0:
152,40,199170,2,0,L|208:32,2,46.9999992828369,8|0|0,3:2|3:0|3:0,0:0:0:0:
316,12,199512,5,10,0:0:0:0:
292,216,199684,1,2,3:2:0:0:
364,120,199855,1,10,0:0:0:0:
184,364,200027,1,6,0:0:0:0:
176,348,201398,1,2,0:0:0:0:
256,192,201570,12,2,205512,0:0:0:0:
