osu file format v14

[General]
AudioFilename: audio.mp3
AudioLeadIn: 0
PreviewTime: 62556
Countdown: 0
SampleSet: Soft
StackLeniency: 0.7
Mode: 0
LetterboxInBreaks: 0
WidescreenStoryboard: 1

[Editor]
Bookmarks: 2934,13843,19297,30207,41116,52025,62934,84752,95661,106570,110198,117479,128388,137897,139297,161116,163843,176590,185661,196570,210207,212934,232025,242934,253843,264752
DistanceSpacing: 0.6
BeatDivisor: 4
GridSize: 16
TimelineZoom: 2.799999

[Metadata]
Title:Lateral Arc
TitleUnicode:ラテラルアーク
Artist:Imy feat. Aitsuki Nakuru
ArtistUnicode:Imy feat. 藍月なくる
Creator:milkgreen
Version:Radiant Courage
Source:
Tags:japanese female vocal Jrock rock Jpop pop Imy Inside of me onineko おにねこ
BeatmapID:4208911
BeatmapSetID:2021026

[Difficulty]
HPDrainRate:5
CircleSize:4
OverallDifficulty:9
ApproachRate:9.3
SliderMultiplier:2
SliderTickRate:1

[Events]
//Background and Video events
0,0,"bg.jpg",0,0
//Break Periods
2,185824,195297
//Storyboard Layer 0 (Background)
//Storyboard Layer 1 (Fail)
//Storyboard Layer 2 (Pass)
//Storyboard Layer 3 (Foreground)
//Storyboard Layer 4 (Overlay)
//Storyboard Sound Samples

[TimingPoints]
170,340.909090909091,4,2,1,70,1,0
19601,-166.666666666667,4,2,1,50,0,0
29658,-125,4,2,1,60,0,0
30170,-100,4,2,1,60,0,0
35624,-100,4,2,1,70,0,0
41079,-125,4,2,1,50,0,0
51988,-125,4,2,1,60,0,0
62556,-166.666666666667,4,2,1,70,0,0
62897,-83.3333333333333,4,2,1,80,0,1
84204,-166.666666666667,4,2,1,70,0,1
84715,-100,4,2,1,70,0,0
96647,-66.6666666666667,4,2,1,60,0,0
96817,-200,4,2,1,60,0,0
97329,-125,4,2,1,60,0,0
106533,-166.666666666667,4,2,1,50,0,0
111988,-125,4,2,1,60,0,0
117442,-250.000000000001,4,2,1,50,0,0
127670,-166.666666666667,4,2,1,50,0,0
128351,-125,4,2,1,60,0,0
133806,-125,4,2,1,70,0,0
137897,-100,4,2,1,70,0,0
139260,-83.3333333333333,4,2,1,80,0,1
161079,-83.3333333333333,4,2,1,70,0,0
195851,-250,4,2,1,50,0,0
196533,-100,4,2,1,60,0,0
201988,-100,4,2,1,70,0,0
210170,-83.3333333333333,4,2,1,80,0,0
212897,-83.3333333333333,4,2,1,80,0,1
231988,-100,4,2,1,70,0,0

[Colours]
Combo1 : 127,127,127
Combo2 : 192,192,192
Combo3 : 85,85,85

[HitObjects]
256,192,170,12,0,2045,0:0:0:0:
256,192,2215,6,0,L|242:143,2,50
282,270,2556,5,2,0:0:0:0:
309,259,2641,1,2,0:0:0:0:
338,250,2726,1,2,0:0:0:0:
367,245,2811,1,2,0:0:0:0:
398,244,2897,2,0,P|416:171|441:100,1,150,6|0,3:2|0:0,0:0:0:0:
392,42,3238,2,0,P|351:65|356:112,1,100,8|0,0:0|0:0,0:0:0:0:
477,244,3579,2,0,P|482:290|441:314,1,100,0|0,3:0|0:0,0:0:0:0:
289,177,3920,1,10,0:0:0:0:
218,358,4090,1,2,0:0:0:0:
135,321,4261,6,0,P|116:248|91:177,1,150,0|0,3:0|0:0,0:0:0:0:
98,99,4601,2,0,P|145:98|164:141,1,100,8|0,0:0|0:0,0:0:0:0:
53,349,4942,2,0,P|34:276|9:205,1,150,2|0,3:0|0:0,0:0:0:0:
23,128,5283,1,8,0:0:0:0:
211,251,5454,5,2,0:0:0:0:
239,260,5539,1,2,0:0:0:0:
266,272,5624,2,0,P|336:246|409:228,1,150,2|0,3:0|0:0,0:0:0:0:
457,289,5965,2,0,P|438:335|427:384,1,100,8|0,0:0|0:0,0:0:0:0:
272,178,6306,2,0,P|260:129|242:82,1,100,0|0,3:0|0:0,0:0:0:0:
468,34,6647,1,10,0:0:0:0:
362,133,6817,1,2,0:0:0:0:
233,0,6988,6,0,P|162:25|89:43,1,150,0|0,3:0|0:0,0:0:0:0:
39,103,7329,2,0,P|57:149|68:198,1,100,8|0,0:0|0:0,0:0:0:0:
53,355,7670,5,10,0:3:0:0:
82,348,7755,1,8,0:3:0:0:
110,340,7840,2,0,P|112:315|122:292,1,50,8|0,0:0|0:0,0:0:0:0:
229,258,8010,2,0,P|226:233|216:210,1,50,0|0,3:0|0:0,0:0:0:0:
137,77,8181,5,10,0:3:0:0:
133,106,8266,1,10,0:0:0:0:
149,130,8351,2,0,P|220:105|293:87,1,150,6|0,3:2|0:0,0:0:0:0:
348,32,8692,2,0,P|396:43|445:51,1,100,8|0,0:0|0:0,0:0:0:0:
396,230,9033,2,0,P|347:218|298:210,1,100,0|0,3:0|0:0,0:0:0:0:
213,31,9374,5,10,0:0:0:0:
374,133,9545,1,2,0:0:0:0:
229,258,9715,2,0,P|158:233|85:215,1,150,0|0,3:0|0:0,0:0:0:0:
10,243,10056,2,0,P|24:288|71:294,1,100,8|0,0:0|0:0,0:0:0:0:
14,56,10397,2,0,P|23:105|28:154,1,100,2|0,3:0|0:0,0:0:0:0:
214,356,10738,2,0,P|218:306|228:257,1,100,8|0,0:0|0:0,0:0:0:0:
170,116,11079,6,0,B|153:134|127:147|127:147|181:146|217:174,1,150,2|0,3:0|0:0,0:0:0:0:
291,203,11420,1,8,0:0:0:0:
423,70,11590,1,2,0:0:0:0:
423,70,11675,1,2,0:0:0:0:
423,70,11760,2,0,P|388:137|371:210,1,150,0|0,3:0|0:0,0:0:0:0:
401,288,12101,2,0,B|438:260|492:261|492:261|466:248|449:230,1,150,10|0,0:0|0:0,0:0:0:0:
324,275,12442,1,0,3:0:0:0:
477,155,12613,5,10,0:0:0:0:
351,16,12783,2,0,P|303:27|253:32,1,100,10|0,0:0|0:0,0:0:0:0:
198,85,13039,1,10,0:3:0:0:
198,85,13124,2,0,P|149:73|99:68,1,100,2|0,3:0|0:0,0:0:0:0:
23,141,13380,5,8,0:3:0:0:
38,177,13465,1,0,3:0:0:0:
67,193,13550,1,8,0:3:0:0:
96,199,13635,1,4,2:3:0:0:
119,190,13721,1,4,2:3:0:0:
134,177,13806,6,0,P|158:178|177:194,1,50,4|0,3:2|0:0,0:0:0:0:
195,275,13976,2,0,P|241:260|260:215,1,100,2|8,0:0|0:0,0:0:0:0:
445,74,14317,6,0,P|421:75|402:91,1,50,2|0,0:0|0:0,0:0:0:0:
384,172,14487,2,0,P|337:157|318:112,1,100,2|0,3:0|0:0,0:0:0:0:
502,309,14829,6,0,P|492:332|487:356,1,50,10|0,0:0|0:0,0:0:0:0:
417,265,14999,2,0,P|404:216|383:171,1,100,2|0,0:0|3:0,0:0:0:0:
265,303,15340,6,0,P|255:326|250:350,1,50,2|0,0:0|0:0,0:0:0:0:
180,259,15510,2,0,P|167:210|146:165,1,100,10|0,0:0|0:0,0:0:0:0:
147,341,15851,6,0,L|155:364,2,25,2|2|2,3:0|0:0|0:0,0:0:0:0:
76,305,16022,6,0,L|68:328,2,25,2|2|2,0:0|0:0|0:0,0:0:0:0:
66,276,16192,1,10,0:0:0:0:
57,247,16277,1,10,0:3:0:0:
47,218,16363,1,10,0:3:0:0:
38,189,16448,1,10,0:3:0:0:
28,160,16533,6,0,P|33:136|42:113,1,50,6|0,3:2|0:0,0:0:0:0:
162,0,16704,2,0,P|177:47|182:97,1,100,2|8,0:0|0:0,0:0:0:0:
397,234,17045,6,0,P|391:209|382:186,1,50,2|0,0:0|0:0,0:0:0:0:
294,33,17215,2,0,P|278:80|273:130,1,100,2|0,3:0|0:0,0:0:0:0:
287,340,17556,6,0,P|291:315|300:292,1,50,10|0,0:0|0:0,0:0:0:0:
457,164,17726,2,0,P|467:187|470:211,1,50,2|0,0:0|0:0,0:0:0:0:
186,286,17897,1,8,0:3:0:0:
145,257,17982,1,8,0:3:0:0:
104,228,18067,2,0,P|114:206|117:181,1,50,10|0,0:0|0:0,0:0:0:0:
262,94,18238,5,10,0:3:0:0:
289,83,18323,1,8,0:3:0:0:
347,36,18408,5,6,0:3:0:0:
374,47,18493,1,6,0:3:0:0:
448,41,18579,6,0,P|451:65|460:88,1,50,14|0,0:0|0:0,0:0:0:0:
299,291,18834,2,0,P|308:268|313:244,1,50,6|0,3:2|0:0,0:0:0:0:
166,33,19090,2,0,P|176:57|178:82,1,50,6|0,3:2|0:0,0:0:0:0:
423,192,19431,5,8,0:3:0:0:
423,192,19516,1,8,0:3:0:0:
423,191,19601,2,0,P|449:178|478:170,1,59.9999981689454,6|2,3:2|0:0,0:0:0:0:
512,252,19942,2,0,P|472:273|428:279,1,89.9999972534181,2|0,0:0|0:0,0:0:0:0:
399,269,20283,1,0,0:0:0:0:
332,329,20454,6,0,P|346:355|351:384,1,59.9999981689454,2|0,0:0|0:0,0:0:0:0:
319,246,20795,1,2,0:0:0:0:
243,291,20965,2,0,P|229:317|224:346,1,59.9999981689454,2|0,0:0|0:0,0:0:0:0:
133,384,21306,2,0,P|127:339|105:300,1,89.9999972534181,2|0,0:0|0:0,0:0:0:0:
117,272,21647,2,0,P|130:245|135:216,1,59.9999981689454,2|0,0:0|0:0,0:0:0:0:
56,172,21988,5,2,3:0:0:0:
56,172,22158,1,0,3:0:0:0:
134,119,22329,2,0,P|160:132|189:137,1,59.9999981689454
276,205,22670,2,0,P|246:210|220:223,1,59.9999981689454
278,111,23010,5,2,0:0:0:0:
353,260,23181,2,0,L|414:249,2,59.9999981689454,2|0|0,0:0|0:0|0:0,0:0:0:0:
272,301,23692,1,2,0:0:0:0:
355,157,23863,2,0,L|414:167,1,59.9999981689454,2|0,0:0|0:0,0:0:0:0:
512,37,24204,5,2,3:0:0:0:
417,83,24374,1,2,0:0:0:0:
345,9,24545,1,2,3:0:0:0:
251,122,24715,2,0,P|266:164|276:208,1,89.9999972534181,6|0,3:2|0:0,0:0:0:0:
261,233,25056,2,0,P|218:217|174:207,1,89.9999972534181,2|0,0:0|0:0,0:0:0:0:
163,179,25397,1,2,0:0:0:0:
90,242,25567,2,0,P|105:267|109:297,1,59.9999981689454,2|0,0:0|0:0,0:0:0:0:
12,190,25908,6,0,P|27:164|31:134,1,59.9999981689454,2|0,0:0|0:0,0:0:0:0:
112,102,26249,1,2,0:0:0:0:
198,63,26420,2,0,P|182:37|178:7,1,59.9999981689454,2|0,0:0|0:0,0:0:0:0:
285,95,26760,6,0,P|260:132|245:174,1,89.9999972534181,2|0,0:0|0:0,0:0:0:0:
294,235,27101,2,0,P|322:225|354:223,1,59.9999981689454,2|0,0:0|0:0,0:0:0:0:
512,166,27442,5,2,3:0:0:0:
348,143,27613,1,0,3:0:0:0:
479,57,27783,1,2,0:0:0:0:
441,236,27954,2,0,P|458:293|469:352,1,119.999996337891,2|0,0:0|0:0,0:0:0:0:
357,332,28465,5,0,0:0:0:0:
380,321,28635,1,0,3:0:0:0:
272,358,29658,5,8,0:3:0:0:
272,358,29743,1,8,0:3:0:0:
249,335,29829,2,0,L|260:295,1,40,4|0,0:3|0:0,0:0:0:0:
180,217,29999,5,4,0:3:0:0:
180,217,30084,1,4,0:3:0:0:
209,189,30170,2,0,P|200:165|186:144,1,50,4|0,3:2|0:0,0:0:0:0:
113,58,30340,2,0,P|121:34|135:13,1,50,0|0,3:0|0:0,0:0:0:0:
21,154,30510,1,8,0:0:0:0:
192,68,30681,6,0,P|266:67|339:83,1,150,0|0,3:0|0:0,0:0:0:0:
422,118,31022,2,0,P|430:94|444:73,1,50,0|0,3:0|0:0,0:0:0:0:
365,220,31192,2,0,P|356:196|342:175,1,50,8|0,0:0|0:0,0:0:0:0:
512,204,31363,6,0,P|437:203|364:219,1,150,4|0,3:2|0:0,0:0:0:0:
310,279,31704,5,0,3:0:0:0:
446,351,31874,1,8,0:0:0:0:
270,208,32045,1,0,3:0:0:0:
93,351,32215,5,8,0:0:0:0:
229,279,32385,1,0,3:0:0:0:
54,141,32556,1,8,0:0:0:0:
190,213,32726,1,0,0:0:0:0:
345,174,32897,6,0,P|331:153|322:129,1,50,4|0,3:2|0:0,0:0:0:0:
427,71,33067,2,0,P|440:50|449:26,1,50,0|0,3:0|0:0,0:0:0:0:
501,157,33238,1,8,0:0:0:0:
351,30,33408,2,0,P|277:45|207:71,1,150,0|0,3:0|0:0,0:0:0:0:
131,65,33749,2,0,P|117:44|108:20,1,50,0|0,3:0|0:0,0:0:0:0:
31,184,33920,2,0,P|44:163|53:139,1,50,8|0,0:0|0:0,0:0:0:0:
185,234,34090,6,0,P|209:172|145:155,1,150,4|0,3:2|0:0,0:0:0:0:
104,223,34431,1,8,0:0:0:0:
308,239,34601,1,8,0:0:0:0:
129,304,34772,1,0,3:0:0:0:
384,384,34942,6,0,P|405:312|442:247,1,150,8|0,0:0|0:0,0:0:0:0:
499,197,35283,2,0,P|485:176|476:152,1,50,0|0,3:0|0:0,0:0:0:0:
470,31,35454,5,8,0:3:0:0:
470,31,35539,1,8,0:3:0:0:
419,42,35624,2,0,P|397:113|360:178,1,150,4|0,3:2|0:0,0:0:0:0:
309,239,35965,1,8,0:0:0:0:
221,143,36135,1,0,3:0:0:0:
301,36,36306,1,8,0:0:0:0:
144,169,36476,5,0,3:0:0:0:
77,129,36647,1,8,0:0:0:0:
27,305,36817,5,0,3:0:0:0:
117,262,36988,1,8,0:0:0:0:
206,218,37158,1,0,3:0:0:0:
325,355,37329,5,8,0:0:0:0:
460,243,37499,1,0,3:0:0:0:
222,141,37670,1,8,0:0:0:0:
377,208,37840,1,0,0:0:0:0:
512,120,38010,5,4,0:3:0:0:
444,160,38181,1,4,0:3:0:0:
278,28,38351,5,12,0:0:0:0:
266,299,38522,1,8,0:3:0:0:
292,284,38607,1,8,0:3:0:0:
319,271,38692,2,0,L|365:288,1,50,8|4,0:0|0:3,0:0:0:0:
445,81,38863,2,0,L|398:63,1,50,8|4,0:0|0:3,0:0:0:0:
267,145,39033,5,4,0:3:0:0:
228,177,39118,1,4,0:3:0:0:
188,207,39204,1,8,0:0:0:0:
148,237,39289,1,8,0:0:0:0:
62,250,39374,5,4,0:3:0:0:
31,223,39459,1,4,0:3:0:0:
26,182,39545,1,8,0:3:0:0:
45,147,39630,1,8,0:3:0:0:
79,126,39715,2,0,P|111:130|144:138,1,66.6666666666667,4|0,3:2|0:0,0:0:0:0:
251,259,39942,6,0,P|283:254|304:229,1,66.6666666666667,8|8,0:0|0:0,0:0:0:0:
389,315,40170,6,0,P|401:284|390:254,1,66.6666666666667,8|8,0:0|0:0,0:0:0:0:
497,218,40397,6,0,P|477:192|445:186,1,66.6666666666667,8|8,0:0|0:3,0:0:0:0:
321,117,40624,5,8,0:3:0:0:
321,117,40738,2,0,P|288:121|267:146,2,66.6666666666667,4|4|4,0:3|0:3|0:3,0:0:0:0:
398,119,41079,6,0,P|393:59|378:1,1,120,4|0,3:2|0:0,0:0:0:0:
456,1,41420,2,0,P|468:39|472:78,1,80,0|0,3:0|0:0,0:0:0:0:
506,234,41760,2,0,P|462:197|404:203,1,120,0|0,3:0|0:0,0:0:0:0:
347,255,42101,1,0,3:0:0:0:
254,135,42272,1,8,0:0:0:0:
192,195,42442,6,0,P|187:254|172:312,1,120,0|0,3:0|0:0,0:0:0:0:
115,367,42783,2,0,P|91:335|99:296,1,80,0|0,3:0|0:0,0:0:0:0:
269,211,43124,1,0,3:0:0:0:
128,120,43295,5,8,0:3:0:0:
66,180,43465,1,0,3:0:0:0:
0,236,43635,1,8,0:3:0:0:
15,82,43806,6,0,P|70:104|128:120,1,120,4|0,3:2|0:0,0:0:0:0:
163,193,44147,2,0,P|200:178|238:168,1,80,0|0,3:0|0:0,0:0:0:0:
192,65,44488,1,0,3:0:0:0:
263,19,44658,2,0,P|301:28|338:43,1,80,0|0,0:0|3:0,0:0:0:0:
414,185,44999,6,0,L|407:145,1,40,8|0,0:0|0:0,0:0:0:0:
476,61,45170,1,0,3:2:0:0:
329,162,45340,2,0,L|322:122,1,40,8|0,0:0|0:0,0:0:0:0:
500,220,45510,1,0,3:0:0:0:
426,275,45681,1,8,0:3:0:0:
352,339,45851,1,0,3:0:0:0:
339,248,46022,1,8,0:3:0:0:
435,373,46192,5,0,3:0:0:0:
350,354,46362,1,8,0:3:0:0:
267,330,46533,2,0,P|252:268|244:210,1,120,4|0,3:2|0:0,0:0:0:0:
274,144,46874,1,0,3:0:0:0:
173,252,47045,1,0,0:0:0:0:
117,196,47215,2,0,P|131:134|140:76,1,120,0|0,3:2|0:0,0:0:0:0:
110,10,47556,1,0,3:0:0:0:
0,121,47726,1,8,0:0:0:0:
189,13,47897,5,0,3:2:0:0:
266,56,48067,1,0,0:0:0:0:
352,149,48238,5,0,3:0:0:0:
434,113,48408,1,8,0:0:0:0:
337,239,48579,2,0,P|275:224|217:216,1,120,0|0,3:2|0:0,0:0:0:0:
151,246,48920,1,8,0:0:0:0:
37,167,49090,1,0,0:0:0:0:
83,352,49260,6,0,P|144:337|203:329,1,120,4|0,3:2|0:0,0:0:0:0:
271,305,49601,1,0,3:0:0:0:
355,357,49772,1,0,0:0:0:0:
440,303,49942,2,0,P|425:241|417:183,1,120,0|0,3:2|0:0,0:0:0:0:
466,125,50283,1,0,3:0:0:0:
383,68,50454,2,0,P|353:92|314:101,1,80,8|0,0:0|3:0,0:0:0:0:
319,212,50795,5,8,0:0:0:0:
195,97,50965,1,8,0:0:0:0:
258,17,51135,1,0,3:0:0:0:
89,84,51306,1,8,0:0:0:0:
97,98,51391,1,8,0:3:0:0:
105,112,51476,1,8,0:3:0:0:
112,127,51562,1,8,0:3:0:0:
119,141,51647,2,0,P|98:197|87:256,1,120,12|0,0:0|0:0,0:0:0:0:
125,323,51988,5,4,3:2:0:0:
319,212,52158,1,0,3:2:0:0:
349,281,52499,5,8,0:0:0:0:
119,141,52669,1,0,0:0:0:0:
144,212,53010,5,0,3:2:0:0:
342,60,53181,2,0,L|419:80,1,80,8|0,0:0|0:0,0:0:0:0:
507,14,53522,1,0,3:2:0:0:
512,164,53692,1,8,0:0:0:0:
432,102,53863,1,0,0:0:0:0:
336,144,54033,1,0,3:0:0:0:
435,282,54204,2,0,L|513:261,1,80,0|8,3:0|0:0,0:0:0:0:
415,374,54545,1,0,0:0:0:0:
178,315,54715,5,4,3:2:0:0:
336,144,54885,1,0,3:0:0:0:
257,89,55226,5,0,3:0:0:0:
250,359,55397,1,8,0:0:0:0:
318,301,55738,5,8,0:0:0:0:
184,42,55908,2,0,P|125:52|68:70,1,120,0|0,3:0|0:0,0:0:0:0:
0,41,56249,1,0,3:0:0:0:
180,129,56420,1,8,0:0:0:0:
109,187,56590,1,0,0:0:0:0:
288,245,56760,5,8,0:0:0:0:
188,148,56931,1,8,0:3:0:0:
37,263,57101,2,0,P|95:272|149:299,1,120,8|0,0:3|0:0,0:0:0:0:
201,352,57442,1,4,3:2:0:0:
288,244,57613,2,0,P|324:229|364:222,1,80,0|0,3:0|0:0,0:0:0:0:
311,150,57954,1,0,3:0:0:0:
413,340,58124,6,0,P|423:281|457:224,1,120,8|0,0:0|0:0,0:0:0:0:
500,164,58465,1,0,3:0:0:0:
361,76,58635,2,0,B|393:98|403:130|403:130|421:110|443:101,1,120,0|0,3:0|0:0,0:0:0:0:
428,25,58976,1,0,3:0:0:0:
311,150,59147,2,0,B|279:172|269:204|269:204|251:184|228:175,1,120,8|0,0:0|0:0,0:0:0:0:
249,101,59488,1,0,3:0:0:0:
197,248,59658,1,0,3:0:0:0:
424,357,59829,5,8,0:0:0:0:
270,283,59999,1,0,0:0:0:0:
133,377,60170,1,4,3:2:0:0:
0,287,60340,6,0,B|-24:239|-24:239|9:250,1,80,0|0,3:0|0:0,0:0:0:0:
179,187,60681,1,8,0:3:0:0:
194,184,60766,1,8,0:3:0:0:
209,180,60851,2,0,B|233:228|233:228|200:217,1,80,4|0,3:2|0:0,0:0:0:0:
32,163,61192,5,8,0:3:0:0:
53,151,61277,1,4,0:3:0:0:
74,140,61363,1,4,0:3:0:0:
96,130,61448,1,4,0:3:0:0:
117,119,61533,6,0,L|96:69,1,40,8|0,0:0|0:0,0:0:0:0:
262,348,61704,2,0,L|229:391,1,40,8|0,0:0|0:0,0:0:0:0:
388,108,61874,2,0,L|442:114,1,40,8|0,0:0|0:0,0:0:0:0:
256,192,62045,5,8,0:0:0:0:
409,300,62556,6,0,P|409:271|423:245,1,59.9999981689454,2|2,0:0|0:0,0:0:0:0:
329,371,62897,5,6,3:2:0:0:
499,295,63067,1,0,0:0:0:0:
355,161,63238,5,10,0:0:0:0:
512,211,63408,1,0,0:0:0:0:
200,202,63579,5,2,3:2:0:0:
372,124,63749,1,0,0:0:0:0:
51,114,63920,5,10,0:0:0:0:
208,164,64090,1,0,0:0:0:0:
126,365,64260,2,0,P|107:277|77:192,1,179.999994506836,2|0,3:2|0:0,0:0:0:0:
0,183,64601,2,0,P|-3:212|10:238,1,59.9999981689454,10|0,0:0|0:0,0:0:0:0:
218,289,64772,1,2,0:0:0:0:
252,277,64857,1,0,0:0:0:0:
285,265,64942,2,0,P|288:235|274:209,1,59.9999981689454,2|0,3:2|0:0,0:0:0:0:
250,51,65113,2,0,P|231:108|207:163,1,119.999996337891,2|8,0:0|0:0,0:0:0:0:
128,62,65454,1,2,0:0:0:0:
312,144,65624,5,2,3:2:0:0:
470,62,65795,1,2,0:0:0:0:
333,2,65965,1,10,0:0:0:0:
449,195,66135,1,2,0:0:0:0:
325,365,66306,2,0,B|285:331|227:306|227:306|265:303|290:290,1,179.999994506836,2|0,3:2|0:0,0:0:0:0:
358,251,66647,2,0,B|369:262|384:269|384:269|365:290,1,59.9999981689454,10|0,0:0|0:0,0:0:0:0:
99,229,66817,5,2,0:0:0:0:
79,242,66902,1,10,0:0:0:0:
58,255,66988,2,0,L|-3:243,1,59.9999981689454,2|0,3:2|0:0,0:0:0:0:
162,384,67158,2,0,L|150:325,1,59.9999981689454,2|0,0:0|0:0,0:0:0:0:
23,149,67329,2,0,L|45:89,1,59.9999981689454,10|0,0:0|0:0,0:0:0:0:
211,19,67499,1,2,0:0:0:0:
226,37,67584,1,8,0:0:0:0:
239,57,67670,2,0,B|251:86|251:86|221:169,1,119.999996337891,0|2,3:2|0:0,0:0:0:0:
187,241,67925,1,8,0:0:0:0:
187,241,68010,1,10,0:0:0:0:
371,54,68181,5,8,0:3:0:0:
355,86,68266,1,8,0:3:0:0:
340,118,68351,1,6,3:2:0:0:
508,294,68522,1,0,0:0:0:0:
423,211,68692,1,10,0:0:0:0:
479,108,68863,1,0,0:0:0:0:
349,337,69033,5,2,3:2:0:0:
394,222,69204,1,0,0:0:0:0:
268,170,69374,1,10,0:0:0:0:
470,371,69545,1,0,0:0:0:0:
250,202,69715,6,0,B|200:179|151:198|151:198|129:233|88:241,1,179.999994506836,2|0,3:2|0:0,0:0:0:0:
75,163,70056,1,10,0:0:0:0:
186,44,70226,1,2,0:0:0:0:
173,77,70311,1,8,0:0:0:0:
160,110,70396,1,0,3:2:0:0:
49,317,70567,2,0,B|11:301|-26:307|-26:307|-12:281|17:277,1,119.999996337891,2|8,0:0|0:0,0:0:0:0:
233,349,70908,5,2,0:0:0:0:
265,332,70993,1,0,0:0:0:0:
297,315,71079,2,0,P|311:290|316:260,1,59.9999981689454,6|0,3:2|0:0,0:0:0:0:
479,260,71249,2,0,P|456:315|442:373,1,119.999996337891,2|8,0:0|0:0,0:0:0:0:
512,144,71590,6,0,P|497:118|492:88,1,59.9999981689454,2|0,0:0|0:0,0:0:0:0:
357,78,71760,2,0,P|379:133|393:191,1,119.999996337891,2|0,3:2|0:0,0:0:0:0:
235,0,72101,5,10,0:0:0:0:
428,23,72272,1,2,0:0:0:0:
246,195,72442,6,0,P|192:171|133:160,1,119.999996337891,4|10,3:2|0:3,0:0:0:0:
62,167,72698,1,8,0:3:0:0:
38,208,72783,1,8,0:0:0:0:
51,247,72868,1,8,0:0:0:0:
85,259,72954,1,4,3:0:0:0:
113,250,73039,1,4,3:0:0:0:
134,238,73124,2,0,P|145:265|149:295,1,59.9999981689454,14|0,0:0|0:0,0:0:0:0:
288,122,73295,2,0,P|292:92|304:65,1,59.9999981689454,0|0,3:0|0:0,0:0:0:0:
495,140,73465,6,0,P|434:123|377:115,1,119.999996337891,2|0,0:0|0:0,0:0:0:0:
457,40,73806,1,6,3:2:0:0:
339,194,73976,1,2,3:0:0:0:
473,334,74147,1,10,0:0:0:0:
467,251,74317,5,2,0:0:0:0:
444,257,74403,1,0,0:0:0:0:
421,264,74488,1,0,3:0:0:0:
291,279,74658,1,2,3:0:0:0:
367,365,74829,1,10,0:0:0:0:
216,193,74999,5,2,0:0:0:0:
193,199,75085,1,8,0:3:0:0:
170,206,75170,1,0,3:0:0:0:
40,221,75340,1,2,3:0:0:0:
115,131,75511,1,8,0:0:0:0:
97,24,75681,5,2,0:0:0:0:
120,30,75767,1,8,0:3:0:0:
143,37,75852,1,0,3:0:0:0:
338,16,76022,1,0,3:0:0:0:
262,138,76193,1,10,0:0:0:0:
444,233,76363,5,10,0:3:0:0:
467,227,76448,1,8,0:3:0:0:
490,220,76533,1,6,3:2:0:0:
380,121,76704,1,2,3:0:0:0:
284,340,76874,1,10,0:0:0:0:
199,194,77045,5,2,0:0:0:0:
176,188,77131,1,8,0:3:0:0:
153,181,77216,1,0,3:0:0:0:
197,344,77385,1,2,3:0:0:0:
273,222,77556,1,10,0:0:0:0:
85,115,77726,5,2,0:0:0:0:
62,122,77811,1,0,0:0:0:0:
39,128,77897,1,0,3:2:0:0:
348,142,78067,1,2,3:0:0:0:
72,27,78238,1,8,0:0:0:0:
137,264,78408,5,2,0:0:0:0:
160,257,78493,1,8,0:3:0:0:
183,251,78579,2,0,L|198:193,1,59.9999981689454,8|8,0:0|0:0,0:0:0:0:
283,12,78749,2,0,L|298:69,1,59.9999981689454,4|4,0:3|0:3,0:0:0:0:
411,215,78920,5,10,0:3:0:0:
432,205,79005,1,10,0:3:0:0:
453,193,79090,1,6,0:3:0:0:
473,181,79175,1,6,0:3:0:0:
491,166,79260,5,6,3:2:0:0:
286,262,79431,1,0,3:0:0:0:
217,222,79601,5,8,0:0:0:0:
440,346,79772,1,2,3:0:0:0:
506,297,79942,5,8,0:0:0:0:
329,335,80113,1,2,3:0:0:0:
152,366,80283,1,10,0:0:0:0:
263,129,80454,5,10,0:3:0:0:
273,151,80539,1,10,0:3:0:0:
283,173,80624,1,10,0:0:0:0:
68,156,80795,5,2,3:0:0:0:
287,258,80965,1,10,0:0:0:0:
159,75,81135,5,10,0:3:0:0:
149,97,81220,1,10,0:3:0:0:
139,119,81305,1,10,0:0:0:0:
27,294,81476,5,2,3:0:0:0:
179,204,81647,1,10,0:0:0:0:
45,56,81817,1,10,0:3:0:0:
134,301,81988,1,14,0:0:0:0:
281,113,82158,1,10,0:3:0:0:
327,102,82243,1,8,0:3:0:0:
373,89,82329,1,6,0:3:0:0:
419,77,82414,1,4,0:3:0:0:
465,65,82499,2,0,P|482:122|437:149,1,119.999996337891,14|0,0:0|0:0,0:0:0:0:
362,330,82840,5,10,0:3:0:0:
346,284,82925,1,8,0:3:0:0:
331,238,83010,2,0,P|345:213|358:177,1,59.9999981689454,10|0,0:0|0:0,0:0:0:0:
507,230,83181,2,0,P|483:284|463:341,1,119.999996337891,6|0,3:2|0:0,0:0:0:0:
143,312,83522,5,2,3:0:0:0:
373,89,83863,1,2,3:0:0:0:
164,164,84204,2,0,P|158:134|148:107,1,59.9999981689454,2|0,0:0|0:0,0:0:0:0:
46,19,84545,1,2,0:0:0:0:
46,19,84630,1,2,0:0:0:0:
71,49,84715,6,0,P|56:122|34:194,1,150,6|0,3:2|0:0,0:0:0:0:
48,273,85056,2,0,P|94:255|143:245,1,100,8|0,0:0|0:0,0:0:0:0:
253,111,85397,2,0,P|204:101|157:83,1,100,0|0,3:0|0:0,0:0:0:0:
135,331,85738,1,10,0:0:0:0:
277,196,85908,1,2,0:0:0:0:
347,345,86079,6,0,P|420:330|492:308,1,150,0|0,3:0|0:0,0:0:0:0:
512,232,86420,2,0,P|469:210|435:244,1,100,8|0,0:0|0:0,0:0:0:0:
272,384,86760,1,2,3:0:0:0:
271,383,86846,2,0,P|259:335|235:291,1,100,10|0,0:0|0:0,0:0:0:0:
186,235,87101,1,8,0:0:0:0:
301,84,87272,5,2,0:0:0:0:
339,72,87357,1,2,0:0:0:0:
372,92,87442,2,0,P|368:161|300:177,1,150,6|0,3:2|0:0,0:0:0:0:
236,136,87783,2,0,P|187:146|140:164,1,100,8|0,0:0|0:0,0:0:0:0:
9,2,88124,2,0,P|55:19|104:29,1,100,0|0,3:0|0:0,0:0:0:0:
44,198,88465,1,10,0:0:0:0:
199,47,88635,1,2,0:0:0:0:
204,247,88806,5,0,3:0:0:0:
204,247,88891,2,0,P|186:293|176:342,1,100,8|0,0:0|0:0,0:0:0:0:
102,363,89147,2,0,P|70:324|33:291,1,100,8|0,0:0|0:0,0:0:0:0:
5,219,89402,1,10,0:0:0:0:
5,219,89488,2,0,P|19:199|25:174,1,50,2|0,3:0|0:0,0:0:0:0:
82,82,89658,2,0,P|72:59|53:42,1,50,2|8,0:0|0:0,0:0:0:0:
136,160,89828,5,10,0:3:0:0:
156,182,89913,1,8,0:3:0:0:
183,193,89999,2,0,P|207:194|230:184,1,50,6|4,0:3|0:3,0:0:0:0:
362,44,90170,1,6,3:2:0:0:
267,272,90340,2,0,P|249:318|239:367,1,100,2|8,0:0|0:0,0:0:0:0:
430,189,90681,2,0,P|447:235|457:284,1,100,2|0,0:0|3:0,0:0:0:0:
287,86,91022,1,2,0:0:0:0:
437,0,91192,1,10,0:0:0:0:
512,132,91363,2,0,P|465:114|416:104,1,100,2|0,0:0|3:0,0:0:0:0:
234,150,91704,5,2,0:0:0:0:
202,125,91789,1,2,0:0:0:0:
205,85,91874,1,10,0:0:0:0:
152,189,92045,5,2,0:0:0:0:
114,204,92130,1,10,0:0:0:0:
81,181,92215,1,2,3:0:0:0:
208,267,92385,5,2,0:0:0:0:
127,110,92556,1,10,0:0:0:0:
17,294,92726,1,2,0:0:0:0:
233,246,92897,6,0,P|301:276|378:296,1,150,6|0,3:2|0:0,0:0:0:0:
450,279,93238,1,8,0:0:0:0:
246,375,93408,1,8,0:3:0:0:
400,211,93579,1,0,3:0:0:0:
390,172,93664,1,8,0:0:0:0:
367,139,93749,1,10,0:3:0:0:
332,118,93834,1,10,0:3:0:0:
292,113,93919,1,2,3:0:0:0:
253,125,94005,1,8,0:3:0:0:
223,151,94090,2,0,P|218:126|210:102,1,50,2|8,0:0|0:0,0:0:0:0:
82,12,94260,5,0,3:0:0:0:
82,12,94346,1,0,0:0:0:0:
82,12,94431,2,0,P|73:35|69:60,1,50,2|8,0:0|0:0,0:0:0:0:
138,151,94601,2,0,P|133:175|125:199,1,50,10|8,0:3|0:3,0:0:0:0:
22,359,94772,5,6,0:3:0:0:
17,329,94857,1,4,0:3:0:0:
34,304,94942,1,2,3:0:0:0:
62,295,95027,1,8,0:3:0:0:
91,299,95112,2,0,L|139:286,1,50,10|8,0:0|0:0,0:0:0:0:
214,347,95283,2,0,L|118:372,1,100,2|0,3:0|0:0,0:0:0:0:
256,192,95624,5,4,3:2:0:0:
425,172,96647,2,0,B|474:156|474:156|451:151,1,75.0000028610231,4|0,0:3|0:0,0:0:0:0:
415,30,96817,6,0,P|406:66|391:100,1,75,12|0,0:0|0:0,0:0:0:0:
346,166,97158,1,0,3:0:0:0:
231,314,97329,2,0,B|185:296|185:296|214:289,1,80,8|0,0:0|3:0,0:0:0:0:
258,173,97584,1,8,0:0:0:0:
258,173,97670,2,0,P|268:211|284:248,1,80,0|0,3:0|0:0,0:0:0:0:
354,328,97925,5,8,0:3:0:0:
391,312,98010,1,8,0:3:0:0:
429,301,98095,1,8,0:3:0:0:
460,292,98181,2,0,P|461:273|468:254,1,40,4|4,0:3|0:3,0:0:0:0:
293,384,98351,5,4,3:2:0:0:
127,204,98522,2,0,L|110:148,2,40,0|0|0,3:0|0:0|0:0,0:0:0:0:
45,371,98863,5,0,3:0:0:0:
202,271,99033,2,0,P|210:232|224:194,1,80,8|0,0:0|0:0,0:0:0:0:
24,179,99374,5,0,3:2:0:0:
172,90,99545,2,0,L|248:112,1,80,0|0,3:0|0:0,0:0:0:0:
147,0,99885,1,0,3:0:0:0:
308,180,100056,2,0,L|387:163,1,80,8|0,0:0|0:0,0:0:0:0:
448,26,100397,1,0,3:2:0:0:
478,156,100567,5,8,0:3:0:0:
473,170,100652,1,8,0:3:0:0:
467,185,100738,1,8,0:0:0:0:
324,65,100908,5,8,0:0:0:0:
329,79,100993,1,8,0:0:0:0:
335,94,101079,1,4,3:2:0:0:
219,197,101249,1,0,3:0:0:0:
379,290,101420,2,0,P|340:278|301:270,1,80,8|0,0:0|3:0,0:0:0:0:
95,334,101760,1,0,3:2:0:0:
223,229,101931,1,0,3:0:0:0:
112,130,102101,2,0,P|123:168|131:207,1,80,8|0,0:0|3:0,0:0:0:0:
163,49,102442,5,0,3:2:0:0:
24,162,102613,1,0,3:0:0:0:
192,77,102783,2,0,P|199:37|211:0,1,80,8|0,0:0|3:0,0:0:0:0:
391,200,103124,1,0,3:2:0:0:
243,145,103295,1,0,3:0:0:0:
419,22,103465,2,0,P|430:60|438:99,1,80,8|0,0:0|3:0,0:0:0:0:
330,295,103806,5,0,3:2:0:0:
505,181,103976,1,0,3:0:0:0:
336,91,104147,5,8,0:0:0:0:
391,200,104317,1,0,3:0:0:0:
293,317,104488,2,0,P|255:302|216:297,1,80,0|0,3:2|3:0,0:0:0:0:
126,147,104829,2,0,P|140:184|145:223,1,80,8|0,0:0|3:0,0:0:0:0:
91,347,105170,1,12,0:2:0:0:
221,144,105340,5,0,3:0:0:0:
235,152,105425,1,8,0:3:0:0:
246,162,105510,2,0,L|254:201,1,40,8|8,0:0|0:3,0:0:0:0:
77,79,105681,5,0,3:0:0:0:
63,87,105766,1,8,0:3:0:0:
52,97,105851,2,0,L|43:136,1,40,8|0,0:0|0:0,0:0:0:0:
264,18,106022,5,0,3:0:0:0:
278,26,106107,1,8,0:3:0:0:
289,36,106192,2,0,L|311:112,1,80,8|0,0:0|0:0,0:0:0:0:
433,165,106533,5,4,3:2:0:0:
464,93,106704,1,0,0:0:0:0:
370,39,106874,2,0,L|388:97,1,59.9999981689454,0|0,3:0|0:0,0:0:0:0:
353,176,107215,5,0,3:0:0:0:
404,240,107386,1,0,0:0:0:0:
404,240,107471,1,0,0:0:0:0:
404,240,107556,1,0,3:0:0:0:
276,185,107726,5,4,0:3:0:0:
276,185,107812,1,4,0:3:0:0:
276,185,107897,1,0,3:0:0:0:
201,206,108067,5,8,0:3:0:0:
129,174,108238,1,0,3:0:0:0:
57,142,108408,1,4,0:3:0:0:
67,218,108579,5,0,3:0:0:0:
140,251,108749,1,8,0:3:0:0:
122,96,108920,1,0,3:0:0:0:
195,129,109090,1,4,0:3:0:0:
195,129,109175,1,4,0:3:0:0:
195,129,109260,1,4,3:2:0:0:
215,281,109431,5,8,0:3:0:0:
215,281,109516,1,0,0:0:0:0:
215,281,109601,1,0,3:0:0:0:
140,251,109772,1,0,0:0:0:0:
148,329,109942,1,0,3:0:0:0:
283,239,110113,1,8,0:3:0:0:
283,239,110198,1,0,0:0:0:0:
283,239,110283,1,0,3:0:0:0:
349,334,110454,2,0,L|291:322,1,59.9999981689454,8|0,0:3|3:0,0:0:0:0:
203,206,110795,1,8,0:3:0:0:
264,160,110965,1,0,3:0:0:0:
342,188,111135,5,4,0:3:0:0:
342,188,111221,1,4,0:3:0:0:
342,188,111306,1,0,3:0:0:0:
258,82,111476,1,8,0:3:0:0:
258,82,111562,1,8,0:3:0:0:
258,82,111647,2,0,L|316:69,1,59.9999981689454,12|0,0:0|0:0,0:0:0:0:
493,87,111988,6,0,P|500:68|502:48,1,40,0|0,3:3|0:0,0:0:0:0:
390,2,112158,2,0,P|400:61|415:119,1,120,0|0,3:0|0:0,0:0:0:0:
479,165,112499,1,0,3:0:0:0:
247,276,112670,2,0,P|239:257|237:237,1,40,8|0,0:0|0:0,0:0:0:0:
350,192,112840,2,0,P|339:251|324:309,1,120
262,355,113181,1,0,3:0:0:0:
419,266,113351,6,0,P|426:247|428:227,1,40,0|0,3:0|0:0,0:0:0:0:
322,100,113522,1,8,0:0:0:0:
153,227,113692,1,0,0:0:0:0:
153,137,113863,1,8,0:3:0:0:
175,144,113948,1,8,0:3:0:0:
197,151,114033,1,8,0:0:0:0:
89,26,114204,1,0,3:0:0:0:
41,104,114374,2,0,P|59:139|67:178,1,80,8|0,0:0|0:0,0:0:0:0:
1,317,114715,5,0,3:0:0:0:
1,317,114800,1,8,0:3:0:0:
34,339,114885,2,0,P|72:330|108:312,1,80,8|0,0:3|0:0,0:0:0:0:
257,227,115226,5,8,0:3:0:0:
257,227,115311,1,8,0:3:0:0:
227,253,115396,2,0,P|191:234|152:226,1,80,8|0,0:0|3:0,0:0:0:0:
218,142,115738,1,0,0:0:0:0:
296,309,115908,1,0,3:0:0:0:
226,382,116079,5,4,3:2:0:0:
365,243,116249,1,0,0:0:0:0:
394,231,116334,1,8,0:3:0:0:
425,232,116419,1,8,0:0:0:0:
410,342,116590,1,0,0:0:0:0:
489,154,116760,6,0,P|477:115|470:76,1,80,8|4,0:3|0:3,0:0:0:0:
256,116,117101,2,0,P|267:154|274:193,1,80,8|4,0:3|0:3,0:0:0:0:
251,339,117442,6,0,P|135:305|17:285,1,240,4|0,3:2|0:0,0:0:0:0:
18,371,118806,5,2,0:0:0:0:
259,251,119317,1,2,0:0:0:0:
124,170,119829,1,6,0:3:0:0:
124,170,119999,1,6,0:3:0:0:
233,217,120170,6,0,P|348:183|466:163,1,240,2|0,3:0|0:0,0:0:0:0:
476,281,121533,2,0,P|437:288|407:264,1,80,2|0,0:0|0:0,0:0:0:0:
369,95,122215,6,0,P|329:100|291:111,1,80,2|0,3:0|0:0,0:0:0:0:
221,164,122726,1,6,0:3:0:0:
209,79,122897,2,0,B|166:73|130:45|130:45|174:144|196:270,1,320,2|0,3:0|0:0,0:0:0:0:
113,301,124772,6,0,L|119:312,2,13.3333333333333,2|2|2,0:0|0:0|0:0,0:0:0:0:
94,295,124942,2,0,P|104:257|96:219,1,80,2|0,0:0|0:0,0:0:0:0:
11,162,125454,1,4,0:3:0:0:
96,117,125624,2,0,B|136:109|169:135|166:155|197:184|237:173,1,160,0|0,3:0|0:0,0:0:0:0:
240,83,126647,5,2,0:0:0:0:
316,60,126988,1,2,0:0:0:0:
392,36,127329,1,2,0:0:0:0:
455,93,127670,2,0,P|441:119|434:148,1,59.9999981689454,2|0,3:0|0:0,0:0:0:0:
377,255,128010,5,6,0:3:0:0:
510,204,128181,1,4,0:3:0:0:
304,219,128351,6,0,B|302:186|293:147|293:147|309:171|325:183,1,120,4|0,3:2|0:0,0:0:0:0:
311,294,128692,2,0,B|283:311|254:338|254:338|267:312|269:293,1,120,0|0,3:0|0:0,0:0:0:0:
377,255,129033,2,0,B|405:269|444:281|444:281|414:283|397:291,1,120,0|0,3:0|0:0,0:0:0:0:
224,224,129374,1,0,3:0:0:0:
369,109,129545,1,12,0:0:0:0:
177,67,129715,6,0,B|171:25|193:-4|193:-4|209:21|203:37,1,120,0|0,3:0|0:0,0:0:0:0:
179,149,130056,2,0,B|145:174|108:170|108:170|123:143|139:140,1,120,0|0,3:0|0:0,0:0:0:0:
249,106,130397,2,0,B|287:122|302:156|302:156|272:157|261:143,1,120,0|0,3:0|0:0,0:0:0:0:
92,69,130738,1,0,3:0:0:0:
283,22,131079,6,0,B|318:20|341:44|335:52|352:79|387:77,1,120,4|0,3:2|0:0,0:0:0:0:
464,56,131420,1,0,3:0:0:0:
502,135,131590,2,0,B|487:161|453:160|453:160|467:147|467:134,1,80,0|0,0:0|3:0,0:0:0:0:
403,0,131931,1,8,0:0:0:0:
279,107,132101,1,0,3:0:0:0:
206,61,132272,1,8,0:0:0:0:
353,159,132442,6,0,P|326:212|310:270,1,120,4|0,3:2|0:0,0:0:0:0:
336,344,132783,2,0,P|371:328|385:291,1,80,8|0,0:0|0:0,0:0:0:0:
190,146,133124,1,2,0:0:0:0:
190,146,133209,1,2,0:0:0:0:
190,146,133295,1,2,0:0:0:0:
163,163,133380,5,8,0:3:0:0:
157,186,133465,1,8,0:0:0:0:
163,209,133550,1,8,0:3:0:0:
179,226,133635,1,4,0:3:0:0:
202,233,133720,1,4,0:3:0:0:
225,228,133806,5,4,3:2:0:0:
122,371,133976,1,0,3:0:0:0:
1,223,134147,2,0,L|79:239,1,80,8|0,0:0|0:0,0:0:0:0:
142,290,134402,1,8,0:3:0:0:
142,290,134488,1,0,3:2:0:0:
271,153,134658,5,0,3:0:0:0:
202,342,134829,1,8,0:0:0:0:
328,221,134999,2,0,L|406:204,1,80,0|0,0:0|3:2,0:0:0:0:
214,88,135340,1,0,3:0:0:0:
384,294,135510,2,0,L|462:277,1,80,8|0,0:0|0:0,0:0:0:0:
500,124,135766,1,8,0:3:0:0:
488,134,135851,2,0,L|409:117,1,80,0|0,3:2|3:0,0:0:0:0:
242,242,136192,5,8,0:0:0:0:
354,68,136363,1,0,0:0:0:0:
171,8,136533,5,12,0:0:0:0:
192,141,136704,1,0,3:0:0:0:
58,193,136874,1,0,3:0:0:0:
43,54,137045,5,12,0:0:0:0:
207,169,137215,1,0,3:0:0:0:
104,347,137385,1,0,3:0:0:0:
275,363,137556,5,12,0:0:0:0:
73,234,137726,1,0,3:0:0:0:
287,64,137897,5,12,0:0:0:0:
341,146,138067,1,8,0:0:0:0:
341,146,138152,1,8,0:0:0:0:
355,177,138238,2,0,L|345:227,2,50,0|8|8,3:0|0:3|0:3,0:0:0:0:
470,46,138579,1,0,3:0:0:0:
429,128,138749,5,8,0:0:0:0:
429,128,138834,1,8,0:0:0:0:
465,145,138920,5,2,3:0:0:0:
482,181,139005,1,10,0:3:0:0:
481,220,139090,1,10,0:3:0:0:
462,255,139175,1,10,0:3:0:0:
422,282,139260,5,6,3:2:0:0:
264,179,139431,1,0,3:0:0:0:
173,352,139601,2,0,P|124:318|65:318,1,119.999996337891,10|0,0:0|0:0,0:0:0:0:
0,359,139857,1,8,0:3:0:0:
0,359,139942,1,2,3:2:0:0:
286,298,140113,1,0,3:0:0:0:
165,178,140283,2,0,P|192:124|200:65,1,119.999996337891,10|0,0:0|0:0,0:0:0:0:
275,14,140539,5,8,0:3:0:0:
275,14,140624,2,0,B|351:9|405:46|405:46|405:69|414:88,1,179.999994506836,2|0,3:2|0:0,0:0:0:0:
485,129,140965,2,0,P|496:101|490:72,1,59.9999981689454,10|0,0:0|0:0,0:0:0:0:
323,110,141135,1,2,0:0:0:0:
342,140,141221,1,8,0:3:0:0:
357,172,141306,2,0,L|337:229,1,59.9999981689454,0|0,3:2|0:0,0:0:0:0:
438,356,141476,2,0,P|458:302|423:257,1,119.999996337891,2|8,3:0|0:0,0:0:0:0:
264,179,141817,5,2,0:0:0:0:
249,212,141902,1,8,0:3:0:0:
232,244,141988,1,2,3:2:0:0:
114,42,142158,1,2,3:0:0:0:
242,102,142329,1,10,0:0:0:0:
49,233,142499,1,2,0:0:0:0:
165,370,142670,6,0,P|155:310|138:253,1,119.999996337891,2|0,3:2|3:0,0:0:0:0:
261,71,143010,1,10,0:0:0:0:
104,162,143181,5,2,0:0:0:0:
81,154,143266,1,10,0:3:0:0:
58,145,143351,2,0,L|49:75,1,59.9999981689454,2|0,3:2|0:0,0:0:0:0:
13,325,143522,2,0,L|81:309,1,59.9999981689454,2|0,3:0|0:0,0:0:0:0:
261,209,143692,2,0,L|202:196,1,59.9999981689454,10|0,0:0|0:0,0:0:0:0:
296,335,143863,1,2,0:0:0:0:
319,329,143949,1,8,0:3:0:0:
341,320,144033,2,0,P|358:263|348:204,1,119.999996337891,0|2,3:2|0:0,0:0:0:0:
281,108,144289,5,8,0:3:0:0:
297,124,144374,2,0,P|357:114|414:97,1,119.999996337891,10|0,0:2|0:0,0:0:0:0:
492,130,144630,1,8,0:3:0:0:
492,130,144715,1,6,3:2:0:0:
339,28,144885,1,0,3:0:0:0:
271,211,145056,2,0,P|213:193|154:184,1,119.999996337891,10|0,0:0|0:0,0:0:0:0:
84,216,145312,1,8,0:3:0:0:
84,216,145397,1,2,3:2:0:0:
195,84,145567,1,0,3:0:0:0:
26,46,145738,2,0,P|27:102|80:121,1,119.999996337891,10|0,0:0|0:0,0:0:0:0:
319,38,146079,6,0,P|287:122|270:210,1,179.999994506836,2|0,3:2|0:0,0:0:0:0:
302,283,146420,1,10,0:0:0:0:
19,333,146590,1,2,0:0:0:0:
50,316,146675,1,8,0:3:0:0:
81,299,146760,2,0,L|138:319,1,59.9999981689454,0|0,3:2|0:0,0:0:0:0:
354,212,146931,6,0,P|366:153|386:96,1,119.999996337891,2|8,3:0|0:0,0:0:0:0:
505,278,147272,1,2,0:0:0:0:
474,295,147357,1,8,0:3:0:0:
443,312,147442,2,0,L|386:292,1,59.9999981689454,6|0,3:2|0:0,0:0:0:0:
269,209,147613,2,0,P|210:221|153:241,1,119.999996337891,2|8,3:0|0:0,0:0:0:0:
15,108,147954,5,2,0:0:0:0:
9,60,148039,1,8,0:3:0:0:
39,23,148124,2,0,P|95:43|154:53,1,119.999996337891,2|0,3:2|3:0,0:0:0:0:
333,118,148465,6,0,P|303:69|244:78,1,119.999996337891,10|2,0:0|0:0,0:0:0:0:
184,139,148721,1,8,0:3:0:0:
184,139,148806,1,0,3:2:0:0:
364,208,148976,1,10,0:0:0:0:
370,9,149147,5,8,0:3:0:0:
403,21,149232,2,0,L|416:79,1,59.9999981689454,8|8,0:0|0:3,0:0:0:0:
512,166,149403,5,8,0:3:0:0:
479,178,149488,2,0,L|465:236,1,59.9999981689454,6|0,3:2|0:0,0:0:0:0:
370,298,149658,5,8,0:0:0:0:
370,345,149743,1,8,0:0:0:0:
400,373,149829,1,10,0:3:0:0:
434,382,149914,1,8,0:3:0:0:
463,378,149999,1,4,0:3:0:0:
484,366,150084,1,4,0:3:0:0:
494,352,150170,5,6,3:2:0:0:
375,192,150340,1,2,0:0:0:0:
285,255,150511,1,10,0:0:0:0:
283,121,150681,5,2,0:0:0:0:
306,115,150766,1,8,0:3:0:0:
328,108,150851,1,0,3:0:0:0:
132,9,151022,1,2,3:0:0:0:
182,105,151192,1,10,0:0:0:0:
67,192,151363,5,2,0:0:0:0:
44,186,151448,1,0,0:0:0:0:
22,179,151533,1,0,3:0:0:0:
115,279,151704,1,2,3:0:0:0:
29,349,151874,1,8,0:0:0:0:
196,202,152045,5,2,0:0:0:0:
218,209,152130,1,0,0:0:0:0:
241,215,152215,1,0,3:0:0:0:
308,379,152386,1,0,3:0:0:0:
222,311,152556,1,10,0:0:0:0:
421,176,152726,5,2,3:0:0:0:
444,182,152811,1,0,3:0:0:0:
466,189,152896,1,6,3:2:0:0:
434,35,153067,1,2,3:0:0:0:
295,118,153238,1,10,0:0:0:0:
205,31,153408,5,2,0:0:0:0:
228,25,153493,1,8,0:3:0:0:
250,18,153578,1,0,3:0:0:0:
156,166,153749,1,2,3:0:0:0:
50,50,153920,1,8,0:0:0:0:
259,280,154090,5,10,0:3:0:0:
281,273,154175,1,8,0:3:0:0:
304,267,154260,1,0,3:0:0:0:
161,198,154431,1,2,3:0:0:0:
30,283,154601,1,8,0:0:0:0:
295,118,154772,5,2,0:0:0:0:
317,125,154857,1,8,0:0:0:0:
339,133,154942,2,0,L|351:191,1,59.9999981689454,8|8,0:3|0:3,0:0:0:0:
463,358,155113,5,0,0:0:0:0:
493,321,155198,1,8,0:0:0:0:
495,279,155283,1,10,0:0:0:0:
469,254,155368,1,10,0:3:0:0:
439,246,155454,1,6,0:3:0:0:
416,253,155539,1,6,0:3:0:0:
403,265,155624,5,4,3:2:0:0:
460,133,155795,1,0,0:0:0:0:
287,21,155965,5,10,0:0:0:0:
339,133,156135,1,10,0:3:0:0:
512,19,156306,5,10,0:0:0:0:
251,141,156476,5,10,0:3:0:0:
260,162,156561,1,10,0:3:0:0:
269,184,156647,1,10,0:0:0:0:
87,256,156817,1,2,3:0:0:0:
59,179,156988,5,10,0:0:0:0:
220,261,157159,1,2,3:0:0:0:
383,337,157329,1,10,0:0:0:0:
363,88,157499,5,10,0:3:0:0:
354,109,157584,1,10,0:3:0:0:
345,131,157670,1,10,0:0:0:0:
473,270,157840,5,2,3:0:0:0:
277,344,158010,1,10,0:0:0:0:
227,129,158181,1,2,3:0:0:0:
427,33,158351,1,14,0:0:0:0:
224,212,158522,1,10,0:3:0:0:
179,197,158606,1,8,0:3:0:0:
133,179,158692,1,6,0:3:0:0:
87,164,158777,1,4,0:3:0:0:
39,144,158863,2,0,P|-5:177|10:231,1,119.999996337891,12|0,0:0|0:0,0:0:0:0:
157,346,159205,5,8,0:3:0:0:
110,356,159289,1,8,0:3:0:0:
62,362,159374,2,0,P|72:333|80:305,1,59.9999981689454,8|0,0:0|0:0,0:0:0:0:
224,212,159545,2,0,P|235:270|249:329,1,119.999996337891,6|0,3:2|0:0,0:0:0:0:
134,76,159885,5,2,3:0:0:0:
443,177,160226,1,2,3:0:0:0:
360,17,160567,5,10,0:3:0:0:
360,17,160652,1,8,0:3:0:0:
360,17,160738,1,0,3:0:0:0:
256,192,161079,5,0,3:0:0:0:
256,192,161164,12,0,163465,0:0:0:0:
260,189,163806,6,0,B|308:169|352:197|350:222|387:252|424:235,1,179.999994506836,6|0,3:2|0:0,0:0:0:0:
488,117,164147,2,0,P|435:103|419:155,1,119.999996337891,8|0,0:0|0:0,0:0:0:0:
496,204,164402,1,8,0:3:0:0:
496,204,164488,1,0,3:2:0:0:
283,268,164658,1,0,3:0:0:0:
386,377,164829,1,8,0:0:0:0:
205,326,164999,6,0,P|185:238|156:153,1,179.999994506836,0|0,3:0|0:0,0:0:0:0:
90,109,165340,1,0,3:0:0:0:
262,187,165510,2,0,P|314:167|309:111,1,119.999996337891,8|0,0:0|0:0,0:0:0:0:
230,112,165766,1,8,0:3:0:0:
230,112,165851,1,2,3:2:0:0:
81,198,166022,1,2,3:0:0:0:
163,66,166192,1,10,0:0:0:0:
329,305,166363,1,2,0:0:0:0:
404,175,166533,6,0,P|384:87|363:0,1,179.999994506836,6|0,3:2|0:0,0:0:0:0:
447,15,166874,2,0,P|463:70|477:131,1,119.999996337891,8|0,0:0|0:0,0:0:0:0:
479,213,167130,1,8,0:3:0:0:
479,213,167215,1,0,3:2:0:0:
329,305,167385,1,0,3:0:0:0:
512,367,167556,1,8,0:0:0:0:
300,142,167726,1,2,0:0:0:0:
231,230,167897,6,0,P|143:208|55:189,1,179.999994506836,0|0,3:2|0:0,0:0:0:0:
1,131,168238,1,8,0:0:0:0:
8,322,168408,1,2,0:0:0:0:
39,339,168493,1,10,0:3:0:0:
72,353,168579,2,0,P|121:319|178:302,1,119.999996337891,2|0,3:2|0:0,0:0:0:0:
286,158,168834,1,8,0:3:0:0:
312,192,168920,2,0,P|365:217|408:259,1,119.999996337891,8|0,0:0|0:0,0:0:0:0:
459,322,169175,1,8,0:3:0:0:
492,310,169260,1,4,3:2:0:0:
510,138,169431,5,2,3:0:0:0:
510,138,169516,1,0,0:0:0:0:
480,158,169601,2,0,L|363:128,1,119.999996337891,10|2,0:0|3:0,0:0:0:0:
302,77,169857,1,10,0:3:0:0:
302,77,169942,1,2,3:2:0:0:
124,185,170113,1,0,3:0:0:0:
43,74,170283,1,8,0:0:0:0:
206,290,170454,2,0,L|265:275,1,59.9999981689454,2|2,3:0|0:0,0:0:0:0:
491,242,170624,6,0,L|432:227,1,59.9999981689454,2|2,0:0|0:0,0:0:0:0:
372,370,170795,1,2,3:0:0:0:
352,356,170880,1,2,0:0:0:0:
331,343,170965,2,0,L|272:358,1,59.9999981689454,10|0,0:0|0:0,0:0:0:0:
186,198,171135,1,2,0:0:0:0:
167,214,171221,1,10,0:3:0:0:
147,227,171306,2,0,L|89:210,1,59.9999981689454,2|0,3:2|0:0,0:0:0:0:
128,23,171476,1,2,3:0:0:0:
164,23,171562,2,0,P|189:38|202:65,1,59.9999981689454,2|10,0:0|0:0,0:0:0:0:
295,80,171732,1,2,0:0:0:0:
295,115,171818,2,0,P|280:140|253:153,1,59.9999981689454,2|0,0:0|0:0,0:0:0:0:
15,131,171988,6,0,P|103:116|190:92,1,179.999994506836,6|0,3:2|0:0,0:0:0:0:
262,8,172329,1,10,0:0:0:0:
430,141,172499,1,2,0:0:0:0:
464,130,172584,1,10,0:3:0:0:
498,119,172670,1,2,3:2:0:0:
406,26,172840,1,2,3:0:0:0:
319,204,173010,1,10,0:0:0:0:
512,318,173181,1,2,3:0:0:0:
330,175,173351,5,8,0:0:0:0:
274,313,173522,1,0,3:0:0:0:
56,106,173692,5,10,0:0:0:0:
82,210,173863,1,2,0:0:0:0:
115,196,173948,1,10,0:3:0:0:
148,180,174033,2,0,L|173:62,1,119.999996337891,2|0,3:2|0:0,0:0:0:0:
289,28,174289,1,8,0:3:0:0:
258,46,174374,2,0,L|220:221,1,179.999994506836,8|0,0:0|0:0,0:0:0:0:
101,321,174715,5,6,3:2:0:0:
175,290,174829,1,2,0:0:0:0:
246,297,174942,1,2,0:0:0:0:
298,333,175056,1,2,0:0:0:0:
350,354,175170,1,2,0:0:0:0:
397,348,175283,1,2,0:0:0:0:
426,321,175397,5,10,0:0:0:0:
413,283,175510,1,2,0:0:0:0:
397,245,175624,1,2,0:0:0:0:
464,194,175738,5,2,3:2:0:0:
476,164,175851,1,2,0:0:0:0:
488,134,175965,1,2,0:0:0:0:
400,135,176079,5,2,0:0:0:0:
348,171,176193,1,2,0:0:0:0:
277,178,176306,1,2,0:0:0:0:
204,146,176420,2,0,P|220:122|228:93,1,59.9999981689454,10|0,0:0|0:0,0:0:0:0:
36,6,176590,2,0,P|44:34|60:59,1,59.9999981689454,2|0,0:0|0:0,0:0:0:0:
48,254,176760,5,10,0:3:0:0:
11,222,176846,1,10,0:3:0:0:
18,174,176931,1,10,0:3:0:0:
55,144,177016,1,10,0:3:0:0:
125,187,177101,5,10,0:0:0:0:
144,201,177187,1,2,0:0:0:0:
164,214,177272,1,2,0:0:0:0:
184,225,177357,1,2,0:0:0:0:
204,234,177442,2,0,P|233:228|259:213,1,59.9999981689454,6|0,3:2|0:0,0:0:0:0:
289,0,177613,6,0,P|313:86|331:174,1,179.999994506836,0|0,3:0|0:0,0:0:0:0:
329,256,177954,1,0,3:0:0:0:
444,82,178124,1,10,0:0:0:0:
207,144,178295,1,2,0:0:0:0:
406,215,178465,6,0,P|411:185|422:157,1,59.9999981689454,2|0,3:2|0:0,0:0:0:0:
512,132,178635,2,0,P|486:218|468:306,1,179.999994506836,2|0,3:0|0:0,0:0:0:0:
414,363,178976,1,2,3:0:0:0:
227,246,179147,2,0,P|245:188|254:129,1,119.999996337891,8|0,0:0|0:0,0:0:0:0:
110,13,179488,5,10,0:3:0:0:
92,36,179573,1,10,0:3:0:0:
91,65,179658,1,10,0:3:0:0:
108,89,179743,1,10,0:3:0:0:
136,99,179828,1,10,0:0:0:0:
215,25,179999,1,2,0:0:0:0:
69,184,180170,5,6,3:2:0:0:
227,246,180340,1,0,3:0:0:0:
29,208,180510,2,0,P|19:148|1:91,1,119.999996337891,8|0,0:0|3:0,0:0:0:0:
253,129,180851,5,8,0:0:0:0:
148,306,181022,1,10,0:3:0:0:
124,297,181107,1,10,0:3:0:0:
100,290,181192,1,10,0:0:0:0:
322,234,181363,1,0,3:0:0:0:
483,154,181533,5,10,0:0:0:0:
398,306,181704,1,0,3:0:0:0:
473,380,181874,1,10,0:0:0:0:
361,78,182045,1,10,0:3:0:0:
385,87,182130,1,0,0:0:0:0:
409,94,182215,1,10,0:0:0:0:
258,349,182386,1,0,3:0:0:0:
173,177,182556,1,10,0:0:0:0:
91,2,182727,1,0,3:0:0:0:
211,249,182897,5,10,0:0:0:0:
254,257,182982,1,10,0:3:0:0:
289,231,183067,1,10,0:3:0:0:
291,187,183152,1,10,0:3:0:0:
261,156,183238,2,0,L|283:94,1,59.9999981689454,6|4,0:3|0:3,0:0:0:0:
97,199,183408,5,10,0:0:0:0:
54,207,183493,1,10,0:3:0:0:
19,181,183578,1,10,0:3:0:0:
17,137,183663,1,10,0:3:0:0:
46,106,183749,2,0,L|24:43,1,59.9999981689454,6|4,0:3|0:3,0:0:0:0:
209,65,183920,5,10,0:0:0:0:
359,298,184090,2,0,P|412:271|470:256,1,119.999996337891,14|0,0:0|0:0,0:0:0:0:
432,132,184431,1,10,0:3:0:0:
432,132,184516,1,10,0:3:0:0:
432,132,184601,1,10,0:0:0:0:
246,375,184772,2,0,P|192:347|134:332,1,119.999996337891,6|0,3:2|0:0,0:0:0:0:
37,75,185113,5,8,0:0:0:0:
95,239,185283,1,8,0:0:0:0:
29,322,185454,1,8,0:0:0:0:
256,192,185624,5,4,0:0:0:0:
384,243,195851,5,2,0:0:0:0:
384,243,196022,1,2,0:0:0:0:
384,243,196192,2,0,L|396:205,1,40,0|0,3:0|0:0,0:0:0:0:
370,125,196533,38,0,B|338:89|304:100|304:100|336:114|346:133|346:133|369:125,1,150,4|0,3:2|0:0,0:0:0:0:
458,146,196874,2,0,B|498:119|528:138|528:138|493:144|479:159|479:159|458:146,1,150,0|0,3:0|0:0,0:0:0:0:
333,265,197215,2,0,B|288:261|263:271|263:271|278:226|312:212,1,150,0|0,3:0|0:0,0:0:0:0:
465,241,197556,2,0,B|492:266|491:313|491:313|471:295|428:283,1,150,0|0,3:0|0:0,0:0:0:0:
396,205,197897,22,0,P|404:152|412:106,1,100,0|0,3:0|0:0,0:0:0:0:
487,33,198238,1,0,3:0:0:0:
323,102,198408,22,0,P|316:52|307:3,2,100,0|0|0,0:0|3:0|0:0,0:0:0:0:
251,195,198920,1,0,3:0:0:0:
123,121,199090,1,8,0:0:0:0:
154,36,199260,6,0,B|186:0|220:11|220:11|188:25|178:44|178:44|158:37,1,150,4|0,3:2|0:0,0:0:0:0:
65,58,199601,2,0,B|24:31|-5:50|-5:50|29:56|43:71|43:71|60:60,1,150,0|0,3:0|0:0,0:0:0:0:
203,129,199942,2,0,B|237:143|252:187|252:187|227:177|182:181,1,150,0|0,3:2|0:0,0:0:0:0:
83,199,200283,2,0,B|39:210|19:228|19:228|18:181|46:156,1,150,0|0,3:0|0:0,0:0:0:0:
123,121,200624,22,0,P|133:169|142:218,1,100,0|0,3:2|0:0,0:0:0:0:
55,348,200965,1,0,3:0:0:0:
211,263,201135,1,0,0:0:0:0:
340,383,201306,5,8,0:0:0:0:
135,304,201476,1,0,3:2:0:0:
464,264,201647,5,8,0:0:0:0:
307,353,201817,1,0,3:0:0:0:
455,120,201988,5,14,0:0:0:0:
287,218,202158,1,0,3:0:0:0:
425,363,202329,1,0,3:0:0:0:
408,55,202499,5,8,0:0:0:0:
502,188,202669,1,0,3:0:0:0:
366,282,202840,1,0,3:0:0:0:
107,163,203010,5,8,0:0:0:0:
258,109,203181,1,0,3:0:0:0:
408,55,203351,1,0,3:0:0:0:
232,304,203522,5,10,0:0:0:0:
102,48,203692,1,8,0:0:0:0:
8,101,203863,1,0,3:0:0:0:
247,203,204033,5,10,0:0:0:0:
76,362,204204,1,0,0:0:0:0:
0,239,204374,1,10,0:3:0:0:
38,248,204459,1,8,0:3:0:0:
76,258,204545,1,4,0:3:0:0:
247,97,204715,5,14,0:0:0:0:
163,308,204885,1,2,3:0:0:0:
440,366,205056,1,10,0:0:0:0:
512,139,205226,1,10,0:3:0:0:
474,148,205311,1,8,0:3:0:0:
436,158,205397,1,8,0:0:0:0:
307,277,205567,5,2,3:0:0:0:
270,8,205738,1,10,0:0:0:0:
435,248,205908,1,8,0:3:0:0:
473,257,205993,1,8,0:3:0:0:
511,267,206079,1,12,0:0:0:0:
225,373,206306,5,8,0:0:0:0:
204,295,206420,5,10,0:0:0:0:
178,219,206533,5,8,0:0:0:0:
156,141,206647,5,8,0:0:0:0:
134,64,206760,6,0,B|171:17|171:17|167:56,1,100,6|0,0:3|0:0,0:0:0:0:
58,212,207016,2,0,B|21:259|21:259|24:219,1,100,6|0,0:3|0:0,0:0:0:0:
49,53,207272,2,0,B|36:26|36:26|53:34,1,50,6|0,0:3|0:0,0:0:0:0:
256,192,207442,5,4,3:2:0:0:
256,192,207527,12,0,208806,0:0:0:0:
181,19,210170,6,0,L|172:78,1,59.9999981689454,6|0,3:2|0:0,0:0:0:0:
277,271,210340,1,8,0:3:0:0:
271,235,210425,1,8,0:3:0:0:
262,200,210510,2,0,L|214:163,1,59.9999981689454,10|0,0:0|0:0,0:0:0:0:
0,166,210681,1,8,0:3:0:0:
34,178,210766,1,8,0:3:0:0:
68,188,210851,2,0,L|124:164,1,59.9999981689454,2|0,3:0|0:0,0:0:0:0:
298,125,211022,2,0,L|353:102,1,59.9999981689454,0|0,3:0|0:0,0:0:0:0:
483,11,211192,5,10,0:3:0:0:
508,36,211277,2,0,L|484:153,1,119.999996337891,8|0,0:3|0:0,0:0:0:0:
490,330,211533,6,0,P|509:307|512:278,1,59.9999981689454,6|0,3:2|0:0,0:0:0:0:
403,163,211704,1,8,0:3:0:0:
370,179,211789,1,8,0:3:0:0:
339,199,211874,2,0,L|355:256,1,59.9999981689454,10|0,0:0|0:0,0:0:0:0:
218,384,212045,1,10,0:3:0:0:
185,368,212130,1,8,0:3:0:0:
154,348,212215,2,0,L|170:291,1,59.9999981689454,0|0,3:0|0:0,0:0:0:0:
199,117,212385,1,2,0:0:0:0:
199,117,212470,1,8,0:3:0:0:
231,133,212555,2,0,L|247:190,1,59.9999981689454,0|0,3:0|0:0,0:0:0:0:
278,53,212726,5,0,0:0:0:0:
160,200,212897,1,6,3:2:0:0:
16,93,213067,1,2,3:0:0:0:
261,280,213238,1,10,0:0:0:0:
4,341,213408,1,2,3:0:0:0:
346,308,213579,2,0,B|398:257|469:262|469:262|477:284|494:297,1,179.999994506836,2|0,3:0|0:0,0:0:0:0:
479,376,213920,2,0,P|451:365|430:343,1,59.9999981689454,10|0,0:0|0:0,0:0:0:0:
512,133,214090,5,2,3:0:0:0:
495,101,214175,1,2,0:0:0:0:
481,67,214260,2,0,P|481:37|492:9,1,59.9999981689454,2|0,3:2|0:0,0:0:0:0:
389,135,214431,2,0,P|388:165|377:193,1,59.9999981689454,0|0,3:0|0:0,0:0:0:0:
281,36,214601,2,0,P|339:21|395:-1,1,119.999996337891,10|0,0:0|0:0,0:0:0:0:
274,193,214857,1,8,0:3:0:0:
256,161,214942,2,0,P|197:146|141:124,1,119.999996337891,2|8,3:0|0:0,0:0:0:0:
40,37,215198,5,8,0:0:0:0:
57,68,215283,1,10,0:3:0:0:
62,103,215368,1,8,0:3:0:0:
60,138,215453,1,8,0:3:0:0:
49,172,215538,1,8,0:3:0:0:
27,201,215624,5,6,3:2:0:0:
167,307,215795,1,0,3:0:0:0:
56,374,215965,1,10,0:0:0:0:
262,170,216135,1,8,0:3:0:0:
270,205,216220,1,8,0:3:0:0:
278,240,216306,1,10,0:0:0:0:
501,368,216476,1,0,3:0:0:0:
388,300,216647,1,10,0:0:0:0:
367,113,216817,5,8,0:3:0:0:
359,148,216902,1,8,0:3:0:0:
351,183,216988,1,10,0:0:0:0:
512,180,217158,1,0,3:0:0:0:
409,0,217329,1,10,0:0:0:0:
262,170,217499,1,10,0:3:0:0:
227,160,217584,1,8,0:3:0:0:
191,150,217670,1,8,0:0:0:0:
58,0,217840,5,2,3:0:0:0:
279,94,218010,1,8,0:0:0:0:
8,223,218181,1,0,3:0:0:0:
243,312,218351,6,0,P|253:284|273:261,1,59.9999981689454,14|0,0:0|0:0,0:0:0:0:
78,152,218522,2,0,P|98:174|108:202,1,59.9999981689454,2|0,3:0|0:0,0:0:0:0:
155,371,218692,1,8,0:0:0:0:
342,205,218863,1,10,0:3:0:0:
377,195,218948,1,10,0:3:0:0:
413,186,219034,1,10,0:0:0:0:
509,77,219204,1,8,0:3:0:0:
424,283,219374,5,2,3:0:0:0:
512,364,219545,1,10,0:3:0:0:
283,141,219715,2,0,P|235:168|251:221,1,119.999996337891,4|2,3:2|0:0,0:0:0:0:
235,357,219971,1,10,0:3:0:0:
203,321,220056,1,10,0:0:0:0:
163,294,220141,1,8,0:3:0:0:
118,275,220226,1,8,0:3:0:0:
70,266,220312,1,8,0:3:0:0:
22,267,220397,6,0,P|51:182|72:94,1,179.999994506836,14|0,0:0|0:0,0:0:0:0:
106,22,220738,2,0,P|77:12|49:21,1,59.9999981689454,2|0,0:0|0:0,0:0:0:0:
157,146,220908,5,8,3:0:0:0:
192,138,220993,1,8,3:0:0:0:
227,130,221079,1,6,3:2:0:0:
318,50,221249,1,2,3:0:0:0:
233,221,221420,1,10,0:0:0:0:
400,128,221590,5,2,0:0:0:0:
435,136,221675,1,8,0:3:0:0:
470,144,221761,1,0,3:0:0:0:
463,290,221931,1,2,3:0:0:0:
314,170,222101,1,10,0:0:0:0:
206,305,222272,5,2,0:0:0:0:
171,297,222358,1,8,0:3:0:0:
136,289,222443,1,0,3:0:0:0:
233,221,222613,1,2,3:0:0:0:
336,373,222783,1,8,0:0:0:0:
429,221,222954,5,2,0:0:0:0:
394,229,223040,1,8,0:3:0:0:
359,237,223125,1,0,3:0:0:0:
226,384,223295,1,0,3:0:0:0:
144,132,223465,1,10,0:0:0:0:
17,179,223635,5,10,0:3:0:0:
52,187,223720,1,8,0:3:0:0:
87,195,223806,1,6,3:2:0:0:
276,23,223976,1,2,3:0:0:0:
168,215,224147,1,10,0:0:0:0:
405,135,224317,5,0,0:0:0:0:
440,127,224402,1,8,0:3:0:0:
475,119,224488,1,0,3:0:0:0:
165,50,224658,1,2,3:0:0:0:
288,187,224829,1,10,0:0:0:0:
100,325,224999,5,2,0:0:0:0:
65,317,225084,1,0,0:0:0:0:
30,309,225170,1,0,3:0:0:0:
225,120,225340,1,10,0:0:0:0:
353,370,225511,1,0,3:0:0:0:
387,360,225596,1,8,0:0:0:0:
421,349,225681,1,10,0:3:0:0:
455,337,225766,1,8,0:3:0:0:
489,326,225852,2,0,P|493:297|507:271,1,59.9999981689454,0|0,3:0|0:0,0:0:0:0:
355,115,226022,2,0,P|369:141|373:171,1,59.9999981689454,8|8,0:0|0:0,0:0:0:0:
268,384,226192,5,10,0:0:0:0:
238,351,226277,1,10,0:0:0:0:
242,308,226362,1,6,0:3:0:0:
277,281,226447,1,6,0:3:0:0:
320,289,226532,5,14,0:0:0:0:
93,344,226704,1,0,0:0:0:0:
190,110,226874,5,10,0:0:0:0:
396,205,227045,1,0,3:0:0:0:
493,35,227215,5,10,0:0:0:0:
359,87,227385,1,2,3:0:0:0:
221,135,227556,1,10,0:0:0:0:
366,341,227726,5,10,3:3:0:0:
378,320,227812,1,10,3:3:0:0:
391,300,227897,1,10,0:0:0:0:
226,229,228067,1,2,3:0:0:0:
58,161,228238,1,10,0:0:0:0:
269,52,228408,5,10,0:3:0:0:
277,75,228493,1,10,0:3:0:0:
285,98,228579,1,10,0:0:0:0:
45,304,228749,1,2,3:0:0:0:
253,189,228920,1,10,0:0:0:0:
190,110,229090,1,2,3:0:0:0:
379,328,229260,1,14,0:0:0:0:
512,121,229431,5,8,0:3:0:0:
465,108,229516,1,8,0:3:0:0:
419,95,229601,1,4,0:3:0:0:
373,82,229686,1,4,0:3:0:0:
326,71,229772,2,0,L|347:189,1,119.999996337891,12|0,0:0|0:0,0:0:0:0:
278,331,230113,5,8,0:3:0:0:
234,348,230198,1,8,0:3:0:0:
189,363,230283,2,0,L|200:304,1,59.9999981689454,10|0,0:0|0:0,0:0:0:0:
52,82,230454,2,0,L|73:200,1,119.999996337891,6|0,3:2|0:0,0:0:0:0:
25,351,230795,5,2,3:0:0:0:
255,190,231135,1,2,3:0:0:0:
502,361,231476,1,8,0:3:0:0:
512,339,231562,1,8,0:3:0:0:
507,315,231647,1,4,0:3:0:0:
491,297,231732,1,4,0:3:0:0:
467,297,231817,1,4,0:3:0:0:
448,312,231902,1,4,0:3:0:0:
437,333,231988,6,0,P|418:260|390:189,1,150,6|0,3:2|0:0,0:0:0:0:
405,110,232329,2,0,P|451:112|464:157,1,100,8|0,0:0|0:0,0:0:0:0:
278,213,232670,2,0,P|296:140|324:70,1,150,0|0,3:0|0:0,0:0:0:0:
371,12,233010,1,10,0:0:0:0:
213,108,233181,1,2,0:0:0:0:
56,19,233351,6,0,P|83:88|102:161,1,150,2|0,3:0|0:0,0:0:0:0:
93,250,233692,2,0,P|51:227|0:224,1,100,8|0,0:0|0:0,0:0:0:0:
153,345,234033,1,10,0:3:0:0:
180,355,234118,2,0,P|221:332|273:329,1,100,10|0,0:0|0:0,0:0:0:0:
342,367,234374,2,0,L|386:344,1,50,8|0,0:0|0:0,0:0:0:0:
372,158,234545,5,2,0:0:0:0:
344,169,234630,1,2,0:0:0:0:
315,180,234715,2,0,P|319:248|387:250,1,150,6|0,3:2|0:0,0:0:0:0:
450,198,235056,2,0,P|457:149|473:102,1,100,8|0,0:0|0:0,0:0:0:0:
274,0,235397,2,0,P|289:47|297:96,1,100,0|0,3:2|0:0,0:0:0:0:
198,223,235738,6,0,P|126:201|52:185,1,150,10|0,0:0|0:0,0:0:0:0:
114,358,236079,1,0,3:2:0:0:
130,333,236164,2,0,P|177:317|226:309,1,100,8|0,0:0|0:0,0:0:0:0:
302,201,236420,2,0,P|284:218|276:242,1,50,8|0,0:0|0:0,0:0:0:0:
176,103,236675,1,10,0:3:0:0:
200,120,236760,2,0,P|247:104|296:96,1,100,2|2,3:0|0:0,0:0:0:0:
361,25,237016,1,8,0:3:0:0:
379,48,237101,2,0,P|402:56|427:60,1,50,10|0,0:0|0:0,0:0:0:0:
484,138,237272,5,10,0:3:0:0:
484,138,237357,1,8,0:3:0:0:
455,146,237442,2,0,P|432:218|419:292,1,150,6|0,3:2|0:0,0:0:0:0:
469,358,237783,1,8,0:0:0:0:
359,175,237954,2,0,P|329:212|340:258,1,100,2|0,0:0|3:2,0:0:0:0:
512,245,238295,1,0,0:0:0:0:
384,371,238465,5,10,0:0:0:0:
244,235,238635,2,0,P|196:250|147:260,1,100,2|0,0:0|3:2,0:0:0:0:
66,350,238976,1,2,0:0:0:0:
32,129,239147,2,0,P|107:139|178:161,1,150,10|0,0:0|0:0,0:0:0:0:
257,153,239488,2,0,P|258:106|214:93,1,100,2|0,3:2|0:0,0:0:0:0:
329,267,239829,2,0,P|376:251|425:241,1,100,10|0,0:0|0:0,0:0:0:0:
503,23,240170,6,0,P|484:95|475:169,1,150,6|0,3:2|0:0,0:0:0:0:
389,162,240510,2,0,B|382:133|365:106|365:106|387:118|402:120,1,100,8|0,0:0|0:0,0:0:0:0:
510,249,240851,2,0,B|516:277|533:304|533:304|511:292|496:290,1,100,4|0,0:3|0:0,0:0:0:0:
425,241,241107,5,10,0:0:0:0:
398,255,241192,2,0,P|373:244|350:240,1,50,10|0,0:0|0:0,0:0:0:0:
191,205,241363,2,0,P|238:190|285:172,1,100,6|0,3:2|0:0,0:0:0:0:
224,51,241704,1,10,0:0:0:0:
62,249,241874,1,10,0:3:0:0:
63,85,242045,2,0,P|110:99|157:117,1,100,6|0,3:2|0:0,0:0:0:0:
247,293,242385,1,2,3:0:0:0:
165,352,242556,1,8,0:0:0:0:
320,231,242726,5,10,0:0:0:0:
344,248,242812,1,10,0:0:0:0:
365,267,242897,2,0,P|434:235|505:213,1,150,6|0,3:2|0:0,0:0:0:0:
473,138,243238,2,0,P|425:151|379:169,1,100,8|0,0:0|0:0,0:0:0:0:
275,336,243579,2,0,P|226:326|180:305,1,100,0|0,3:2|0:0,0:0:0:0:
38,323,243920,1,10,0:0:0:0:
175,177,244090,1,2,0:0:0:0:
42,43,244260,6,0,P|73:111|95:182,1,150,0|0,3:2|0:0,0:0:0:0:
41,238,244601,2,0,P|0:215|7:169,1,100,8|0,0:0|0:0,0:0:0:0:
158,47,244942,1,10,0:3:0:0:
173,72,245027,2,0,P|221:84|270:92,1,100,10|0,0:0|0:0,0:0:0:0:
316,155,245283,1,8,0:0:0:0:
429,5,245454,5,2,0:0:0:0:
453,22,245539,1,2,0:0:0:0:
476,38,245624,2,0,P|447:107|430:180,1,150,6|0,3:2|0:0,0:0:0:0:
449,262,245965,2,0,P|495:254|506:208,1,100,8|0,0:0|0:0,0:0:0:0:
336,227,246306,1,0,3:2:0:0:
362,241,246391,2,0,P|374:287|380:339,1,100,8|0,0:3|0:0,0:0:0:0:
300,376,246647,6,0,P|280:360|256:357,1,50,10|0,0:0|0:0,0:0:0:0:
212,194,246817,2,0,P|199:240|193:292,1,100,10|0,0:3|3:0,0:0:0:0:
352,148,247158,1,8,0:0:0:0:
211,55,247329,1,0,3:0:0:0:
189,75,247414,2,0,P|142:62|90:56,1,100,8|0,0:3|0:0,0:0:0:0:
21,109,247670,6,0,P|39:154|42:204,1,100,10|0,0:0|0:0,0:0:0:0:
115,278,247925,1,8,0:0:0:0:
86,287,248010,2,0,P|71:306|50:321,1,50,8|0,0:3|0:0,0:0:0:0:
163,164,248181,5,10,0:3:0:0:
187,180,248266,1,10,0:3:0:0:
212,194,248351,2,0,P|279:161|352:148,1,150,6|0,3:2|0:0,0:0:0:0:
410,79,248692,2,0,P|447:108|443:156,1,100,8|0,0:0|0:0,0:0:0:0:
415,324,249033,2,0,P|395:278|387:228,1,100,0|0,3:0|0:0,0:0:0:0:
450,16,249374,1,10,0:0:0:0:
280,81,249545,1,2,0:0:0:0:
104,10,249715,6,0,P|119:84|126:159,1,150,0|0,3:0|0:0,0:0:0:0:
96,237,250056,2,0,P|51:215|1:209,1,100,8|0,0:0|0:0,0:0:0:0:
317,342,250397,2,0,P|267:348|222:369,1,100,2|0,3:0|0:0,0:0:0:0:
208,196,250738,2,0,P|186:240|180:290,1,100,8|0,0:0|0:0,0:0:0:0:
412,378,251079,6,0,L|381:231,1,150,6|0,3:2|0:0,0:0:0:0:
302,190,251420,2,0,L|313:141,1,50,8|0,0:0|0:0,0:0:0:0:
442,5,251590,1,2,0:0:0:0:
464,24,251675,1,2,0:0:0:0:
486,43,251760,2,0,L|455:190,1,150,2|0,3:0|0:0,0:0:0:0:
470,269,252101,2,0,B|491:279|506:301|506:301|504:276|509:250,1,100,10|2,0:0|0:0,0:0:0:0:
307,347,252442,1,2,3:0:0:0:
218,107,252613,5,10,0:0:0:0:
381,231,252783,1,10,0:0:0:0:
208,340,252954,1,8,0:3:0:0:
180,350,253039,1,8,0:3:0:0:
150,357,253124,2,0,P|106:336|57:324,1,100,10|0,0:0|0:0,0:0:0:0:
0,272,253380,1,8,0:3:0:0:
1,242,253465,1,8,0:0:0:0:
19,218,253550,1,4,0:3:0:0:
46,207,253635,1,4,0:3:0:0:
75,212,253720,1,4,0:3:0:0:
93,236,253806,6,0,P|114:248|139:248,1,50,6|0,3:2|0:0,0:0:0:0:
176,165,253976,2,0,P|200:165|222:177,1,50,2|0,3:0|0:0,0:0:0:0:
105,103,254147,1,8,0:0:0:0:
240,265,254317,5,10,0:3:0:0:
268,254,254402,1,10,0:3:0:0:
296,243,254488,2,0,L|391:273,1,100,2|0,3:0|0:0,0:0:0:0:
309,142,254829,5,10,0:3:0:0:
337,153,254914,1,10,0:3:0:0:
365,164,255000,2,0,L|460:133,1,100,2|0,3:0|0:0,0:0:0:0:
222,58,255340,5,10,0:3:0:0:
250,47,255425,1,10,0:3:0:0:
278,36,255511,2,0,L|373:66,1,100,10|0,0:0|0:0,0:0:0:0:
508,220,255851,6,0,L|519:180,2,25,8|2|2,0:0|0:0|0:0,0:0:0:0:
434,267,256022,6,0,L|423:227,2,25,2|2|2,0:0|0:0|0:0,0:0:0:0:
458,284,256192,1,10,0:3:0:0:
478,305,256277,1,10,0:3:0:0:
478,335,256363,1,6,0:3:0:0:
465,362,256448,1,6,0:3:0:0:
435,368,256533,6,0,L|387:353,1,50,14|0,0:0|0:0,0:0:0:0:
302,259,256704,5,10,0:3:0:0:
273,268,256789,1,8,0:3:0:0:
244,275,256874,2,0,L|196:260,1,50,8|0,0:0|0:0,0:0:0:0:
71,347,257045,5,10,0:3:0:0:
100,356,257130,1,10,0:3:0:0:
129,363,257215,2,0,L|177:348,1,50,10|0,0:0|0:0,0:0:0:0:
236,165,257385,6,0,L|284:180,1,50,0|0,3:0|0:0,0:0:0:0:
438,218,257556,2,0,L|390:232,1,50,10|0,0:0|0:0,0:0:0:0:
144,182,257726,5,10,0:3:0:0:
115,191,257811,1,8,0:3:0:0:
86,198,257896,2,0,L|38:183,1,50,8|0,0:0|0:0,0:0:0:0:
249,53,258067,5,10,0:0:0:0:
308,43,258152,1,8,0:3:0:0:
360,60,258238,1,8,0:0:0:0:
402,85,258323,1,8,0:0:0:0:
444,100,258408,1,6,0:3:0:0:
482,88,258493,1,6,0:3:0:0:
512,70,258579,6,0,L|503:20,1,50,14|0,0:0|0:0,0:0:0:0:
345,269,258834,6,0,L|336:318,1,50,14|0,0:0|0:0,0:0:0:0:
159,69,259090,6,0,L|150:19,1,50,14|0,0:0|0:0,0:0:0:0:
256,192,259601,5,6,0:0:0:0:
256,192,259687,12,0,264715,0:0:0:0:
