osu file format v14

[General]
AudioFilename: audio.mp3
AudioLeadIn: 0
PreviewTime: -1
Countdown: 0
SampleSet: Soft
StackLeniency: 0.7
Mode: 0
LetterboxInBreaks: 0
WidescreenStoryboard: 1

[Editor]
Bookmarks: 2657,12767,22867,32972,43078,53183,63288,73393,83499,93609,103709,113819,123920,134025,144135,154235,164346,174446,184551,194657,204767,214867,224977,235078,245183,255288,265398,275499,285609,295709,305819,315920,326025,336135,346235,356341
DistanceSpacing: 0.3
BeatDivisor: 4
GridSize: 4
TimelineZoom: 2.4

[Metadata]
Title:Tsuioku no Kakera
TitleUnicode:追憶の欠片
Artist:Imy
ArtistUnicode:Imy
Creator:yaspo
Version:Collab
Source:
Tags:-Mo-
BeatmapID:1355468
BeatmapSetID:639071

[Difficulty]
HPDrainRate:6
CircleSize:4.5
OverallDifficulty:7
ApproachRate:9
SliderMultiplier:1.72
SliderTickRate:1

[Events]
//Background and Video events
0,0,"Imy Tsuioko no Kakera.jpg",0,0
//Break Periods
//Storyboard Layer 0 (Background)
//Storyboard Layer 1 (Fail)
//Storyboard Layer 2 (Pass)
//Storyboard Layer 3 (Foreground)
//Storyboard Sound Samples

[TimingPoints]
1083,315.789473684211,4,2,1,30,1,0
1083,-200,4,2,1,30,0,0
2662,315.789473684211,4,2,1,30,1,0
2662,-400,4,2,1,30,0,0
8662,-285.714285714286,4,2,1,30,0,0
10714,-285.714285714286,4,2,1,30,0,0
12135,-200,4,2,1,30,0,0
12767,-200,4,2,1,30,0,0
21609,-142.857142857143,4,2,1,30,0,0
22240,-200,4,2,1,20,0,0
22319,-200,4,2,1,27,0,0
22398,-200,4,2,1,35,0,0
22477,-200,4,2,1,42,0,0
22556,-200,4,2,1,50,0,0
22635,-200,4,2,1,57,0,0
22714,-200,4,2,1,65,0,0
22793,-200,4,2,1,72,0,0
22872,-100,4,2,1,80,0,0
32346,-76.9230769230769,4,2,1,80,0,0
32977,-100,4,2,1,80,0,0
38188,-125,4,2,1,80,0,0
43083,-200,4,2,1,80,0,0
50662,-166.666666666667,4,2,1,80,0,0
51135,-125,4,2,1,80,0,0
51451,-100,4,2,1,80,0,0
51767,-90.9090909090909,4,2,1,80,0,0
53504,-76.9230769230769,4,2,1,80,0,0
54135,-90.9090909090909,4,2,1,80,0,0
56030,-76.9230769230769,4,2,1,80,0,0
56662,-90.9090909090909,4,2,1,80,0,0
58556,-76.9230769230769,4,2,1,80,0,0
59188,-90.9090909090909,4,2,1,80,0,0
63293,-125,4,2,1,80,0,0
65188,-200,4,2,1,80,0,0
65819,-125,4,2,1,80,0,0
68346,-200,4,2,1,80,0,0
68819,-153.846153846154,4,2,1,80,0,0
69609,-125,4,2,1,80,0,0
70872,-100,4,2,1,80,0,0

[Colours]
Combo1 : 128,11,14
Combo2 : 120,120,182
Combo3 : 172,172,172
Combo4 : 162,125,160

[HitObjects]
275,114,2661,5,2,0:0:0:0:
196,147,2819,1,2,0:0:0:0:
112,136,2977,1,2,0:0:0:0:
56,72,3135,1,2,0:0:0:0:
40,220,3609,6,0,P|64:226|89:223,1,43,2|0,0:0|0:0,0:0:0:0:
201,158,4240,2,0,L|220:150,1,21.5,2|0,0:0|0:0,0:0:0:0:
313,216,4556,2,0,L|337:226,1,21.5,2|0,0:0|0:0,0:0:0:0:
444,150,4872,1,2,0:0:0:0:
449,162,5188,5,2,0:0:0:0:
415,224,5346,1,2,0:0:0:0:
346,242,5504,1,2,0:0:0:0:
283,208,5662,1,2,0:0:0:0:
330,45,6135,1,2,0:0:0:0:
116,305,6766,21,2,0:0:0:0:
121,293,7083,1,2,0:0:0:0:
159,209,7398,1,2,0:0:0:0:
154,197,7714,5,2,0:0:0:0:
82,155,7872,1,2,0:0:0:0:
82,71,8030,1,2,0:0:0:0:
154,29,8188,1,2,0:0:0:0:
81,235,8662,6,0,P|97:263|122:281,1,60.1999981628419,2|0,0:0|0:0,0:0:0:0:
219,155,9293,1,2,0:0:0:0:
224,167,9608,1,2,0:0:0:0:
262,251,9925,1,2,0:0:0:0:
257,263,10240,21,2,0:0:0:0:
345,270,10398,1,2,0:0:0:0:
413,213,10556,1,2,0:0:0:0:
432,298,10714,2,0,P|461:315|492:318,1,60.1999981628419,2|0,0:0|0:0,0:0:0:0:
490,194,11188,1,2,0:0:0:0:
483,205,11504,5,2,0:0:0:0:
406,224,11662,1,2,0:0:0:0:
329,201,11819,1,2,0:0:0:0:
274,143,11977,1,2,0:0:0:0:
255,66,12135,2,0,P|210:66|171:49,1,86,2|0,0:0|0:0,0:0:0:0:
76,132,12767,6,0,P|121:132|160:149,1,86,2|0,0:0|0:0,0:0:0:0:
23,189,13240,2,0,P|9:172|1:152,2,43,2|0|0,0:0|0:0|0:0,0:0:0:0:
96,229,13714,1,2,0:0:0:0:
179,223,13872,1,2,0:0:0:0:
238,75,14030,1,2,0:0:0:0:
364,233,14662,5,2,0:0:0:0:
269,209,14819,1,2,0:0:0:0:
219,129,14977,1,2,0:0:0:0:
240,36,15135,1,2,0:0:0:0:
338,114,15293,2,0,P|379:124|420:113,1,86,2|0,0:0|0:0,0:0:0:0:
458,53,15767,2,0,P|477:66|489:86,1,43,2|0,0:0|0:0,0:0:0:0:
378,48,16240,1,2,0:0:0:0:
463,278,16872,6,0,P|432:307|391:319,1,86
287,278,17504,1,0,0:0:0:0:
290,286,17819,5,2,0:0:0:0:
240,357,17977,1,2,0:0:0:0:
154,369,18135,1,2,0:0:0:0:
89,314,18293,1,2,0:0:0:0:
170,165,18767,2,0,L|175:210,1,43,2|2,0:0|0:0,0:0:0:0:
340,75,19398,2,0,P|305:99|281:134,2,86,2|2|2,0:0|0:0|0:0,0:0:0:0:
398,190,20346,5,2,0:0:0:0:
336,236,20504,1,2,0:0:0:0:
259,229,20662,1,2,0:0:0:0:
214,166,20819,1,2,0:0:0:0:
245,341,20977,5,2,0:0:0:0:
249,353,21293,1,2,0:0:0:0:
86,147,21609,6,0,L|118:26,1,120.399996325684,2|0,0:0|0:0,0:0:0:0:
145,204,22240,6,0,L|151:222,14,10.75
64,227,22872,6,0,P|66:185|84:147,1,86,6|2,0:0|0:0,0:0:0:0:
179,52,23188,1,0,0:0:0:0:
269,325,23346,2,0,P|233:303|209:268,1,86,6|2,0:0|0:0,0:0:0:0:
172,138,23662,1,0,0:0:0:0:
399,69,23819,22,0,P|396:111|378:149,1,86,6|2,0:0|0:0,0:0:0:0:
281,243,24135,1,0,0:0:0:0:
460,3,24293,2,0,P|479:40|481:82,1,86,6|2,0:0|0:0,0:0:0:0:
443,214,24609,1,0,0:0:0:0:
281,243,24767,5,2,0:0:0:0:
281,243,24925,1,0,0:0:0:0:
434,297,25083,1,2,0:0:0:0:
328,178,25240,1,2,0:0:0:0:
108,365,25398,6,0,P|149:362|186:343,1,86,6|2,0:0|0:0,0:0:0:0:
281,243,25714,1,0,0:0:0:0:
1,172,25872,2,0,P|23:206|58:229,1,86,6|2,0:0|0:0,0:0:0:0:
195,259,26188,1,0,0:0:0:0:
318,59,26346,22,0,P|276:61|239:80,1,86,6|2,0:0|0:0,0:0:0:0:
144,181,26662,1,0,0:0:0:0:
443,146,26819,2,0,P|406:127|364:124,1,86,6|2,0:0|0:0,0:0:0:0:
231,164,27135,1,0,0:0:0:0:
199,296,27293,5,2,0:0:0:0:
199,296,27451,1,0,0:0:0:0:
375,296,27609,1,2,0:0:0:0:
260,353,27767,1,2,0:0:0:0:
41,255,27925,6,0,P|63:219|105:188,1,86,6|2,0:0|0:0,0:0:0:0:
231,164,28241,1,0,0:0:0:0:
113,336,28398,2,0,P|115:294|133:257,1,86,6|2,0:0|0:0,0:0:0:0:
231,164,28714,1,0,0:0:0:0:
425,258,28872,22,0,P|387:277|346:279,1,86,6|2,0:0|0:0,0:0:0:0:
212,240,29188,1,0,0:0:0:0:
387,361,29346,2,0,P|344:358|295:339,1,86,6|2,0:0|0:0,0:0:0:0:
212,240,29662,1,0,0:0:0:0:
255,101,29819,5,2,0:0:0:0:
255,101,29977,1,0,0:0:0:0:
289,244,30135,1,2,0:0:0:0:
396,144,30293,1,2,0:0:0:0:
256,23,30451,5,4,0:3:0:0:
255,42,30530,1,8,2:3:0:0:
255,61,30609,1,8,2:3:0:0:
255,81,30688,1,8,2:3:0:0:
255,101,30767,1,8,2:3:0:0:
124,79,30925,21,4,0:3:0:0:
132,95,31004,1,4,0:3:0:0:
142,112,31083,1,4,0:3:0:0:
150,128,31162,1,4,0:3:0:0:
160,145,31241,1,4,0:3:0:0:
39,189,31398,5,8,0:3:0:0:
54,199,31477,1,8,0:3:0:0:
71,209,31556,1,8,0:3:0:0:
87,219,31635,1,8,0:3:0:0:
104,228,31714,1,8,0:3:0:0:
30,332,31872,5,4,0:0:0:0:
30,332,32030,2,0,L|116:332,1,86,4|0,0:0|0:0,0:0:0:0:
229,276,32346,6,0,L|206:237,1,27.9499987205506,2|0,0:0|0:0,0:0:0:0:
254,264,32425,2,0,L|246:220,1,27.9499987205506,2|0,0:0|0:0,0:0:0:0:
281,260,32504,2,0,L|278:209,1,27.9499987205506,2|0,0:0|0:0,0:0:0:0:
309,264,32583,2,0,L|324:222,1,27.9499987205506,2|0,0:0|0:3,0:3:0:0:
332,275,32662,6,0,L|314:297,1,27.9499987205506,2|0,3:2|3:2,3:2:0:0:
358,288,32740,2,0,L|350:315,1,27.9499987205506,2|0,3:2|3:2,3:2:0:0:
384,293,32820,2,0,L|380:320,1,27.9499987205506,2|0,3:2|3:2,3:2:0:0:
413,289,32898,2,0,L|419:316,1,27.9499987205506,2|0,3:2|3:2,3:2:0:0:
451,263,32977,6,0,P|423:230|383:215,1,86,14|0,0:0|0:0,0:0:0:0:
209,310,33293,2,0,P|236:342|276:357,1,86,10|0,0:0|0:0,0:0:0:0:
384,215,33609,1,10,0:0:0:0:
276,357,33767,1,2,0:0:0:0:
236,226,33925,1,8,0:0:0:0:
393,336,34083,1,2,0:0:0:0:
236,226,34240,1,8,0:0:0:0:
84,335,34398,5,2,0:0:0:0:
26,182,34556,1,10,0:0:0:0:
156,297,34714,1,2,0:0:0:0:
106,110,34872,1,10,0:0:0:0:
229,257,35030,1,2,0:0:0:0:
26,182,35188,1,10,0:0:0:0:
192,43,35346,1,2,0:0:0:0:
365,223,35504,6,0,P|372:265|358:305,1,86,14|0,0:0|0:0,0:0:0:0:
215,125,35819,1,10,0:0:0:0:
388,85,35977,1,2,0:0:0:0:
369,226,36135,1,8,0:0:0:0:
289,47,36293,1,2,0:0:0:0:
369,226,36451,1,8,0:0:0:0:
159,125,36609,22,0,P|119:108|67:108,1,86,6|8,0:0|0:0,0:0:0:0:
171,205,36925,1,0,0:0:0:0:
43,289,37083,2,0,P|85:288|124:271,1,86,14|0,0:0|0:0,0:0:0:0:
239,174,37398,5,8,0:3:0:0:
245,193,37477,1,8,0:3:0:0:
245,214,37556,1,8,0:3:0:0:
247,52,37714,1,4,0:3:0:0:
125,271,37872,1,4,0:3:0:0:
327,210,38030,5,4,0:0:0:0:
415,248,38188,2,0,L|277:255,1,137.6,0|0,0:0|3:0,0:0:0:0:
276,325,38583,1,0,3:0:0:0:
276,326,38662,2,0,P|207:261|265:186,1,206.4,8|0,0:0|0:0,0:0:0:0:
360,251,39293,5,0,3:0:0:0:
282,120,39451,1,0,3:0:0:0:
282,120,39530,1,0,3:0:0:0:
282,120,39609,2,0,L|258:209,1,68.8
206,384,39925,1,8,0:0:0:0:
165,261,40083,2,0,L|129:128,1,137.6,0|0,0:0|3:0,0:0:0:0:
84,304,40556,5,4,3:2:0:0:
84,304,40635,1,0,3:0:0:0:
84,304,40714,2,0,L|222:297,1,137.6,0|0,0:0|3:0,0:0:0:0:
296,321,41109,1,0,3:0:0:0:
296,321,41188,1,8,3:2:0:0:
110,381,41504,1,0,3:0:0:0:
110,381,41583,1,0,3:0:0:0:
110,381,41662,1,0,3:0:0:0:
251,19,41819,5,4,0:0:0:0:
355,213,41977,1,0,0:0:0:0:
355,213,42293,1,0,0:0:0:0:
138,84,43004,21,0,0:0:0:0:
138,84,43083,2,0,P|93:89|47:125,1,86
152,231,43714,2,0,P|176:229|202:217,1,43
272,182,44030,1,0,0:0:0:0:
282,97,44188,1,0,0:0:0:0:
282,190,44346,1,0,0:0:0:0:
292,198,44662,1,0,0:0:0:0:
388,250,44977,1,0,0:0:0:0:
378,258,45293,5,0,0:0:0:0:
435,180,45451,1,0,0:0:0:0:
395,91,45609,2,0,P|375:61|331:44,1,64.5
334,45,45925,1,0,0:0:0:0:
221,150,46083,2,0,P|201:136|184:112,1,43
259,43,46398,2,0,P|257:67|245:93,1,43
147,187,46714,1,0,0:0:0:0:
147,187,46872,2,0,P|121:148|119:89,1,86
82,230,47346,2,0,P|66:211|41:197,1,43
63,305,47662,5,0,0:0:0:0:
156,259,47819,1,0,0:0:0:0:
249,305,47977,1,0,0:0:0:0:
342,259,48135,2,0,P|366:220|370:162,1,86
259,186,48767,1,0,0:0:0:0:
248,192,49083,1,0,0:0:0:0:
265,60,49319,1,0,0:0:0:0:
265,60,49398,5,0,0:0:0:0:
319,128,49714,1,0,0:0:0:0:
136,113,50030,5,0,0:0:0:0:
147,107,50346,5,0,0:0:0:0:
79,191,50504,1,0,0:0:0:0:
119,280,50662,2,0,P|139:310|183:327,1,77.3999976379395
195,325,50977,1,0,0:0:0:0:
322,254,51135,2,0,P|292:275|245:276,1,68.8
185,166,51451,2,0,P|223:171|260:207,1,86
288,338,51767,6,0,P|295:288|340:241,1,94.600002886963
410,331,52083,1,0,0:0:0:0:
190,245,52240,1,0,0:0:0:0:
372,176,52398,2,0,P|347:228|281:270,1,94.600002886963
190,245,52714,5,0,0:0:0:0:
171,233,52793,1,0,0:0:0:0:
154,223,52872,1,0,0:0:0:0:
137,214,52951,1,0,0:0:0:0:
119,203,53030,1,0,0:0:0:0:
103,194,53109,1,0,0:0:0:0:
87,183,53188,2,0,L|93:282,1,94.600002886963,4|0,0:0|0:0,0:0:0:0:
231,124,53504,6,0,B|156:108|156:108|117:113,1,111.799994882202,8|0,0:0|0:0,0:0:0:0:
279,199,53819,2,0,B|354:183|354:183|393:188,1,111.799994882202,8|0,0:0|0:0,0:0:0:0:
237,280,54135,5,0,1:0:0:0:
285,38,54293,2,0,P|324:120|279:199,1,189.200005773926,8|8,0:0|0:0,0:0:0:0:
133,139,54767,2,0,P|176:122|223:116,1,94.600002886963,8|0,0:0|1:0,0:0:0:0:
123,250,55083,5,8,0:0:0:0:
114,266,55240,1,0,1:0:0:0:
23,95,55398,1,8,0:0:0:0:
44,208,55556,1,0,1:0:0:0:
210,140,55714,2,0,P|164:129|117:135,1,94.600002886963,4|0,0:0|0:0,0:0:0:0:
246,244,56030,6,0,B|283:255|283:255|371:222,1,111.799994882202,8|0,0:0|0:0,0:0:0:0:
390,64,56346,2,0,B|379:101|379:101|412:189,1,111.799994882202,8|0,0:0|0:0,0:0:0:0:
301,150,56662,5,0,1:0:0:0:
199,308,56819,2,0,P|121:264|118:173,1,189.200005773926,8|8,0:0|0:0,0:0:0:0:
291,215,57293,2,0,P|247:228|203:214,1,94.600002886963,8|0,0:0|1:0,0:0:0:0:
347,57,57609,5,8,0:0:0:0:
197,70,57767,1,0,1:0:0:0:
377,204,57925,2,0,L|431:199,1,47.3000014434815,8|0,0:0|0:0,0:0:0:0:
319,242,58083,5,0,3:0:0:0:
321,260,58162,1,0,3:0:0:0:
326,277,58240,2,0,L|420:289,1,94.600002886963,4|0,0:0|0:0,0:0:0:0:
264,356,58556,6,0,B|227:367|227:367|139:334,1,111.799994882202,8|0,0:0|0:0,0:0:0:0:
120,176,58872,2,0,B|131:213|131:213|98:301,1,111.799994882202,8|0,0:0|0:0,0:0:0:0:
19,363,59188,5,0,1:0:0:0:
188,273,59346,2,0,P|231:193|178:121,1,189.200005773926,8|8,0:0|0:0,0:0:0:0:
41,26,59819,2,0,P|23:68|41:111,1,94.600002886963,8|0,0:0|1:0,0:0:0:0:
239,73,60135,5,8,0:0:0:0:
234,54,60293,1,0,1:0:0:0:
119,175,60451,1,8,0:0:0:0:
397,114,60609,1,0,1:0:0:0:
82,23,60767,5,4,0:0:0:0:
119,175,60925,1,0,1:0:0:0:
233,67,61083,1,8,0:0:0:0:
51,202,61240,5,0,1:0:0:0:
257,214,61398,1,8,0:0:0:0:
99,339,61556,5,0,1:0:0:0:
201,289,61714,2,0,L|187:226,1,47.3000014434815
183,374,61872,6,0,P|232:370|271:340,2,94.600002886963,4|8|0,0:0|0:0|1:0,0:0:0:0:
413,303,62346,2,0,P|363:299|325:269,1,94.600002886963,8|0,0:0|1:0,0:0:0:0:
285,206,62583,5,0,0:0:0:0:
264,214,62662,1,8,0:3:0:0:
61,273,62819,1,8,0:3:0:0:
259,108,62977,5,8,0:3:0:0:
67,198,63135,1,8,0:3:0:0:
269,320,63293,6,0,P|342:285|363:187,1,172
356,134,63767,2,0,L|388:325,1,172
391,330,64240,2,0,P|464:295|486:215,1,137.6
79,325,64872,5,0,0:0:0:0:
79,325,65030,1,0,0:0:0:0:
187,290,65188,2,0,P|189:270|176:233,1,43
142,183,65504,1,0,0:0:0:0:
48,222,65662,1,0,0:0:0:0:
258,41,65819,6,0,L|234:168,1,103.2
233,165,66135,1,0,0:0:0:0:
340,0,66293,2,0,L|364:127,1,103.2
364,123,66609,1,0,0:0:0:0:
482,139,66767,1,0,0:0:0:0:
369,143,66925,1,0,0:0:0:0:
147,34,67240,5,0,0:0:0:0:
127,135,67398,1,0,0:0:0:0:
440,53,67714,5,0,0:0:0:0:
87,313,68030,1,0,0:0:0:0:
447,249,68346,6,0,P|401:254|358:235,1,86
295,343,68819,2,0,P|256:289|249:228,1,111.799994882202
233,152,69293,1,0,0:0:0:0:
170,208,69451,1,0,0:0:0:0:
71,161,69609,6,0,P|111:109|165:97,1,103.2
167,99,69925,1,0,0:0:0:0:
94,241,70083,1,0,0:0:0:0:
144,19,70240,2,0,P|209:28|246:69,1,103.2
278,125,70556,1,0,0:0:0:0:
278,125,70714,1,0,0:0:0:0:
485,198,70872,6,0,B|429:230|365:166|309:198,1,172
232,325,71346,2,0,P|199:290|180:257,1,86
174,159,71662,5,0,0:0:0:0:
66,170,71819,1,0,0:0:0:0:
177,138,71977,1,0,0:0:0:0:
317,331,72135,6,0,P|370:261|383:178,1,172
354,104,72609,1,0,0:0:0:0:
474,229,72767,1,0,0:0:0:0:
129,325,73083,2,0,P|161:290|180:257,1,86
