osu file format v14

[General]
AudioFilename: audio.mp3
AudioLeadIn: 0
PreviewTime: 81775
Countdown: 0
SampleSet: Normal
StackLeniency: 0.7
Mode: 1
LetterboxInBreaks: 0
WidescreenStoryboard: 0

[Editor]
DistanceSpacing: 0.8
BeatDivisor: 4
GridSize: 32
TimelineZoom: 2.799999

[Metadata]
Title:Tsuioku no Kakera
TitleUnicode:追憶の欠片
Artist:Imy
ArtistUnicode:Imy
Creator:Nepoch
Version:Fragment of Memory
Source:osu!
Tags:FA Featured Artist Ray of hope j-rock jrock rock Japanese mirin Pino みゅー 春M3
BeatmapID:2718320
BeatmapSetID:1311550

[Difficulty]
HPDrainRate:5
CircleSize:2
OverallDifficulty:6.5
ApproachRate:10
SliderMultiplier:1.4
SliderTickRate:1

[Events]
//Background and Video events
0,0,"35231457_p0.jpg",0,0
//Break Periods
//Storyboard Layer 0 (Background)
//Storyboard Layer 1 (Fail)
//Storyboard Layer 2 (Pass)
//Storyboard Layer 3 (Foreground)
//Storyboard Layer 4 (Overlay)
//Storyboard Sound Samples

[TimingPoints]
2512,315.789473684211,4,1,0,60,1,0
2512,-125,4,1,0,60,0,0
22643,-100,4,1,0,85,0,0
30301,-90.9090909090909,4,1,0,85,0,0
32196,-91.743119266055,4,1,0,85,0,0
32275,-92.5925925925926,4,1,0,85,0,0
32354,-93.4579439252336,4,1,0,85,0,0
32433,-94.3396226415094,4,1,0,85,0,0
32512,-95.2380952380952,4,1,0,85,0,0
32590,-96.1538461538461,4,1,0,85,0,0
32669,-97.0873786407767,4,1,0,85,0,0
32748,-98.0392156862745,4,1,0,85,0,0
32827,-99.009900990099,4,1,0,85,0,0
32985,-100,4,1,0,85,0,0
37840,-101.010101010101,4,1,0,80,0,0
37959,-102.040816326531,4,1,0,80,0,0
38038,-103.092783505155,4,1,0,80,0,0
38354,-104.166666666667,4,1,0,80,0,0
38433,-105.263157894737,4,1,0,80,0,0
38512,-106.382978723404,4,1,0,80,0,0
39143,-107.52688172043,4,1,0,80,0,0
39301,-108.695652173913,4,1,0,80,0,0
39380,-109.89010989011,4,1,0,80,0,0
39459,-111.111111111111,4,1,0,80,0,0
39617,-112.359550561798,4,1,0,80,0,0
39775,-113.636363636364,4,1,0,80,0,0
39933,-114.942528735632,4,1,0,80,0,0
40248,-116.279069767442,4,1,0,80,0,0
40406,-117.647058823529,4,1,0,80,0,0
40485,-119.047619047619,4,1,0,80,0,0
40564,-120.481927710843,4,1,0,80,0,0
40880,-121.951219512195,4,1,0,80,0,0
40959,-123.456790123457,4,1,0,80,0,0
41038,-125,4,1,0,80,0,0
41354,-126.582278481013,4,1,0,80,0,0
41512,-128.205128205128,4,1,0,80,0,0
41669,-129.87012987013,4,1,0,80,0,0
41827,-131.578947368421,4,1,0,80,0,0
42143,-133.333333333333,4,1,0,80,0,0
42854,-133.333333333333,4,1,0,70,0,0
51617,-105.263157894737,4,1,0,80,0,0
51933,-104.82180293501,4,1,0,80,0,0
52090,-104.384133611691,4,1,0,80,0,0
52248,-103.896103896104,4,1,0,80,0,0
52327,-103.412616339193,4,1,0,80,0,0
52406,-102.986611740474,4,1,0,80,0,0
52564,-102.249488752556,4,1,0,80,0,0
52643,-101.83299389002,4,1,0,80,0,0
52722,-101.419878296146,4,1,0,80,0,0
52801,-101.010101010101,4,1,0,80,0,0
52880,-100.704934541793,4,1,0,80,0,0
52959,-100.401606425703,4,1,0,80,0,0
53038,-100,4,1,0,80,0,0
64959,-117.647058823529,4,1,0,65,0,0
73169,-100,4,1,0,80,0,0
78617,-98.0392156862745,4,1,0,80,0,0
78775,-96.1538461538461,4,1,0,80,0,0
78933,-94.3396226415094,4,1,0,80,0,0
79090,-92.5925925925926,4,1,0,80,0,0
79248,-90.9090909090909,4,1,0,80,0,0
79564,-89.2857142857143,4,1,0,80,0,0
79722,-87.719298245614,4,1,0,80,0,0
79880,-86.2068965517241,4,1,0,80,0,0
80038,-84.7457627118644,4,1,0,80,0,0
80196,-83.3333333333333,4,1,0,80,0,0
80354,-81.9672131147541,4,1,0,80,0,0
80512,-80.6451612903226,4,1,0,80,0,0
80669,-79.3650793650794,4,1,0,80,0,0
80827,-78.7401574803149,4,1,0,80,0,0
83354,-100,4,1,0,80,0,0
101354,-121.951219512195,4,1,0,80,0,0
101512,-117.647058823529,4,1,0,80,0,0
101669,-114.942528735632,4,1,0,80,0,0
101827,-111.111111111111,4,1,0,80,0,0
101985,-107.52688172043,4,1,0,80,0,0
102143,-103.092783505155,4,1,0,80,0,0
102301,-100,4,1,0,80,0,0
103564,-100,4,1,0,80,0,1
122512,-102.040816326531,4,1,0,80,0,1
122617,-104.166666666667,4,1,0,80,0,1
122722,-106.382978723404,4,1,0,80,0,1
122827,-108.695652173913,4,1,0,80,0,1
122933,-111.111111111111,4,1,0,80,0,1
123038,-113.636363636364,4,1,0,80,0,1
123143,-116.279069767442,4,1,0,80,0,1
123380,-119.047619047619,4,1,0,80,0,1
123617,-121.951219512195,4,1,0,80,0,1
123775,-125,4,1,0,80,0,0
132538,-111.111111111111,4,1,0,20,0,0
133801,-100,4,1,0,60,0,0
134196,-133.333333333333,4,1,0,50,0,0
152748,-133.333333333333,4,1,0,70,0,0
153380,-113.636363636364,4,1,0,45,0,0
154012,-100,4,1,0,80,0,0
174617,-102.040816326531,4,1,0,80,0,0
174933,-104.166666666667,4,1,0,80,0,0
175248,-106.382978723404,4,1,0,80,0,0
175406,-107.52688172043,4,1,0,80,0,0
175564,-108.695652173913,4,1,0,80,0,0
175880,-111.111111111111,4,1,0,80,0,0
176196,-113.636363636364,4,1,0,80,0,0
176406,-116.279069767442,4,1,0,80,0,0
176617,-119.047619047619,4,1,0,80,0,0
176827,-121.951219512195,4,1,0,80,0,0
177143,-123.456790123457,4,1,0,80,0,0
177459,-125,4,1,0,80,0,0
184406,-120.481927710843,4,1,0,80,0,0
184722,-117.647058823529,4,1,0,80,0,0
185038,-114.942528735632,4,1,0,80,0,0
185354,-112.359550561798,4,1,0,80,0,0
185669,-109.89010989011,4,1,0,80,0,0
185985,-107.52688172043,4,1,0,80,0,0
186301,-105.263157894737,4,1,0,80,0,0
186617,-103.092783505155,4,1,0,80,0,0
186696,-102.040816326531,4,1,0,80,0,0
186775,-101.010101010101,4,1,0,80,0,0
186933,-100,4,1,0,80,0,0
212512,-121.951219512195,4,1,0,80,0,0
212669,-117.647058823529,4,1,0,80,0,0
212827,-114.942528735632,4,1,0,80,0,0
212985,-111.111111111111,4,1,0,80,0,0
213143,-107.52688172043,4,1,0,80,0,0
213301,-103.092783505155,4,1,0,80,0,0
213459,-100,4,1,0,80,0,0
214722,-100,4,1,0,80,0,1
234933,-100,4,1,0,85,0,0
245038,-90.9090909090909,4,1,0,85,0,1
254038,-93.4579439252336,4,1,0,85,0,1
254196,-96.1538461538461,4,1,0,85,0,1
254354,-99.009900990099,4,1,0,85,0,1
254512,-102.040816326531,4,1,0,85,0,1
254617,-105.263157894737,4,1,0,85,0,1
254722,-108.695652173913,4,1,0,85,0,1
254827,-112.359550561798,4,1,0,85,0,1
254933,-116.279069767442,4,1,0,85,0,1
255038,-120.481927710843,4,1,0,85,0,1
255090,-125,4,1,0,35,0,1
255143,-125,4,1,0,35,0,0
273854,-125,4,1,0,65,0,0
275275,-99.9999999999999,4,1,0,65,0,0
295564,-100,4,1,0,90,0,1
315775,-100,4,1,0,90,0,0
323354,-99.009900990099,4,1,0,90,0,0
323512,-98.0392156862745,4,1,0,90,0,0
323669,-97.0873786407767,4,1,0,90,0,0
323827,-96.1538461538461,4,1,0,90,0,0
323985,-95.2380952380952,4,1,0,90,0,0
324143,-94.3396226415094,4,1,0,90,0,0
324301,-93.4579439252336,4,1,0,90,0,0
324459,-92.5925925925926,4,1,0,90,0,0
324617,-91.743119266055,4,1,0,90,0,0
324775,-90.9090909090909,4,1,0,90,0,0
325248,-91.743119266055,4,1,0,90,0,0
325327,-92.5925925925929,4,1,0,90,0,0
325406,-93.4579439252339,4,1,0,90,0,0
325485,-94.3396226415097,4,1,0,90,0,0
325564,-95.2380952380954,4,1,0,90,0,0
325643,-96.153846153846,4,1,0,90,0,0
325722,-97.0873786407766,4,1,0,90,0,0
325801,-98.0392156862745,4,1,0,90,0,0
325840,-99.0099009900991,4,1,0,80,0,0
326038,-100,4,1,0,80,0,0
343564,-99.009900990099,4,1,0,80,0,0
343643,-98.0392156862745,4,1,0,80,0,0
343722,-97.0873786407767,4,1,0,80,0,0
343801,-96.1538461538461,4,1,0,80,0,0
343880,-95.2380952380952,4,1,0,80,0,0
343959,-94.3396226415094,4,1,0,80,0,0
344038,-93.4579439252336,4,1,0,80,0,0
344117,-92.5925925925926,4,1,0,80,0,0
344196,-91.743119266055,4,1,0,80,0,0
344275,-90.9090909090909,4,1,0,80,0,0
344354,-90.0900900900901,4,1,0,80,0,0
344433,-89.2857142857143,4,1,0,80,0,0
344512,-88.4955752212389,4,1,0,80,0,0
344590,-87.719298245614,4,1,0,80,0,0
344669,-86.9565217391304,4,1,0,80,0,0
344748,-86.2068965517241,4,1,0,80,0,0
344827,-85.4700854700855,4,1,0,80,0,0
344985,-83.3333333333333,4,1,0,80,0,0
345459,-89.2857142857143,4,1,0,80,0,0
345564,-90.9090909090909,4,1,0,80,0,0
345669,-92.5925925925926,4,1,0,80,0,0
345775,-94.3396226415094,4,1,0,80,0,0
345880,-96.1538461538461,4,1,0,80,0,0
345985,-98.0392156862745,4,1,0,80,0,0
346090,-100,4,1,0,80,0,0
346169,-100,4,1,0,15,0,0
351064,-100,4,1,0,55,0,0

[HitObjects]
256,192,2512,5,8,0:0:0:0:
256,192,2669,1,8,0:0:0:0:
256,192,2827,1,0,0:0:0:0:
256,192,2985,1,0,0:0:0:0:
256,192,3459,1,0,0:0:0:0:
256,192,4722,1,8,0:0:0:0:
256,192,5038,1,8,0:0:0:0:
256,192,5196,1,0,0:0:0:0:
256,192,5354,1,0,0:0:0:0:
256,192,5512,1,8,0:0:0:0:
256,192,5985,1,0,0:0:0:0:
256,192,6617,1,8,0:0:0:0:
256,192,6933,1,8,0:0:0:0:
256,192,7248,1,0,0:0:0:0:
256,192,7564,1,8,0:0:0:0:
256,192,8038,1,0,0:0:0:0:
256,192,8512,1,8,0:0:0:0:
256,192,9143,1,0,0:0:0:0:
256,192,9459,1,0,0:0:0:0:
256,192,9775,1,8,0:0:0:0:
256,192,10090,1,0,0:0:0:0:
256,192,10406,1,0,0:0:0:0:
256,192,10564,1,0,0:0:0:0:
256,192,10722,1,8,0:0:0:0:
256,192,11038,1,0,0:0:0:0:
256,192,11354,1,2,0:0:0:0:
256,192,11669,1,8,0:0:0:0:
256,192,11827,1,0,0:0:0:0:
256,192,11985,1,8,0:0:0:0:
256,192,12301,1,0,0:0:0:0:
256,192,12459,1,0,0:0:0:0:
256,192,12617,1,8,0:0:0:0:
256,192,13090,1,0,0:0:0:0:
256,192,13564,1,8,0:0:0:0:
256,192,14512,1,8,0:0:0:0:
256,192,14669,1,0,0:0:0:0:
256,192,14827,1,0,0:0:0:0:
256,192,14985,1,8,0:0:0:0:
256,192,15143,1,0,0:0:0:0:
256,192,15617,1,8,0:0:0:0:
256,192,16090,1,0,0:0:0:0:
256,192,16722,1,8,0:0:0:0:
256,192,17038,1,8,0:0:0:0:
256,192,17354,1,0,0:0:0:0:
256,192,17669,1,2,0:0:0:0:
256,192,18617,1,0,0:0:0:0:
256,192,18775,1,8,0:0:0:0:
256,192,19248,1,0,0:0:0:0:
256,192,19564,1,0,0:0:0:0:
256,192,19880,1,8,0:0:0:0:
256,192,20196,1,0,0:0:0:0:
256,192,20827,1,8,0:0:0:0:
256,192,21143,1,0,0:0:0:0:
256,192,21459,1,8,0:0:0:0:
256,192,22090,1,0,0:0:0:0:
256,96,22722,1,12,0:0:0:0:
256,192,22880,1,0,0:0:0:0:
256,192,23038,1,0,0:0:0:0:
256,192,23196,1,8,0:0:0:0:
256,192,23354,1,0,0:0:0:0:
256,192,23512,1,0,0:0:0:0:
256,192,23669,1,8,0:0:0:0:
256,192,23827,1,0,0:0:0:0:
256,192,23985,1,0,0:0:0:0:
256,192,24143,1,8,0:0:0:0:
256,192,24301,1,0,0:0:0:0:
256,192,24459,1,0,0:0:0:0:
256,192,24617,1,8,0:0:0:0:
256,192,24775,1,0,0:0:0:0:
256,192,24854,1,0,0:0:0:0:
256,192,24933,1,8,0:0:0:0:
256,192,25090,1,0,0:0:0:0:
256,96,25248,1,12,0:0:0:0:
256,192,25406,1,0,0:0:0:0:
256,192,25485,1,0,0:0:0:0:
256,192,25564,1,0,0:0:0:0:
256,192,25722,1,8,0:0:0:0:
256,192,25880,1,0,0:0:0:0:
256,192,25959,1,0,0:0:0:0:
256,192,26038,1,0,0:0:0:0:
256,192,26196,1,8,0:0:0:0:
256,192,26354,1,0,0:0:0:0:
256,192,26433,1,0,0:0:0:0:
256,192,26512,1,0,0:0:0:0:
256,192,26669,1,8,0:0:0:0:
256,192,26827,1,0,0:0:0:0:
256,192,26906,1,0,0:0:0:0:
256,192,26985,1,0,0:0:0:0:
256,192,27143,1,8,0:0:0:0:
256,192,27301,1,0,0:0:0:0:
256,192,27380,1,0,0:0:0:0:
256,192,27459,1,8,0:0:0:0:
256,192,27538,1,8,0:0:0:0:
256,192,27617,1,0,0:0:0:0:
256,96,27775,1,12,0:0:0:0:
256,192,27933,1,0,0:0:0:0:
256,192,28012,1,8,0:0:0:0:
256,192,28090,1,0,0:0:0:0:
256,192,28248,1,8,0:0:0:0:
256,192,28406,1,0,0:0:0:0:
256,192,28485,1,8,0:0:0:0:
256,192,28564,1,0,0:0:0:0:
256,192,28722,1,8,0:0:0:0:
256,192,28880,1,0,0:0:0:0:
256,192,28959,1,8,0:0:0:0:
256,192,29038,1,0,0:0:0:0:
256,192,29196,1,8,0:0:0:0:
256,192,29354,1,0,0:0:0:0:
256,192,29433,1,8,0:0:0:0:
256,192,29512,1,0,0:0:0:0:
256,192,29669,1,8,0:0:0:0:
256,192,29827,1,0,0:0:0:0:
256,192,29906,1,0,0:0:0:0:
256,192,29985,1,8,0:0:0:0:
256,192,30143,1,0,0:0:0:0:
256,192,30301,1,8,0:0:0:0:
256,192,30380,1,8,0:0:0:0:
256,192,30459,1,8,0:0:0:0:
256,192,30538,1,8,0:0:0:0:
256,192,30617,1,0,0:0:0:0:
256,192,30696,1,0,0:0:0:0:
256,192,30775,1,8,0:0:0:0:
256,192,30854,1,0,0:0:0:0:
256,192,30933,1,8,0:0:0:0:
256,192,31012,1,8,0:0:0:0:
256,192,31090,1,0,0:0:0:0:
256,192,31169,1,0,0:0:0:0:
256,192,31248,1,8,0:0:0:0:
256,192,31327,1,0,0:0:0:0:
256,192,31406,1,8,0:0:0:0:
256,192,31485,1,8,0:0:0:0:
256,192,31564,1,0,0:0:0:0:
256,96,31722,1,12,0:0:0:0:
256,96,31880,1,12,0:0:0:0:
256,192,32196,1,8,0:0:0:0:
256,192,32275,1,8,0:0:0:0:
256,192,32354,1,0,0:0:0:0:
256,192,32433,1,0,0:0:0:0:
256,192,32512,1,8,0:0:0:0:
256,192,32590,1,0,0:0:0:0:
256,192,32669,1,8,0:0:0:0:
256,192,32748,1,8,0:0:0:0:
256,96,32827,1,4,0:0:0:0:
256,192,32985,1,0,0:0:0:0:
256,192,33143,1,8,0:0:0:0:
256,192,33301,1,0,0:0:0:0:
256,192,33380,1,0,0:0:0:0:
256,192,33459,1,8,0:0:0:0:
256,192,33617,1,0,0:0:0:0:
256,192,33775,1,8,0:0:0:0:
256,192,33854,1,0,0:0:0:0:
256,192,33933,1,8,0:0:0:0:
256,192,34090,1,0,0:0:0:0:
256,192,34248,1,0,0:0:0:0:
256,192,34406,1,8,0:0:0:0:
256,192,34564,1,0,0:0:0:0:
256,192,34643,1,0,0:0:0:0:
256,192,34722,1,8,0:0:0:0:
256,192,34880,1,0,0:0:0:0:
256,192,34959,1,0,0:0:0:0:
256,192,35038,1,8,0:0:0:0:
256,192,35117,1,0,0:0:0:0:
256,192,35196,1,8,0:0:0:0:
256,192,35275,1,8,0:0:0:0:
256,192,35354,1,0,0:0:0:0:
256,192,35512,1,0,0:0:0:0:
256,192,35669,1,8,0:0:0:0:
256,192,35748,1,0,0:0:0:0:
256,192,35827,1,8,0:0:0:0:
256,192,35906,1,8,0:0:0:0:
256,192,35985,1,0,0:0:0:0:
256,192,36143,1,0,0:0:0:0:
256,192,36222,1,0,0:0:0:0:
256,192,36301,1,8,0:0:0:0:
256,192,36459,1,0,0:0:0:0:
256,192,36617,1,8,0:0:0:0:
256,192,36775,1,0,0:0:0:0:
256,192,36933,1,8,0:0:0:0:
256,192,37090,1,0,0:0:0:0:
256,192,37169,1,0,0:0:0:0:
256,192,37248,1,8,0:0:0:0:
256,192,37327,1,8,0:0:0:0:
256,192,37406,1,0,0:0:0:0:
256,192,37564,1,8,0:0:0:0:
256,192,37722,1,0,0:0:0:0:
256,192,37880,1,8,0:0:0:0:
256,192,37959,1,8,0:0:0:0:
256,192,38038,1,0,0:0:0:0:
256,192,38354,1,0,0:0:0:0:
256,192,38433,1,0,0:0:0:0:
256,192,38512,1,8,0:0:0:0:
256,192,39143,1,0,0:0:0:0:
256,192,39301,1,0,0:0:0:0:
256,192,39380,1,0,0:0:0:0:
256,192,39459,1,0,0:0:0:0:
256,192,39617,1,0,0:0:0:0:
256,192,39775,1,8,0:0:0:0:
256,192,39933,1,0,0:0:0:0:
256,192,40248,1,0,0:0:0:0:
256,192,40406,1,8,0:0:0:0:
256,192,40485,1,8,0:0:0:0:
256,192,40564,1,0,0:0:0:0:
256,192,40880,1,0,0:0:0:0:
256,192,40959,1,0,0:0:0:0:
256,192,41038,1,0,0:0:0:0:
256,192,41354,1,0,0:0:0:0:
256,192,41512,1,0,0:0:0:0:
256,192,41669,1,8,0:0:0:0:
256,192,41827,1,0,0:0:0:0:
256,192,42143,1,0,0:0:0:0:
256,96,42933,1,4,0:0:0:0:
256,192,43564,1,8,0:0:0:0:
256,192,43880,1,0,0:0:0:0:
256,192,44038,1,8,0:0:0:0:
256,192,44512,1,8,0:0:0:0:
256,192,44827,1,0,0:0:0:0:
256,192,45143,1,8,0:0:0:0:
256,192,45301,1,8,0:0:0:0:
256,192,45459,1,0,0:0:0:0:
256,192,45775,1,0,0:0:0:0:
256,192,45933,1,8,0:0:0:0:
256,192,46248,1,0,0:0:0:0:
256,192,46564,1,8,0:0:0:0:
256,192,47512,1,0,0:0:0:0:
256,192,47669,1,8,0:0:0:0:
256,192,47827,1,0,0:0:0:0:
256,192,47985,1,8,0:0:0:0:
256,192,48459,1,0,0:0:0:0:
256,192,48933,1,8,0:0:0:0:
256,192,50196,1,8,0:0:0:0:
256,192,50354,1,8,0:0:0:0:
256,192,50512,1,0,0:0:0:0:
256,192,50827,1,0,0:0:0:0:
256,192,50985,1,8,0:0:0:0:
256,192,51301,1,0,0:0:0:0:
256,96,51617,1,12,0:0:0:0:
256,192,51933,1,8,0:0:0:0:
256,192,52090,1,0,0:0:0:0:
256,192,52248,1,8,0:0:0:0:
256,192,52327,1,8,0:0:0:0:
256,192,52406,1,0,0:0:0:0:
256,192,52564,1,0,0:0:0:0:
256,192,52643,1,0,0:0:0:0:
256,192,52722,1,8,0:0:0:0:
256,192,52801,1,8,0:0:0:0:
256,192,52880,1,0,0:0:0:0:
256,192,52959,1,8,0:0:0:0:
256,192,53038,1,0,0:0:0:0:
256,192,53354,1,8,0:0:0:0:
256,192,53512,1,0,0:0:0:0:
256,192,53590,1,0,0:0:0:0:
256,192,53669,1,8,0:0:0:0:
256,192,53748,1,0,0:0:0:0:
256,192,53827,1,8,0:0:0:0:
256,192,53906,1,8,0:0:0:0:
256,192,53985,1,0,0:0:0:0:
256,192,54143,1,8,0:0:0:0:
256,192,54301,1,0,0:0:0:0:
256,192,54459,1,8,0:0:0:0:
256,192,54538,1,0,0:0:0:0:
256,192,54617,1,8,0:0:0:0:
256,192,54775,1,0,0:0:0:0:
256,192,54854,1,0,0:0:0:0:
256,192,54933,1,8,0:0:0:0:
256,192,55012,1,8,0:0:0:0:
256,192,55090,1,0,0:0:0:0:
256,192,55248,1,8,0:0:0:0:
256,192,55406,1,0,0:0:0:0:
256,96,55564,1,4,0:0:0:0:
256,192,55722,1,0,0:0:0:0:
256,192,55880,1,8,0:0:0:0:
256,192,56038,1,0,0:0:0:0:
256,192,56117,1,8,0:0:0:0:
256,192,56196,1,0,0:0:0:0:
256,192,56354,1,0,0:0:0:0:
256,192,56512,1,8,0:0:0:0:
256,192,56590,1,0,0:0:0:0:
256,192,56669,1,8,0:0:0:0:
256,192,56748,1,8,0:0:0:0:
256,192,56827,1,0,0:0:0:0:
256,192,56985,1,0,0:0:0:0:
256,192,57143,1,8,0:0:0:0:
256,192,57301,1,0,0:0:0:0:
256,192,57380,1,0,0:0:0:0:
256,192,57459,1,8,0:0:0:0:
256,192,57617,1,0,0:0:0:0:
256,192,57775,1,8,0:0:0:0:
256,192,57854,1,8,0:0:0:0:
256,192,57933,1,0,0:0:0:0:
256,192,58012,1,8,0:0:0:0:
256,96,58090,1,4,0:0:0:0:
256,192,58248,1,0,0:0:0:0:
256,192,58406,1,8,0:0:0:0:
256,192,58485,1,8,0:0:0:0:
256,192,58564,1,0,0:0:0:0:
256,192,58643,1,0,0:0:0:0:
256,192,58722,1,8,0:0:0:0:
256,192,58801,1,0,0:0:0:0:
256,192,58880,1,8,0:0:0:0:
256,192,59038,1,0,0:0:0:0:
256,192,59196,1,8,0:0:0:0:
256,192,59354,1,8,0:0:0:0:
256,192,59512,1,0,0:0:0:0:
256,192,59590,1,0,0:0:0:0:
256,192,59669,1,8,0:0:0:0:
256,192,59827,1,0,0:0:0:0:
256,192,59985,1,8,0:0:0:0:
256,192,60064,1,8,0:0:0:0:
256,192,60143,1,0,0:0:0:0:
256,192,60222,1,0,0:0:0:0:
256,192,60301,1,8,0:0:0:0:
256,192,60459,1,0,0:0:0:0:
256,192,60617,1,8,0:0:0:0:
256,192,60696,1,8,0:0:0:0:
256,192,60775,1,0,0:0:0:0:
256,192,60854,1,8,0:0:0:0:
256,192,60933,1,0,0:0:0:0:
256,192,61090,1,8,0:0:0:0:
256,192,61248,1,8,0:0:0:0:
256,192,61327,1,8,0:0:0:0:
256,192,61406,1,0,0:0:0:0:
256,192,61564,1,8,0:0:0:0:
256,192,61722,1,0,0:0:0:0:
256,192,61880,1,8,0:0:0:0:
256,192,62038,1,0,0:0:0:0:
256,192,62117,1,0,0:0:0:0:
256,192,62196,1,8,0:0:0:0:
256,192,62354,1,8,0:0:0:0:
256,192,62433,1,0,0:0:0:0:
256,192,62512,1,8,0:0:0:0:
256,192,62669,1,0,0:0:0:0:
256,192,62827,1,0,0:0:0:0:
256,192,62985,1,0,0:0:0:0:
256,96,63143,1,12,0:0:0:0:
256,192,65038,1,8,0:0:0:0:
256,192,65196,1,0,0:0:0:0:
256,192,65354,1,0,0:0:0:0:
256,192,65512,1,8,0:0:0:0:
256,192,65669,1,0,0:0:0:0:
256,192,66143,1,8,0:0:0:0:
256,192,66617,1,0,0:0:0:0:
256,192,67564,1,0,0:0:0:0:
256,192,67880,1,8,0:0:0:0:
256,192,68038,1,0,0:0:0:0:
256,192,68117,1,0,0:0:0:0:
256,192,68196,1,8,0:0:0:0:
256,192,68669,1,0,0:0:0:0:
256,192,69143,1,8,0:0:0:0:
256,192,69301,1,0,0:0:0:0:
256,192,69459,1,8,0:0:0:0:
256,192,69933,1,0,0:0:0:0:
256,192,70406,1,8,0:0:0:0:
256,192,70722,1,8,0:0:0:0:
256,192,71038,1,8,0:0:0:0:
256,192,71196,1,0,0:0:0:0:
256,192,71669,1,0,0:0:0:0:
256,192,71985,1,8,0:0:0:0:
256,192,72617,1,0,0:0:0:0:
256,192,72933,1,8,0:0:0:0:
256,96,73248,1,4,0:0:0:0:
256,192,73564,1,0,0:0:0:0:
256,192,73880,1,0,0:0:0:0:
256,192,74196,1,8,0:0:0:0:
256,192,74512,1,0,0:0:0:0:
256,192,74827,1,8,0:0:0:0:
256,192,74985,1,0,0:0:0:0:
256,192,75143,1,8,0:0:0:0:
256,192,75459,1,0,0:0:0:0:
256,192,75617,1,8,0:0:0:0:
256,192,75696,1,8,0:0:0:0:
256,96,75775,1,4,0:0:0:0:
256,192,76090,1,0,0:0:0:0:
256,192,76406,1,8,0:0:0:0:
256,192,76722,1,0,0:0:0:0:
256,192,76880,1,8,0:0:0:0:
256,192,76959,1,8,0:0:0:0:
256,192,77038,1,0,0:0:0:0:
256,192,77196,1,0,0:0:0:0:
256,192,77354,1,8,0:0:0:0:
256,192,77512,1,0,0:0:0:0:
256,96,77669,1,12,0:0:0:0:
256,96,77906,1,12,0:0:0:0:
256,96,78143,1,12,0:0:0:0:
256,96,78301,1,4,0:0:0:0:
256,192,78617,1,0,0:0:0:0:
256,192,78775,1,0,0:0:0:0:
256,192,78933,1,8,0:0:0:0:
256,192,79090,1,8,0:0:0:0:
256,192,79248,1,0,0:0:0:0:
256,192,79564,1,0,0:0:0:0:
256,192,79722,1,8,0:0:0:0:
256,192,79880,1,8,0:0:0:0:
256,192,80038,1,0,0:0:0:0:
256,192,80196,1,8,0:0:0:0:
256,192,80354,1,8,0:0:0:0:
256,192,80512,1,0,0:0:0:0:
256,192,80669,1,0,0:0:0:0:
256,192,80827,1,2,0:0:0:0:
256,96,83354,1,4,0:0:0:0:
256,192,83827,1,0,0:0:0:0:
256,192,84301,1,8,0:0:0:0:
256,192,84775,1,0,0:0:0:0:
256,192,85090,1,0,0:0:0:0:
256,192,85248,1,8,0:0:0:0:
256,192,85406,1,0,0:0:0:0:
256,192,85722,1,0,0:0:0:0:
256,192,85801,1,0,0:0:0:0:
256,96,85880,1,12,0:0:0:0:
256,192,86354,1,8,0:0:0:0:
256,192,86827,1,0,0:0:0:0:
256,192,87301,1,8,0:0:0:0:
256,192,87617,1,0,0:0:0:0:
256,192,87775,1,8,0:0:0:0:
256,192,87933,1,0,0:0:0:0:
256,192,88090,1,8,0:0:0:0:
256,192,88248,1,8,0:0:0:0:
256,96,88406,1,4,0:0:0:0:
256,96,88643,1,4,0:0:0:0:
256,96,88880,1,12,0:0:0:0:
256,192,89354,1,0,0:0:0:0:
256,192,89827,1,8,0:0:0:0:
256,192,89985,1,0,0:0:0:0:
256,192,90143,1,0,0:0:0:0:
256,192,90301,1,8,0:0:0:0:
256,192,90459,1,8,0:0:0:0:
256,192,90617,1,0,0:0:0:0:
256,192,90775,1,8,0:0:0:0:
256,96,90933,1,4,0:0:0:0:
256,192,91406,1,8,0:0:0:0:
256,192,91880,1,0,0:0:0:0:
256,192,92196,1,0,0:0:0:0:
256,192,92354,1,8,0:0:0:0:
256,192,92512,1,0,0:0:0:0:
256,192,92827,1,0,0:0:0:0:
256,192,92906,1,0,0:0:0:0:
256,192,92985,1,8,0:0:0:0:
256,192,93064,1,0,0:0:0:0:
256,192,93143,1,8,0:0:0:0:
256,192,93222,1,8,0:0:0:0:
256,192,93301,1,0,0:0:0:0:
256,192,93380,1,8,0:0:0:0:
256,96,93459,1,4,0:0:0:0:
256,192,93933,1,0,0:0:0:0:
256,192,94406,1,8,0:0:0:0:
256,192,94880,1,0,0:0:0:0:
256,192,95196,1,0,0:0:0:0:
256,192,95354,1,8,0:0:0:0:
256,192,95512,1,0,0:0:0:0:
256,192,95827,1,0,0:0:0:0:
256,96,95985,1,12,0:0:0:0:
256,192,96459,1,8,0:0:0:0:
256,192,96933,1,0,0:0:0:0:
256,192,97406,1,8,0:0:0:0:
256,192,97722,1,0,0:0:0:0:
256,192,97880,1,8,0:0:0:0:
256,192,98038,1,0,0:0:0:0:
256,192,98196,1,8,0:0:0:0:
256,192,98354,1,8,0:0:0:0:
256,96,98512,1,4,0:0:0:0:
256,96,98748,1,4,0:0:0:0:
256,96,98985,1,12,0:0:0:0:
256,192,99459,1,0,0:0:0:0:
256,192,99933,1,8,0:0:0:0:
256,192,100090,1,0,0:0:0:0:
256,192,100248,1,0,0:0:0:0:
256,192,100406,1,8,0:0:0:0:
256,192,100564,1,0,0:0:0:0:
256,192,100722,1,8,0:0:0:0:
256,192,100801,1,0,0:0:0:0:
256,192,100880,1,8,0:0:0:0:
256,192,100959,1,8,0:0:0:0:
256,192,101038,1,0,0:0:0:0:
256,192,101354,1,0,0:0:0:0:
256,192,101512,1,0,0:0:0:0:
256,192,101669,1,0,0:0:0:0:
256,192,101827,1,0,0:0:0:0:
256,192,101985,1,8,0:0:0:0:
256,192,102143,1,0,0:0:0:0:
256,192,102301,1,8,0:0:0:0:
256,192,102459,1,0,0:0:0:0:
256,192,102538,1,0,0:0:0:0:
256,192,102617,1,8,0:0:0:0:
256,192,102775,1,0,0:0:0:0:
256,192,102933,1,8,0:0:0:0:
256,192,103012,1,8,0:0:0:0:
256,192,103090,1,0,0:0:0:0:
256,192,103169,1,0,0:0:0:0:
256,192,103248,1,8,0:0:0:0:
256,192,103327,1,8,0:0:0:0:
256,192,103406,1,0,0:0:0:0:
256,96,103564,1,12,0:0:0:0:
256,192,103880,1,0,0:0:0:0:
256,192,104038,1,0,0:0:0:0:
256,192,104196,1,8,0:0:0:0:
256,192,104354,1,0,0:0:0:0:
256,192,104512,1,8,0:0:0:0:
256,192,104590,1,0,0:0:0:0:
256,192,104669,1,8,0:0:0:0:
256,192,104827,1,0,0:0:0:0:
256,192,104985,1,0,0:0:0:0:
256,192,105064,1,0,0:0:0:0:
256,192,105143,1,8,0:0:0:0:
256,192,105301,1,0,0:0:0:0:
256,192,105459,1,8,0:0:0:0:
256,192,105538,1,8,0:0:0:0:
256,192,105617,1,0,0:0:0:0:
256,192,105696,1,0,0:0:0:0:
256,192,105775,1,8,0:0:0:0:
256,192,105933,1,0,0:0:0:0:
256,192,106090,1,8,0:0:0:0:
256,192,106406,1,0,0:0:0:0:
256,192,106564,1,0,0:0:0:0:
256,192,106722,1,8,0:0:0:0:
256,192,106801,1,8,0:0:0:0:
256,192,106880,1,0,0:0:0:0:
256,192,107038,1,8,0:0:0:0:
256,192,107196,1,0,0:0:0:0:
256,192,107275,1,0,0:0:0:0:
256,192,107354,1,8,0:0:0:0:
256,192,107433,1,0,0:0:0:0:
256,192,107512,1,8,0:0:0:0:
256,192,107669,1,0,0:0:0:0:
256,192,107827,1,0,0:0:0:0:
256,192,107985,1,8,0:0:0:0:
256,192,108064,1,8,0:0:0:0:
256,192,108143,1,0,0:0:0:0:
256,192,108222,1,0,0:0:0:0:
256,192,108301,1,8,0:0:0:0:
256,192,108459,1,0,0:0:0:0:
256,192,108538,1,0,0:0:0:0:
256,192,108617,1,8,0:0:0:0:
256,192,108933,1,8,0:0:0:0:
256,192,109090,1,0,0:0:0:0:
256,192,109248,1,8,0:0:0:0:
256,192,109327,1,0,0:0:0:0:
256,192,109406,1,0,0:0:0:0:
256,192,109564,1,8,0:0:0:0:
256,192,109643,1,0,0:0:0:0:
256,192,109722,1,8,0:0:0:0:
256,192,109801,1,8,0:0:0:0:
256,192,109880,1,0,0:0:0:0:
256,192,110038,1,0,0:0:0:0:
256,192,110196,1,8,0:0:0:0:
256,192,110275,1,8,0:0:0:0:
256,192,110354,1,0,0:0:0:0:
256,192,110433,1,0,0:0:0:0:
256,192,110512,1,8,0:0:0:0:
256,192,110669,1,0,0:0:0:0:
256,192,110827,1,8,0:0:0:0:
256,192,110906,1,0,0:0:0:0:
256,192,110985,1,8,0:0:0:0:
256,192,111064,1,0,0:0:0:0:
256,192,111143,1,8,0:0:0:0:
256,192,111459,1,8,0:0:0:0:
256,192,111617,1,0,0:0:0:0:
256,192,111775,1,8,0:0:0:0:
256,192,111854,1,8,0:0:0:0:
256,192,111933,1,0,0:0:0:0:
256,192,112090,1,0,0:0:0:0:
256,192,112248,1,8,0:0:0:0:
256,192,112406,1,8,0:0:0:0:
256,192,112485,1,0,0:0:0:0:
256,192,112564,1,0,0:0:0:0:
256,192,112643,1,0,0:0:0:0:
256,192,112722,1,8,0:0:0:0:
256,192,112880,1,0,0:0:0:0:
256,192,113038,1,8,0:0:0:0:
256,192,113117,1,8,0:0:0:0:
256,192,113196,1,0,0:0:0:0:
256,192,113275,1,0,0:0:0:0:
256,192,113354,1,8,0:0:0:0:
256,192,113433,1,0,0:0:0:0:
256,192,113512,1,8,0:0:0:0:
256,96,113669,1,4,0:0:0:0:
256,192,113985,1,0,0:0:0:0:
256,192,114143,1,0,0:0:0:0:
256,192,114301,1,8,0:0:0:0:
256,192,114380,1,8,0:0:0:0:
256,192,114459,1,0,0:0:0:0:
256,192,114617,1,0,0:0:0:0:
256,192,114696,1,0,0:0:0:0:
256,192,114775,1,8,0:0:0:0:
256,192,114854,1,0,0:0:0:0:
256,192,114933,1,8,0:0:0:0:
256,192,115090,1,0,0:0:0:0:
256,192,115248,1,8,0:0:0:0:
256,192,115327,1,8,0:0:0:0:
256,192,115406,1,0,0:0:0:0:
256,192,115564,1,8,0:0:0:0:
256,192,115722,1,0,0:0:0:0:
256,192,115801,1,0,0:0:0:0:
256,192,115880,1,8,0:0:0:0:
256,192,116038,1,0,0:0:0:0:
256,192,116196,1,8,0:0:0:0:
256,192,116512,1,0,0:0:0:0:
256,192,116669,1,0,0:0:0:0:
256,192,116827,1,8,0:0:0:0:
256,192,116906,1,8,0:0:0:0:
256,192,116985,1,0,0:0:0:0:
256,192,117143,1,8,0:0:0:0:
256,192,117301,1,0,0:0:0:0:
256,192,117380,1,0,0:0:0:0:
256,192,117459,1,8,0:0:0:0:
256,192,117538,1,0,0:0:0:0:
256,192,117617,1,8,0:0:0:0:
256,192,117775,1,0,0:0:0:0:
256,192,117933,1,0,0:0:0:0:
256,192,118012,1,0,0:0:0:0:
256,192,118090,1,8,0:0:0:0:
256,192,118169,1,8,0:0:0:0:
256,192,118248,1,8,0:0:0:0:
256,192,118406,1,0,0:0:0:0:
256,192,118564,1,8,0:0:0:0:
256,192,118643,1,0,0:0:0:0:
256,192,118722,1,8,0:0:0:0:
256,192,119038,1,8,0:0:0:0:
256,192,119196,1,0,0:0:0:0:
256,192,119354,1,8,0:0:0:0:
256,192,119433,1,8,0:0:0:0:
256,192,119512,1,0,0:0:0:0:
256,192,119669,1,8,0:0:0:0:
256,192,119748,1,0,0:0:0:0:
256,192,119827,1,8,0:0:0:0:
256,192,119906,1,8,0:0:0:0:
256,192,119985,1,8,0:0:0:0:
256,192,120143,1,8,0:0:0:0:
256,192,120301,1,0,0:0:0:0:
256,192,120459,1,0,0:0:0:0:
256,192,120538,1,0,0:0:0:0:
256,192,120617,1,8,0:0:0:0:
256,192,120775,1,0,0:0:0:0:
256,192,120933,1,8,0:0:0:0:
256,192,121012,1,0,0:0:0:0:
256,192,121090,1,8,0:0:0:0:
256,192,121169,1,8,0:0:0:0:
256,192,121248,1,0,0:0:0:0:
256,192,121406,1,0,0:0:0:0:
256,192,121564,1,8,0:0:0:0:
256,192,121722,1,8,0:0:0:0:
256,192,121801,1,0,0:0:0:0:
256,192,121880,1,8,0:0:0:0:
256,192,122038,1,0,0:0:0:0:
256,192,122117,1,0,0:0:0:0:
256,192,122196,1,8,0:0:0:0:
256,192,122354,1,0,0:0:0:0:
256,192,122512,1,8,0:0:0:0:
256,192,122617,1,0,0:0:0:0:
256,192,122722,1,0,0:0:0:0:
256,192,122827,1,8,0:0:0:0:
256,192,122933,1,0,0:0:0:0:
256,192,123038,1,0,0:0:0:0:
256,192,123143,1,8,0:0:0:0:
256,192,123380,1,0,0:0:0:0:
256,192,123617,1,0,0:0:0:0:
256,96,123775,1,12,0:0:0:0:
256,96,124012,1,12,0:0:0:0:
256,96,124248,1,4,0:0:0:0:
256,192,125354,1,0,0:0:0:0:
256,192,125669,1,8,0:0:0:0:
256,192,125827,1,0,0:0:0:0:
256,96,126301,1,4,0:0:0:0:
256,96,126538,1,4,0:0:0:0:
256,96,126775,1,4,0:0:0:0:
256,192,127564,1,8,0:0:0:0:
256,192,127643,1,8,0:0:0:0:
256,192,127722,1,8,0:0:0:0:
256,192,127801,1,8,0:0:0:0:
256,192,127880,1,0,0:0:0:0:
256,192,127959,1,0,0:0:0:0:
256,192,128038,1,0,0:0:0:0:
256,192,128117,1,0,0:0:0:0:
256,192,128196,1,8,0:0:0:0:
256,192,128275,1,8,0:0:0:0:
256,192,128354,1,0,0:0:0:0:
256,192,128433,1,0,0:0:0:0:
256,192,128512,1,8,0:0:0:0:
256,192,128590,1,0,0:0:0:0:
256,192,128669,1,8,0:0:0:0:
256,96,128827,1,4,0:0:0:0:
256,96,129064,1,4,0:0:0:0:
256,96,129301,1,12,0:0:0:0:
256,192,130564,1,0,0:0:0:0:
256,192,130643,1,0,0:0:0:0:
256,192,130722,1,8,0:0:0:0:
256,192,130880,1,0,0:0:0:0:
256,96,131354,1,12,0:0:0:0:
256,96,131590,1,4,0:0:0:0:
256,96,131827,1,4,0:0:0:0:
256,192,132617,8,0,133564,0:0:0:0:
256,96,133880,5,4,0:0:0:0:
256,192,134827,1,0,0:0:0:0:
256,192,135459,1,0,0:0:0:0:
256,192,135775,1,8,0:0:0:0:
256,192,136090,1,0,0:0:0:0:
256,192,136406,1,8,0:0:0:0:
256,192,136880,1,8,0:0:0:0:
256,192,137354,1,0,0:0:0:0:
256,192,137985,1,0,0:0:0:0:
256,192,138301,1,8,0:0:0:0:
256,192,138617,1,8,0:0:0:0:
256,192,138933,1,0,0:0:0:0:
256,192,139406,1,0,0:0:0:0:
256,192,139880,1,0,0:0:0:0:
256,192,140512,1,0,0:0:0:0:
256,192,140827,1,8,0:0:0:0:
256,192,141143,1,0,0:0:0:0:
256,192,141301,1,0,0:0:0:0:
256,192,141459,1,8,0:0:0:0:
256,192,141933,1,0,0:0:0:0:
256,192,142406,1,8,0:0:0:0:
256,192,142722,1,0,0:0:0:0:
256,192,142880,1,8,0:0:0:0:
256,192,143038,1,0,0:0:0:0:
256,192,143354,1,8,0:0:0:0:
256,192,143669,1,8,0:0:0:0:
256,192,143827,1,8,0:0:0:0:
256,192,143985,1,0,0:0:0:0:
256,192,144459,1,0,0:0:0:0:
256,192,144933,1,8,0:0:0:0:
256,192,145564,1,0,0:0:0:0:
256,192,145880,1,8,0:0:0:0:
256,192,146196,1,0,0:0:0:0:
256,192,146512,1,8,0:0:0:0:
256,192,146985,1,0,0:0:0:0:
256,192,147459,1,8,0:0:0:0:
256,192,148090,1,8,0:0:0:0:
256,192,148406,1,0,0:0:0:0:
256,192,148722,1,8,0:0:0:0:
256,192,148880,1,8,0:0:0:0:
256,192,149038,1,0,0:0:0:0:
256,192,149512,1,0,0:0:0:0:
256,192,149985,1,8,0:0:0:0:
256,192,150933,1,8,0:0:0:0:
256,192,151248,1,0,0:0:0:0:
256,192,151564,1,8,0:0:0:0:
256,192,152038,1,0,0:0:0:0:
256,192,152512,1,0,0:0:0:0:
256,192,152827,1,2,0:0:0:0:
256,192,153459,12,0,153933,0:0:0:0:
256,96,154090,5,4,0:0:0:0:
256,192,154406,1,8,0:0:0:0:
256,192,154564,1,0,0:0:0:0:
256,192,154722,1,8,0:0:0:0:
256,192,154880,1,0,0:0:0:0:
256,192,155196,1,8,0:0:0:0:
256,192,155512,1,0,0:0:0:0:
256,192,155669,1,0,0:0:0:0:
256,192,155827,1,8,0:0:0:0:
256,192,155985,1,0,0:0:0:0:
256,192,156143,1,8,0:0:0:0:
256,192,156459,1,0,0:0:0:0:
256,192,156933,1,0,0:0:0:0:
256,192,157090,1,0,0:0:0:0:
256,192,157248,1,8,0:0:0:0:
256,192,157406,1,0,0:0:0:0:
256,192,157722,1,8,0:0:0:0:
256,192,157880,1,8,0:0:0:0:
256,192,158038,1,0,0:0:0:0:
256,192,158196,1,8,0:0:0:0:
256,192,158354,1,0,0:0:0:0:
256,192,158433,1,0,0:0:0:0:
256,192,158512,1,8,0:0:0:0:
256,192,158669,1,8,0:0:0:0:
256,192,158827,1,0,0:0:0:0:
256,192,158985,1,8,0:0:0:0:
256,96,159143,1,4,0:0:0:0:
256,192,159459,1,8,0:0:0:0:
256,192,159617,1,0,0:0:0:0:
256,192,159775,1,8,0:0:0:0:
256,192,159933,1,8,0:0:0:0:
256,192,160248,1,0,0:0:0:0:
256,192,160564,1,8,0:0:0:0:
256,192,160722,1,0,0:0:0:0:
256,192,160880,1,8,0:0:0:0:
256,192,160959,1,0,0:0:0:0:
256,192,161038,1,8,0:0:0:0:
256,192,161196,1,0,0:0:0:0:
256,192,161512,1,8,0:0:0:0:
256,192,161669,1,0,0:0:0:0:
256,192,161827,1,0,0:0:0:0:
256,192,161985,1,8,0:0:0:0:
256,192,162143,1,8,0:0:0:0:
256,192,162301,1,0,0:0:0:0:
256,192,162459,1,8,0:0:0:0:
256,192,162617,1,0,0:0:0:0:
256,192,162775,1,8,0:0:0:0:
256,192,162854,1,8,0:0:0:0:
256,192,162933,1,8,0:0:0:0:
256,192,163090,1,0,0:0:0:0:
256,192,163248,1,8,0:0:0:0:
256,192,163406,1,8,0:0:0:0:
256,192,163485,1,8,0:0:0:0:
256,192,163564,1,0,0:0:0:0:
256,192,163643,1,8,0:0:0:0:
256,192,163722,1,0,0:0:0:0:
256,192,163880,1,8,0:0:0:0:
256,192,164038,1,0,0:0:0:0:
256,96,164196,1,12,0:0:0:0:
256,192,164512,1,0,0:0:0:0:
256,192,164669,1,0,0:0:0:0:
256,192,164827,1,8,0:0:0:0:
256,192,164985,1,0,0:0:0:0:
256,192,165301,1,8,0:0:0:0:
256,192,165617,1,8,0:0:0:0:
256,192,165775,1,0,0:0:0:0:
256,192,165933,1,0,0:0:0:0:
256,192,166090,1,8,0:0:0:0:
256,192,166248,1,0,0:0:0:0:
256,192,166564,1,0,0:0:0:0:
256,192,166722,1,8,0:0:0:0:
256,192,167038,1,8,0:0:0:0:
256,192,167196,1,0,0:0:0:0:
256,192,167354,1,8,0:0:0:0:
256,192,167512,1,0,0:0:0:0:
256,192,167827,1,0,0:0:0:0:
256,192,167985,1,8,0:0:0:0:
256,192,168143,1,8,0:0:0:0:
256,192,168301,1,0,0:0:0:0:
256,192,168459,1,0,0:0:0:0:
256,192,168617,1,8,0:0:0:0:
256,192,168775,1,0,0:0:0:0:
256,192,169090,1,0,0:0:0:0:
256,192,169169,1,0,0:0:0:0:
256,96,169248,1,12,0:0:0:0:
256,192,169564,1,0,0:0:0:0:
256,192,169722,1,8,0:0:0:0:
256,192,169880,1,8,0:0:0:0:
256,192,170038,1,0,0:0:0:0:
256,192,170354,1,0,0:0:0:0:
256,192,170433,1,0,0:0:0:0:
256,192,170512,1,8,0:0:0:0:
256,192,170669,1,0,0:0:0:0:
256,192,170827,1,0,0:0:0:0:
256,192,170985,1,8,0:0:0:0:
256,192,171143,1,8,0:0:0:0:
256,192,171222,1,8,0:0:0:0:
256,192,171301,1,0,0:0:0:0:
256,192,171380,1,0,0:0:0:0:
256,192,171459,1,8,0:0:0:0:
256,192,171538,1,0,0:0:0:0:
256,192,171617,1,8,0:0:0:0:
256,192,171696,1,8,0:0:0:0:
256,96,171775,1,4,0:0:0:0:
256,192,171933,1,0,0:0:0:0:
256,192,172090,1,0,0:0:0:0:
256,192,172248,1,8,0:0:0:0:
256,192,172406,1,0,0:0:0:0:
256,192,172564,1,0,0:0:0:0:
256,192,172722,1,8,0:0:0:0:
256,192,172880,1,0,0:0:0:0:
256,192,173038,1,8,0:0:0:0:
256,192,173196,1,8,0:0:0:0:
256,192,173354,1,0,0:0:0:0:
256,192,173512,1,0,0:0:0:0:
256,192,173590,1,0,0:0:0:0:
256,192,173669,1,8,0:0:0:0:
256,192,173748,1,8,0:0:0:0:
256,192,173827,1,0,0:0:0:0:
256,192,173906,1,0,0:0:0:0:
256,192,173985,1,8,0:0:0:0:
256,192,174143,1,0,0:0:0:0:
256,192,174222,1,0,0:0:0:0:
256,96,174301,1,12,0:0:0:0:
256,192,174617,1,0,0:0:0:0:
256,192,174933,1,0,0:0:0:0:
256,192,175248,1,0,0:0:0:0:
256,192,175406,1,8,0:0:0:0:
256,192,175564,1,0,0:0:0:0:
256,192,175880,1,0,0:0:0:0:
256,96,176196,1,6,0:0:0:0:
256,96,176406,1,4,0:0:0:0:
256,96,176617,1,4,0:0:0:0:
256,96,176827,1,6,0:0:0:0:
256,192,177143,1,0,0:0:0:0:
256,192,177459,1,0,0:0:0:0:
256,192,177617,1,8,0:0:0:0:
256,192,177696,1,8,0:0:0:0:
256,192,177775,1,0,0:0:0:0:
256,192,177933,1,8,0:0:0:0:
256,192,178012,1,0,0:0:0:0:
256,192,178090,1,8,0:0:0:0:
256,192,178248,1,0,0:0:0:0:
256,192,178327,1,0,0:0:0:0:
256,192,178406,1,0,0:0:0:0:
256,192,178564,1,8,0:0:0:0:
256,192,178643,1,0,0:0:0:0:
256,192,178722,1,8,0:0:0:0:
256,192,178880,1,0,0:0:0:0:
256,192,178959,1,0,0:0:0:0:
256,192,179038,1,8,0:0:0:0:
256,192,179196,1,0,0:0:0:0:
256,96,179354,1,12,0:0:0:0:
256,192,179669,1,0,0:0:0:0:
256,192,179827,1,0,0:0:0:0:
256,192,179985,1,8,0:0:0:0:
256,192,180143,1,8,0:0:0:0:
256,192,180301,1,0,0:0:0:0:
256,192,180459,1,0,0:0:0:0:
256,96,180617,1,12,0:0:0:0:
256,192,180933,1,0,0:0:0:0:
256,192,181090,1,8,0:0:0:0:
256,192,181248,1,0,0:0:0:0:
256,192,181406,1,0,0:0:0:0:
256,192,181564,1,8,0:0:0:0:
256,192,181722,1,8,0:0:0:0:
256,96,181880,1,4,0:0:0:0:
256,192,182196,1,0,0:0:0:0:
256,192,182354,1,0,0:0:0:0:
256,192,182512,1,8,0:0:0:0:
256,192,182669,1,0,0:0:0:0:
256,192,182827,1,0,0:0:0:0:
256,192,182985,1,0,0:0:0:0:
256,96,183143,1,12,0:0:0:0:
256,192,183301,1,0,0:0:0:0:
256,192,183459,1,0,0:0:0:0:
256,192,183617,1,8,0:0:0:0:
256,192,183775,1,8,0:0:0:0:
256,192,183933,1,0,0:0:0:0:
256,192,184012,1,0,0:0:0:0:
256,192,184090,1,8,0:0:0:0:
256,96,184406,1,4,0:0:0:0:
256,192,184722,1,0,0:0:0:0:
256,192,185038,1,0,0:0:0:0:
256,192,185354,1,0,0:0:0:0:
256,192,185669,1,0,0:0:0:0:
256,192,185985,1,0,0:0:0:0:
256,192,186301,1,0,0:0:0:0:
256,192,186617,1,0,0:0:0:0:
256,192,186696,1,8,0:0:0:0:
256,192,186775,1,0,0:0:0:0:
256,192,186933,1,8,0:0:0:0:
256,192,187090,1,0,0:0:0:0:
256,192,187248,1,0,0:0:0:0:
256,192,187406,1,8,0:0:0:0:
256,192,187564,1,0,0:0:0:0:
256,192,187722,1,0,0:0:0:0:
256,192,187880,1,8,0:0:0:0:
256,192,187959,1,8,0:0:0:0:
256,192,188038,1,0,0:0:0:0:
256,192,188117,1,0,0:0:0:0:
256,192,188196,1,8,0:0:0:0:
256,192,188354,1,0,0:0:0:0:
256,192,188512,1,8,0:0:0:0:
256,192,188590,1,8,0:0:0:0:
256,192,188669,1,0,0:0:0:0:
256,192,188748,1,0,0:0:0:0:
256,192,188827,1,8,0:0:0:0:
256,192,188906,1,0,0:0:0:0:
256,192,188985,1,0,0:0:0:0:
256,192,189064,1,0,0:0:0:0:
256,192,189143,1,8,0:0:0:0:
256,192,189222,1,0,0:0:0:0:
256,192,189301,1,8,0:0:0:0:
256,192,189380,1,0,0:0:0:0:
256,192,189459,1,8,0:0:0:0:
256,192,189617,1,0,0:0:0:0:
256,192,189696,1,0,0:0:0:0:
256,192,189775,1,0,0:0:0:0:
256,192,189933,1,8,0:0:0:0:
256,192,190090,1,0,0:0:0:0:
256,192,190248,1,0,0:0:0:0:
256,192,190406,1,8,0:0:0:0:
256,192,190564,1,0,0:0:0:0:
256,192,190643,1,0,0:0:0:0:
256,192,190722,1,0,0:0:0:0:
256,192,190880,1,8,0:0:0:0:
256,192,191038,1,8,0:0:0:0:
256,192,191196,1,0,0:0:0:0:
256,192,191354,1,8,0:0:0:0:
256,192,191433,1,8,0:0:0:0:
256,192,191512,1,0,0:0:0:0:
256,192,191669,1,8,0:0:0:0:
256,192,191827,1,0,0:0:0:0:
256,192,191985,1,2,0:0:0:0:
256,96,194512,1,4,0:0:0:0:
256,192,194985,1,0,0:0:0:0:
256,192,195459,1,8,0:0:0:0:
256,192,195933,1,0,0:0:0:0:
256,192,196248,1,0,0:0:0:0:
256,192,196406,1,8,0:0:0:0:
256,192,196564,1,0,0:0:0:0:
256,192,196880,1,0,0:0:0:0:
256,192,196959,1,0,0:0:0:0:
256,96,197038,1,12,0:0:0:0:
256,192,197512,1,8,0:0:0:0:
256,192,197985,1,0,0:0:0:0:
256,192,198459,1,8,0:0:0:0:
256,192,198775,1,0,0:0:0:0:
256,192,198933,1,8,0:0:0:0:
256,192,199090,1,0,0:0:0:0:
256,192,199248,1,0,0:0:0:0:
256,192,199406,1,8,0:0:0:0:
256,96,199564,1,4,0:0:0:0:
256,96,199801,1,4,0:0:0:0:
256,96,200038,1,12,0:0:0:0:
256,192,200512,1,0,0:0:0:0:
256,192,200985,1,8,0:0:0:0:
256,192,201143,1,0,0:0:0:0:
256,192,201301,1,0,0:0:0:0:
256,192,201459,1,8,0:0:0:0:
256,192,201617,1,8,0:0:0:0:
256,192,201775,1,0,0:0:0:0:
256,192,201933,1,8,0:0:0:0:
256,96,202090,1,4,0:0:0:0:
256,192,202564,1,8,0:0:0:0:
256,192,203038,1,0,0:0:0:0:
256,192,203512,1,8,0:0:0:0:
256,192,203669,1,0,0:0:0:0:
256,192,203985,1,0,0:0:0:0:
256,192,204064,1,0,0:0:0:0:
256,192,204143,1,8,0:0:0:0:
256,192,204222,1,0,0:0:0:0:
256,192,204301,1,8,0:0:0:0:
256,192,204380,1,8,0:0:0:0:
256,192,204459,1,0,0:0:0:0:
256,192,204538,1,8,0:0:0:0:
256,96,204617,1,4,0:0:0:0:
256,192,205090,1,0,0:0:0:0:
256,192,205564,1,8,0:0:0:0:
256,192,206038,1,0,0:0:0:0:
256,192,206354,1,0,0:0:0:0:
256,192,206512,1,8,0:0:0:0:
256,192,206669,1,0,0:0:0:0:
256,192,206985,1,0,0:0:0:0:
256,96,207143,1,12,0:0:0:0:
256,192,207617,1,8,0:0:0:0:
256,192,208090,1,0,0:0:0:0:
256,192,208564,1,8,0:0:0:0:
256,192,208880,1,0,0:0:0:0:
256,192,209038,1,8,0:0:0:0:
256,192,209196,1,0,0:0:0:0:
256,192,209354,1,0,0:0:0:0:
256,192,209512,1,8,0:0:0:0:
256,96,209669,1,4,0:0:0:0:
256,96,209906,1,4,0:0:0:0:
256,96,210143,1,12,0:0:0:0:
256,192,210617,1,0,0:0:0:0:
256,192,211090,1,8,0:0:0:0:
256,192,211248,1,0,0:0:0:0:
256,192,211406,1,0,0:0:0:0:
256,192,211564,1,8,0:0:0:0:
256,192,211722,1,0,0:0:0:0:
256,192,211880,1,8,0:0:0:0:
256,192,211959,1,0,0:0:0:0:
256,192,212038,1,8,0:0:0:0:
256,192,212117,1,8,0:0:0:0:
256,192,212196,1,0,0:0:0:0:
256,192,212512,1,0,0:0:0:0:
256,192,212669,1,0,0:0:0:0:
256,192,212827,1,0,0:0:0:0:
256,192,212985,1,0,0:0:0:0:
256,192,213143,1,8,0:0:0:0:
256,192,213301,1,0,0:0:0:0:
256,192,213459,1,8,0:0:0:0:
256,192,213617,1,0,0:0:0:0:
256,192,213696,1,0,0:0:0:0:
256,192,213775,1,8,0:0:0:0:
256,192,213933,1,0,0:0:0:0:
256,192,214090,1,8,0:0:0:0:
256,192,214169,1,8,0:0:0:0:
256,192,214248,1,0,0:0:0:0:
256,192,214327,1,0,0:0:0:0:
256,192,214406,1,8,0:0:0:0:
256,192,214485,1,8,0:0:0:0:
256,192,214564,1,0,0:0:0:0:
256,96,214722,1,12,0:0:0:0:
256,192,215038,1,0,0:0:0:0:
256,192,215196,1,0,0:0:0:0:
256,192,215354,1,8,0:0:0:0:
256,192,215512,1,0,0:0:0:0:
256,192,215669,1,8,0:0:0:0:
256,192,215748,1,0,0:0:0:0:
256,192,215827,1,8,0:0:0:0:
256,192,215906,1,8,0:0:0:0:
256,192,215985,1,0,0:0:0:0:
256,192,216143,1,0,0:0:0:0:
256,192,216222,1,0,0:0:0:0:
256,192,216301,1,8,0:0:0:0:
256,192,216459,1,0,0:0:0:0:
256,192,216617,1,8,0:0:0:0:
256,192,216696,1,8,0:0:0:0:
256,192,216775,1,0,0:0:0:0:
256,192,216854,1,0,0:0:0:0:
256,192,216933,1,8,0:0:0:0:
256,192,217090,1,0,0:0:0:0:
256,192,217248,1,8,0:0:0:0:
256,192,217564,1,0,0:0:0:0:
256,192,217722,1,0,0:0:0:0:
256,192,217880,1,8,0:0:0:0:
256,192,217959,1,8,0:0:0:0:
256,192,218038,1,0,0:0:0:0:
256,192,218196,1,8,0:0:0:0:
256,192,218354,1,0,0:0:0:0:
256,192,218512,1,8,0:0:0:0:
256,192,218590,1,0,0:0:0:0:
256,192,218669,1,0,0:0:0:0:
256,192,218748,1,0,0:0:0:0:
256,192,218827,1,8,0:0:0:0:
256,192,218985,1,0,0:0:0:0:
256,192,219143,1,8,0:0:0:0:
256,192,219222,1,8,0:0:0:0:
256,192,219301,1,8,0:0:0:0:
256,192,219380,1,0,0:0:0:0:
256,192,219459,1,8,0:0:0:0:
256,192,219617,1,0,0:0:0:0:
256,192,219775,1,8,0:0:0:0:
256,192,220090,1,8,0:0:0:0:
256,192,220248,1,0,0:0:0:0:
256,192,220327,1,0,0:0:0:0:
256,192,220406,1,8,0:0:0:0:
256,192,220564,1,0,0:0:0:0:
256,192,220722,1,8,0:0:0:0:
256,192,220801,1,8,0:0:0:0:
256,192,220880,1,0,0:0:0:0:
256,192,220959,1,8,0:0:0:0:
256,192,221038,1,0,0:0:0:0:
256,192,221196,1,0,0:0:0:0:
256,192,221354,1,8,0:0:0:0:
256,192,221512,1,0,0:0:0:0:
256,192,221590,1,0,0:0:0:0:
256,192,221669,1,8,0:0:0:0:
256,192,221827,1,0,0:0:0:0:
256,192,221985,1,8,0:0:0:0:
256,192,222064,1,8,0:0:0:0:
256,192,222143,1,0,0:0:0:0:
256,192,222301,1,8,0:0:0:0:
256,192,222617,1,8,0:0:0:0:
256,192,222775,1,0,0:0:0:0:
256,192,222933,1,8,0:0:0:0:
256,192,223012,1,8,0:0:0:0:
256,192,223090,1,0,0:0:0:0:
256,192,223169,1,0,0:0:0:0:
256,192,223248,1,8,0:0:0:0:
256,192,223327,1,0,0:0:0:0:
256,192,223406,1,8,0:0:0:0:
256,192,223564,1,0,0:0:0:0:
256,192,223722,1,0,0:0:0:0:
256,192,223801,1,0,0:0:0:0:
256,192,223880,1,8,0:0:0:0:
256,192,224038,1,0,0:0:0:0:
256,192,224196,1,8,0:0:0:0:
256,192,224275,1,0,0:0:0:0:
256,192,224354,1,8,0:0:0:0:
256,192,224433,1,8,0:0:0:0:
256,192,224512,1,0,0:0:0:0:
256,192,224669,1,0,0:0:0:0:
256,96,224827,1,12,0:0:0:0:
256,192,225143,1,0,0:0:0:0:
256,192,225301,1,0,0:0:0:0:
256,192,225380,1,0,0:0:0:0:
256,192,225459,1,8,0:0:0:0:
256,192,225617,1,0,0:0:0:0:
256,192,225775,1,8,0:0:0:0:
256,192,225854,1,0,0:0:0:0:
256,192,225933,1,8,0:0:0:0:
256,192,226012,1,8,0:0:0:0:
256,192,226090,1,0,0:0:0:0:
256,192,226248,1,0,0:0:0:0:
256,192,226406,1,8,0:0:0:0:
256,192,226485,1,8,0:0:0:0:
256,192,226564,1,0,0:0:0:0:
256,192,226722,1,8,0:0:0:0:
256,192,226880,1,0,0:0:0:0:
256,192,226959,1,0,0:0:0:0:
256,192,227038,1,8,0:0:0:0:
256,192,227117,1,8,0:0:0:0:
256,192,227196,1,0,0:0:0:0:
256,192,227354,1,8,0:0:0:0:
256,192,227669,1,0,0:0:0:0:
256,192,227827,1,0,0:0:0:0:
256,192,227985,1,8,0:0:0:0:
256,192,228064,1,8,0:0:0:0:
256,192,228143,1,0,0:0:0:0:
256,192,228301,1,8,0:0:0:0:
256,192,228459,1,0,0:0:0:0:
256,192,228617,1,8,0:0:0:0:
256,192,228696,1,0,0:0:0:0:
256,192,228775,1,0,0:0:0:0:
256,192,228854,1,0,0:0:0:0:
256,192,228933,1,8,0:0:0:0:
256,192,229090,1,0,0:0:0:0:
256,192,229248,1,8,0:0:0:0:
256,192,229406,1,8,0:0:0:0:
256,192,229485,1,0,0:0:0:0:
256,192,229564,1,8,0:0:0:0:
256,192,229722,1,0,0:0:0:0:
256,192,229880,1,8,0:0:0:0:
256,192,230196,1,8,0:0:0:0:
256,192,230354,1,0,0:0:0:0:
256,192,230433,1,0,0:0:0:0:
256,192,230512,1,8,0:0:0:0:
256,192,230669,1,0,0:0:0:0:
256,192,230827,1,8,0:0:0:0:
256,192,230906,1,0,0:0:0:0:
256,192,230985,1,8,0:0:0:0:
256,192,231064,1,8,0:0:0:0:
256,192,231143,1,0,0:0:0:0:
256,192,231301,1,0,0:0:0:0:
256,192,231459,1,8,0:0:0:0:
256,192,231538,1,8,0:0:0:0:
256,192,231617,1,0,0:0:0:0:
256,192,231696,1,0,0:0:0:0:
256,192,231775,1,8,0:0:0:0:
256,192,231933,1,0,0:0:0:0:
256,192,232090,1,8,0:0:0:0:
256,192,232169,1,0,0:0:0:0:
256,192,232248,1,8,0:0:0:0:
256,192,232327,1,0,0:0:0:0:
256,192,232406,1,8,0:0:0:0:
256,192,232564,1,0,0:0:0:0:
256,192,232643,1,0,0:0:0:0:
256,192,232722,1,0,0:0:0:0:
256,192,232880,1,8,0:0:0:0:
256,192,233038,1,0,0:0:0:0:
256,192,233117,1,0,0:0:0:0:
256,192,233196,1,8,0:0:0:0:
256,192,233354,1,8,0:0:0:0:
256,192,233512,1,0,0:0:0:0:
256,192,233669,1,0,0:0:0:0:
256,192,233827,1,8,0:0:0:0:
256,192,233906,1,8,0:0:0:0:
256,192,233985,1,0,0:0:0:0:
256,192,234143,1,8,0:0:0:0:
256,192,234222,1,8,0:0:0:0:
256,192,234301,1,0,0:0:0:0:
256,192,234459,1,0,0:0:0:0:
256,192,234538,1,0,0:0:0:0:
256,192,234617,1,8,0:0:0:0:
256,192,234696,1,0,0:0:0:0:
256,192,234775,1,8,0:0:0:0:
256,192,234854,1,8,0:0:0:0:
256,96,234933,1,4,0:0:0:0:
256,192,235248,1,8,0:0:0:0:
256,192,235564,1,0,0:0:0:0:
256,192,235722,1,0,0:0:0:0:
256,192,235880,1,8,0:0:0:0:
256,192,236196,1,0,0:0:0:0:
256,192,236354,1,0,0:0:0:0:
256,192,236512,1,8,0:0:0:0:
256,192,236669,1,0,0:0:0:0:
256,192,236748,1,8,0:0:0:0:
256,192,236827,1,0,0:0:0:0:
256,192,236985,1,0,0:0:0:0:
256,192,237143,1,8,0:0:0:0:
256,192,237301,1,8,0:0:0:0:
256,192,237380,1,8,0:0:0:0:
256,192,237459,1,0,0:0:0:0:
256,192,237617,1,0,0:0:0:0:
256,192,237775,1,8,0:0:0:0:
256,192,238090,1,0,0:0:0:0:
256,192,238248,1,0,0:0:0:0:
256,192,238406,1,8,0:0:0:0:
256,192,238564,1,0,0:0:0:0:
256,192,238643,1,0,0:0:0:0:
256,192,238722,1,8,0:0:0:0:
256,192,238880,1,0,0:0:0:0:
256,192,239038,1,8,0:0:0:0:
256,192,239196,1,0,0:0:0:0:
256,192,239275,1,0,0:0:0:0:
256,192,239354,1,8,0:0:0:0:
256,192,239512,1,0,0:0:0:0:
256,192,239669,1,8,0:0:0:0:
256,192,239748,1,0,0:0:0:0:
256,192,239827,1,8,0:0:0:0:
256,192,239906,1,8,0:0:0:0:
256,192,239985,1,0,0:0:0:0:
256,192,240143,1,0,0:0:0:0:
256,192,240301,1,8,0:0:0:0:
256,192,240617,1,0,0:0:0:0:
256,192,240775,1,0,0:0:0:0:
256,192,240933,1,8,0:0:0:0:
256,192,241012,1,0,0:0:0:0:
256,192,241090,1,8,0:0:0:0:
256,192,241248,1,0,0:0:0:0:
256,192,241406,1,0,0:0:0:0:
256,192,241485,1,0,0:0:0:0:
256,192,241564,1,8,0:0:0:0:
256,192,241722,1,8,0:0:0:0:
256,192,241801,1,0,0:0:0:0:
256,192,241880,1,8,0:0:0:0:
256,192,242038,1,0,0:0:0:0:
256,192,242196,1,8,0:0:0:0:
256,192,242354,1,0,0:0:0:0:
256,192,242433,1,0,0:0:0:0:
256,192,242512,1,8,0:0:0:0:
256,192,242669,1,0,0:0:0:0:
256,192,242827,1,0,0:0:0:0:
256,192,242985,1,8,0:0:0:0:
256,192,243143,1,0,0:0:0:0:
256,192,243301,1,0,0:0:0:0:
256,192,243459,1,8,0:0:0:0:
256,192,243617,1,0,0:0:0:0:
256,192,243775,1,0,0:0:0:0:
256,96,243933,1,12,0:0:0:0:
256,96,244090,1,12,0:0:0:0:
256,192,244406,1,0,0:0:0:0:
256,192,244564,1,8,0:0:0:0:
256,192,244643,1,0,0:0:0:0:
256,192,244722,1,8,0:0:0:0:
256,192,244801,1,8,0:0:0:0:
256,192,244880,1,0,0:0:0:0:
256,192,245038,1,8,0:0:0:0:
256,192,245117,1,8,0:0:0:0:
256,192,245196,1,0,0:0:0:0:
256,192,245275,1,0,0:0:0:0:
256,192,245354,1,8,0:0:0:0:
256,192,245433,1,0,0:0:0:0:
256,192,245512,1,8,0:0:0:0:
256,192,245590,1,0,0:0:0:0:
256,192,245669,1,8,0:0:0:0:
256,192,245748,1,8,0:0:0:0:
256,192,245827,1,8,0:0:0:0:
256,192,245906,1,0,0:0:0:0:
256,192,245985,1,8,0:0:0:0:
256,192,246064,1,8,0:0:0:0:
256,192,246143,1,0,0:0:0:0:
256,192,246222,1,0,0:0:0:0:
256,192,246301,1,8,0:0:0:0:
256,192,246380,1,0,0:0:0:0:
256,192,246459,1,8,0:0:0:0:
256,192,246538,1,8,0:0:0:0:
256,192,246617,1,0,0:0:0:0:
256,192,246696,1,8,0:0:0:0:
256,192,246775,1,8,0:0:0:0:
256,192,246854,1,0,0:0:0:0:
256,192,246933,1,8,0:0:0:0:
256,192,247012,1,0,0:0:0:0:
256,192,247090,1,0,0:0:0:0:
256,192,247169,1,8,0:0:0:0:
256,192,247248,1,0,0:0:0:0:
256,192,247327,1,0,0:0:0:0:
256,192,247406,1,8,0:0:0:0:
256,192,247485,1,0,0:0:0:0:
256,192,247564,1,8,0:0:0:0:
256,192,247643,1,8,0:0:0:0:
256,192,247722,1,0,0:0:0:0:
256,192,247801,1,0,0:0:0:0:
256,192,247880,1,8,0:0:0:0:
256,192,247959,1,0,0:0:0:0:
256,192,248038,1,8,0:0:0:0:
256,192,248117,1,0,0:0:0:0:
256,192,248196,1,8,0:0:0:0:
256,192,248275,1,8,0:0:0:0:
256,192,248354,1,8,0:0:0:0:
256,192,248433,1,0,0:0:0:0:
256,192,248512,1,8,0:0:0:0:
256,192,248590,1,8,0:0:0:0:
256,192,248669,1,0,0:0:0:0:
256,192,248748,1,0,0:0:0:0:
256,192,248827,1,8,0:0:0:0:
256,192,248906,1,0,0:0:0:0:
256,192,248985,1,8,0:0:0:0:
256,192,249064,1,8,0:0:0:0:
256,192,249143,1,0,0:0:0:0:
256,192,249222,1,8,0:0:0:0:
256,192,249301,1,8,0:0:0:0:
256,192,249380,1,0,0:0:0:0:
256,192,249459,1,8,0:0:0:0:
256,192,249538,1,0,0:0:0:0:
256,192,249617,1,0,0:0:0:0:
256,192,249696,1,8,0:0:0:0:
256,192,249775,1,0,0:0:0:0:
256,192,249854,1,0,0:0:0:0:
256,192,249933,1,8,0:0:0:0:
256,192,250012,1,0,0:0:0:0:
256,192,250090,1,8,0:0:0:0:
256,192,250248,1,0,0:0:0:0:
256,192,250406,1,8,0:0:0:0:
256,192,250722,1,0,0:0:0:0:
256,192,250880,1,8,0:0:0:0:
256,192,250959,1,8,0:0:0:0:
256,192,251038,1,0,0:0:0:0:
256,192,251117,1,8,0:0:0:0:
256,192,251196,1,0,0:0:0:0:
256,192,251275,1,0,0:0:0:0:
256,192,251354,1,8,0:0:0:0:
256,192,251512,1,0,0:0:0:0:
256,192,251669,1,8,0:0:0:0:
256,192,251748,1,8,0:0:0:0:
256,192,251827,1,0,0:0:0:0:
256,192,251985,1,8,0:0:0:0:
256,192,252143,1,0,0:0:0:0:
256,192,252222,1,0,0:0:0:0:
256,192,252301,1,8,0:0:0:0:
256,192,252380,1,0,0:0:0:0:
256,192,252459,1,8,0:0:0:0:
256,192,252538,1,8,0:0:0:0:
256,96,252617,1,4,0:0:0:0:
256,192,252775,1,8,0:0:0:0:
256,192,252854,1,8,0:0:0:0:
256,192,252933,1,8,0:0:0:0:
256,96,253090,1,4,0:0:0:0:
256,192,253248,1,8,0:0:0:0:
256,192,253327,1,8,0:0:0:0:
256,192,253406,1,8,0:0:0:0:
256,96,253564,1,4,0:0:0:0:
256,192,253722,1,8,0:0:0:0:
256,192,253801,1,8,0:0:0:0:
256,192,253880,1,0,0:0:0:0:
256,192,254038,1,8,0:0:0:0:
256,192,254196,1,8,0:0:0:0:
256,192,254354,1,0,0:0:0:0:
256,192,254512,1,8,0:0:0:0:
256,192,254617,1,0,0:0:0:0:
256,192,254722,1,0,0:0:0:0:
256,192,254827,1,8,0:0:0:0:
256,192,254933,1,0,0:0:0:0:
256,192,255038,1,8,0:0:0:0:
256,192,255143,1,0,0:0:0:0:
256,192,255617,1,8,0:0:0:0:
256,192,256090,1,8,0:0:0:0:
256,192,257038,1,0,0:0:0:0:
256,192,257354,1,8,0:0:0:0:
256,192,257669,1,0,0:0:0:0:
256,192,258143,1,0,0:0:0:0:
256,192,258617,1,8,0:0:0:0:
256,192,259564,1,0,0:0:0:0:
256,192,259880,1,8,0:0:0:0:
256,192,260196,1,8,0:0:0:0:
256,192,260669,1,0,0:0:0:0:
256,192,261143,1,8,0:0:0:0:
256,192,261775,1,0,0:0:0:0:
256,192,262090,1,8,0:0:0:0:
256,192,262406,1,0,0:0:0:0:
256,192,262722,1,8,0:0:0:0:
256,192,263354,1,8,0:0:0:0:
256,192,263985,1,8,0:0:0:0:
256,192,264933,1,0,0:0:0:0:
256,192,265248,1,8,0:0:0:0:
256,192,265722,1,0,0:0:0:0:
256,192,266196,1,8,0:0:0:0:
256,192,267143,1,0,0:0:0:0:
256,192,267459,1,8,0:0:0:0:
256,192,267775,1,0,0:0:0:0:
256,192,268248,1,8,0:0:0:0:
256,192,268722,1,8,0:0:0:0:
256,192,269669,1,8,0:0:0:0:
256,192,269985,1,0,0:0:0:0:
256,192,270301,1,8,0:0:0:0:
256,192,270775,1,0,0:0:0:0:
256,192,271248,1,8,0:0:0:0:
256,192,271880,1,0,0:0:0:0:
256,192,272196,1,8,0:0:0:0:
256,192,272512,1,8,0:0:0:0:
256,192,272827,1,0,0:0:0:0:
256,192,273775,1,0,0:0:0:0:
256,192,273933,1,2,0:0:0:0:
256,96,275354,1,12,0:0:0:0:
256,192,275827,1,0,0:0:0:0:
256,192,276301,1,8,0:0:0:0:
256,192,276775,1,0,0:0:0:0:
256,192,277090,1,0,0:0:0:0:
256,192,277248,1,8,0:0:0:0:
256,192,277406,1,0,0:0:0:0:
256,192,277564,1,8,0:0:0:0:
256,192,277722,1,0,0:0:0:0:
256,192,277801,1,0,0:0:0:0:
256,96,277880,1,12,0:0:0:0:
256,192,278354,1,8,0:0:0:0:
256,192,278827,1,0,0:0:0:0:
256,192,279301,1,8,0:0:0:0:
256,192,279617,1,8,0:0:0:0:
256,192,279696,1,0,0:0:0:0:
256,192,279775,1,8,0:0:0:0:
256,192,279933,1,0,0:0:0:0:
256,192,280248,1,8,0:0:0:0:
256,96,280406,1,4,0:0:0:0:
256,96,280643,1,4,0:0:0:0:
256,96,280880,1,12,0:0:0:0:
256,192,281354,1,0,0:0:0:0:
256,192,281827,1,8,0:0:0:0:
256,192,281985,1,0,0:0:0:0:
256,192,282143,1,0,0:0:0:0:
256,192,282301,1,8,0:0:0:0:
256,192,282459,1,0,0:0:0:0:
256,192,282617,1,0,0:0:0:0:
256,192,282775,1,8,0:0:0:0:
256,96,282933,1,4,0:0:0:0:
256,192,283406,1,8,0:0:0:0:
256,192,283880,1,0,0:0:0:0:
256,192,284354,1,8,0:0:0:0:
256,192,284512,1,0,0:0:0:0:
256,192,284669,1,8,0:0:0:0:
256,192,284748,1,8,0:0:0:0:
256,192,284827,1,0,0:0:0:0:
256,192,284906,1,0,0:0:0:0:
256,192,284985,1,0,0:0:0:0:
256,192,285064,1,0,0:0:0:0:
256,192,285143,1,8,0:0:0:0:
256,192,285222,1,0,0:0:0:0:
256,192,285301,1,8,0:0:0:0:
256,192,285380,1,8,0:0:0:0:
256,96,285459,1,4,0:0:0:0:
256,192,285933,1,0,0:0:0:0:
256,192,286406,1,8,0:0:0:0:
256,192,286880,1,0,0:0:0:0:
256,192,287196,1,0,0:0:0:0:
256,192,287275,1,0,0:0:0:0:
256,192,287354,1,8,0:0:0:0:
256,192,287512,1,0,0:0:0:0:
256,192,287669,1,8,0:0:0:0:
256,192,287827,1,8,0:0:0:0:
256,96,287985,1,4,0:0:0:0:
256,192,288459,1,8,0:0:0:0:
256,192,288933,1,0,0:0:0:0:
256,192,289406,1,8,0:0:0:0:
256,192,289722,1,0,0:0:0:0:
256,192,289880,1,8,0:0:0:0:
256,192,290038,1,0,0:0:0:0:
256,192,290196,1,0,0:0:0:0:
256,192,290354,1,8,0:0:0:0:
256,96,290512,1,4,0:0:0:0:
256,96,290748,1,4,0:0:0:0:
256,96,290985,1,12,0:0:0:0:
256,192,291459,1,0,0:0:0:0:
256,192,291933,1,8,0:0:0:0:
256,192,292090,1,0,0:0:0:0:
256,192,292248,1,0,0:0:0:0:
256,192,292406,1,8,0:0:0:0:
256,192,292564,1,0,0:0:0:0:
256,192,292722,1,8,0:0:0:0:
256,192,292880,1,0,0:0:0:0:
256,192,293038,1,8,0:0:0:0:
256,192,293117,1,8,0:0:0:0:
256,192,293196,1,0,0:0:0:0:
256,192,293275,1,0,0:0:0:0:
256,192,293354,1,8,0:0:0:0:
256,192,293433,1,8,0:0:0:0:
256,192,293512,1,8,0:0:0:0:
256,192,293590,1,8,0:0:0:0:
256,192,293669,1,0,0:0:0:0:
256,192,293748,1,0,0:0:0:0:
256,192,293827,1,8,0:0:0:0:
256,192,293906,1,8,0:0:0:0:
256,192,293985,1,0,0:0:0:0:
256,192,294064,1,0,0:0:0:0:
256,192,294143,1,8,0:0:0:0:
256,192,294222,1,0,0:0:0:0:
256,192,294301,1,8,0:0:0:0:
256,192,294459,1,0,0:0:0:0:
256,192,294538,1,0,0:0:0:0:
256,192,294617,1,8,0:0:0:0:
256,192,294696,1,0,0:0:0:0:
256,192,294775,1,0,0:0:0:0:
256,192,294933,1,8,0:0:0:0:
256,192,295012,1,0,0:0:0:0:
256,192,295090,1,8,0:0:0:0:
256,192,295169,1,8,0:0:0:0:
256,192,295248,1,0,0:0:0:0:
256,192,295406,1,0,0:0:0:0:
256,96,295564,1,12,0:0:0:0:
256,192,295880,1,0,0:0:0:0:
256,192,296038,1,0,0:0:0:0:
256,192,296196,1,8,0:0:0:0:
256,192,296354,1,0,0:0:0:0:
256,192,296512,1,8,0:0:0:0:
256,192,296590,1,0,0:0:0:0:
256,192,296669,1,8,0:0:0:0:
256,192,296748,1,8,0:0:0:0:
256,192,296827,1,0,0:0:0:0:
256,192,296985,1,0,0:0:0:0:
256,192,297143,1,8,0:0:0:0:
256,192,297222,1,8,0:0:0:0:
256,192,297301,1,0,0:0:0:0:
256,192,297459,1,8,0:0:0:0:
256,192,297617,1,0,0:0:0:0:
256,192,297696,1,0,0:0:0:0:
256,192,297775,1,8,0:0:0:0:
256,192,297854,1,8,0:0:0:0:
256,192,297933,1,0,0:0:0:0:
256,192,298090,1,8,0:0:0:0:
256,192,298406,1,0,0:0:0:0:
256,192,298564,1,0,0:0:0:0:
256,192,298722,1,8,0:0:0:0:
256,192,298801,1,0,0:0:0:0:
256,192,298880,1,8,0:0:0:0:
256,192,299038,1,0,0:0:0:0:
256,192,299196,1,0,0:0:0:0:
256,192,299275,1,0,0:0:0:0:
256,192,299354,1,8,0:0:0:0:
256,192,299433,1,8,0:0:0:0:
256,192,299512,1,0,0:0:0:0:
256,192,299669,1,8,0:0:0:0:
256,192,299827,1,0,0:0:0:0:
256,192,299985,1,8,0:0:0:0:
256,192,300064,1,0,0:0:0:0:
256,192,300143,1,8,0:0:0:0:
256,192,300222,1,8,0:0:0:0:
256,192,300301,1,0,0:0:0:0:
256,192,300459,1,0,0:0:0:0:
256,192,300538,1,0,0:0:0:0:
256,192,300617,1,8,0:0:0:0:
256,192,300933,1,8,0:0:0:0:
256,192,301090,1,0,0:0:0:0:
256,192,301169,1,0,0:0:0:0:
256,192,301248,1,8,0:0:0:0:
256,192,301406,1,0,0:0:0:0:
256,192,301564,1,8,0:0:0:0:
256,192,301643,1,0,0:0:0:0:
256,192,301722,1,8,0:0:0:0:
256,192,301801,1,8,0:0:0:0:
256,192,301880,1,0,0:0:0:0:
256,192,302038,1,0,0:0:0:0:
256,192,302196,1,8,0:0:0:0:
256,192,302354,1,0,0:0:0:0:
256,192,302433,1,0,0:0:0:0:
256,192,302512,1,8,0:0:0:0:
256,192,302669,1,0,0:0:0:0:
256,192,302827,1,8,0:0:0:0:
256,192,302906,1,8,0:0:0:0:
256,192,302985,1,8,0:0:0:0:
256,192,303064,1,0,0:0:0:0:
256,192,303143,1,8,0:0:0:0:
256,192,303459,1,8,0:0:0:0:
256,192,303617,1,0,0:0:0:0:
256,192,303775,1,8,0:0:0:0:
256,192,303854,1,8,0:0:0:0:
256,192,303933,1,0,0:0:0:0:
256,192,304012,1,0,0:0:0:0:
256,192,304090,1,8,0:0:0:0:
256,192,304169,1,0,0:0:0:0:
256,192,304248,1,8,0:0:0:0:
256,192,304406,1,0,0:0:0:0:
256,192,304564,1,0,0:0:0:0:
256,192,304643,1,0,0:0:0:0:
256,192,304722,1,8,0:0:0:0:
256,192,304880,1,0,0:0:0:0:
256,192,305038,1,8,0:0:0:0:
256,192,305117,1,0,0:0:0:0:
256,192,305196,1,8,0:0:0:0:
256,192,305275,1,8,0:0:0:0:
256,192,305354,1,0,0:0:0:0:
256,192,305512,1,0,0:0:0:0:
256,192,305590,1,0,0:0:0:0:
256,96,305669,1,12,0:0:0:0:
256,192,305985,1,0,0:0:0:0:
256,192,306143,1,0,0:0:0:0:
256,192,306301,1,8,0:0:0:0:
256,192,306380,1,8,0:0:0:0:
256,192,306459,1,0,0:0:0:0:
256,192,306617,1,0,0:0:0:0:
256,192,306696,1,0,0:0:0:0:
256,192,306775,1,8,0:0:0:0:
256,192,306854,1,0,0:0:0:0:
256,192,306933,1,8,0:0:0:0:
256,192,307090,1,0,0:0:0:0:
256,192,307248,1,8,0:0:0:0:
256,192,307327,1,8,0:0:0:0:
256,192,307406,1,0,0:0:0:0:
256,192,307564,1,8,0:0:0:0:
256,192,307722,1,0,0:0:0:0:
256,192,307801,1,0,0:0:0:0:
256,192,307880,1,8,0:0:0:0:
256,192,308038,1,0,0:0:0:0:
256,192,308196,1,8,0:0:0:0:
256,192,308512,1,0,0:0:0:0:
256,192,308669,1,0,0:0:0:0:
256,192,308827,1,8,0:0:0:0:
256,192,308906,1,8,0:0:0:0:
256,192,308985,1,0,0:0:0:0:
256,192,309143,1,8,0:0:0:0:
256,192,309301,1,0,0:0:0:0:
256,192,309380,1,0,0:0:0:0:
256,192,309459,1,8,0:0:0:0:
256,192,309538,1,0,0:0:0:0:
256,192,309617,1,8,0:0:0:0:
256,192,309775,1,0,0:0:0:0:
256,192,309933,1,0,0:0:0:0:
256,192,310012,1,0,0:0:0:0:
256,192,310090,1,8,0:0:0:0:
256,192,310169,1,8,0:0:0:0:
256,192,310248,1,8,0:0:0:0:
256,192,310406,1,0,0:0:0:0:
256,192,310564,1,8,0:0:0:0:
256,192,310643,1,0,0:0:0:0:
256,192,310722,1,8,0:0:0:0:
256,192,311038,1,8,0:0:0:0:
256,192,311196,1,0,0:0:0:0:
256,192,311275,1,0,0:0:0:0:
256,192,311354,1,8,0:0:0:0:
256,192,311512,1,0,0:0:0:0:
256,192,311669,1,8,0:0:0:0:
256,192,311748,1,0,0:0:0:0:
256,192,311827,1,8,0:0:0:0:
256,192,311906,1,8,0:0:0:0:
256,192,311985,1,0,0:0:0:0:
256,192,312143,1,0,0:0:0:0:
256,192,312301,1,8,0:0:0:0:
256,192,312459,1,0,0:0:0:0:
256,192,312538,1,0,0:0:0:0:
256,192,312617,1,8,0:0:0:0:
256,192,312775,1,0,0:0:0:0:
256,192,312933,1,8,0:0:0:0:
256,192,313012,1,8,0:0:0:0:
256,192,313090,1,0,0:0:0:0:
256,192,313169,1,0,0:0:0:0:
256,192,313248,1,8,0:0:0:0:
256,192,313564,1,8,0:0:0:0:
256,192,313722,1,8,0:0:0:0:
256,192,313801,1,8,0:0:0:0:
256,192,313880,1,8,0:0:0:0:
256,192,314038,1,0,0:0:0:0:
256,192,314196,1,0,0:0:0:0:
256,192,314354,1,8,0:0:0:0:
256,192,314512,1,0,0:0:0:0:
256,192,314669,1,8,0:0:0:0:
256,192,314748,1,0,0:0:0:0:
256,192,314827,1,8,0:0:0:0:
256,192,314906,1,8,0:0:0:0:
256,192,314985,1,0,0:0:0:0:
256,192,315064,1,0,0:0:0:0:
256,192,315143,1,8,0:0:0:0:
256,192,315222,1,8,0:0:0:0:
256,192,315301,1,8,0:0:0:0:
256,192,315380,1,8,0:0:0:0:
256,192,315459,1,0,0:0:0:0:
256,192,315538,1,0,0:0:0:0:
256,192,315617,1,0,0:0:0:0:
256,192,315696,1,0,0:0:0:0:
256,192,315775,1,8,0:0:0:0:
256,192,315933,1,0,0:0:0:0:
256,192,316090,1,8,0:0:0:0:
256,192,316406,1,0,0:0:0:0:
256,192,316564,1,0,0:0:0:0:
256,192,316722,1,8,0:0:0:0:
256,192,316880,1,0,0:0:0:0:
256,192,316959,1,0,0:0:0:0:
256,192,317038,1,0,0:0:0:0:
256,192,317196,1,0,0:0:0:0:
256,192,317354,1,8,0:0:0:0:
256,192,317590,1,8,0:0:0:0:
256,192,317669,1,0,0:0:0:0:
256,192,317827,1,0,0:0:0:0:
256,192,317985,1,8,0:0:0:0:
256,192,318064,1,8,0:0:0:0:
256,192,318143,1,0,0:0:0:0:
256,192,318301,1,8,0:0:0:0:
256,192,318459,1,0,0:0:0:0:
256,192,318617,1,8,0:0:0:0:
256,192,318933,1,0,0:0:0:0:
256,192,319090,1,0,0:0:0:0:
256,192,319248,1,8,0:0:0:0:
256,192,319406,1,0,0:0:0:0:
256,192,319485,1,0,0:0:0:0:
256,192,319564,1,8,0:0:0:0:
256,192,319722,1,0,0:0:0:0:
256,192,319880,1,8,0:0:0:0:
256,192,320038,1,8,0:0:0:0:
256,192,320117,1,0,0:0:0:0:
256,192,320196,1,8,0:0:0:0:
256,192,320275,1,8,0:0:0:0:
256,192,320354,1,0,0:0:0:0:
256,192,320512,1,8,0:0:0:0:
256,192,320669,1,0,0:0:0:0:
256,192,320748,1,0,0:0:0:0:
256,192,320827,1,8,0:0:0:0:
256,192,320985,1,0,0:0:0:0:
256,192,321143,1,8,0:0:0:0:
256,192,321459,1,0,0:0:0:0:
256,192,321617,1,0,0:0:0:0:
256,192,321775,1,8,0:0:0:0:
256,192,321933,1,0,0:0:0:0:
256,192,322012,1,0,0:0:0:0:
256,192,322090,1,8,0:0:0:0:
256,192,322248,1,0,0:0:0:0:
256,192,322406,1,8,0:0:0:0:
256,192,322643,1,8,0:0:0:0:
256,192,322722,1,0,0:0:0:0:
256,192,322880,1,8,0:0:0:0:
256,192,322959,1,8,0:0:0:0:
256,192,323038,1,8,0:0:0:0:
256,192,323196,1,0,0:0:0:0:
256,192,323354,1,8,0:0:0:0:
256,192,323512,1,0,0:0:0:0:
256,192,323669,1,0,0:0:0:0:
256,192,323827,1,8,0:0:0:0:
256,192,323985,1,0,0:0:0:0:
256,192,324143,1,0,0:0:0:0:
256,192,324301,1,8,0:0:0:0:
256,192,324459,1,0,0:0:0:0:
256,192,324617,1,0,0:0:0:0:
256,96,324775,1,12,0:0:0:0:
256,96,324933,1,12,0:0:0:0:
256,192,325248,1,8,0:0:0:0:
256,192,325327,1,8,0:0:0:0:
256,192,325406,1,0,0:0:0:0:
256,192,325485,1,0,0:0:0:0:
256,192,325564,1,8,0:0:0:0:
256,192,325643,1,0,0:0:0:0:
256,192,325722,1,8,0:0:0:0:
256,192,325801,1,8,0:0:0:0:
256,96,325880,1,4,0:0:0:0:
256,192,326038,1,0,0:0:0:0:
256,192,326196,1,8,0:0:0:0:
256,192,326354,1,0,0:0:0:0:
256,192,326433,1,0,0:0:0:0:
256,192,326512,1,8,0:0:0:0:
256,192,326669,1,0,0:0:0:0:
256,192,326827,1,8,0:0:0:0:
256,192,326906,1,0,0:0:0:0:
256,192,326985,1,8,0:0:0:0:
256,192,327143,1,0,0:0:0:0:
256,192,327301,1,8,0:0:0:0:
256,192,327459,1,8,0:0:0:0:
256,192,327617,1,0,0:0:0:0:
256,192,327696,1,0,0:0:0:0:
256,192,327775,1,8,0:0:0:0:
256,192,327933,1,0,0:0:0:0:
256,192,328012,1,0,0:0:0:0:
256,192,328090,1,8,0:0:0:0:
256,192,328169,1,0,0:0:0:0:
256,192,328248,1,8,0:0:0:0:
256,192,328327,1,8,0:0:0:0:
256,192,328406,1,0,0:0:0:0:
256,192,328564,1,0,0:0:0:0:
256,192,328722,1,8,0:0:0:0:
256,192,328801,1,0,0:0:0:0:
256,192,328880,1,8,0:0:0:0:
256,192,329038,1,0,0:0:0:0:
256,192,329196,1,8,0:0:0:0:
256,192,329275,1,8,0:0:0:0:
256,192,329354,1,0,0:0:0:0:
256,192,329512,1,8,0:0:0:0:
256,192,329669,1,0,0:0:0:0:
256,192,329827,1,0,0:0:0:0:
256,192,329985,1,8,0:0:0:0:
256,192,330064,1,0,0:0:0:0:
256,192,330143,1,0,0:0:0:0:
256,192,330301,1,8,0:0:0:0:
256,192,330459,1,0,0:0:0:0:
256,192,330538,1,0,0:0:0:0:
256,192,330617,1,8,0:0:0:0:
256,192,330696,1,0,0:0:0:0:
256,192,330775,1,8,0:0:0:0:
256,192,330854,1,8,0:0:0:0:
256,96,330933,1,4,0:0:0:0:
256,192,331248,1,8,0:0:0:0:
256,192,331406,1,0,0:0:0:0:
256,192,331485,1,0,0:0:0:0:
256,192,331564,1,8,0:0:0:0:
256,192,331722,1,0,0:0:0:0:
256,192,331880,1,8,0:0:0:0:
256,192,331959,1,0,0:0:0:0:
256,192,332038,1,0,0:0:0:0:
256,192,332117,1,0,0:0:0:0:
256,192,332196,1,8,0:0:0:0:
256,192,332354,1,0,0:0:0:0:
256,192,332512,1,8,0:0:0:0:
256,192,332669,1,0,0:0:0:0:
256,192,332827,1,8,0:0:0:0:
256,192,332906,1,8,0:0:0:0:
256,192,332985,1,0,0:0:0:0:
256,192,333064,1,0,0:0:0:0:
256,192,333143,1,8,0:0:0:0:
256,192,333222,1,0,0:0:0:0:
256,192,333301,1,8,0:0:0:0:
256,192,333380,1,0,0:0:0:0:
256,192,333459,1,8,0:0:0:0:
256,192,333617,1,0,0:0:0:0:
256,192,333775,1,8,0:0:0:0:
256,192,333933,1,0,0:0:0:0:
256,192,334090,1,8,0:0:0:0:
256,192,334169,1,8,0:0:0:0:
256,192,334248,1,0,0:0:0:0:
256,192,334327,1,0,0:0:0:0:
256,192,334406,1,8,0:0:0:0:
256,192,334564,1,0,0:0:0:0:
256,192,334722,1,8,0:0:0:0:
256,192,334880,1,0,0:0:0:0:
256,192,335038,1,8,0:0:0:0:
256,192,335117,1,8,0:0:0:0:
256,192,335196,1,0,0:0:0:0:
256,192,335354,1,8,0:0:0:0:
256,192,335433,1,0,0:0:0:0:
256,192,335512,1,0,0:0:0:0:
256,192,335590,1,0,0:0:0:0:
256,192,335669,1,8,0:0:0:0:
256,192,335748,1,8,0:0:0:0:
256,192,335827,1,0,0:0:0:0:
256,192,335906,1,0,0:0:0:0:
256,96,335985,1,12,0:0:0:0:
256,192,336301,1,0,0:0:0:0:
256,192,336459,1,0,0:0:0:0:
256,192,336538,1,0,0:0:0:0:
256,192,336617,1,8,0:0:0:0:
256,192,336775,1,0,0:0:0:0:
256,192,336933,1,8,0:0:0:0:
256,192,337012,1,0,0:0:0:0:
256,192,337090,1,8,0:0:0:0:
256,192,337248,1,0,0:0:0:0:
256,192,337406,1,8,0:0:0:0:
256,192,337564,1,8,0:0:0:0:
256,192,337722,1,0,0:0:0:0:
256,192,337801,1,0,0:0:0:0:
256,192,337880,1,8,0:0:0:0:
256,192,338038,1,0,0:0:0:0:
256,192,338117,1,0,0:0:0:0:
256,192,338196,1,8,0:0:0:0:
256,192,338275,1,0,0:0:0:0:
256,192,338354,1,8,0:0:0:0:
256,192,338433,1,8,0:0:0:0:
256,192,338512,1,0,0:0:0:0:
256,192,338669,1,0,0:0:0:0:
256,192,338827,1,8,0:0:0:0:
256,192,338906,1,0,0:0:0:0:
256,192,338985,1,8,0:0:0:0:
256,192,339143,1,0,0:0:0:0:
256,192,339301,1,8,0:0:0:0:
256,192,339459,1,0,0:0:0:0:
256,192,339538,1,0,0:0:0:0:
256,192,339617,1,8,0:0:0:0:
256,192,339775,1,0,0:0:0:0:
256,192,339933,1,0,0:0:0:0:
256,192,340090,1,8,0:0:0:0:
256,192,340169,1,8,0:0:0:0:
256,192,340248,1,0,0:0:0:0:
256,192,340406,1,8,0:0:0:0:
256,192,340564,1,0,0:0:0:0:
256,192,340643,1,0,0:0:0:0:
256,192,340722,1,8,0:0:0:0:
256,192,340801,1,0,0:0:0:0:
256,192,340880,1,8,0:0:0:0:
256,192,340959,1,8,0:0:0:0:
256,96,341038,1,4,0:0:0:0:
256,192,341354,1,0,0:0:0:0:
256,192,341512,1,0,0:0:0:0:
256,192,341669,1,8,0:0:0:0:
256,192,341827,1,0,0:0:0:0:
256,192,341985,1,8,0:0:0:0:
256,192,342064,1,8,0:0:0:0:
256,192,342143,1,0,0:0:0:0:
256,192,342222,1,0,0:0:0:0:
256,192,342301,1,8,0:0:0:0:
256,192,342459,1,0,0:0:0:0:
256,192,342617,1,8,0:0:0:0:
256,192,342775,1,0,0:0:0:0:
256,192,342854,1,8,0:0:0:0:
256,192,342933,1,0,0:0:0:0:
256,192,343090,1,0,0:0:0:0:
256,192,343169,1,0,0:0:0:0:
256,192,343248,1,8,0:0:0:0:
256,192,343327,1,8,0:0:0:0:
256,192,343406,1,0,0:0:0:0:
256,192,343564,1,8,0:0:0:0:
256,192,343643,1,8,0:0:0:0:
256,192,343722,1,0,0:0:0:0:
256,192,343801,1,0,0:0:0:0:
256,192,343880,1,8,0:0:0:0:
256,192,343959,1,0,0:0:0:0:
256,192,344038,1,8,0:0:0:0:
256,192,344117,1,0,0:0:0:0:
256,192,344196,1,8,0:0:0:0:
256,192,344275,1,8,0:0:0:0:
256,192,344354,1,0,0:0:0:0:
256,192,344433,1,0,0:0:0:0:
256,192,344512,1,8,0:0:0:0:
256,192,344590,1,0,0:0:0:0:
256,192,344669,1,8,0:0:0:0:
256,192,344748,1,8,0:0:0:0:
256,192,344827,1,0,0:0:0:0:
256,96,344985,1,12,0:0:0:0:
256,96,345143,1,12,0:0:0:0:
256,192,345459,1,8,0:0:0:0:
256,192,345564,1,0,0:0:0:0:
256,192,345669,1,0,0:0:0:0:
256,192,345775,1,8,0:0:0:0:
256,192,345880,1,0,0:0:0:0:
256,192,345985,1,8,0:0:0:0:
256,96,346090,1,4,0:0:0:0:
256,192,346248,8,0,350985,0:0:0:0:
256,192,351143,5,0,0:0:0:0:
