osu file format v14

[General]
AudioFilename: audio.mp3
AudioLeadIn: 0
PreviewTime: 273873
Countdown: 0
SampleSet: Normal
StackLeniency: 0.7
Mode: 0
LetterboxInBreaks: 0
WidescreenStoryboard: 0

[Editor]
Bookmarks: 73820,103741,123952,134057,153004,194689,235110,245215,255320,265425,274267,324794,326057,344215,344689,345162,346267,351320,356373
DistanceSpacing: 1.7
BeatDivisor: 4
GridSize: 8
TimelineZoom: 2.6

[Metadata]
Title:Tsuioku no Kakera
TitleUnicode:追憶の欠片
Artist:Imy
ArtistUnicode:Imy
Creator:Kokezigoku
Version:Prologue
Source:
Tags:Ray of hope Cinematic Rock mirin
BeatmapID:1082930
BeatmapSetID:509210

[Difficulty]
HPDrainRate:6
CircleSize:4
OverallDifficulty:9.2
ApproachRate:9.4
SliderMultiplier:2
SliderTickRate:1

[Events]
//Background and Video events
0,0,"BG.jpg",0,0
//Break Periods
2,134257,151201
2,255520,264885
//Storyboard Layer 0 (Background)
//Storyboard Layer 1 (Fail)
//Storyboard Layer 2 (Pass)
//Storyboard Layer 3 (Foreground)
//Storyboard Sound Samples

[TimingPoints]
2689,315.789473684211,4,2,1,30,1,0
2689,-125,4,2,1,30,0,0
15794,-166.666666666667,4,2,1,30,0,0
16267,-250,4,2,1,30,0,0
16899,-125,4,2,1,30,0,0
21004,-125,4,2,1,40,0,0
21320,-117.647058823529,4,2,1,50,0,0
21636,-117.647058823529,4,2,1,55,0,0
22267,-133.333333333333,4,2,1,55,0,0
22899,-100,4,1,1,60,0,0
38057,-100,4,3,1,60,0,0
38689,-133.333333333333,4,3,1,60,0,0
39320,-100,4,3,1,60,0,0
40267,-100,4,2,1,60,0,0
40425,-100,4,3,1,60,0,0
43110,-133.333333333333,4,2,1,30,0,0
51794,-100,4,1,1,60,0,0
63320,-133.333333333333,4,2,1,40,0,0
73425,-117.647058823529,4,1,1,55,0,0
75794,-117.647058823529,4,2,1,55,0,0
75952,-117.647058823529,4,1,1,55,0,0
81004,-117.647058823529,4,2,1,55,0,0
81952,-133.333333333333,4,2,1,20,0,0
82267,-153.846153846153,4,2,1,20,0,0
82504,-153.846153846153,4,2,1,5,0,0
82662,-153.846153846153,4,2,1,20,0,0
82899,-133.333333333333,4,2,1,20,0,0
83136,-133.333333333333,4,2,1,5,0,0
83294,-133.333333333333,4,2,1,20,0,0
83531,-100,4,1,1,70,0,1
84715,-100,4,2,1,5,0,1
84873,-100,4,1,1,70,0,1
87241,-100,4,2,1,5,0,1
87399,-100,4,1,1,70,0,1
89767,-100,4,2,1,5,0,1
89925,-100,4,1,1,70,0,1
91346,-100,4,2,1,5,0,1
91504,-100,4,1,1,70,0,1
93004,-100,4,1,1,60,0,0
93636,-90.9090909090909,4,1,1,70,0,1
94820,-90.9090909090909,4,2,1,5,0,1
94978,-90.9090909090909,4,1,1,70,0,1
97346,-90.9090909090909,4,2,1,5,0,1
97504,-90.9090909090909,4,1,1,70,0,1
102478,-100,4,1,1,60,0,0
103741,-83.3333333333333,4,1,1,70,0,1
123320,-100,4,1,1,70,0,1
123952,-100,4,1,1,60,0,0
124425,-250,4,1,1,60,0,0
124662,-250,4,2,1,5,0,0
124820,-250,4,2,1,60,0,0
124899,-100,4,1,1,60,0,0
125531,-125,4,1,1,60,0,0
125846,-100,4,1,1,60,0,0
126952,-250,4,1,1,60,0,0
127189,-250,4,2,1,5,0,0
127346,-250,4,1,1,60,0,0
127425,-100,4,1,1,60,0,0
129478,-250,4,1,1,60,0,0
129715,-250,4,2,1,5,0,0
129873,-250,4,1,1,60,0,0
129952,-100,4,1,1,60,0,0
132004,-250,4,1,1,60,0,0
132241,-250,4,2,1,5,0,0
132715,-250,4,1,1,60,0,0
132794,-250,4,1,1,50,0,0
134057,-200,4,2,1,30,0,0
153004,-100,4,2,1,60,0,0
154267,-90.9090909090909,4,1,1,60,0,0
174478,-100,4,1,1,60,0,0
177794,-100,4,3,1,60,0,0
184267,-100,4,1,1,60,0,0
192162,-100,4,2,1,40,0,0
193110,-133.333333333333,4,2,1,20,0,0
193425,-153.846153846153,4,2,1,20,0,0
193662,-153.846153846153,4,2,1,5,0,0
193820,-153.846153846153,4,2,1,20,0,0
194057,-133.333333333333,4,2,1,20,0,0
194294,-133.333333333333,4,2,1,5,0,0
194452,-133.333333333333,4,2,1,20,0,0
194689,-90.9090909090909,4,1,1,70,0,1
195873,-90.9090909090909,4,2,1,5,0,1
196031,-90.9090909090909,4,1,1,70,0,1
198399,-90.9090909090909,4,2,1,5,0,1
198557,-90.9090909090909,4,1,1,70,0,1
200925,-90.9090909090909,4,2,1,5,0,1
201083,-90.9090909090909,4,1,1,70,0,1
202504,-90.9090909090909,4,2,1,5,0,1
202662,-90.9090909090909,4,1,1,70,0,1
204162,-100,4,1,1,60,0,0
204794,-90.9090909090909,4,1,1,70,0,1
213636,-100,4,1,1,60,0,0
214899,-83.3333333333333,4,1,1,70,0,1
235110,-100,4,1,1,60,0,0
245215,-90.9090909090909,4,1,1,70,0,1
254215,-90.9090909090909,4,2,1,60,0,1
255320,-133.333333333333,4,2,1,30,0,0
266610,-133.333333333333,4,2,1,5,0,0
266767,-133.333333333333,4,2,1,30,0,0
269136,-133.333333333333,4,2,1,5,0,0
269294,-133.333333333333,4,2,1,30,0,0
273241,-133.333333333333,4,2,1,5,0,0
273399,-133.333333333333,4,2,1,30,0,0
275531,-90.9090909090909,4,1,1,70,0,1
281294,-90.9090909090909,4,2,1,5,0,1
281452,-90.9090909090909,4,1,1,70,0,1
285004,-100,4,1,1,60,0,0
285636,-90.9090909090909,4,1,1,70,0,1
294478,-100,4,1,1,60,0,0
295741,-83.3333333333333,4,1,1,70,0,1
315952,-90.9090909090909,4,1,1,60,0,0
324794,-100,4,1,1,60,0,0
324952,-100,4,2,1,60,0,0
326057,-83.3333333333333,4,1,1,70,0,1
343741,-83.3333333333333,4,3,1,70,0,1
345162,-83.3333333333333,4,2,1,70,0,1
345241,-83.3333333333333,4,3,1,70,0,1
345320,-83.3333333333333,4,3,1,70,0,1
345636,-83.3333333333333,4,1,1,70,0,1
346267,-200,4,2,1,60,0,0
346346,-200,4,2,1,20,0,0
356531,-200,4,2,1,10,0,0
357004,-200,4,2,1,5,0,0

[Colours]
Combo1 : 255,196,17
Combo2 : 255,66,255
Combo3 : 0,208,208
Combo4 : 203,12,40

[HitObjects]
280,304,2689,6,0,L|376:296,1,80,2|0,0:0|0:0,0:0:0:0:
456,288,3004,1,0,0:0:0:0:
424,152,3162,1,0,0:0:0:0:
284,224,3636,2,0,P|284:264|276:320,1,80,2|0,0:0|0:0,0:0:0:0:
200,352,3952,6,0,B|152:328|152:328|104:336|104:336|48:312,1,160,0|2,0:0|0:0,0:0:0:0:
50,313,4425,2,0,P|120:272|112:192,1,160,2|0,0:0|0:0,0:0:0:0:
176,120,4899,2,2,P|168:80|192:24,1,80,0|0,0:0|0:0,0:0:0:0:
240,176,5215,5,2,0:0:0:0:
312,112,5373,1,0,0:0:0:0:
392,168,5531,1,0,0:0:0:0:
456,96,5689,2,0,P|488:168|456:240,1,160
457,238,6162,1,2,0:0:0:0:
376,48,6794,5,2,0:0:0:0:
296,224,7110,1,2,0:0:0:0:
184,64,7425,1,2,0:0:0:0:
296,224,7741,6,0,P|312:264|296:320,1,80,2|0,0:0|0:0,0:0:0:0:
248,376,8057,1,0,0:0:0:0:
168,160,8215,2,0,P|152:200|168:256,1,80,2|0,0:0|0:0,0:0:0:0:
248,376,8689,5,2,0:0:0:0:
296,224,9004,2,0,P|384:216|440:272,2,160,0|2|0,0:0|0:0|0:0,0:0:0:0:
64,344,9952,6,0,P|104:360|152:344,1,80,2|0,0:0|0:0,0:0:0:0:
296,224,10267,2,0,P|384:288|328:392,1,240,2|2,0:0|0:0,0:0:0:0:
303,308,10899,2,0,P|213:252|283:143,1,240,2|2,0:0|0:0,0:0:0:0:
410,166,11531,6,0,B|335:110|335:198|250:142,1,160,2|0,0:0|0:0,0:0:0:0:
212,248,12004,1,0,0:0:0:0:
150,154,12162,2,0,P|205:54|319:59,1,240,2|2,0:0|0:0,0:0:0:0:
150,154,12794,6,0,B|166:202|166:202|150:258|150:258|166:314,1,160,2|0,0:0|0:0,0:0:0:0:
414,186,13267,2,2,P|438:258|374:322,1,160,0|0,0:0|0:0,0:0:0:0:
254,250,13741,2,0,L|342:242,1,80,2|2,0:0|0:0,0:0:0:0:
465,243,14057,6,0,P|375:278|343:158,1,240,2|2,0:0|0:0,0:0:0:0:
336,167,14689,2,0,P|378:172|407:198,1,80,2|2,0:0|0:0,0:0:0:0:
254,250,15004,2,0,P|212:245|183:219,1,80,2|2,0:0|0:0,0:0:0:0:
144,144,15320,6,2,P|192:80|176:0,1,160,0|0,0:0|0:0,0:0:0:0:
144,144,15794,2,0,P|201:120|242:60,1,120,2|0,0:0|0:0,0:0:0:0:
144,144,16267,2,0,P|193:152|247:135,1,80,2|0,0:0|0:0,0:0:0:0:
312,88,16899,6,0,L|392:80,1,80
328,152,17215,2,0,L|384:96,1,80
376,192,17531,2,0,L|376:104,1,80,2|0,0:0|0:0,0:0:0:0:
456,160,17846,6,2,P|432:256|304:240,1,240
310,248,18794,5,2,0:0:0:0:
248,360,18952,2,0,B|208:344|208:344|152:376|96:344|96:344|120:304|88:256,1,240
56,160,19741,1,0,0:0:0:0:
96,56,20057,1,0,0:0:0:0:
197,105,20373,6,0,P|273:121|321:52,1,160,2|0,0:0|0:0,0:0:0:0:
408,24,20846,1,2,0:0:0:0:
320,64,21004,2,0,L|336:144,1,80
424,120,21320,2,0,L|407:208,1,85.0000016212464
504,192,21636,6,0,P|488:272|400:296,1,170.000003242493
190,220,22267,2,0,B|302:164|302:260|422:196,1,225.000008583069,2|0,0:0|0:0,0:0:0:0:
407,203,22899,5,4,0:0:0:0:
199,120,23057,1,2,0:0:0:0:
344,8,23373,5,8,0:0:0:0:
272,208,23531,1,2,0:0:0:0:
112,200,23846,5,8,0:0:0:0:
368,96,24004,1,2,0:0:0:0:
184,304,24320,5,8,0:0:0:0:
120,72,24478,2,0,L|112:200,1,100,0|2,0:0|0:0,0:0:0:0:
208,16,24794,1,8,0:0:0:0:
24,120,24952,1,0,0:0:0:0:
224,192,25110,2,0,P|240:144|224:80,1,100,2|0,0:0|0:0,0:0:0:0:
256,264,25425,5,2,0:0:0:0:
208,16,25583,1,4,0:0:0:0:
72,200,25899,5,8,0:0:0:0:
320,152,26057,1,2,0:0:0:0:
152,80,26373,5,8,0:0:0:0:
96,352,26531,1,2,0:0:0:0:
312,296,26846,6,0,L|320:176,1,100,8|0,0:0|0:0,0:0:0:0:
336,16,27162,1,2,0:0:0:0:
264,136,27320,2,0,L|392:96,1,100,8|0,0:0|0:0,0:0:0:0:
208,256,27636,2,0,L|80:216,1,100,8|0,0:0|0:0,0:0:0:0:
344,208,27951,5,4,0:0:0:0:
128,328,28109,1,2,0:0:0:0:
168,136,28425,5,8,0:0:0:0:
288,352,28583,1,2,0:0:0:0:
32,128,28899,5,8,0:0:0:0:
272,264,29057,1,2,0:0:0:0:
64,296,29373,6,0,L|40:168,1,100,8|0,0:0|0:0,0:0:0:0:
16,64,29689,1,2,0:0:0:0:
144,232,29846,2,0,L|168:104,1,100,8|0,0:0|0:0,0:0:0:0:
264,296,30162,2,0,L|240:168,1,100,8|0,0:0|0:0,0:0:0:0:
216,40,30478,5,10,0:0:0:0:
256,56,30557,1,2,0:0:0:0:
296,56,30636,1,2,0:0:0:0:
328,40,30715,1,2,0:0:0:0:
368,32,30794,2,0,P|400:32|432:48,1,50,2|2,0:0|0:0,0:0:0:0:
488,216,30952,5,10,0:0:0:0:
456,240,31031,1,2,0:0:0:0:
416,240,31110,1,2,0:0:0:0:
384,224,31189,1,2,0:0:0:0:
360,192,31267,2,0,P|352:168|368:128,1,50,2|2,0:0|0:0,0:0:0:0:
440,72,31425,5,10,0:0:0:0:
408,48,31504,1,2,0:0:0:0:
368,40,31583,1,2,0:0:0:0:
328,40,31662,1,2,0:0:0:0:
288,56,31741,2,0,P|264:72|248:112,1,50,2|2,0:0|0:0,0:0:0:0:
200,200,31899,1,0,0:0:0:0:
72,104,32057,2,0,P|40:144|48:208,1,100,4|0,0:0|0:0,0:0:0:0:
136,328,32373,5,4,0:0:0:0:
152,344,32452,1,2,0:0:0:0:
176,352,32531,1,2,0:0:0:0:
200,352,32610,1,2,0:0:0:0:
248,344,32689,1,2,0:0:0:0:
288,312,32767,1,2,0:0:0:0:
304,264,32846,1,2,0:0:0:0:
296,216,32925,1,2,0:0:0:0:
272,168,33004,6,0,P|312:144|368:144,1,100,4|0,0:0|0:0,0:0:0:0:
128,88,33320,2,0,P|88:64|32:64,1,100,8|0,0:0|0:0,0:0:0:0:
364,143,33636,1,8,0:0:0:0:
272,344,33794,1,0,0:0:0:0:
272,344,33873,1,0,0:0:0:0:
272,344,33952,1,8,0:0:0:0:
480,272,34110,1,0,0:0:0:0:
352,168,34267,5,8,0:0:0:0:
272,344,34425,1,0,0:0:0:0:
240,176,34583,1,8,0:0:0:0:
192,368,34741,1,0,0:0:0:0:
168,104,34899,1,8,0:0:0:0:
188,331,35057,1,0,0:0:0:0:
264,80,35215,1,8,0:0:0:0:
200,296,35373,1,0,0:0:0:0:
104,196,35531,6,0,L|-24:188,1,100,8|0,0:0|0:0,0:0:0:0:
328,152,35846,1,8,0:0:0:0:
88,296,36004,1,0,0:0:0:0:
88,16,36162,1,8,0:0:0:0:
184,192,36320,1,0,0:0:0:0:
184,192,36399,1,0,0:0:0:0:
184,192,36478,1,8,0:0:0:0:
323,57,36636,1,0,0:0:0:0:
288,248,36794,5,8,0:0:0:0:
232,96,36952,1,0,0:0:0:0:
424,72,37110,1,8,0:0:0:0:
264,168,37267,1,0,0:0:0:0:
440,192,37425,1,8,0:0:0:0:
456,184,37504,1,0,0:0:0:0:
472,176,37583,1,0,0:0:0:0:
263,334,37741,1,8,0:0:0:0:
304,96,37899,1,0,0:0:0:0:
184,280,38057,5,10,0:0:0:0:
416,256,38215,1,2,0:0:0:0:
96,38,38531,1,2,0:0:0:0:
104,70,38610,1,2,0:0:0:0:
112,102,38689,2,0,B|211:131|211:131|299:105|299:105|406:137,1,300.000011444092,8|8,0:0|0:0,0:0:0:0:
408,304,39478,5,2,0:0:0:0:
400,272,39557,1,2,0:0:0:0:
392,240,39636,1,2,0:0:0:0:
200,160,39794,1,2,0:0:0:0:
400,136,39952,1,2,0:0:0:0:
248,264,40110,2,0,B|200:288|144:264,1,100
80,176,40425,1,2,0:0:0:0:
216,96,40583,5,2,0:0:0:0:
208,128,40662,1,2,0:0:0:0:
200,160,40741,1,2,0:0:0:0:
80,24,41057,5,2,0:0:0:0:
88,56,41136,1,2,0:0:0:0:
96,88,41215,1,2,0:0:0:0:
152,272,41531,5,2,0:0:0:0:
144,304,41610,1,2,0:0:0:0:
136,336,41689,1,2,0:0:0:0:
80,168,41846,5,2,0:0:0:0:
256,192,42004,2,8,P|272:104|192:24,1,200
202,27,42478,1,8,0:0:0:0:
176,128,42794,1,8,0:0:0:0:
176,128,43110,6,0,P|248:144|320:96,1,150.000005722046
368,184,43741,2,0,P|296:200|224:152,1,150.000005722046
192,64,44215,1,0,0:0:0:0:
88,96,44373,6,0,B|96:144|96:144|88:200|88:200|96:256,1,150.000005722046,2|0,0:0|0:0,0:0:0:0:
226,312,45004,2,0,B|234:264|234:264|226:208|226:208|234:152,1,150.000005722046,2|0,0:0|0:0,0:0:0:0:
352,88,45478,1,8,0:0:0:0:
360,224,45636,5,8,0:0:0:0:
232,163,45952,2,0,P|200:155|144:155,1,75.0000028610231
32,304,46267,2,0,P|64:312|120:312,1,75.0000028610231,0|2,0:0|0:0,0:0:0:0:
200,256,46583,1,2,0:0:0:0:
288,208,46741,1,2,0:0:0:0:
212,329,46899,6,0,L|196:233,1,75.0000028610231
344,152,47214,1,0,0:0:0:0:
344,152,47373,2,0,B|296:136|296:136|192:152,1,150.000005722046,2|8,0:0|0:0,0:0:0:0:
272,280,47846,2,0,B|288:248|288:248|288:184,1,75.0000028610231,8|0,0:0|0:0,0:0:0:0:
232,64,48162,6,0,P|312:48|384:64,1,150.000005722046,8|0,0:0|0:0,0:0:0:0:
344,152,48794,2,0,P|397:213|420:283,1,150.000005722046
322,347,49346,1,0,0:0:0:0:
312,352,49425,6,0,P|240:352|176:304,1,150.000005722046,2|0,0:0|0:0,0:0:0:0:
128,152,50057,2,0,L|108:67,1,75.0000028610231,2|0,0:0|0:0,0:0:0:0:
208,120,50373,2,0,P|248:120|304:96,1,75.0000028610231,0|8,0:0|0:0,0:0:0:0:
320,32,50689,6,0,P|368:96|336:176,1,150.000005722046,8|0,0:0|0:0,0:0:0:0:
248,256,51162,1,0,0:0:0:0:
144,288,51320,1,0,0:0:0:0:
166,179,51478,2,0,P|198:187|254:179,1,75.0000028610231
440,160,51794,6,0,P|454:98|334:47,1,200,4|0,0:0|0:0,0:0:0:0:
239,183,52267,1,2,0:0:0:0:
72,224,52425,2,0,P|58:286|178:337,1,200,4|0,0:0|0:0,0:0:0:0:
239,183,52899,2,0,L|248:128,1,50,2|2,0:0|0:0,0:0:0:0:
384,88,53057,2,0,L|393:143,1,50,2|2,0:0|0:0,0:0:0:0:
408,272,53215,5,4,0:0:0:0:
160,345,53373,1,2,0:0:0:0:
245,38,53531,2,0,B|261:78|261:78|241:152,1,100,2|0,0:0|0:0,0:0:0:0:
56,280,53846,2,0,P|40:232|56:176,1,100,2|0,0:0|0:0,0:0:0:0:
245,38,54162,1,2,0:0:0:0:
304,280,54320,6,0,P|316:328|287:378,1,100,2|0,0:0|0:0,0:0:0:0:
96,96,54636,1,2,0:0:0:0:
242,320,54794,1,2,0:0:0:0:
368,96,54952,1,2,0:0:0:0:
384,72,55031,1,2,0:0:0:0:
400,48,55110,1,2,0:0:0:0:
232,96,55267,1,2,0:0:0:0:
448,192,55425,1,2,0:0:0:0:
232,120,55583,1,2,0:0:0:0:
440,296,55741,6,0,L|328:288,1,100,4|0,0:0|0:0,0:0:0:0:
120,264,56057,1,2,0:0:0:0:
400,216,56215,1,2,0:0:0:0:
440,208,56294,1,2,0:0:0:0:
480,200,56373,1,2,0:0:0:0:
240,160,56531,1,2,0:0:0:0:
384,384,56689,1,2,0:0:0:0:
352,72,56846,6,0,L|336:200,1,100,2|0,0:0|0:0,0:0:0:0:
320,352,57162,1,2,0:0:0:0:
256,112,57320,1,2,0:0:0:0:
200,264,57478,1,2,0:0:0:0:
424,232,57636,5,2,0:0:0:0:
176,264,57794,1,2,0:0:0:0:
392,96,57952,1,2,0:0:0:0:
320,352,58110,1,2,0:0:0:0:
312,320,58189,1,2,0:0:0:0:
304,288,58267,6,0,L|272:152,1,100,4|0,0:0|0:0,0:0:0:0:
152,32,58583,2,0,P|136:80|176:152,1,100,2|0,0:0|0:0,0:0:0:0:
383,223,58899,2,0,P|430:239|478:226,1,100,2|2,0:0|0:0,0:0:0:0:
400,40,59214,1,2,0:0:0:0:
341,134,59373,6,0,B|237:86|237:190|125:110,1,200,2|2,0:0|0:0,0:0:0:0:
360,328,59846,1,2,0:0:0:0:
176,232,60004,2,0,L|184:336,1,100,2|0,0:0|0:0,0:0:0:0:
58,172,60320,1,2,0:0:0:0:
272,272,60478,1,2,0:0:0:0:
76,312,60636,1,2,0:0:0:0:
149,125,60794,5,2,0:0:0:0:
320,352,60952,1,2,0:0:0:0:
352,352,61031,1,2,0:0:0:0:
376,344,61110,1,2,0:0:0:0:
168,224,61267,1,2,0:0:0:0:
392,72,61425,2,0,P|408:120|392:168,1,100,2|2,0:0|0:0,0:0:0:0:
312,24,61741,1,2,0:0:0:0:
272,176,61899,6,0,P|256:224|272:272,1,100,6|2,0:0|0:0,0:0:0:0:
336,120,62215,1,2,0:0:0:0:
320,336,62373,1,2,0:0:0:0:
184,224,62531,1,2,0:0:0:0:
144,216,62610,1,2,0:0:0:0:
104,216,62689,1,2,0:0:0:0:
272,176,62846,1,2,0:0:0:0:
115,315,63004,2,0,L|99:171,1,100
88,64,63320,6,2,B|312:-40|312:184|528:56,1,450.000017166138,6|2,0:0|0:0,0:0:0:0:
411,253,65175,2,0,P|382:285|318:301,1,93.7500035762788,2|2,0:0|0:0,0:0:0:0:
256,280,65531,2,0,P|232:256|224:208,1,75.0000028610231,2|2,0:0|0:0,0:0:0:0:
256,144,65846,6,0,P|304:88|288:16,1,150.000005722046,2|2,0:0|0:0,0:0:0:0:
304,224,66320,2,0,P|256:280|272:352,1,150.000005722046,2|2,0:0|0:0,0:0:0:0:
385,358,66794,2,0,L|326:291,1,75.0000028610231,2|2,0:0|0:0,0:0:0:0:
384,112,67267,1,2,0:0:0:0:
424,200,67425,2,0,B|352:184|352:216|272:200,1,150.000005722046,2|2,0:0|0:0,0:0:0:0:
168,96,68057,1,8,0:0:0:0:
192,240,68373,6,0,P|256:288|336:272,1,150.000005722046,8|0,0:0|0:0,0:0:0:0:
192,240,68846,2,0,P|210:317|281:357,1,150.000005722046,8|0,0:0|0:0,0:0:0:0:
192,240,69320,2,0,P|161:276|153:322,1,75.0000028610231,8|0,0:0|0:0,0:0:0:0:
296,144,69636,6,0,P|344:80|328:0,1,150.000005722046,8|0,0:0|0:0,0:0:0:0:
296,144,70110,2,0,P|373:126|413:55,1,150.000005722046,8|0,0:0|0:0,0:0:0:0:
296,144,70583,2,0,P|332:175|378:183,1,75.0000028610231,8|0,0:0|0:0,0:0:0:0:
80,48,70899,6,0,P|157:66|197:137,1,150.000005722046,8|0,0:0|0:0,0:0:0:0:
80,48,71373,2,0,P|96:88|88:144,1,75.0000028610231,8|2,0:0|0:0,0:0:0:0:
72,224,71689,1,2,0:0:0:0:
96,312,71846,1,2,0:0:0:0:
8,288,72004,1,2,0:0:0:0:
160,248,72162,6,2,P|184:312|136:392,1,150.000005722046
96,312,72636,1,2,0:0:0:0:
160,248,72794,2,0,P|144:216|152:168,1,75.0000028610231,2|0,0:0|0:0,0:0:0:0:
208,64,73110,2,0,P|241:47|278:51,1,75.0000028610231,2|0,0:0|0:0,0:0:0:0:
408,120,73425,6,0,L|424:208,1,85.0000016212464,8|0,0:0|0:0,0:0:0:0:
278,51,73741,1,8,0:0:0:0:
142,231,74057,2,0,L|126:319,1,85.0000016212464,8|0,0:0|0:0,0:0:0:0:
272,162,74373,1,8,0:0:0:0:
127,315,74689,6,0,P|84:311|47:284,1,85.0000016212464,8|0,0:0|0:0,0:0:0:0:
262,272,75004,2,0,P|305:268|342:241,1,85.0000016212464,8|0,0:0|0:0,0:0:0:0:
136,176,75320,2,0,P|93:172|56:145,1,85.0000016212464,8|0,0:0|0:0,0:0:0:0:
256,64,75636,1,8,0:0:0:0:
256,304,75794,1,4,0:0:0:0:
256,304,75952,6,0,P|344:312|416:256,1,170.000003242493,8|8,0:0|0:0,0:0:0:0:
456,136,76425,1,0,0:0:0:0:
321,107,76583,2,0,L|310:200,1,85.0000016212464,8|0,0:0|0:0,0:0:0:0:
110,208,76899,1,8,0:0:0:0:
152,344,77057,1,0,0:0:0:0:
160,144,77215,6,0,P|120:128|72:136,1,85.0000016212464,2|0,0:0|0:0,0:0:0:0:
296,320,77531,2,0,P|337:323|376:306,1,85.0000016212464,2|0,0:0|0:0,0:0:0:0:
472,232,77846,2,0,P|440:200|376:192,1,85.0000016212464,6|0,0:0|0:0,0:0:0:0:
376,200,78083,1,2,0:0:0:0:
344,192,78162,2,0,P|328:152|336:104,1,85.0000016212464,2|0,0:0|0:0,0:0:0:0:
424,8,78478,5,4,0:0:0:0:
424,8,78794,1,8,0:0:0:0:
344,192,78952,1,2,0:0:0:0:
496,72,79110,1,8,0:0:0:0:
264,160,79267,1,2,0:0:0:0:
424,8,79425,1,8,0:0:0:0:
392,256,79583,1,2,0:0:0:0:
152,72,79741,5,8,0:0:0:0:
400,56,79899,1,8,0:0:0:0:
176,224,80057,1,8,0:0:0:0:
432,336,80215,1,8,0:0:0:0:
296,128,80373,1,8,0:0:0:0:
224,368,80531,1,8,0:0:0:0:
152,72,80689,1,8,0:0:0:0:
328,256,80846,1,2,0:0:0:0:
80,320,81004,5,2,0:0:0:0:
152,72,81952,6,0,P|176:104|176:144,1,75.0000028610231
138,232,82267,2,0,P|144:318|245:333,1,194.999991073609
204,270,82899,2,0,B|281:242|326:306|308:364|308:364|336:352|336:320,1,225.000008583069
432,360,83531,6,0,L|408:152,1,200,4|2,0:0|0:0,0:0:0:0:
346,50,84004,2,0,L|324:249,1,200,2|2,0:0|0:0,0:0:0:0:
409,161,84478,2,0,P|273:161|241:305,1,300,2|2,0:0|0:0,0:0:0:0:
131,143,85110,5,2,0:0:0:0:
344,264,85267,1,2,0:0:0:0:
32,192,85425,1,2,0:0:0:0:
280,176,85583,1,2,0:0:0:0:
136,48,85741,2,0,B|120:88|120:88|136:168,1,100,2|0,0:0|0:0,0:0:0:0:
204,316,86057,6,0,L|412:300,1,200,2|2,0:0|0:0,0:0:0:0:
508,239,86531,2,0,L|309:224,1,200,2|2,0:0|0:0,0:0:0:0:
416,160,87004,2,0,P|400:304|256:336,1,300,2|2,0:0|0:0,0:0:0:0:
238,59,87636,5,2,0:0:0:0:
305,248,87794,1,2,0:0:0:0:
352,32,87952,1,2,0:0:0:0:
184,224,88110,1,2,0:0:0:0:
488,184,88267,2,0,B|456:200|456:200|368:184,1,100,2|0,0:0|0:0,0:0:0:0:
152,144,88583,6,0,P|248:88|336:128,1,200,2|2,0:0|0:0,0:0:0:0:
352,304,89057,2,0,B|288:328|288:328|224:296|224:296|144:312,1,200,2|2,0:0|0:0,0:0:0:0:
63,288,89531,2,0,P|174:208|264:312,1,300,2|2,0:0|0:0,0:0:0:0:
165,307,90162,6,0,L|181:195,1,100,2|0,0:0|0:0,0:0:0:0:
29,151,90478,2,0,L|13:39,1,100,2|0,0:0|0:0,0:0:0:0:
80,248,90794,1,2,0:0:0:0:
136,88,90952,1,2,0:0:0:0:
168,312,91110,6,0,P|168:176|8:168,1,300,2|2,0:0|0:0,0:0:0:0:
80,248,91741,2,0,P|176:216|280:288,1,200,2|2,0:0|0:0,0:0:0:0:
400,368,92215,1,0,0:0:0:0:
168,312,92373,5,2,0:0:0:0:
408,216,92531,1,2,0:0:0:0:
232,24,92689,2,0,P|224:72|240:128,1,100,2|0,0:0|0:0,0:0:0:0:
259,257,93004,5,2,0:0:0:0:
259,297,93083,1,2,0:0:0:0:
235,329,93162,1,2,0:0:0:0:
195,337,93241,1,2,0:0:0:0:
155,321,93320,1,2,0:0:0:0:
139,273,93399,1,2,0:0:0:0:
171,225,93478,1,2,0:0:0:0:
171,169,93557,1,2,0:0:0:0:
128,128,93636,6,0,P|144:32|32:16,1,220.000006713867,6|2,0:0|0:0,0:0:0:0:
80,72,94110,2,0,B|64:88|64:88|48:136|48:136|80:184|80:184|168:232,1,220.000006713867,2|2,0:0|0:0,0:0:0:0:
128,128,94583,2,0,B|192:160|192:160|246:133|246:133|344:192|432:128,1,330.000010070801,2|2,0:0|0:0,0:0:0:0:
320,328,95215,5,2,0:0:0:0:
192,80,95373,1,2,0:0:0:0:
496,192,95531,1,2,0:0:0:0:
344,8,95689,1,2,0:0:0:0:
288,256,95846,1,2,0:0:0:0:
344,8,96004,1,2,0:0:0:0:
392,272,96162,6,0,P|288:256|200:336,1,220.000006713867,2|2,0:0|0:0,0:0:0:0:
288,256,96636,2,0,P|184:272|96:192,1,220.000006713867,2|2,0:0|0:0,0:0:0:0:
184,272,97110,2,0,P|48:296|24:128,1,330.000010070801,2|2,0:0|0:0,0:0:0:0:
144,32,97741,1,2,0:0:0:0:
88,312,97899,1,2,0:0:0:0:
280,104,98057,1,2,0:0:0:0:
376,376,98215,1,2,0:0:0:0:
144,208,98373,1,2,0:0:0:0:
416,128,98531,1,2,0:0:0:0:
248,360,98689,6,0,P|200:280|280:192,1,220.000006713867,2|2,0:0|0:0,0:0:0:0:
384,104,99162,2,0,B|328:128|328:128|264:104|264:104|160:168|160:112,1,220.000006713867,2|2,0:0|0:0,0:0:0:0:
232,264,99636,2,0,P|147:211|27:211,1,220.000006713867,2|2,0:0|0:0,0:0:0:0:
8,216,100110,5,2,0:0:0:0:
232,264,100267,1,2,0:0:0:0:
75,104,100425,1,2,0:0:0:0:
152,326,100583,2,0,L|168:176,1,110.000003356934,2|0,0:0|0:0,0:0:0:0:
192,16,100899,1,2,0:0:0:0:
256,280,101057,1,2,0:0:0:0:
32,240,101215,5,4,0:0:0:0:
272,168,101373,1,2,0:0:0:0:
80,112,101531,1,2,0:0:0:0:
368,240,101689,1,2,0:0:0:0:
120,304,101846,1,2,0:0:0:0:
384,120,102004,1,2,0:0:0:0:
320,368,102162,1,2,0:0:0:0:
192,64,102320,1,2,0:0:0:0:
24,344,102478,5,4,0:0:0:0:
248,248,102636,1,2,0:0:0:0:
248,248,102715,1,2,0:0:0:0:
248,248,102794,1,2,0:0:0:0:
56,200,102952,1,2,0:0:0:0:
384,120,103110,1,2,0:0:0:0:
320,368,103267,1,2,0:0:0:0:
208,160,103425,2,0,P|264:168|320:152,1,100,2|2,0:0|0:0,0:0:0:0:
432,56,103741,5,4,0:0:0:0:
320,368,103899,1,0,0:0:0:0:
256,64,104057,1,8,0:0:0:0:
168,288,104215,1,0,0:0:0:0:
136,280,104294,1,0,0:0:0:0:
104,264,104373,1,8,0:0:0:0:
456,208,104531,1,2,0:0:0:0:
184,152,104689,1,10,0:0:0:0:
320,368,104846,1,2,0:0:0:0:
432,168,105004,6,0,L|416:296,1,119.999996337891,8|0,0:0|0:0,0:0:0:0:
304,56,105320,2,0,L|320:184,1,119.999996337891,8|0,0:0|0:0,0:0:0:0:
144,32,105636,1,10,0:0:0:0:
272,320,105794,1,2,0:0:0:0:
421,87,105952,1,10,0:0:0:0:
160,208,106110,1,2,0:0:0:0:
304,56,106267,6,0,P|344:104|352:168,1,119.999996337891,8|0,0:0|0:0,0:0:0:0:
174,321,106583,2,0,P|150:262|162:199,1,119.999996337891,8|0,0:0|0:0,0:0:0:0:
456,128,106899,2,0,P|464:192|424:240,1,119.999996337891,8|2,0:0|0:0,0:0:0:0:
256,352,107215,1,10,0:0:0:0:
176,80,107373,1,2,0:0:0:0:
78,352,107531,6,0,P|40:312|32:248,1,119.999996337891,8|0,0:0|0:0,0:0:0:0:
208,0,107846,2,0,P|246:40|254:104,1,119.999996337891,8|0,0:0|0:0,0:0:0:0:
72,184,108162,2,0,L|176:288,1,119.999996337891,8|0,0:0|0:0,0:0:0:0:
240,360,108478,1,10,0:0:0:0:
280,336,108557,1,2,0:0:0:0:
304,296,108636,1,2,0:0:0:0:
304,248,108715,1,2,0:0:0:0:
280,208,108794,5,4,0:0:0:0:
72,184,108952,1,2,0:0:0:0:
392,96,109110,1,10,0:0:0:0:
184,120,109268,1,2,0:0:0:0:
488,192,109425,2,0,P|432:208|360:184,1,119.999996337891,8|0,0:0|0:0,0:0:0:0:
128,64,109741,1,10,0:0:0:0:
272,304,109899,1,0,0:0:0:0:
304,16,110057,6,0,P|320:72|312:152,1,119.999996337891,8|0,0:0|0:0,0:0:0:0:
272,304,110373,1,10,0:0:0:0:
128,64,110531,1,2,0:0:0:0:
112,336,110689,2,0,P|136:280|104:216,1,119.999996337891,8|0,0:0|0:0,0:0:0:0:
0,136,111004,2,0,P|56:160|120:128,1,119.999996337891,8|0,0:0|0:0,0:0:0:0:
216,56,111320,5,10,0:0:0:0:
69,237,111478,1,2,0:0:0:0:
240,184,111636,1,10,0:0:0:0:
176,344,111794,1,10,0:0:0:0:
158,105,111952,1,2,0:0:0:0:
288,296,112110,1,2,0:0:0:0:
96,160,112267,1,10,0:0:0:0:
176,344,112425,1,2,0:0:0:0:
208,32,112583,5,10,0:0:0:0:
288,296,112741,1,2,0:0:0:0:
416,104,112899,2,0,P|361:83|296:88,1,119.999996337891,8|0,0:0|0:0,0:0:0:0:
128,232,113215,2,0,B|70:238|70:238|16:200,1,119.999996337891,2|0,0:0|0:0,0:0:0:0:
208,32,113530,1,2,0:0:0:0:
264,272,113689,1,2,0:0:0:0:
464,216,113846,5,4,0:0:0:0:
232,272,114004,1,2,0:0:0:0:
496,360,114162,1,10,0:0:0:0:
208,272,114320,1,2,0:0:0:0:
448,208,114478,1,10,0:0:0:0:
328,328,114636,1,2,0:0:0:0:
304,80,114794,2,0,L|320:208,1,119.999996337891,8|0,0:0|0:0,0:0:0:0:
328,328,115110,5,10,0:0:0:0:
416,136,115267,1,2,0:0:0:0:
200,280,115425,1,10,0:0:0:0:
392,136,115583,1,2,0:0:0:0:
160,32,115741,2,0,L|296:24,1,119.999996337891,8|0,0:0|0:0,0:0:0:0:
144,240,116057,2,0,L|8:232,1,119.999996337891,8|0,0:0|0:0,0:0:0:0:
232,136,116373,5,10,0:0:0:0:
72,344,116531,1,2,0:0:0:0:
112,152,116689,1,10,0:0:0:0:
200,360,116846,1,2,0:0:0:0:
152,24,117004,2,0,B|216:16|216:16|288:32,1,119.999996337891,8|0,0:0|0:0,0:0:0:0:
480,192,117320,2,0,B|416:200|416:200|344:184,1,119.999996337891,8|0,0:0|0:0,0:0:0:0:
112,152,117636,5,10,0:0:0:0:
416,136,117794,1,2,0:0:0:0:
168,224,117952,1,10,0:0:0:0:
376,64,118110,1,2,0:0:0:0:
232,288,118267,1,10,0:0:0:0:
304,32,118425,1,2,0:0:0:0:
320,296,118583,1,10,0:0:0:0:
224,48,118741,1,2,0:0:0:0:
392,248,118899,6,0,P|344:216|264:232,1,119.999996337891,4|0,0:0|0:0,0:0:0:0:
48,360,119215,2,0,L|192:344,1,119.999996337891,8|0,0:0|0:0,0:0:0:0:
392,248,119531,2,0,P|424:200|408:120,1,119.999996337891,8|0,0:0|0:0,0:0:0:0:
224,48,119846,2,0,P|192:96|208:176,1,119.999996337891,8|0,0:0|0:0,0:0:0:0:
336,344,120162,5,10,0:0:0:0:
304,128,120320,1,2,0:0:0:0:
200,328,120478,1,10,0:0:0:0:
408,224,120636,1,2,0:0:0:0:
184,200,120794,2,0,L|40:184,1,119.999996337891,8|0,0:0|0:0,0:0:0:0:
168,56,121110,2,0,P|224:32|288:48,1,119.999996337891,8|0,0:0|0:0,0:0:0:0:
64,186,121425,6,0,L|48:42,1,119.999996337891,8|0,0:0|0:0,0:0:0:0:
280,43,121741,2,0,P|304:99|288:163,1,119.999996337891,8|0,0:0|0:0,0:0:0:0:
184,323,122057,1,10,0:0:0:0:
280,43,122215,1,2,0:0:0:0:
64,186,122373,1,10,0:0:0:0:
280,43,122531,1,2,0:0:0:0:
72,88,122689,5,8,0:0:0:0:
128,56,122794,5,8,0:0:0:0:
192,72,122899,5,8,0:0:0:0:
240,112,123004,5,8,0:0:0:0:
304,120,123110,5,8,0:0:0:0:
360,96,123215,5,8,0:0:0:0:
408,56,123320,6,8,P|440:120|408:200,2,150,4|8|8,0:0|0:0|0:0,0:0:0:0:
336,192,123952,5,4,0:0:0:0:
448,288,124189,1,4,0:0:0:0:
307,330,124425,2,0,P|246:346|200:296,1,120,4|0,0:0|0:0,0:0:0:0:
336,192,125215,5,0,0:0:0:0:
206,314,125531,2,0,L|22:307,1,160,2|2,0:0|0:0,0:0:0:0:
160,228,126004,1,0,0:0:0:0:
46,307,126478,5,4,0:0:0:0:
160,228,126715,1,4,0:0:0:0:
38,167,126952,2,0,P|66:117|114:149,1,120,4|0,0:0|0:0,0:0:0:0:
190,223,127741,5,2,0:0:0:0:
214,199,127820,1,2,0:0:0:0:
230,167,127899,1,2,0:0:0:0:
238,135,127978,1,2,0:0:0:0:
238,103,128057,1,2,0:0:0:0:
222,71,128136,1,2,0:0:0:0:
190,55,128215,1,2,0:0:0:0:
158,55,128294,1,2,0:0:0:0:
126,79,128373,5,2,0:0:0:0:
118,111,128452,1,2,0:0:0:0:
126,143,128531,1,2,0:0:0:0:
150,167,128610,1,2,0:0:0:0:
182,175,128689,1,2,0:0:0:0:
222,167,128767,1,2,0:0:0:0:
254,143,128846,1,2,0:0:0:0:
294,135,128925,1,6,0:0:0:0:
334,151,129004,5,4,0:0:0:0:
480,136,129241,1,4,0:0:0:0:
392,16,129478,2,0,B|368:71|368:71|401:122,1,120,4|0,0:0|0:0,0:0:0:0:
288,264,130741,2,0,L|344:256,1,50,2|2,0:0|0:0,0:0:0:0:
424,240,130899,1,2,0:0:0:0:
392,16,131057,1,2,0:0:0:0:
184,152,131530,5,4,0:0:0:0:
32,136,131767,1,4,0:0:0:0:
120,16,132004,2,0,B|144:71|144:71|104:144|104:144|120:200,1,200,4|2,0:0|0:0,0:0:0:0:
256,192,132873,12,6,134057,0:0:0:0:
168,104,151741,5,2,0:0:0:0:
256,192,151820,12,2,153004,0:0:0:0:
352,128,153636,6,0,L|376:128,15,25
392,128,154267,6,0,B|408:208|408:208|368:256|368:256|384:352,1,220.000006713867,6|2,0:0|0:0,0:0:0:0:
216,152,154741,1,0,0:0:0:0:
392,128,154899,1,2,0:0:0:0:
224,344,155057,2,0,B|176:352|176:352|112:304,1,110.000003356934
24,224,155373,5,0,0:0:0:0:
160,40,155531,1,2,0:0:0:0:
192,272,155689,1,0,0:0:0:0:
381,156,155846,1,0,0:0:0:0:
416,152,155925,1,0,0:0:0:0:
448,160,156004,1,2,0:0:0:0:
216,136,156162,1,8,0:0:0:0:
360,320,156320,2,0,L|384:136,1,165.000005035401,2|0,0:0|0:0,0:0:0:0:
392,56,156636,1,2,0:0:0:0:
176,200,156794,6,0,P|144:112|248:64,1,220.000006713867,6|2,0:0|0:0,0:0:0:0:
16,208,157267,1,0,0:0:0:0:
280,176,157425,1,8,0:0:0:0:
96,136,157583,2,0,P|72:88|82:26,1,110.000003356934
280,176,157898,1,2,0:0:0:0:
480,144,158057,5,8,0:0:0:0:
240,328,158215,1,0,0:0:0:0:
480,248,158373,1,0,0:0:0:0:
203,233,158531,1,2,0:0:0:0:
416,312,158689,1,8,0:0:0:0:
162,90,158846,1,0,0:0:0:0:
448,184,159004,1,8,0:0:0:0:
184,256,159162,1,8,0:0:0:0:
376,136,159320,6,0,B|368:192|368:192|392:248,1,110.000003356934,4|0,0:0|0:0,0:0:0:0:
440,336,159636,1,2,0:0:0:0:
232,144,159794,1,2,0:0:0:0:
320,336,159952,2,0,B|328:288|328:288|288:200,1,110.000003356934,0|2,0:0|0:0,0:0:0:0:
232,144,160267,1,8,0:0:0:0:
448,184,160425,1,2,0:0:0:0:
240,304,160583,5,4,0:0:0:0:
296,48,160741,1,8,0:0:0:0:
120,192,160899,1,0,0:0:0:0:
384,104,161057,1,2,0:0:0:0:
104,120,161215,1,8,0:0:0:0:
395,275,161373,1,0,0:0:0:0:
104,264,161531,1,8,0:0:0:0:
440,192,161689,1,8,0:0:0:0:
232,192,161846,6,0,L|256:64,1,110.000003356934,8|0,0:0|0:0,0:0:0:0:
272,8,162162,1,2,0:0:0:0:
336,360,162320,2,0,L|361:230,1,110.000003356934,2|8,0:0|0:0,0:0:0:0:
439,88,162636,2,0,P|455:144|439:192,1,110.000003356934,2|0,0:0|0:0,0:0:0:0:
224,336,162952,1,2,0:0:0:0:
64,224,163110,5,8,0:0:0:0:
336,184,163267,1,2,0:0:0:0:
141,156,163425,1,2,0:0:0:0:
224,336,163583,1,8,0:0:0:0:
14,307,163741,1,8,0:0:0:0:
224,80,163899,1,8,0:0:0:0:
172,266,164057,1,8,0:0:0:0:
40,124,164215,1,8,0:0:0:0:
328,112,164373,6,0,P|256:176|136:152,1,220.000006713867,4|2,0:0|0:0,0:0:0:0:
296,40,164846,1,8,0:0:0:0:
172,266,165004,1,8,0:0:0:0:
64,104,165162,2,0,P|108:69|167:67,1,110.000003356934,2|0,0:0|0:0,0:0:0:0:
328,112,165478,1,8,0:0:0:0:
232,360,165636,5,0,0:0:0:0:
320,136,165794,1,0,0:0:0:0:
432,360,165952,1,2,0:0:0:0:
312,160,166110,1,2,0:0:0:0:
232,360,166267,1,8,0:0:0:0:
24,200,166425,2,0,P|24:296|152:328,1,220.000006713867,2|10,0:0|0:0,0:0:0:0:
312,263,166899,6,0,P|328:207|296:143,1,110.000003356934,2|0,0:0|0:0,0:0:0:0:
176,32,167215,1,2,0:0:0:0:
112,248,167373,1,2,0:0:0:0:
288,80,167531,1,2,0:0:0:0:
32,160,167689,1,8,0:0:0:0:
296,192,167846,1,2,0:0:0:0:
24,48,168004,1,2,0:0:0:0:
192,80,168162,6,0,P|208:128|184:200,1,110.000003356934,0|2,0:0|0:0,0:0:0:0:
16,352,168478,2,0,P|0:304|24:240,1,110.000003356934,0|2,0:0|0:0,0:0:0:0:
112,136,168794,1,2,0:0:0:0:
168,328,168952,1,0,0:0:0:0:
296,192,169110,1,2,0:0:0:0:
240,384,169268,1,0,0:0:0:0:
384,192,169425,6,0,P|392:240|360:312,1,110.000003356934,4|0,0:0|0:0,0:0:0:0:
304,120,169741,1,2,0:0:0:0:
248,312,169899,1,2,0:0:0:0:
120,160,170057,2,0,L|240:136,1,110.000003356934,8|0,0:0|0:0,0:0:0:0:
400,88,170373,1,0,0:0:0:0:
320,344,170531,1,2,0:0:0:0:
320,344,170610,1,0,0:0:0:0:
320,344,170689,5,8,0:0:0:0:
217,139,170846,1,0,0:0:0:0:
424,240,171004,1,0,0:0:0:0:
160,192,171162,1,2,0:0:0:0:
320,24,171320,5,10,0:0:0:0:
336,56,171399,1,10,0:0:0:0:
336,88,171478,1,10,0:0:0:0:
320,120,171557,1,10,0:0:0:0:
304,160,171636,1,10,0:0:0:0:
304,200,171715,1,10,0:0:0:0:
320,240,171794,1,10,0:0:0:0:
352,264,171873,1,10,0:0:0:0:
392,272,171952,6,0,P|448:264|496:224,1,110.000003356934,8|0,0:0|0:0,0:0:0:0:
264,72,172267,1,2,0:0:0:0:
120,272,172425,2,0,P|72:272|16:224,1,110.000003356934,2|0,0:0|0:0,0:0:0:0:
264,72,172740,1,0,0:0:0:0:
392,184,172899,2,0,P|344:168|272:184,1,110.000003356934,8|2,0:0|0:0,0:0:0:0:
176,360,173215,5,2,0:0:0:0:
328,277,173373,2,8,L|342:149,1,110.000003356934
200,280,173689,1,2,0:0:0:0:
304,32,173846,1,8,0:0:0:0:
310,81,173924,1,8,0:0:0:0:
316,131,174003,1,8,0:0:0:0:
136,168,174162,1,4,0:0:0:0:
424,72,174320,1,2,0:0:0:0:
136,168,174478,6,0,P|192:160|232:176,1,100,4|0,0:0|0:0,0:0:0:0:
416,240,174794,2,0,P|360:248|320:232,1,100,2|0,0:0|0:0,0:0:0:0:
192,88,175110,1,2,0:0:0:0:
224,288,175267,1,0,0:0:0:0:
176,112,175425,1,2,0:0:0:0:
40,216,175583,1,4,0:0:0:0:
224,176,175741,6,0,L|336:152,1,100,2|0,0:0|0:0,0:0:0:0:
392,280,176057,2,0,L|280:256,1,100,2|0,0:0|0:0,0:0:0:0:
112,240,176373,2,0,P|80:176|128:96,1,150,4|8,0:0|0:0,0:0:0:0:
144,88,176689,1,4,0:0:0:0:
294,259,176846,1,8,0:0:0:0:
32,256,177004,6,0,P|100:319|186:260,1,200,2|2,0:0|0:0,0:0:0:0:
192,96,177478,1,0,0:0:0:0:
112,240,177636,1,4,0:0:0:0:
272,232,177794,5,2,0:0:0:0:
312,224,177873,1,2,0:0:0:0:
352,216,177952,1,2,0:0:0:0:
400,88,178110,1,2,0:0:0:0:
440,96,178189,1,2,0:0:0:0:
480,104,178268,1,2,0:0:0:0:
288,312,178425,5,2,0:0:0:0:
280,272,178504,1,2,0:0:0:0:
272,232,178583,1,2,0:0:0:0:
384,8,178741,1,2,0:0:0:0:
392,48,178820,1,2,0:0:0:0:
400,88,178899,1,2,0:0:0:0:
368,296,179057,5,2,0:0:0:0:
328,304,179136,1,2,0:0:0:0:
288,312,179215,2,0,L|160:304,1,100,8|8,0:0|0:0,0:0:0:0:
48,192,179531,6,0,P|16:288|88:344,1,200,2|2,0:0|0:0,0:0:0:0:
320,144,180004,1,8,0:0:0:0:
88,264,180162,1,2,0:0:0:0:
344,232,180320,1,8,0:0:0:0:
128,192,180478,1,8,0:0:0:0:
384,320,180636,1,8,0:0:0:0:
88,120,180794,6,0,P|192:136|200:224,1,200,2|2,0:0|0:0,0:0:0:0:
384,160,181267,1,8,0:0:0:0:
128,192,181425,1,2,0:0:0:0:
248,32,181583,1,8,0:0:0:0:
256,280,181741,1,8,0:0:0:0:
64,88,181899,1,8,0:0:0:0:
314,227,182057,6,0,P|320:328|240:360,1,200,2|2,0:0|0:0,0:0:0:0:
424,80,182531,1,8,0:0:0:0:
256,280,182689,1,2,0:0:0:0:
256,24,182846,1,8,0:0:0:0:
432,272,183004,1,8,0:0:0:0:
120,144,183162,1,8,0:0:0:0:
352,48,183320,6,0,P|376:144|472:144,1,200,2|2,0:0|0:0,0:0:0:0:
216,184,183794,1,2,0:0:0:0:
424,80,183952,1,8,0:0:0:0:
344,320,184110,1,2,0:0:0:0:
336,336,184189,1,2,0:0:0:0:
328,352,184267,6,0,P|280:360|216:352,1,100,4|0,0:0|0:0,0:0:0:0:
80,256,184583,2,0,B|144:272|144:272|208:256|208:256|280:272,1,200,4|2,0:0|0:0,0:0:0:0:
192,104,185057,1,0,0:0:0:0:
71,351,185215,2,0,P|87:303|71:239,1,100,2|0,0:0|0:0,0:0:0:0:
192,104,185531,2,0,P|176:152|192:216,1,100,2|0,0:0|0:0,0:0:0:0:
80,144,185846,5,8,0:0:0:0:
184,320,186004,1,0,0:0:0:0:
216,344,186083,1,0,0:0:0:0:
256,344,186162,2,0,P|320:304|400:304,1,150,8|2,0:0|0:0,0:0:0:0:
416,320,186478,2,0,L|400:192,1,100,8|2,0:0|0:0,0:0:0:0:
384,80,186794,1,8,0:0:0:0:
320,280,186952,1,2,0:0:0:0:
512,136,187110,5,8,0:0:0:0:
312,176,187267,2,8,P|336:176|360:184,1,50
480,296,187425,1,8,0:0:0:0:
336,384,187583,5,2,0:0:0:0:
304,368,187662,1,2,0:0:0:0:
264,360,187741,1,10,0:0:0:0:
224,368,187820,1,2,0:0:0:0:
176,344,187899,1,2,0:0:0:0:
168,296,187978,1,2,0:0:0:0:
200,256,188057,1,10,0:0:0:0:
448,208,188215,2,0,P|424:216|400:216,1,50,2|10,0:0|0:0,0:0:0:0:
272,80,188373,5,10,0:0:0:0:
272,40,188452,1,10,0:0:0:0:
296,8,188531,1,10,0:0:0:0:
336,0,188610,1,10,0:0:0:0:
384,24,188689,1,10,0:0:0:0:
400,72,188767,1,10,0:0:0:0:
384,120,188846,1,10,0:0:0:0:
344,152,188925,1,10,0:0:0:0:
320,192,189004,1,10,0:0:0:0:
320,240,189083,1,10,0:0:0:0:
344,280,189162,1,10,0:0:0:0:
392,304,189241,1,10,0:0:0:0:
440,296,189320,2,8,P|464:280|480:248,1,50,10|10,0:0|0:0,0:0:0:0:
336,72,189478,2,8,P|312:88|296:120,1,50,10|10,0:0|0:0,0:0:0:0:
200,328,189636,5,10,0:0:0:0:
112,192,189794,1,2,0:0:0:0:
120,160,189873,1,2,0:0:0:0:
128,128,189952,1,2,0:0:0:0:
200,328,190110,2,0,L|96:312,1,100,8|0,0:0|0:0,0:0:0:0:
272,184,190425,1,2,0:0:0:0:
184,40,190583,6,0,L|304:8,1,100,8|0,0:0|0:0,0:0:0:0:
312,16,190820,1,0,0:0:0:0:
344,24,190899,1,0,0:0:0:0:
272,184,191057,2,4,L|152:168,1,100,12|12,0:0|0:0,0:0:0:0:
352,144,191373,1,0,0:0:0:0:
80,152,191531,1,8,0:0:0:0:
352,232,191689,1,0,0:0:0:0:
144,80,191846,1,8,0:0:0:0:
272,272,192004,1,0,0:0:0:0:
40,288,192162,5,2,0:0:0:0:
152,208,193110,6,0,L|232:200,1,75.0000028610231
376,184,193425,2,0,P|332:119|258:179,1,194.999991073609
376,184,194057,2,0,P|352:96|232:112,1,225.000008583069
336,288,194689,6,0,P|296:312|216:296,1,110.000003356934,4|0,0:0|0:0,0:0:0:0:
160,224,195004,1,2,0:0:0:0:
80,296,195162,2,0,P|56:256|72:176,1,110.000003356934,2|0,0:0|0:0,0:0:0:0:
144,120,195477,1,2,0:0:0:0:
160,224,195636,2,0,P|248:112|128:8,1,330.000010070801,2|2,0:0|0:0,0:0:0:0:
144,120,196267,5,2,0:0:0:0:
13,253,196425,1,2,0:0:0:0:
184,328,196583,2,0,L|312:312,1,110.000003356934,2|0,0:0|0:0,0:0:0:0:
424,192,196899,2,0,L|296:176,1,110.000003356934,2|0,0:0|0:0,0:0:0:0:
112,160,197215,6,0,P|96:112|120:40,1,110.000003356934,2|0,0:0|0:0,0:0:0:0:
224,16,197531,1,2,0:0:0:0:
314,178,197689,2,0,P|330:226|306:298,1,110.000003356934,2|0,0:0|0:0,0:0:0:0:
178,322,198005,1,2,0:0:0:0:
235,89,198162,2,0,P|159:218|25:151,1,330.000010070801,2|2,0:0|0:0,0:0:0:0:
296,48,198794,5,2,0:0:0:0:
24,150,198952,1,2,0:0:0:0:
304,264,199110,2,0,P|248:280|192:264,1,110.000003356934,2|0,0:0|0:0,0:0:0:0:
368,128,199425,2,0,L|496:120,1,110.000003356934,2|0,0:0|0:0,0:0:0:0:
394,309,199741,5,2,0:0:0:0:
424,48,199899,1,2,0:0:0:0:
224,144,200215,2,0,L|216:264,1,110.000003356934,2|2,0:0|0:0,0:0:0:0:
312,80,200531,1,2,0:0:0:0:
120,192,200689,2,0,P|0:128|112:32,1,330.000010070801,2|2,0:0|0:0,0:0:0:0:
328,184,201320,5,2,0:0:0:0:
336,216,201399,1,2,0:0:0:0:
344,248,201478,1,2,0:0:0:0:
136,296,201636,2,0,P|184:264|256:256,1,110.000003356934,2|0,0:0|0:0,0:0:0:0:
120,192,201952,2,0,P|72:160|0:152,1,110.000003356934,2|0,0:0|0:0,0:0:0:0:
224,360,202267,6,0,B|304:344|304:344|368:360|368:360|432:368|488:296|432:224,1,330.000010070801,2|2,0:0|0:0,0:0:0:0:
376,96,202899,2,0,P|328:192|384:288,1,220.000006713867,2|2,0:0|0:0,0:0:0:0:
225,5,203373,1,2,0:0:0:0:
328,192,203531,6,0,P|297:147|289:93,1,110.000003356934,2|0,0:0|0:0,0:0:0:0:
112,248,203846,2,0,P|168:240|232:176,1,110.000003356934,2|0,0:0|0:0,0:0:0:0:
328,24,204162,1,2,0:0:0:0:
368,8,204241,1,2,0:0:0:0:
408,16,204320,1,2,0:0:0:0:
440,48,204399,1,2,0:0:0:0:
440,96,204478,1,2,0:0:0:0:
416,136,204557,1,2,0:0:0:0:
392,176,204636,1,2,0:0:0:0:
392,224,204715,1,2,0:0:0:0:
416,264,204794,6,0,P|400:320|344:344,1,110.000003356934,4|0,0:0|0:0,0:0:0:0:
288,160,205110,1,2,0:0:0:0:
152,304,205267,2,0,P|96:304|40:280,1,110.000003356934,2|0,0:0|0:0,0:0:0:0:
288,160,205583,1,2,0:0:0:0:
121,93,205741,2,0,B|145:157|145:157|129:237|129:237|153:309,1,220.000006713867,0|2,0:0|0:0,0:0:0:0:
350,238,206215,6,0,P|302:264|248:264,1,110.000003356934,2|0,0:0|0:0,0:0:0:0:
56,168,206530,1,2,0:0:0:0:
248,56,206689,2,0,P|274:103|273:158,1,110.000003356934,2|0,0:0|0:0,0:0:0:0:
152,304,207004,2,0,L|24:264,1,110.000003356934,2|0,0:0|0:0,0:0:0:0:
272,158,207320,6,0,P|328:142|384:158,1,110.000003356934,2|0,0:0|0:0,0:0:0:0:
512,272,207636,1,2,0:0:0:0:
232,384,207794,2,0,P|216:328|232:272,1,110.000003356934,2|0,0:0|0:0,0:0:0:0:
346,144,208110,1,2,0:0:0:0:
120,288,208267,2,0,L|376:264,1,220.000006713867,0|2,0:0|0:0,0:0:0:0:
456,192,208741,6,0,P|472:136|448:64,1,110.000003356934,2|0,0:0|0:0,0:0:0:0:
440,288,209057,1,2,0:0:0:0:
248,336,209215,2,0,P|232:280|256:208,1,110.000003356934,2|0,0:0|0:0,0:0:0:0:
336,24,209531,2,0,L|328:160,1,110.000003356934,2|0,0:0|0:0,0:0:0:0:
320,296,209846,6,0,P|216:328|152:240,1,220.000006713867,2|2,0:0|0:0,0:0:0:0:
329,133,210320,2,0,P|381:117|435:124,1,110.000003356934,2|0,0:0|0:0,0:0:0:0:
320,296,210636,1,0,0:0:0:0:
97,95,210794,2,0,L|176:320,1,220.000006713867,2|2,0:0|0:0,0:0:0:0:
264,128,211267,5,2,0:0:0:0:
275,332,211425,2,0,L|163:300,1,110.000003356934,2|0,0:0|0:0,0:0:0:0:
48,344,211741,2,0,L|72:216,1,110.000003356934,2|0,0:0|0:0,0:0:0:0:
96,96,212057,1,2,0:0:0:0:
176,328,212215,1,2,0:0:0:0:
232,48,212373,6,0,P|336:88|320:192,1,220.000006713867,6|2,0:0|0:0,0:0:0:0:
0,160,212846,1,2,0:0:0:0:
264,128,213004,1,2,0:0:0:0:
160,368,213162,1,2,0:0:0:0:
120,32,213320,1,2,0:0:0:0:
288,240,213478,1,2,0:0:0:0:
24,280,213636,5,4,0:0:0:0:
264,88,213794,1,2,0:0:0:0:
264,88,213873,1,2,0:0:0:0:
264,88,213952,1,2,0:0:0:0:
256,352,214110,1,2,0:0:0:0:
112,136,214267,1,2,0:0:0:0:
376,120,214425,1,2,0:0:0:0:
128,280,214583,1,2,0:0:0:0:
224,32,214741,1,2,0:0:0:0:
392,240,214899,6,0,L|512:224,1,119.999996337891,8|0,0:0|0:0,0:0:0:0:
280,192,215215,1,10,0:0:0:0:
416,24,215373,1,2,0:0:0:0:
464,328,215531,2,0,P|408:344|328:336,1,119.999996337891,8|0,0:0|0:0,0:0:0:0:
184,288,215846,1,10,0:0:0:0:
392,240,216004,1,2,0:0:0:0:
136,168,216162,6,0,P|80:152|8:160,1,119.999996337891,8|0,0:0|0:0,0:0:0:0:
272,192,216478,1,10,0:0:0:0:
64,264,216636,1,2,0:0:0:0:
224,72,216794,1,10,0:0:0:0:
288,320,216952,1,2,0:0:0:0:
136,168,217110,1,10,0:0:0:0:
80,376,217267,1,2,0:0:0:0:
288,320,217425,6,0,P|316:266|308:186,1,119.999996337891,8|0,0:0|0:0,0:0:0:0:
88,24,217741,2,0,P|60:78|68:158,1,119.999996337891,10|0,0:0|0:0,0:0:0:0:
392,208,218057,2,0,P|368:152|296:136,1,119.999996337891,8|0,0:0|0:0,0:0:0:0:
160,224,218373,1,2,0:0:0:0:
400,32,218531,1,2,0:0:0:0:
456,336,218689,6,0,P|408:360|328:352,1,119.999996337891,8|2,0:0|0:0,0:0:0:0:
46,245,219004,2,0,P|94:221|174:229,1,119.999996337891,10|2,0:0|0:0,0:0:0:0:
384,272,219320,2,0,P|400:216|368:152,1,119.999996337891,10|0,0:0|0:0,0:0:0:0:
216,8,219636,1,10,0:0:0:0:
288,224,219794,1,0,0:0:0:0:
88,112,219952,6,0,P|96:48|144:0,1,119.999996337891,10|2,0:0|0:0,0:0:0:0:
420,56,220267,2,0,P|412:120|364:168,1,119.999996337891,10|2,0:0|0:0,0:0:0:0:
160,224,220583,1,10,0:0:0:0:
328,80,220741,1,2,0:0:0:0:
8,24,220899,1,10,0:0:0:0:
112,328,221057,1,2,0:0:0:0:
328,80,221215,5,10,0:0:0:0:
392,280,221373,1,2,0:0:0:0:
200,40,221531,1,10,0:0:0:0:
160,40,221610,1,2,0:0:0:0:
128,56,221689,1,2,0:0:0:0:
320,184,221846,1,8,0:0:0:0:
40,184,222004,1,2,0:0:0:0:
308,74,222162,1,8,0:0:0:0:
143,295,222320,1,2,0:0:0:0:
128,56,222478,6,8,L|144:304,1,239.999992675781
208,176,222952,1,0,0:0:0:0:
152,376,223110,2,0,P|208:384|272:360,1,119.999996337891,8|0,0:0|0:0,0:0:0:0:
344,192,223425,1,10,0:0:0:0:
128,160,223583,1,2,0:0:0:0:
312,32,223741,5,10,0:0:0:0:
256,296,223899,1,2,0:0:0:0:
472,232,224057,1,10,0:0:0:0:
208,176,224215,1,2,0:0:0:0:
368,296,224373,1,10,0:0:0:0:
312,32,224531,1,2,0:0:0:0:
88,360,224689,1,10,0:0:0:0:
144,96,224847,1,2,0:0:0:0:
24,272,225004,6,0,P|88:280|144:264,1,119.999996337891,8|0,0:0|0:0,0:0:0:0:
328,112,225320,1,10,0:0:0:0:
80,168,225478,1,2,0:0:0:0:
384,224,225636,2,0,P|320:232|264:216,1,119.999996337891,8|0,0:0|0:0,0:0:0:0:
56,32,225952,1,10,0:0:0:0:
128,360,226110,1,2,0:0:0:0:
160,128,226267,6,0,P|216:88|280:88,1,119.999996337891,8|0,0:0|0:0,0:0:0:0:
456,192,226583,1,10,0:0:0:0:
168,0,226741,1,2,0:0:0:0:
304,304,226899,2,0,P|248:328|176:320,1,119.999996337891,8|0,0:0|0:0,0:0:0:0:
48,144,227215,2,0,P|72:88|136:72,1,119.999996337891,10|2,0:0|0:0,0:0:0:0:
456,192,227531,6,0,L|320:176,1,119.999996337891,8|0,0:0|0:0,0:0:0:0:
120,144,227846,1,10,0:0:0:0:
384,288,228004,1,2,0:0:0:0:
216,80,228162,2,0,L|216:224,1,119.999996337891,8|0,0:0|0:0,0:0:0:0:
120,32,228478,1,10,0:0:0:0:
216,304,228636,1,2,0:0:0:0:
24,200,228794,6,0,P|80:176|160:192,1,119.999996337891,8|0,0:0|0:0,0:0:0:0:
384,288,229110,1,10,0:0:0:0:
64,88,229267,1,2,0:0:0:0:
464,192,229425,1,10,0:0:0:0:
96,276,229582,1,2,0:0:0:0:
440,176,229741,1,10,0:0:0:0:
32,96,229899,1,2,0:0:0:0:
291,351,230057,6,0,L|160:328,1,119.999996337891,8|0,0:0|0:0,0:0:0:0:
32,304,230373,1,10,0:0:0:0:
248,240,230531,1,2,0:0:0:0:
168,40,230689,2,0,P|144:96|192:168,1,119.999996337891,8|0,0:0|0:0,0:0:0:0:
360,264,231004,1,10,0:0:0:0:
56,96,231162,1,2,0:0:0:0:
32,304,231320,6,0,P|91:306|145:283,1,119.999996337891,8|0,0:0|0:0,0:0:0:0:
264,104,231636,1,10,0:0:0:0:
288,344,231793,1,2,0:0:0:0:
78,213,231952,2,0,L|54:85,1,119.999996337891,8|0,0:0|0:0,0:0:0:0:
248,240,232267,2,0,L|224:368,1,119.999996337891,8|0,0:0|0:0,0:0:0:0:
55,95,232583,6,0,P|111:71|183:79,1,119.999996337891,8|2,0:0|0:0,0:0:0:0:
384,192,232899,1,10,0:0:0:0:
272,0,233057,6,0,P|296:56|288:128,1,119.999996337891,2|8,0:0|0:0,0:0:0:0:
175,329,233373,1,10,0:0:0:0:
368,208,233531,6,0,P|312:232|240:224,1,119.999996337891,8|2,0:0|0:0,0:0:0:0:
56,96,233846,1,8,0:0:0:0:
292,113,234004,5,8,0:0:0:0:
321,109,234082,1,8,0:0:0:0:
351,105,234161,1,8,0:0:0:0:
72,216,234320,1,8,0:0:0:0:
42,212,234398,1,8,0:0:0:0:
12,208,234477,1,8,0:0:0:0:
328,320,234636,5,2,0:0:0:0:
288,344,234715,1,2,0:0:0:0:
240,344,234794,1,10,0:0:0:0:
200,320,234873,1,2,0:0:0:0:
184,272,234952,1,2,0:0:0:0:
200,224,235031,1,2,0:0:0:0:
240,192,235110,6,0,B|288:160|352:176,1,100,10|2,0:0|0:0,0:0:0:0:
448,256,235425,2,0,P|472:168|416:56,1,200,8|0,0:0|0:0,0:0:0:0:
328,296,235899,1,0,0:0:0:0:
272,96,236057,1,8,0:0:0:0:
208,368,236373,6,0,B|160:376|160:376|96:352,1,100,2|0,0:0|0:0,0:0:0:0:
16,208,236689,2,0,P|48:176|104:176,1,100,8|2,0:0|0:0,0:0:0:0:
120,184,236925,1,2,0:0:0:0:
144,200,237004,2,0,L|256:184,1,100,2|2,0:0|0:0,0:0:0:0:
448,168,237320,1,8,0:0:0:0:
184,96,237478,1,0,0:0:0:0:
184,96,237557,1,0,0:0:0:0:
184,96,237636,5,2,0:0:0:0:
192,320,237794,1,2,0:0:0:0:
360,264,237952,2,0,P|416:256|464:264,1,100,8|0,0:0|0:0,0:0:0:0:
248,240,238267,1,2,0:0:0:0:
232,200,238346,1,2,0:0:0:0:
240,160,238425,1,2,0:0:0:0:
416,352,238583,1,10,0:0:0:0:
320,192,238741,1,0,0:0:0:0:
456,264,238899,6,0,L|472:144,1,100,2|2,0:0|0:0,0:0:0:0:
368,48,239215,1,8,0:0:0:0:
328,336,239373,1,2,0:0:0:0:
304,344,239452,1,2,0:0:0:0:
280,352,239531,2,0,L|168:344,1,100,10|2,0:0|0:0,0:0:0:0:
8,240,239767,1,2,0:0:0:0:
32,248,239846,2,0,L|144:240,1,100,10|0,0:0|0:0,0:0:0:0:
320,192,240162,6,0,P|272:208|208:192,1,100,2|0,0:0|0:0,0:0:0:0:
72,96,240478,1,8,0:0:0:0:
216,296,240636,1,0,0:0:0:0:
216,296,240715,1,0,0:0:0:0:
216,296,240794,1,2,0:0:0:0:
264,112,240952,1,0,0:0:0:0:
128,336,241110,1,8,0:0:0:0:
144,136,241267,1,0,0:0:0:0:
280,280,241425,6,0,P|336:288|384:264,1,100
400,240,241662,1,0,0:0:0:0:
400,240,241741,2,0,L|392:360,1,100,8|0,0:0|0:0,0:0:0:0:
273,180,242057,2,0,L|281:300,1,100,2|0,0:0|0:0,0:0:0:0:
384,104,242373,1,8,0:0:0:0:
288,360,242531,1,0,0:0:0:0:
88,232,242689,6,0,P|136:240|208:224,1,100,8|0,0:0|0:0,0:0:0:0:
384,104,243004,1,2,0:0:0:0:
136,48,243162,2,0,P|128:96|144:168,1,100,2|0,0:0|0:0,0:0:0:0:
264,344,243478,1,2,0:0:0:0:
384,104,243636,2,0,P|336:96|264:112,1,100,2|0,0:0|0:0,0:0:0:0:
88,224,243951,5,0,0:0:0:0:
285,103,244110,1,4,0:0:0:0:
304,328,244267,1,4,0:0:0:0:
135,146,244425,1,0,0:0:0:0:
12,341,244583,2,8,L|59:361,7,50
86,368,245215,5,4,0:0:0:0:
112,363,245294,1,0,0:0:0:0:
136,352,245373,1,2,0:0:0:0:
153,334,245452,1,0,0:0:0:0:
166,293,245531,1,8,0:0:0:0:
144,256,245610,1,0,0:0:0:0:
112,240,245689,1,2,0:0:0:0:
72,248,245767,1,0,0:0:0:0:
32,216,245846,1,8,0:0:0:0:
24,168,245925,1,0,0:0:0:0:
48,120,246004,1,2,0:0:0:0:
96,104,246083,1,0,0:0:0:0:
144,128,246162,1,8,0:0:0:0:
192,144,246241,1,0,0:0:0:0:
240,144,246320,1,2,0:0:0:0:
280,120,246399,1,0,0:0:0:0:
296,72,246478,6,0,P|304:48|296:0,3,55.0000016784668,8|0|2|0,0:0|0:0|0:0|0:0,0:0:0:0:
304,200,246794,2,0,P|328:192|376:200,3,55.0000016784668,8|0|2|0,0:0|0:0|0:0|0:0,0:0:0:0:
392,208,247110,1,8,0:0:0:0:
416,240,247189,1,0,0:0:0:0:
416,280,247267,1,2,0:0:0:0:
400,312,247346,1,0,0:0:0:0:
368,336,247425,1,8,0:0:0:0:
328,336,247504,1,0,0:0:0:0:
296,312,247583,1,2,0:0:0:0:
256,304,247662,1,0,0:0:0:0:
216,312,247741,5,8,0:0:0:0:
184,344,247820,1,0,0:0:0:0:
144,352,247899,1,2,0:0:0:0:
104,344,247978,1,0,0:0:0:0:
72,312,248057,1,8,0:0:0:0:
64,272,248136,1,0,0:0:0:0:
88,232,248215,1,2,0:0:0:0:
128,208,248294,1,0,0:0:0:0:
152,168,248373,1,8,0:0:0:0:
152,128,248452,1,0,0:0:0:0:
128,88,248531,1,2,0:0:0:0:
88,72,248610,1,0,0:0:0:0:
48,80,248689,1,0,0:0:0:0:
16,112,248767,1,0,0:0:0:0:
8,152,248846,1,2,0:0:0:0:
24,192,248925,1,0,0:0:0:0:
40,232,249004,6,0,P|48:256|32:304,3,55.0000016784668,8|2|2|2,0:0|0:0|0:0|0:0,0:0:0:0:
168,352,249320,2,0,P|160:328|176:280,3,55.0000016784668,8|2|2|2,0:0|0:0|0:0|0:0,0:0:0:0:
184,264,249636,1,8,0:0:0:0:
216,240,249715,1,2,0:0:0:0:
256,232,249794,1,2,0:0:0:0:
296,248,249873,1,2,0:0:0:0:
320,280,249952,1,8,0:0:0:0:
328,320,250031,1,0,0:0:0:0:
360,344,250110,1,8,0:0:0:0:
400,352,250189,1,0,0:0:0:0:
440,344,250267,6,0,P|464:296|448:232,1,110.000003356934,4|2,0:0|0:0,0:0:0:0:
360,64,250583,1,8,0:0:0:0:
352,272,250741,1,2,0:0:0:0:
464,136,250899,1,8,0:0:0:0:
264,216,251057,1,2,0:0:0:0:
248,192,251136,1,0,0:0:0:0:
240,168,251215,1,8,0:0:0:0:
240,144,251294,1,0,0:0:0:0:
248,120,251373,1,2,0:0:0:0:
264,96,251452,1,0,0:0:0:0:
288,80,251531,1,8,0:0:0:0:
328,88,251610,5,0,0:0:0:0:
352,128,251689,1,2,0:0:0:0:
352,168,251767,1,0,0:0:0:0:
328,208,251846,1,8,0:0:0:0:
288,224,251925,1,0,0:0:0:0:
248,216,252004,1,2,0:0:0:0:
216,184,252083,1,0,0:0:0:0:
176,168,252162,1,8,0:0:0:0:
128,168,252241,1,0,0:0:0:0:
80,192,252320,1,2,0:0:0:0:
56,232,252399,1,0,0:0:0:0:
56,280,252478,5,8,0:0:0:0:
80,320,252557,1,8,0:0:0:0:
120,344,252636,1,8,0:0:0:0:
168,344,252715,1,8,0:0:0:0:
216,320,252794,6,0,P|240:272|224:208,1,110.000003356934,4|0,0:0|0:0,0:0:0:0:
152,40,253110,1,2,0:0:0:0:
32,240,253267,2,0,P|80:264|144:248,1,110.000003356934,4|2,0:0|0:0,0:0:0:0:
288,128,253583,1,2,0:0:0:0:
104,64,253741,2,8,P|80:112|96:176,1,110.000003356934,4|8,0:0|0:0,0:0:0:0:
216,320,254057,5,0,0:0:0:0:
8,104,254215,1,4,0:0:0:0:
296,32,254373,1,4,0:0:0:0:
200,312,254531,1,0,0:0:0:0:
88,160,254689,5,8,0:0:0:0:
136,200,254794,5,8,0:0:0:0:
192,208,254899,5,8,0:0:0:0:
248,184,255004,5,8,0:0:0:0:
296,144,255110,5,8,0:0:0:0:
352,136,255215,5,8,0:0:0:0:
408,152,255320,5,2,0:0:0:0:
344,112,265425,6,0,P|304:104|264:104,1,75.0000028610231,2|0,0:0|0:0,0:0:0:0:
152,144,265741,1,2,0:0:0:0:
301,295,265899,2,2,P|309:255|309:215,1,75.0000028610231
269,103,266215,1,2,0:0:0:0:
225,266,266373,2,0,P|296:376|378:277,1,300.000011444092,2|2,0:0|0:0,0:0:0:0:
288,176,267320,6,2,P|248:176|208:152,1,75.0000028610231
176,24,267636,2,2,P|216:24|256:48,1,75.0000028610231
288,176,267952,6,0,P|216:168|144:232,1,150.000005722046,2|0,0:0|0:0,0:0:0:0:
266,324,268425,2,0,L|290:156,1,150.000005722046,2|0,0:0|0:0,0:0:0:0:
192,80,268899,2,0,B|155:211|155:211|48:176|8:240,1,300.000011444092,2|2,0:0|0:0,0:0:0:0:
104,336,269846,6,0,P|136:352|192:344,1,75.0000028610231
215,247,270162,2,0,P|209:210|217:173,1,75.0000028610231,2|0,0:0|0:0,0:0:0:0:
296,64,270478,6,0,P|360:32|440:48,1,150.000005722046,2|0,0:0|0:0,0:0:0:0:
351,202,270952,2,0,P|283:246|211:246,1,150.000005722046,2|0,0:0|0:0,0:0:0:0:
304,144,271425,2,0,P|376:128|424:184,1,150.000005722046,2|0,0:0|0:0,0:0:0:0:
422,179,272057,6,0,P|414:219|422:259,1,75.0000028610231,0|2,0:0|0:0,0:0:0:0:
360,352,272373,2,0,P|328:344|256:344,1,75.0000028610231,2|0,0:0|0:0,0:0:0:0:
160,248,272689,2,0,P|192:240|264:240,1,75.0000028610231,2|0,0:0|0:0,0:0:0:0:
376,248,273004,6,0,P|416:128|264:128,1,300.000011444092,2|0,0:0|0:0,0:0:0:0:
157,298,273952,2,0,P|195:300|231:276,1,75.0000028610231
288,200,274267,1,0,0:0:0:0:
288,200,275531,6,0,B|216:216|216:216|144:192|144:192|56:208,1,220.000006713867,4|0,0:0|0:0,0:0:0:0:
368,272,276004,2,0,P|392:224|376:152,1,110.000003356934,2|0,0:0|0:0,0:0:0:0:
320,24,276320,1,0,0:0:0:0:
136,272,276478,1,8,0:0:0:0:
464,240,276636,6,0,P|360:272|288:200,1,220.000006713867,0|2,0:0|0:0,0:0:0:0:
80,40,277110,2,0,L|64:184,1,110.000003356934,0|2,0:0|0:0,0:0:0:0:
176,352,277425,2,0,L|160:208,1,110.000003356934,8|0,0:0|0:0,0:0:0:0:
216,0,277741,1,0,0:0:0:0:
64,304,277899,1,8,0:0:0:0:
80,40,278057,6,0,P|144:120|256:136,1,220.000006713867,2|0,0:0|0:0,0:0:0:0:
472,56,278531,2,0,P|424:40|352:48,1,110.000003356934,8|0,0:0|0:0,0:0:0:0:
152,128,278846,1,0,0:0:0:0:
384,360,279004,2,0,L|408:120,1,220.000006713867,2|0,0:0|0:0,0:0:0:0:
307,261,279478,6,0,P|259:277|187:269,1,110.000003356934,8|0,0:0|0:0,0:0:0:0:
32,160,279794,1,2,0:0:0:0:
24,120,279873,1,2,0:0:0:0:
16,80,279952,1,8,0:0:0:0:
245,198,280110,1,2,0:0:0:0:
8,248,280267,1,0,0:0:0:0:
176,40,280425,1,10,0:0:0:0:
160,304,280583,5,2,0:0:0:0:
296,24,280820,5,2,0:0:0:0:
320,336,281057,6,0,P|448:272|336:192,1,330.000010070801,8|2,0:0|0:0,0:0:0:0:
53,207,281689,2,0,B|96:216|136:232|136:232|192:192|264:168,1,220.000006713867
400,32,282162,1,0,0:0:0:0:
128,152,282320,1,2,0:0:0:0:
376,320,282478,2,0,P|360:264|392:200,1,110.000003356934,8|2,0:0|0:0,0:0:0:0:
192,8,282794,2,0,L|208:144,1,110.000003356934
208,304,283110,6,0,B|144:320|144:320|-8:288,1,220.000006713867,2|0,0:0|0:0,0:0:0:0:
296,56,283583,1,8,0:0:0:0:
296,56,283899,5,8,0:0:0:0:
360,272,284057,2,0,L|136:240,1,220.000006713867,2|0,0:0|0:0,0:0:0:0:
296,56,284531,6,0,P|280:112|312:176,1,110.000003356934,8|0,0:0|0:0,0:0:0:0:
472,128,284846,2,0,P|440:112|408:112,1,55.0000016784668,2|2,0:0|0:0,0:0:0:0:
224,176,285004,5,8,0:0:0:0:
192,200,285083,1,8,0:0:0:0:
152,208,285162,1,8,0:0:0:0:
112,200,285241,1,8,0:0:0:0:
80,176,285320,1,8,0:0:0:0:
40,184,285399,1,8,0:0:0:0:
16,216,285478,1,8,0:0:0:0:
16,256,285557,1,8,0:0:0:0:
48,288,285636,6,0,P|112:296|168:272,1,110.000003356934,4|0,0:0|0:0,0:0:0:0:
288,136,285952,1,0,0:0:0:0:
88,88,286110,2,0,P|80:152|104:208,1,110.000003356934,2|0,0:0|0:0,0:0:0:0:
240,328,286426,1,0,0:0:0:0:
288,136,286583,2,0,P|392:104|504:136,1,220.000006713867,8|0,0:0|0:0,0:0:0:0:
240,328,287057,6,0,P|192:352|128:360,1,110.000003356934,2|0,0:0|0:0,0:0:0:0:
96,192,287373,1,2,0:0:0:0:
400,104,287531,2,0,L|376:240,1,110.000003356934,8|2,0:0|0:0,0:0:0:0:
240,328,287846,2,0,L|216:192,1,110.000003356934,0|2,0:0|0:0,0:0:0:0:
312,32,288162,6,0,P|320:88|288:144,1,110.000003356934,2|0,0:0|0:0,0:0:0:0:
128,288,288478,1,0,0:0:0:0:
464,256,288636,2,0,P|408:264|352:232,1,110.000003356934,8|0,0:0|0:0,0:0:0:0:
208,72,288952,1,0,0:0:0:0:
176,352,289110,2,0,P|80:352|72:232,1,220.000006713867,8|0,0:0|0:0,0:0:0:0:
208,72,289583,6,0,L|328:64,1,110.000003356934,8|0,0:0|0:0,0:0:0:0:
128,288,289899,1,2,0:0:0:0:
112,24,290057,2,0,P|96:80|128:144,1,110.000003356934,8|2,0:0|0:0,0:0:0:0:
272,264,290373,2,0,P|288:208|256:144,1,110.000003356934,0|8,0:0|0:0,0:0:0:0:
112,24,290689,5,2,0:0:0:0:
216,352,290846,1,2,0:0:0:0:
208,208,291162,2,0,P|216:104|328:104,1,220.000006713867,8|0,0:0|0:0,0:0:0:0:
368,352,291636,2,0,L|352:224,1,110.000003356934,2|0,0:0|0:0,0:0:0:0:
328,48,291952,5,0,0:0:0:0:
152,312,292110,2,0,P|208:320|264:296,1,110.000003356934,8|0,0:0|0:0,0:0:0:0:
32,192,292425,1,2,0:0:0:0:
354,242,292583,2,0,P|362:186|338:130,1,110.000003356934,8|2,0:0|0:0,0:0:0:0:
368,352,292899,1,0,0:0:0:0:
256,192,293057,1,8,0:0:0:0:
459,153,293215,5,8,0:0:0:0:
416,160,293294,1,0,0:0:0:0:
376,144,293373,1,2,0:0:0:0:
344,112,293452,1,0,0:0:0:0:
328,72,293531,1,2,0:0:0:0:
328,32,293610,1,0,0:0:0:0:
288,16,293689,1,2,0:0:0:0:
248,24,293767,1,0,0:0:0:0:
216,56,293846,1,2,0:0:0:0:
208,96,293925,1,0,0:0:0:0:
224,136,294004,1,2,0:0:0:0:
240,176,294083,1,0,0:0:0:0:
232,216,294162,1,2,0:0:0:0:
200,248,294241,1,0,0:0:0:0:
160,256,294320,1,2,0:0:0:0:
120,248,294399,1,0,0:0:0:0:
88,216,294478,1,4,0:0:0:0:
128,80,294636,5,10,0:0:0:0:
128,80,294715,1,0,0:0:0:0:
128,80,294794,2,0,L|184:72,1,50
376,144,294952,1,10,0:0:0:0:
376,144,295031,1,0,0:0:0:0:
376,144,295110,2,0,L|320:136,1,50
128,176,295267,1,2,0:0:0:0:
344,232,295425,1,8,0:0:0:0:
64,232,295583,1,2,0:0:0:0:
256,304,295741,6,0,L|232:160,1,119.999996337891,4|0,0:0|0:0,0:0:0:0:
208,16,296057,1,0,0:0:0:0:
144,264,296215,1,2,0:0:0:0:
368,80,296373,2,0,P|424:64|496:72,1,119.999996337891,8|2,0:0|0:0,0:0:0:0:
368,376,296689,1,0,0:0:0:0:
224,120,296846,1,0,0:0:0:0:
448,312,297004,5,8,0:0:0:0:
168,200,297162,1,0,0:0:0:0:
464,216,297320,1,2,0:0:0:0:
176,296,297478,1,2,0:0:0:0:
176,296,297557,1,2,0:0:0:0:
176,296,297636,1,10,0:0:0:0:
424,128,297794,1,2,0:0:0:0:
248,368,297952,1,0,0:0:0:0:
328,80,298110,1,2,0:0:0:0:
352,376,298267,6,0,P|344:320|288:272,1,119.999996337891,8|0,0:0|0:0,0:0:0:0:
64,232,298583,1,2,0:0:0:0:
280,120,298741,1,2,0:0:0:0:
56,24,298899,2,0,L|64:144,1,119.999996337891,8|2,0:0|0:0,0:0:0:0:
88,344,299215,1,0,0:0:0:0:
168,80,299373,1,2,0:0:0:0:
200,328,299531,6,0,P|312:264|320:152,1,239.999992675781,8|2,0:0|0:0,0:0:0:0:
384,320,300004,1,2,0:0:0:0:
424,312,300083,1,2,0:0:0:0:
464,304,300162,1,10,0:0:0:0:
192,192,300320,1,8,0:0:0:0:
512,120,300478,1,0,0:0:0:0:
296,360,300636,1,2,0:0:0:0:
296,360,300715,1,2,0:0:0:0:
296,360,300794,6,0,L|280:208,1,119.999996337891,4|0,0:0|0:0,0:0:0:0:
264,24,301110,1,2,0:0:0:0:
176,312,301267,1,2,0:0:0:0:
40,112,301425,2,0,P|96:88|176:104,1,119.999996337891,8|2,0:0|0:0,0:0:0:0:
368,208,301741,1,0,0:0:0:0:
128,232,301899,1,0,0:0:0:0:
384,304,302057,6,0,P|336:328|264:328,1,119.999996337891,8|8,0:0|0:0,0:0:0:0:
80,224,302373,1,0,0:0:0:0:
264,112,302531,1,2,0:0:0:0:
272,144,302610,1,2,0:0:0:0:
280,176,302689,1,10,0:0:0:0:
50,340,302846,2,0,L|82:212,1,119.999996337891,2|0,0:0|0:0,0:0:0:0:
128,24,303162,1,2,0:0:0:0:
248,248,303320,6,0,P|352:208|320:104,1,239.999992675781,8|2,0:0|0:0,0:0:0:0:
424,352,303794,1,2,0:0:0:0:
280,176,303952,2,0,P|216:176|168:224,1,119.999996337891,8|0,0:0|0:0,0:0:0:0:
392,56,304267,1,0,0:0:0:0:
256,280,304425,1,2,0:0:0:0:
440,216,304583,5,8,0:0:0:0:
192,104,304741,1,2,0:0:0:0:
224,368,304899,1,2,0:0:0:0:
320,160,305057,1,2,0:0:0:0:
328,120,305136,1,2,0:0:0:0:
336,80,305215,1,10,0:0:0:0:
400,312,305373,1,0,0:0:0:0:
224,24,305531,1,8,0:0:0:0:
72,312,305689,1,0,0:0:0:0:
48,88,305846,6,0,L|24:232,1,119.999996337891,8|2,0:0|0:0,0:0:0:0:
192,360,306162,2,0,L|168:216,1,119.999996337891,0|2,0:0|0:0,0:0:0:0:
128,32,306478,1,8,0:0:0:0:
72,312,306636,1,2,0:0:0:0:
352,288,306794,2,0,P|384:240|368:152,1,119.999996337891,0|2,0:0|0:0,0:0:0:0:
256,32,307110,6,0,L|272:184,1,119.999996337891,8|2,0:0|0:0,0:0:0:0:
296,352,307425,1,2,0:0:0:0:
296,352,307504,1,2,0:0:0:0:
296,352,307583,1,2,0:0:0:0:
464,120,307741,2,0,P|416:88|344:88,1,119.999996337891,8|0,0:0|0:0,0:0:0:0:
72,208,308057,1,2,0:0:0:0:
368,176,308215,1,2,0:0:0:0:
176,368,308373,6,0,L|160:232,1,119.999996337891,8|2,0:0|0:0,0:0:0:0:
136,32,308689,1,2,0:0:0:0:
272,296,308846,1,2,0:0:0:0:
8,152,309004,2,0,L|152:136,1,119.999996337891,8|2,0:0|0:0,0:0:0:0:
344,112,309320,1,2,0:0:0:0:
80,240,309478,1,2,0:0:0:0:
376,184,309636,6,0,P|416:144|408:64,1,119.999996337891,8|2,0:0|0:0,0:0:0:0:
192,240,309952,1,2,0:0:0:0:
176,272,310030,1,2,0:0:0:0:
177,307,310109,1,2,0:0:0:0:
194,339,310188,1,2,0:0:0:0:
224,359,310267,1,2,0:0:0:0:
368,304,310425,1,8,0:0:0:0:
192,72,310583,1,0,0:0:0:0:
480,16,310741,1,0,0:0:0:0:
368,304,310899,6,0,L|232:288,1,119.999996337891,8|0,0:0|0:0,0:0:0:0:
32,256,311215,1,2,0:0:0:0:
320,192,311373,1,2,0:0:0:0:
152,72,311531,2,0,L|288:88,1,119.999996337891,8|2,0:0|0:0,0:0:0:0:
488,120,311847,1,2,0:0:0:0:
200,184,312005,1,2,0:0:0:0:
416,336,312162,6,0,P|368:360|280:352,1,119.999996337891,8|2,0:0|0:0,0:0:0:0:
104,272,312478,1,2,0:0:0:0:
320,192,312636,1,2,0:0:0:0:
64,0,312794,2,0,P|40:48|48:136,1,119.999996337891,8|2,0:0|0:0,0:0:0:0:
320,192,313110,1,8,0:0:0:0:
136,24,313267,1,8,0:0:0:0:
136,24,313346,1,2,0:0:0:0:
136,24,313425,6,0,L|160:168,1,119.999996337891,2|8,0:0|0:0,0:0:0:0:
200,352,313741,1,2,0:0:0:0:
352,56,313899,1,2,0:0:0:0:
56,216,314057,1,8,0:0:0:0:
392,248,314215,1,8,0:0:0:0:
136,24,314373,1,8,0:0:0:0:
200,352,314531,1,8,0:0:0:0:
352,56,314689,5,4,0:0:0:0:
56,216,314846,1,8,0:0:0:0:
96,192,314925,1,8,0:0:0:0:
144,192,315004,1,8,0:0:0:0:
184,216,315083,1,8,0:0:0:0:
200,264,315162,1,8,0:0:0:0:
184,304,315241,1,8,0:0:0:0:
200,352,315320,1,8,0:0:0:0:
240,376,315399,1,8,0:0:0:0:
288,368,315478,1,8,0:0:0:0:
320,328,315557,1,8,0:0:0:0:
312,280,315636,1,8,0:0:0:0:
272,248,315715,1,8,0:0:0:0:
256,200,315794,1,8,0:0:0:0:
264,152,315873,1,8,0:0:0:0:
288,112,315952,6,0,P|336:80|392:80,1,110.000003356934,4|2,0:0|0:0,0:0:0:0:
392,296,316267,1,2,0:0:0:0:
288,112,316425,2,0,L|168:104,1,110.000003356934,0|2,0:0|0:0,0:0:0:0:
24,88,316741,1,2,0:0:0:0:
200,304,316899,2,0,P|224:264|224:192,1,110.000003356934,8|2,0:0|0:0,0:0:0:0:
24,88,317215,6,0,L|32:232,1,110.000003356934,2|2,0:0|0:0,0:0:0:0:
48,352,317531,1,8,0:0:0:0:
136,144,317689,1,2,0:0:0:0:
136,144,317767,1,2,0:0:0:0:
136,144,317846,1,8,0:0:0:0:
155,300,318004,1,2,0:0:0:0:
280,208,318162,2,0,P|336:184|416:184,1,110.000003356934,8|2,0:0|0:0,0:0:0:0:
264,320,318478,5,2,0:0:0:0:
280,120,318636,1,2,0:0:0:0:
464,256,318794,2,0,P|408:280|328:280,1,110.000003356934,8|0,0:0|0:0,0:0:0:0:
168,240,319110,1,2,0:0:0:0:
384,179,319267,1,2,0:0:0:0:
264,320,319425,1,8,0:0:0:0:
280,120,319583,1,2,0:0:0:0:
96,192,319741,6,0,P|80:240|112:304,1,110.000003356934,0|2,0:0|0:0,0:0:0:0:
344,168,320057,2,0,P|360:120|328:56,1,110.000003356934,8|0,0:0|0:0,0:0:0:0:
168,240,320373,1,8,0:0:0:0:
264,40,320531,1,2,0:0:0:0:
96,192,320689,1,8,0:0:0:0:
280,120,320846,1,2,0:0:0:0:
80,112,321004,5,4,0:0:0:0:
339,66,321162,1,2,0:0:0:0:
168,240,321320,1,8,0:0:0:0:
200,96,321478,1,2,0:0:0:0:
304,200,321636,2,0,L|288:336,1,110.000003356934,0|2,0:0|0:0,0:0:0:0:
155,349,321952,2,0,L|171:213,1,110.000003356934,8|2,0:0|0:0,0:0:0:0:
200,96,322267,5,0,0:0:0:0:
264,304,322425,1,0,0:0:0:0:
53,280,322583,2,0,P|93:216|173:248,1,165.000005035401,8|2,0:0|0:0,0:0:0:0:
184,256,322899,1,2,0:0:0:0:
56,136,323057,1,2,0:0:0:0:
64,96,323136,1,2,0:0:0:0:
88,56,323215,1,2,0:0:0:0:
152,352,323373,1,2,0:0:0:0:
280,280,323531,6,0,P|304:232|288:144,1,110.000003356934,4|2,0:0|0:0,0:0:0:0:
256,32,323846,1,2,0:0:0:0:
128,192,324004,2,0,P|176:216|264:200,1,110.000003356934,4|2,0:0|0:0,0:0:0:0:
376,168,324320,1,2,0:0:0:0:
216,40,324478,2,0,P|192:88|208:176,1,110.000003356934,4|2,0:0|0:0,0:0:0:0:
280,312,324794,5,2,0:0:0:0:
368,96,324952,1,4,0:0:0:0:
24,88,325110,1,4,0:0:0:0:
304,200,325267,1,2,0:0:0:0:
112,72,325425,5,4,0:0:0:0:
96,96,325504,1,2,0:0:0:0:
88,120,325583,1,8,0:0:0:0:
88,144,325662,1,8,0:0:0:0:
104,176,325741,1,8,0:0:0:0:
136,200,325820,1,8,0:0:0:0:
152,240,325899,1,8,0:0:0:0:
144,280,325978,1,8,0:0:0:0:
104,312,326057,6,0,L|-24:296,1,119.999996337891,4|2,0:0|0:0,0:0:0:0:
272,240,326373,1,8,0:0:0:0:
56,208,326531,1,2,0:0:0:0:
248,376,326689,1,8,0:0:0:0:
168,128,326846,1,2,0:0:0:0:
160,80,326925,1,2,0:0:0:0:
152,32,327004,1,10,0:0:0:0:
144,280,327162,1,2,0:0:0:0:
256,64,327320,5,8,0:0:0:0:
384,328,327478,1,0,0:0:0:0:
168,128,327636,1,8,0:0:0:0:
480,48,327794,1,0,0:0:0:0:
376,352,327952,1,8,0:0:0:0:
264,168,328110,1,2,0:0:0:0:
296,160,328189,1,2,0:0:0:0:
328,152,328267,1,10,0:0:0:0:
168,352,328425,1,2,0:0:0:0:
280,104,328583,6,0,L|288:248,1,119.999996337891,8|0,0:0|0:0,0:0:0:0:
184,32,328899,1,8,0:0:0:0:
272,320,329057,2,0,P|336:304|376:264,1,119.999996337891,2|8,0:0|0:0,0:0:0:0:
168,144,329373,1,2,0:0:0:0:
128,136,329452,1,2,0:0:0:0:
88,128,329531,1,10,0:0:0:0:
336,96,329689,1,2,0:0:0:0:
248,328,329846,6,0,P|192:336|128:312,1,119.999996337891,8|2,0:0|0:0,0:0:0:0:
40,32,330162,1,8,0:0:0:0:
296,248,330320,1,0,0:0:0:0:
24,200,330478,1,8,0:0:0:0:
200,0,330636,1,0,0:0:0:0:
184,360,330794,1,8,0:0:0:0:
88,72,330952,1,8,0:0:0:0:
88,72,331031,1,8,0:0:0:0:
88,72,331110,5,4,0:0:0:0:
384,128,331267,1,2,0:0:0:0:
184,360,331425,2,0,P|120:360|56:336,1,119.999996337891,8|2,0:0|0:0,0:0:0:0:
264,135,331741,2,0,L|400:127,1,119.999996337891,8|0,0:0|0:0,0:0:0:0:
416,128,331978,1,0,0:0:0:0:
448,128,332057,1,8,0:0:0:0:
152,224,332215,1,0,0:0:0:0:
320,40,332373,6,0,L|312:168,1,119.999996337891,8|0,0:0|0:0,0:0:0:0:
296,352,332689,1,8,0:0:0:0:
208,96,332846,1,2,0:0:0:0:
480,144,333004,1,8,0:0:0:0:
464,184,333083,1,0,0:0:0:0:
448,224,333162,1,2,0:0:0:0:
432,264,333241,1,0,0:0:0:0:
416,304,333320,2,0,L|384:224,1,59.9999981689454
320,40,333478,2,0,L|288:120,1,59.9999981689454,2|0,0:0|0:0,0:0:0:0:
217,319,333636,6,0,L|355:300,1,119.999996337891,4|2,0:0|0:0,0:0:0:0:
144,240,333952,1,8,0:0:0:0:
296,88,334110,1,0,0:0:0:0:
335,302,334267,1,8,0:0:0:0:
168,112,334425,1,2,0:0:0:0:
168,112,334504,1,2,0:0:0:0:
168,112,334583,1,10,0:0:0:0:
424,168,334741,1,2,0:0:0:0:
248,360,334899,6,0,L|120:352,1,119.999996337891,8|2,0:0|0:0,0:0:0:0:
352,296,335215,1,8,0:0:0:0:
32,344,335373,1,2,0:0:0:0:
152,40,335531,1,8,0:0:0:0:
200,24,335610,1,8,0:0:0:0:
248,40,335689,1,8,0:0:0:0:
272,80,335767,1,8,0:0:0:0:
264,128,335846,1,8,0:0:0:0:
224,160,335925,1,8,0:0:0:0:
192,200,336004,1,8,0:0:0:0:
192,248,336083,1,8,0:0:0:0:
216,288,336162,6,0,P|272:312|336:304,1,119.999996337891,4|2,0:0|0:0,0:0:0:0:
504,224,336478,1,8,0:0:0:0:
216,288,336636,1,2,0:0:0:0:
416,136,336794,1,8,0:0:0:0:
416,352,336952,1,2,0:0:0:0:
416,352,337031,1,2,0:0:0:0:
416,352,337110,1,10,0:0:0:0:
320,56,337267,1,2,0:0:0:0:
280,288,337425,6,0,L|304:144,1,119.999996337891,8|2,0:0|0:0,0:0:0:0:
184,360,337741,2,0,L|160:216,1,119.999996337891,8|2,0:0|0:0,0:0:0:0:
128,24,338057,1,8,0:0:0:0:
280,288,338215,1,0,0:0:0:0:
280,288,338294,1,0,0:0:0:0:
280,288,338373,1,8,0:0:0:0:
24,152,338531,1,2,0:0:0:0:
272,0,338689,6,0,P|336:0|400:32,1,119.999996337891,8|2,0:0|0:0,0:0:0:0:
480,192,339004,1,8,0:0:0:0:
360,376,339162,1,2,0:0:0:0:
120,240,339320,1,10,0:0:0:0:
344,152,339478,1,2,0:0:0:0:
384,144,339557,1,2,0:0:0:0:
424,136,339636,1,10,0:0:0:0:
104,80,339794,1,2,0:0:0:0:
235,293,339952,6,0,P|267:237|259:173,1,119.999996337891,8|2,0:0|0:0,0:0:0:0:
120,240,340267,2,0,L|136:360,1,119.999996337891,8|2,0:0|0:0,0:0:0:0:
0,104,340583,2,0,P|56:72|120:80,1,119.999996337891,8|2,0:0|0:0,0:0:0:0:
263,183,340899,1,2,0:0:0:0:
296,192,340978,1,2,0:0:0:0:
328,192,341057,1,2,0:0:0:0:
360,184,341136,1,2,0:0:0:0:
384,160,341215,5,4,0:0:0:0:
104,72,341373,1,2,0:0:0:0:
344,264,341531,1,8,0:0:0:0:
32,264,341689,1,2,0:0:0:0:
256,48,341846,1,8,0:0:0:0:
184,376,342004,1,2,0:0:0:0:
184,376,342083,1,2,0:0:0:0:
184,376,342162,2,0,L|320:360,1,119.999996337891,8|2,0:0|0:0,0:0:0:0:
456,296,342478,6,0,P|398:277|320:280,1,119.999996337891,8|2,0:0|0:0,0:0:0:0:
56,344,342794,2,0,L|40:208,1,119.999996337891,8|2,0:0|0:0,0:0:0:0:
16,32,343110,1,8,0:0:0:0:
152,272,343267,1,2,0:0:0:0:
192,256,343346,1,2,0:0:0:0:
232,240,343425,1,10,0:0:0:0:
24,128,343583,1,2,0:0:0:0:
232,240,343741,5,10,0:0:0:0:
208,200,343820,1,2,0:0:0:0:
208,160,343899,1,2,0:0:0:0:
224,120,343978,1,2,0:0:0:0:
256,88,344057,1,2,0:0:0:0:
296,72,344136,1,2,0:0:0:0:
336,72,344215,6,0,P|368:80|400:112,1,59.9999981689454,10|2,0:0|0:0,0:0:0:0:
328,296,344373,1,2,0:0:0:0:
296,328,344452,1,2,0:0:0:0:
256,344,344531,1,2,0:0:0:0:
216,344,344610,1,2,0:0:0:0:
176,328,344689,6,0,P|144:312|128:288,1,59.9999981689454,10|2,0:0|0:0,0:0:0:0:
34,236,344846,1,2,0:0:0:0:
66,204,344925,1,2,0:0:0:0:
106,188,345004,1,2,0:0:0:0:
146,188,345083,1,2,0:0:0:0:
186,204,345162,6,0,P|218:220|234:244,1,59.9999981689454,4|2,0:0|0:0,0:0:0:0:
392,368,345320,2,0,P|424:320|400:240,1,119.999996337891,4|0,0:0|0:0,0:0:0:0:
384,112,345636,5,8,0:0:0:0:
328,112,345741,5,8,0:0:0:0:
272,88,345846,5,8,0:0:0:0:
232,48,345952,5,8,0:0:0:0:
176,40,346057,5,8,0:0:0:0:
120,56,346162,5,8,0:0:0:0:
80,88,346267,6,0,B|192:-16|432:24|464:112|464:112|392:168|264:48|140:176|140:176|264:304|392:184|464:224|464:224|432:320|192:372|80:264,1,1550,4|0,1:0|0:0,0:0:0:0:
48,176,351320,5,2,0:0:0:0:
139,207,351478,1,2,0:0:0:0:
193,129,351636,1,2,0:0:0:0:
139,53,351794,1,2,0:0:0:0:
48,83,351952,5,2,0:0:0:0:
48,83,352110,1,2,0:0:0:0:
193,129,352267,1,2,0:0:0:0:
193,129,352425,1,2,0:0:0:0:
44,209,352583,5,2,0:0:0:0:
13,300,352741,1,2,0:0:0:0:
91,354,352899,1,2,0:0:0:0:
167,300,353057,1,2,0:0:0:0:
139,207,353215,5,2,0:0:0:0:
139,207,353373,1,2,0:0:0:0:
266,315,353531,1,2,0:0:0:0:
266,315,353689,1,2,0:0:0:0:
464,176,353846,5,2,0:0:0:0:
373,207,354004,1,2,0:0:0:0:
319,129,354162,1,2,0:0:0:0:
373,53,354320,1,2,0:0:0:0:
464,83,354478,5,2,0:0:0:0:
464,83,354636,1,2,0:0:0:0:
319,129,354793,1,2,0:0:0:0:
319,129,354951,1,2,0:0:0:0:
468,209,355109,5,2,0:0:0:0:
499,300,355267,1,2,0:0:0:0:
421,354,355425,1,2,0:0:0:0:
345,300,355583,1,2,0:0:0:0:
373,207,355741,5,2,0:0:0:0:
373,207,355899,1,2,0:0:0:0:
246,315,356057,1,2,0:0:0:0:
246,315,356215,1,2,0:0:0:0:
216,136,356531,6,0,L|208:80,1,50,2|2,0:0|0:0,0:0:0:0:
56,160,357004,6,0,L|48:216,1,50,2|2,0:0|0:0,0:0:0:0:
