osu file format v14

[General]
AudioFilename: audio.mp3
AudioLeadIn: 0
PreviewTime: 47281
Countdown: 0
SampleSet: Normal
StackLeniency: 0.7
Mode: 1
LetterboxInBreaks: 0
WidescreenStoryboard: 0

[Editor]
DistanceSpacing: 0.8
BeatDivisor: 4
GridSize: 4
TimelineZoom: 1

[Metadata]
Title:Synapse
TitleUnicode:Synapse
Artist:Imy
ArtistUnicode:Imy
Creator:ginjani
Version:Yasuho's Connection
Source:osu!
Tags:fa featured yasuho hivie artist instrumental japanese rock ray of hope 3rd Album みりん mirin アイミー myu みゅー jrock j-rock symphonic metal
BeatmapID:2644312
BeatmapSetID:1272578

[Difficulty]
HPDrainRate:5
CircleSize:7
OverallDifficulty:6
ApproachRate:10
SliderMultiplier:1.4
SliderTickRate:1

[Events]
//Background and Video events
0,0,"synapse.jpg",0,-90
//Break Periods
2,1097,6908
2,8732,14524
//Storyboard Layer 0 (Background)
//Storyboard Layer 1 (Fail)
//Storyboard Layer 2 (Pass)
//Storyboard Layer 3 (Foreground)
//Storyboard Layer 4 (Overlay)
//Storyboard Sound Samples

[TimingPoints]
205,461.538461538462,4,1,0,70,1,0
205,-100,4,1,0,70,0,0
18666,-100,4,1,0,75,0,0
48205,-100,4,1,0,80,0,1
77743,-100,4,1,0,80,0,0
81435,-100,4,1,0,60,0,0
81897,-100,4,1,0,50,0,0
82358,-100,4,1,0,40,0,0
82820,-100,4,1,0,30,0,0
83281,-100,4,1,0,20,0,0

[HitObjects]
247,192,205,5,4,0:0:0:0:
261,188,551,1,4,0:0:0:0:
220,217,897,1,4,0:0:0:0:
245,192,7358,5,8,0:0:0:0:
245,192,7589,1,4,0:0:0:0:
245,192,7935,1,4,0:0:0:0:
251,192,8281,1,4,0:0:0:0:
250,190,14974,5,4,0:0:0:0:
246,187,15320,1,4,0:0:0:0:
247,187,15666,1,4,0:0:0:0:
256,192,16820,12,8,18435,0:0:0:0:
242,208,18666,5,8,0:0:0:0:
251,196,18781,1,0,0:0:0:0:
252,195,18897,1,0,0:0:0:0:
251,196,19012,1,8,0:0:0:0:
252,195,19128,1,0,0:0:0:0:
251,196,19243,1,8,0:0:0:0:
252,195,19358,1,8,0:0:0:0:
251,196,19474,1,0,0:0:0:0:
252,195,19589,1,8,0:0:0:0:
251,196,19705,1,8,0:0:0:0:
251,198,19820,1,8,0:0:0:0:
251,196,19935,1,0,0:0:0:0:
251,198,20051,1,8,0:0:0:0:
157,197,20166,1,0,0:0:0:0:
157,197,20281,1,0,0:0:0:0:
157,197,20397,1,8,0:0:0:0:
157,197,20512,1,8,0:0:0:0:
120,196,20628,1,8,0:0:0:0:
240,167,20743,1,0,0:0:0:0:
240,167,20858,1,8,0:0:0:0:
240,167,20974,1,0,0:0:0:0:
142,156,21089,1,0,0:0:0:0:
142,156,21205,1,8,0:0:0:0:
115,166,21320,1,0,0:0:0:0:
117,162,21435,1,8,0:0:0:0:
117,162,21551,1,8,0:0:0:0:
117,162,21666,1,0,0:0:0:0:
117,162,21781,1,0,0:0:0:0:
117,162,21897,1,8,0:0:0:0:
133,148,22012,1,0,0:0:0:0:
133,148,22128,1,0,0:0:0:0:
133,148,22243,1,0,0:0:0:0:
133,148,22358,1,8,0:0:0:0:
130,251,22474,1,0,0:0:0:0:
148,145,22589,1,0,0:0:0:0:
148,145,22705,1,0,0:0:0:0:
103,193,22820,1,8,0:0:0:0:
148,145,22935,1,8,0:0:0:0:
148,145,23051,1,0,0:0:0:0:
114,202,23166,1,0,0:0:0:0:
100,188,23282,1,8,0:0:0:0:
148,145,23397,1,8,0:0:0:0:
100,188,23512,1,0,0:0:0:0:
101,196,23628,1,8,0:0:0:0:
100,188,23743,1,8,0:0:0:0:
101,196,23858,1,0,0:0:0:0:
100,196,23974,1,0,0:0:0:0:
101,196,24089,1,0,0:0:0:0:
100,186,24205,1,8,0:0:0:0:
88,187,24320,1,0,0:0:0:0:
89,186,24435,1,8,0:0:0:0:
88,187,24551,1,0,0:0:0:0:
100,185,24666,1,8,0:0:0:0:
86,179,24781,1,8,0:0:0:0:
86,179,24897,1,0,0:0:0:0:
86,179,25012,1,8,0:0:0:0:
100,185,25128,1,8,0:0:0:0:
86,179,25243,1,0,0:0:0:0:
86,179,25358,1,0,0:0:0:0:
103,178,25474,1,0,0:0:0:0:
100,185,25589,1,8,0:0:0:0:
108,170,25705,1,0,0:0:0:0:
108,170,25820,1,8,0:0:0:0:
108,170,25935,1,8,0:0:0:0:
100,185,26051,1,8,0:0:0:0:
183,251,26166,1,0,0:0:0:0:
91,191,26281,1,0,0:0:0:0:
91,191,26397,1,0,0:0:0:0:
100,185,26512,1,8,0:0:0:0:
89,182,26628,1,0,0:0:0:0:
90,180,26743,1,8,0:0:0:0:
92,180,26858,1,0,0:0:0:0:
100,185,26974,1,8,0:0:0:0:
92,180,27089,1,8,0:0:0:0:
92,179,27205,1,0,0:0:0:0:
92,180,27320,1,8,0:0:0:0:
100,185,27435,1,8,0:0:0:0:
92,180,27551,1,0,0:0:0:0:
91,178,27666,1,0,0:0:0:0:
92,180,27781,1,0,0:0:0:0:
100,185,27897,1,8,0:0:0:0:
84,177,28012,1,0,0:0:0:0:
91,178,28128,1,0,0:0:0:0:
84,177,28243,1,8,0:0:0:0:
100,185,28358,1,8,0:0:0:0:
118,179,28474,1,0,0:0:0:0:
118,179,28589,1,8,0:0:0:0:
118,179,28705,1,0,0:0:0:0:
100,185,28820,1,8,0:0:0:0:
118,179,28935,1,8,0:0:0:0:
118,179,29051,1,0,0:0:0:0:
121,178,29166,1,0,0:0:0:0:
100,185,29281,1,8,0:0:0:0:
121,178,29397,1,0,0:0:0:0:
107,211,29512,1,8,0:0:0:0:
115,203,29628,1,8,0:0:0:0:
100,185,29743,1,8,0:0:0:0:
149,225,29858,1,0,0:0:0:0:
150,161,29974,1,0,0:0:0:0:
150,161,30089,1,0,0:0:0:0:
100,185,30205,1,8,0:0:0:0:
150,161,30320,1,0,0:0:0:0:
150,161,30435,1,0,0:0:0:0:
150,161,30551,1,0,0:0:0:0:
100,185,30666,1,8,0:0:0:0:
150,161,30781,1,0,0:0:0:0:
150,161,30897,1,0,0:0:0:0:
150,161,31012,1,0,0:0:0:0:
100,185,31128,1,8,0:0:0:0:
150,161,31243,1,0,0:0:0:0:
150,161,31358,1,0,0:0:0:0:
150,161,31474,1,0,0:0:0:0:
100,185,31589,1,8,0:0:0:0:
148,214,31705,1,0,0:0:0:0:
114,206,31820,1,8,0:0:0:0:
114,206,31935,1,8,0:0:0:0:
100,185,32051,1,0,0:0:0:0:
49,193,32166,1,8,0:0:0:0:
72,194,32281,1,8,0:0:0:0:
72,194,32397,1,0,0:0:0:0:
164,205,32512,5,8,0:0:0:0:
173,199,32589,1,0,0:0:0:0:
177,199,32666,1,0,0:0:0:0:
171,195,32743,1,0,0:0:0:0:
173,199,32820,1,0,0:0:0:0:
177,199,32897,1,0,0:0:0:0:
175,198,32974,1,8,0:0:0:0:
194,236,33435,1,0,0:0:0:0:
201,248,33781,1,0,0:0:0:0:
208,248,33897,1,8,0:0:0:0:
213,244,34128,1,0,0:0:0:0:
221,242,34358,1,8,0:0:0:0:
221,245,34820,1,0,0:0:0:0:
215,244,35166,1,8,0:0:0:0:
216,244,35512,1,0,0:0:0:0:
219,250,35743,1,8,0:0:0:0:
221,248,36205,1,8,0:0:0:0:
225,245,36435,1,0,0:0:0:0:
225,245,36512,1,0,0:0:0:0:
159,198,36589,1,0,0:0:0:0:
159,198,36666,1,8,0:0:0:0:
201,227,37128,1,0,0:0:0:0:
209,221,37474,1,0,0:0:0:0:
212,221,37820,1,0,0:0:0:0:
212,221,38051,1,8,0:0:0:0:
221,227,38512,1,0,0:0:0:0:
220,227,38858,1,0,0:0:0:0:
220,227,39205,1,0,0:0:0:0:
220,227,39435,1,8,0:0:0:0:
220,227,39897,1,8,0:0:0:0:
220,227,39974,1,8,0:0:0:0:
169,209,40051,1,0,0:0:0:0:
192,209,40128,1,0,0:0:0:0:
192,209,40205,1,8,0:0:0:0:
192,209,40281,1,0,0:0:0:0:
192,209,40358,1,8,0:0:0:0:
192,209,40435,1,0,0:0:0:0:
192,209,40512,1,8,0:0:0:0:
192,209,40589,1,8,0:0:0:0:
192,209,40666,1,0,0:0:0:0:
192,209,40743,1,0,0:0:0:0:
192,209,40820,1,8,0:0:0:0:
262,220,41166,1,0,0:0:0:0:
211,199,41512,1,0,0:0:0:0:
220,205,41743,1,8,0:0:0:0:
219,207,42205,1,8,0:0:0:0:
219,207,42551,1,0,0:0:0:0:
165,192,42897,1,0,0:0:0:0:
175,193,43128,1,8,0:0:0:0:
175,193,43589,1,0,0:0:0:0:
178,194,43705,1,0,0:0:0:0:
182,195,43820,1,0,0:0:0:0:
185,195,43935,1,0,0:0:0:0:
188,195,44051,1,8,0:0:0:0:
193,182,44166,5,0,0:0:0:0:
170,215,44512,1,0,0:0:0:0:
170,216,44858,1,0,0:0:0:0:
169,215,45205,1,0,0:0:0:0:
178,214,45435,1,8,0:0:0:0:
178,214,45897,1,4,0:0:0:0:
139,217,46243,1,4,0:0:0:0:
173,214,46589,1,12,0:0:0:0:
173,214,46820,1,4,0:0:0:0:
219,212,47281,1,0,0:0:0:0:
218,205,47512,1,0,0:0:0:0:
218,200,47743,1,8,0:0:0:0:
218,200,47974,1,8,0:0:0:0:
173,214,48205,1,4,0:0:0:0:
212,222,48551,1,0,0:0:0:0:
214,222,48897,1,0,0:0:0:0:
214,222,49128,1,8,0:0:0:0:
220,223,49474,1,0,0:0:0:0:
219,225,49820,1,0,0:0:0:0:
223,223,50281,1,0,0:0:0:0:
223,223,50512,1,8,0:0:0:0:
223,223,50743,1,0,0:0:0:0:
223,223,50858,1,0,0:0:0:0:
223,223,50974,1,8,0:0:0:0:
223,223,51205,1,0,0:0:0:0:
223,223,51435,1,8,0:0:0:0:
223,223,51666,1,8,0:0:0:0:
223,223,51897,1,0,0:0:0:0:
119,196,52243,1,0,0:0:0:0:
192,231,52589,1,0,0:0:0:0:
192,231,52705,1,0,0:0:0:0:
192,231,52820,1,8,0:0:0:0:
214,235,53166,1,0,0:0:0:0:
215,235,53512,1,0,0:0:0:0:
206,218,53974,1,0,0:0:0:0:
206,218,54205,1,8,0:0:0:0:
206,219,54551,1,0,0:0:0:0:
206,219,54666,1,8,0:0:0:0:
206,219,54897,1,0,0:0:0:0:
206,219,55128,1,8,0:0:0:0:
205,216,55589,1,0,0:0:0:0:
205,185,55935,1,0,0:0:0:0:
216,201,56281,1,0,0:0:0:0:
216,201,56512,1,8,0:0:0:0:
216,202,56858,1,0,0:0:0:0:
216,202,57205,1,0,0:0:0:0:
216,202,57666,1,8,0:0:0:0:
216,202,58012,1,8,0:0:0:0:
216,202,58358,1,0,0:0:0:0:
125,172,58705,1,8,0:0:0:0:
135,215,59051,1,0,0:0:0:0:
135,215,59166,1,0,0:0:0:0:
135,215,59281,1,8,0:0:0:0:
179,206,59628,1,0,0:0:0:0:
184,207,59974,1,0,0:0:0:0:
184,207,60205,1,8,0:0:0:0:
187,207,60435,1,0,0:0:0:0:
207,208,60666,1,8,0:0:0:0:
191,206,60897,1,0,0:0:0:0:
218,157,61128,1,8,0:0:0:0:
191,206,61358,1,8,0:0:0:0:
191,206,61589,1,0,0:0:0:0:
211,162,61820,1,8,0:0:0:0:
192,206,61935,1,0,0:0:0:0:
192,206,62051,1,8,0:0:0:0:
212,161,62166,1,8,0:0:0:0:
196,206,62281,1,0,0:0:0:0:
196,206,62397,1,0,0:0:0:0:
196,206,62512,1,8,0:0:0:0:
200,206,62628,1,8,0:0:0:0:
200,206,62743,1,0,0:0:0:0:
183,208,62858,1,0,0:0:0:0:
188,211,62974,1,8,0:0:0:0:
171,207,63205,1,0,0:0:0:0:
167,195,63435,1,0,0:0:0:0:
172,200,63666,1,0,0:0:0:0:
172,200,63781,1,0,0:0:0:0:
172,200,63897,1,8,0:0:0:0:
189,205,64128,1,0,0:0:0:0:
199,203,64358,1,8,0:0:0:0:
181,204,64589,1,0,0:0:0:0:
192,197,64820,1,8,0:0:0:0:
200,198,65051,1,8,0:0:0:0:
200,198,65281,1,0,0:0:0:0:
200,198,65397,1,0,0:0:0:0:
200,198,65512,1,0,0:0:0:0:
200,198,65628,1,0,0:0:0:0:
200,198,65743,1,8,0:0:0:0:
215,179,65974,1,0,0:0:0:0:
215,179,66205,1,8,0:0:0:0:
209,172,66435,1,0,0:0:0:0:
209,172,66666,1,8,0:0:0:0:
218,171,66897,1,0,0:0:0:0:
209,191,67012,1,8,0:0:0:0:
218,171,67128,1,0,0:0:0:0:
218,171,67358,1,0,0:0:0:0:
218,171,67474,1,0,0:0:0:0:
221,180,67589,1,8,0:0:0:0:
224,180,67820,1,8,0:0:0:0:
190,194,67935,1,8,0:0:0:0:
224,180,68051,1,0,0:0:0:0:
224,180,68281,1,8,0:0:0:0:
209,182,68512,1,8,0:0:0:0:
209,182,68743,1,0,0:0:0:0:
216,185,68858,1,8,0:0:0:0:
212,180,68974,1,0,0:0:0:0:
180,194,69205,1,8,0:0:0:0:
183,190,69320,1,0,0:0:0:0:
183,190,69435,1,8,0:0:0:0:
60,189,69666,1,0,0:0:0:0:
169,206,69781,1,0,0:0:0:0:
169,206,69897,1,8,0:0:0:0:
166,197,70012,1,0,0:0:0:0:
161,197,70128,1,8,0:0:0:0:
166,197,70358,1,8,0:0:0:0:
219,159,70589,1,0,0:0:0:0:
172,201,70820,1,8,0:0:0:0:
172,201,71051,1,0,0:0:0:0:
172,201,71281,1,8,0:0:0:0:
172,201,71397,1,0,0:0:0:0:
134,201,71628,1,0,0:0:0:0:
137,198,71743,1,8,0:0:0:0:
174,219,71974,1,0,0:0:0:0:
174,219,72205,1,8,0:0:0:0:
194,218,72435,1,0,0:0:0:0:
194,218,72551,1,0,0:0:0:0:
193,202,72666,1,8,0:0:0:0:
223,172,72781,1,0,0:0:0:0:
193,209,72897,1,0,0:0:0:0:
203,197,73012,1,8,0:0:0:0:
193,209,73128,1,8,0:0:0:0:
197,219,73243,1,0,0:0:0:0:
197,219,73474,1,0,0:0:0:0:
197,219,73589,1,8,0:0:0:0:
197,219,73820,1,0,0:0:0:0:
193,220,74051,1,8,0:0:0:0:
203,197,74166,1,8,0:0:0:0:
193,220,74281,1,0,0:0:0:0:
193,220,74397,1,0,0:0:0:0:
193,220,74512,1,8,0:0:0:0:
205,303,74628,1,0,0:0:0:0:
193,220,74743,1,0,0:0:0:0:
193,220,74974,1,8,0:0:0:0:
193,220,75089,1,0,0:0:0:0:
206,304,75205,1,8,0:0:0:0:
193,220,75320,1,0,0:0:0:0:
193,220,75435,1,8,0:0:0:0:
204,214,75551,1,8,0:0:0:0:
196,222,75666,1,0,0:0:0:0:
196,222,75897,1,8,0:0:0:0:
182,228,76012,1,0,0:0:0:0:
182,228,76128,1,0,0:0:0:0:
182,228,76243,1,0,0:0:0:0:
182,228,76358,1,8,0:0:0:0:
194,222,76474,1,0,0:0:0:0:
182,228,76589,1,0,0:0:0:0:
194,222,76705,1,0,0:0:0:0:
196,224,76820,1,8,0:0:0:0:
198,222,76897,1,8,0:0:0:0:
204,224,76974,1,8,0:0:0:0:
205,224,77051,1,0,0:0:0:0:
205,227,77128,1,0,0:0:0:0:
205,227,77205,1,0,0:0:0:0:
205,227,77281,1,8,0:0:0:0:
204,198,77743,1,4,0:0:0:0:
256,192,77974,12,0,84781,0:0:0:0:
