osu file format v14

[General]
AudioFilename: audio.mp3
AudioLeadIn: 0
PreviewTime: 47281
Countdown: 0
SampleSet: Normal
StackLeniency: 0.7
Mode: 1
LetterboxInBreaks: 0
WidescreenStoryboard: 0

[Editor]
Bookmarks: 18655,33424,48194
DistanceSpacing: 0.8
BeatDivisor: 4
GridSize: 4
TimelineZoom: 3.099999

[Metadata]
Title:Synapse
TitleUnicode:Synapse
Artist:Imy
ArtistUnicode:Imy
Creator:ginjani
Version:Oni
Source:osu!
Tags:fa featured yasuho hivie artist instrumental japanese rock ray of hope 3rd Album みりん mirin アイミー myu みゅー jrock j-rock symphonic metal
BeatmapID:2644288
BeatmapSetID:1272578

[Difficulty]
HPDrainRate:6
CircleSize:5
OverallDifficulty:5
ApproachRate:5
SliderMultiplier:1.4
SliderTickRate:1

[Events]
//Background and Video events
0,0,"synapse.jpg",0,-90
//Break Periods
2,1097,6158
2,8481,13774
//Storyboard Layer 0 (Background)
//Storyboard Layer 1 (Fail)
//Storyboard Layer 2 (Pass)
//Storyboard Layer 3 (Foreground)
//Storyboard Layer 4 (Overlay)
//Storyboard Sound Samples

[TimingPoints]
205,461.538461538462,4,1,0,80,1,0
205,-100,4,1,0,70,0,0
18666,-76.9230769230769,4,1,0,75,0,0
33435,-83.3333333333333,4,1,0,75,0,0
47281,-81.9672131147541,4,1,0,75,0,0
47512,-80.6451612903226,4,1,0,75,0,0
47743,-79.3650793650794,4,1,0,75,0,0
47974,-78.125,4,1,0,75,0,0
48205,-76.9230769230769,4,1,0,80,0,1
77743,-83.3333333333333,4,1,0,80,0,0
81435,-83.3333333333333,4,1,0,60,0,0
81897,-83.3333333333333,4,1,0,50,0,0
82358,-83.3333333333333,4,1,0,40,0,0
82820,-83.3333333333333,4,1,0,30,0,0
83281,-83.3333333333333,4,1,0,20,0,0

[HitObjects]
261,252,205,5,4,0:0:0:0:
261,252,551,1,4,0:0:0:0:
261,252,897,1,4,0:0:0:0:
222,226,7358,5,8,0:0:0:0:
222,226,7589,1,4,0:0:0:0:
222,226,7935,1,4,0:0:0:0:
222,226,8281,1,4,0:0:0:0:
224,239,14974,5,4,0:0:0:0:
224,239,15320,1,4,0:0:0:0:
224,239,15666,1,4,0:0:0:0:
256,192,16820,12,0,18435,0:0:0:0:
218,208,18666,5,8,0:0:0:0:
218,208,18781,1,0,0:0:0:0:
218,208,18897,1,0,0:0:0:0:
218,208,19012,1,8,0:0:0:0:
218,208,19128,1,8,0:0:0:0:
218,208,19358,1,0,0:0:0:0:
218,208,19474,1,0,0:0:0:0:
218,208,19589,1,8,0:0:0:0:
191,211,19705,1,8,0:0:0:0:
191,211,19820,1,0,0:0:0:0:
170,199,20051,1,8,0:0:0:0:
161,192,20281,1,8,0:0:0:0:
174,170,20397,1,0,0:0:0:0:
161,192,20512,1,8,0:0:0:0:
144,195,20743,1,0,0:0:0:0:
144,195,20858,1,0,0:0:0:0:
144,195,20974,1,8,0:0:0:0:
145,190,21089,1,0,0:0:0:0:
145,190,21205,1,8,0:0:0:0:
145,190,21435,1,8,0:0:0:0:
151,194,21551,1,8,0:0:0:0:
123,185,21666,1,0,0:0:0:0:
123,185,21781,1,0,0:0:0:0:
123,185,21897,1,8,0:0:0:0:
88,216,22012,1,0,0:0:0:0:
125,189,22128,1,8,0:0:0:0:
125,189,22358,1,8,0:0:0:0:
64,187,22589,1,0,0:0:0:0:
64,187,22705,1,8,0:0:0:0:
70,187,22820,1,8,0:0:0:0:
83,191,22935,1,0,0:0:0:0:
83,191,23051,1,8,0:0:0:0:
83,191,23281,1,8,0:0:0:0:
115,206,23397,1,8,0:0:0:0:
122,217,23512,1,0,0:0:0:0:
122,217,23628,1,0,0:0:0:0:
122,217,23743,1,8,0:0:0:0:
99,229,23974,1,0,0:0:0:0:
99,229,24205,1,8,0:0:0:0:
115,221,24435,1,8,0:0:0:0:
115,221,24551,1,0,0:0:0:0:
115,221,24666,1,8,0:0:0:0:
115,221,24781,1,8,0:0:0:0:
115,221,24897,1,0,0:0:0:0:
81,220,25128,1,8,0:0:0:0:
81,220,25243,1,8,0:0:0:0:
81,220,25358,1,0,0:0:0:0:
46,195,25474,1,0,0:0:0:0:
46,195,25589,1,8,0:0:0:0:
64,200,25705,1,0,0:0:0:0:
76,200,25820,1,8,0:0:0:0:
76,200,26051,1,8,0:0:0:0:
76,179,26281,1,0,0:0:0:0:
76,179,26397,1,8,0:0:0:0:
76,179,26512,1,8,0:0:0:0:
75,163,26743,1,8,0:0:0:0:
75,163,26858,1,0,0:0:0:0:
75,163,26974,1,8,0:0:0:0:
71,156,27089,1,8,0:0:0:0:
73,156,27205,1,0,0:0:0:0:
73,156,27435,1,8,0:0:0:0:
85,160,27666,1,0,0:0:0:0:
85,160,27781,1,8,0:0:0:0:
85,160,27897,1,8,0:0:0:0:
180,198,28128,1,0,0:0:0:0:
180,198,28243,1,0,0:0:0:0:
180,198,28358,1,8,0:0:0:0:
157,189,28589,1,8,0:0:0:0:
157,189,28705,1,0,0:0:0:0:
157,189,28820,1,8,0:0:0:0:
120,200,28935,1,8,0:0:0:0:
120,200,29051,1,0,0:0:0:0:
120,200,29281,1,8,0:0:0:0:
114,226,29512,1,0,0:0:0:0:
114,226,29628,1,0,0:0:0:0:
114,226,29743,1,8,0:0:0:0:
155,232,29974,1,0,0:0:0:0:
155,232,30089,1,8,0:0:0:0:
155,232,30205,1,8,0:0:0:0:
194,230,30320,1,0,0:0:0:0:
194,230,30435,1,8,0:0:0:0:
194,230,30666,1,8,0:0:0:0:
197,225,30897,1,8,0:0:0:0:
197,225,31012,1,0,0:0:0:0:
197,225,31128,1,8,0:0:0:0:
224,234,31358,1,0,0:0:0:0:
224,233,31589,1,8,0:0:0:0:
180,236,31820,1,0,0:0:0:0:
180,236,31935,1,8,0:0:0:0:
136,210,32166,1,0,0:0:0:0:
136,210,32281,1,8,0:0:0:0:
96,217,32512,1,8,0:0:0:0:
111,200,32589,1,8,0:0:0:0:
111,200,32666,1,0,0:0:0:0:
111,200,32743,1,0,0:0:0:0:
111,200,32974,1,8,0:0:0:0:
111,200,33435,1,8,0:0:0:0:
140,229,33781,1,8,0:0:0:0:
140,229,34128,1,0,0:0:0:0:
140,223,34358,1,8,0:0:0:0:
133,237,34820,1,8,0:0:0:0:
133,237,35166,1,8,0:0:0:0:
133,237,35512,1,0,0:0:0:0:
133,237,35743,1,8,0:0:0:0:
102,226,36205,1,8,0:0:0:0:
174,205,36435,1,0,0:0:0:0:
174,205,36512,1,0,0:0:0:0:
174,205,36589,1,0,0:0:0:0:
174,205,36666,1,8,0:0:0:0:
165,251,37128,1,0,0:0:0:0:
165,251,37474,1,8,0:0:0:0:
165,251,37820,1,0,0:0:0:0:
165,251,38051,1,8,0:0:0:0:
156,237,38512,1,8,0:0:0:0:
156,237,38858,1,0,0:0:0:0:
156,237,39205,1,0,0:0:0:0:
156,237,39435,1,8,0:0:0:0:
175,232,39897,1,8,0:0:0:0:
175,232,39974,1,8,0:0:0:0:
175,232,40051,1,8,0:0:0:0:
175,232,40128,1,0,0:0:0:0:
173,222,40358,1,8,0:0:0:0:
143,196,40435,1,0,0:0:0:0:
143,196,40512,1,0,0:0:0:0:
149,216,40589,1,8,0:0:0:0:
167,197,40820,1,8,0:0:0:0:
173,235,41166,1,8,0:0:0:0:
173,235,41512,1,0,0:0:0:0:
173,235,41743,1,8,0:0:0:0:
180,251,42205,1,8,0:0:0:0:
180,251,42551,1,8,0:0:0:0:
180,251,42897,1,0,0:0:0:0:
180,251,43128,1,8,0:0:0:0:
195,265,43589,1,8,0:0:0:0:
195,265,43705,1,8,0:0:0:0:
195,265,43820,1,8,0:0:0:0:
195,265,43935,1,8,0:0:0:0:
195,265,44051,1,8,0:0:0:0:
195,265,44166,1,0,0:0:0:0:
189,263,44512,1,8,0:0:0:0:
189,263,44858,1,0,0:0:0:0:
189,263,45205,1,0,0:0:0:0:
189,263,45435,1,8,0:0:0:0:
180,256,45897,1,12,0:0:0:0:
180,256,46243,1,12,0:0:0:0:
180,256,46589,1,12,0:0:0:0:
180,256,46820,1,12,0:0:0:0:
200,246,47281,1,8,0:0:0:0:
199,230,47512,1,0,0:0:0:0:
199,230,47743,1,8,0:0:0:0:
199,230,47974,1,0,0:0:0:0:
199,230,48205,1,12,0:0:0:0:
176,240,48551,1,8,0:0:0:0:
176,240,48897,1,0,0:0:0:0:
185,241,49012,1,0,0:0:0:0:
176,240,49128,1,8,0:0:0:0:
178,256,49474,1,8,0:0:0:0:
178,256,49820,1,0,0:0:0:0:
178,256,50281,1,0,0:0:0:0:
178,256,50512,1,8,0:0:0:0:
166,252,50858,1,0,0:0:0:0:
180,263,50974,1,8,0:0:0:0:
167,285,51205,1,0,0:0:0:0:
167,285,51435,1,8,0:0:0:0:
142,255,51551,1,0,0:0:0:0:
142,255,51666,1,8,0:0:0:0:
142,255,51897,1,0,0:0:0:0:
176,272,52243,1,8,0:0:0:0:
176,272,52589,1,0,0:0:0:0:
176,272,52705,1,0,0:0:0:0:
176,272,52820,1,8,0:0:0:0:
182,286,53166,1,8,0:0:0:0:
182,286,53512,1,0,0:0:0:0:
178,261,53974,1,8,0:0:0:0:
178,261,54205,1,8,0:0:0:0:
191,241,54551,1,0,0:0:0:0:
191,241,54666,1,8,0:0:0:0:
69,218,54897,1,0,0:0:0:0:
69,218,55128,1,8,0:0:0:0:
107,220,55589,1,8,0:0:0:0:
107,220,55935,1,8,0:0:0:0:
107,220,56281,1,0,0:0:0:0:
107,220,56512,1,8,0:0:0:0:
149,239,56858,1,0,0:0:0:0:
149,239,57205,1,0,0:0:0:0:
149,239,57666,1,8,0:0:0:0:
173,232,57897,1,0,0:0:0:0:
187,219,58012,1,8,0:0:0:0:
185,221,58358,1,0,0:0:0:0:
185,221,58705,1,0,0:0:0:0:
155,222,59051,1,8,0:0:0:0:
155,222,59281,1,0,0:0:0:0:
155,223,59628,1,0,0:0:0:0:
155,224,59974,1,0,0:0:0:0:
155,224,60089,1,0,0:0:0:0:
155,224,60205,1,8,0:0:0:0:
158,237,60435,1,8,0:0:0:0:
158,237,60551,1,0,0:0:0:0:
158,237,60666,1,8,0:0:0:0:
125,224,60897,1,0,0:0:0:0:
125,224,61128,1,8,0:0:0:0:
171,221,61243,1,0,0:0:0:0:
184,221,61358,1,8,0:0:0:0:
184,221,61589,1,8,0:0:0:0:
149,239,61820,1,0,0:0:0:0:
149,239,61935,1,0,0:0:0:0:
149,239,62051,1,8,0:0:0:0:
138,237,62281,1,0,0:0:0:0:
138,237,62397,1,0,0:0:0:0:
138,237,62512,1,8,0:0:0:0:
138,237,62628,1,8,0:0:0:0:
138,237,62743,1,0,0:0:0:0:
138,237,62858,1,0,0:0:0:0:
138,237,62974,1,8,0:0:0:0:
138,237,63205,1,8,0:0:0:0:
138,237,63435,1,8,0:0:0:0:
138,237,63666,1,0,0:0:0:0:
171,251,63781,1,0,0:0:0:0:
138,237,63897,1,8,0:0:0:0:
154,231,64128,1,0,0:0:0:0:
154,231,64358,1,8,0:0:0:0:
154,231,64589,1,0,0:0:0:0:
154,231,64820,1,8,0:0:0:0:
171,232,65051,1,0,0:0:0:0:
171,232,65281,1,8,0:0:0:0:
188,297,65397,1,0,0:0:0:0:
188,297,65512,1,0,0:0:0:0:
188,297,65628,1,0,0:0:0:0:
188,297,65743,1,8,0:0:0:0:
168,293,65974,1,0,0:0:0:0:
168,293,66205,1,8,0:0:0:0:
168,293,66435,1,8,0:0:0:0:
168,293,66666,1,8,0:0:0:0:
112,232,66781,1,8,0:0:0:0:
148,272,66897,1,0,0:0:0:0:
148,272,67128,1,8,0:0:0:0:
148,272,67358,1,0,0:0:0:0:
148,272,67474,1,0,0:0:0:0:
148,272,67589,1,8,0:0:0:0:
120,233,67820,1,0,0:0:0:0:
108,246,68051,1,0,0:0:0:0:
120,233,68281,1,8,0:0:0:0:
120,233,68512,1,8,0:0:0:0:
161,262,68743,1,0,0:0:0:0:
164,248,68974,1,0,0:0:0:0:
164,248,69205,1,8,0:0:0:0:
164,248,69320,1,0,0:0:0:0:
164,248,69435,1,8,0:0:0:0:
160,277,69666,1,0,0:0:0:0:
160,277,69781,1,0,0:0:0:0:
160,277,69897,1,8,0:0:0:0:
96,230,70128,1,0,0:0:0:0:
89,190,70358,1,8,0:0:0:0:
133,243,70589,1,0,0:0:0:0:
133,243,70820,1,8,0:0:0:0:
133,243,71051,1,0,0:0:0:0:
133,243,71281,1,8,0:0:0:0:
133,243,71397,1,0,0:0:0:0:
133,243,71628,1,0,0:0:0:0:
140,256,71743,1,8,0:0:0:0:
116,244,71974,1,0,0:0:0:0:
116,244,72205,1,8,0:0:0:0:
125,246,72435,1,0,0:0:0:0:
162,248,72551,1,0,0:0:0:0:
125,246,72666,1,8,0:0:0:0:
162,248,72781,1,8,0:0:0:0:
162,248,72897,1,0,0:0:0:0:
162,248,73012,1,0,0:0:0:0:
162,248,73128,1,8,0:0:0:0:
126,233,73358,1,0,0:0:0:0:
126,233,73474,1,0,0:0:0:0:
126,233,73589,1,8,0:0:0:0:
99,213,73820,1,0,0:0:0:0:
99,213,74051,1,8,0:0:0:0:
129,256,74166,1,0,0:0:0:0:
83,243,74281,1,0,0:0:0:0:
83,243,74397,1,0,0:0:0:0:
83,243,74512,1,8,0:0:0:0:
42,201,74743,1,0,0:0:0:0:
104,236,74974,1,8,0:0:0:0:
104,236,75089,1,0,0:0:0:0:
104,236,75320,1,0,0:0:0:0:
91,242,75435,1,8,0:0:0:0:
105,228,75551,1,8,0:0:0:0:
107,213,75666,1,0,0:0:0:0:
45,202,75897,1,8,0:0:0:0:
60,226,76012,1,0,0:0:0:0:
60,226,76128,1,0,0:0:0:0:
60,226,76243,1,8,0:0:0:0:
60,226,76358,1,8,0:0:0:0:
75,208,76474,1,0,0:0:0:0:
95,209,76589,1,8,0:0:0:0:
75,208,76820,1,8,0:0:0:0:
74,237,76897,1,8,0:0:0:0:
74,237,76974,1,8,0:0:0:0:
74,237,77051,1,0,0:0:0:0:
74,237,77281,1,8,0:0:0:0:
111,213,77743,1,12,0:0:0:0:
256,192,77974,12,0,84781,0:0:0:0:
