osu file format v14

[General]
AudioFilename: audio.mp3
AudioLeadIn: 0
PreviewTime: 47281
Countdown: 0
SampleSet: Normal
StackLeniency: 0.7
Mode: 1
LetterboxInBreaks: 0
WidescreenStoryboard: 1

[Editor]
DistanceSpacing: 0.8
BeatDivisor: 4
GridSize: 4
TimelineZoom: 3.099999

[Metadata]
Title:Synapse
TitleUnicode:Synapse
Artist:Imy
ArtistUnicode:Imy
Creator:ginjani
Version:Muzukashii
Source:osu!
Tags:fa featured yasuho hivie artist instrumental japanese rock ray of hope 3rd Album みりん mirin アイミー myu みゅー jrock j-rock symphonic metal
BeatmapID:2644287
BeatmapSetID:1272578

[Difficulty]
HPDrainRate:7
CircleSize:5
OverallDifficulty:4
ApproachRate:5
SliderMultiplier:1.4
SliderTickRate:1

[Events]
//Background and Video events
0,0,"synapse.jpg",0,-90
//Break Periods
2,1097,6158
2,8481,13774
//Storyboard Layer 0 (Background)
//Storyboard Layer 1 (Fail)
//Storyboard Layer 2 (Pass)
//Storyboard Layer 3 (Foreground)
//Storyboard Layer 4 (Overlay)
//Storyboard Sound Samples

[TimingPoints]
205,461.538461538462,4,1,0,80,1,0
205,-100,4,1,0,70,0,0
18666,-83.3333333333333,4,1,0,75,0,0
33435,-90.9090909090909,4,1,0,75,0,0
47281,-89.2857142857143,4,1,0,75,0,0
47512,-87.719298245614,4,1,0,75,0,0
47743,-86.2068965517241,4,1,0,75,0,0
47974,-84.7457627118644,4,1,0,75,0,0
48205,-83.3333333333333,4,1,0,80,0,1
77743,-90.9090909090909,4,1,0,80,0,0
81435,-90.9090909090909,4,1,0,60,0,0
81897,-90.9090909090909,4,1,0,50,0,0
82358,-90.9090909090909,4,1,0,40,0,0
82820,-90.9090909090909,4,1,0,30,0,0
83281,-90.9090909090909,4,1,0,20,0,0

[HitObjects]
179,226,205,5,4,0:0:0:0:
179,226,551,1,4,0:0:0:0:
179,226,897,1,4,0:0:0:0:
143,222,7358,5,8,0:0:0:0:
143,222,7589,5,4,0:0:0:0:
136,236,7935,1,4,0:0:0:0:
136,236,8281,1,4,0:0:0:0:
149,229,14974,5,4,0:0:0:0:
149,229,15320,1,4,0:0:0:0:
149,229,15666,1,4,0:0:0:0:
256,192,16820,12,0,18435,0:0:0:0:
256,252,18666,5,0,0:0:0:0:
275,256,18781,5,0,0:0:0:0:
256,252,18897,1,0,0:0:0:0:
191,252,19128,1,8,0:0:0:0:
191,252,19358,1,0,0:0:0:0:
146,220,19589,1,8,0:0:0:0:
111,218,19820,1,0,0:0:0:0:
151,258,20051,1,8,0:0:0:0:
151,258,20166,1,8,0:0:0:0:
151,258,20281,1,8,0:0:0:0:
98,215,20512,1,0,0:0:0:0:
100,216,20974,1,0,0:0:0:0:
104,218,21089,1,0,0:0:0:0:
104,218,21205,1,0,0:0:0:0:
104,218,21435,1,8,0:0:0:0:
104,218,21666,1,8,0:0:0:0:
104,218,21897,1,0,0:0:0:0:
125,211,22012,1,0,0:0:0:0:
125,211,22128,1,0,0:0:0:0:
139,222,22358,1,8,0:0:0:0:
185,243,22820,1,0,0:0:0:0:
185,243,23051,1,0,0:0:0:0:
185,243,23281,1,8,0:0:0:0:
185,243,23512,1,8,0:0:0:0:
183,242,23743,1,0,0:0:0:0:
183,242,23858,1,0,0:0:0:0:
183,242,23974,1,0,0:0:0:0:
187,250,24205,1,0,0:0:0:0:
187,250,24435,1,8,0:0:0:0:
149,223,24666,1,0,0:0:0:0:
149,223,24781,1,8,0:0:0:0:
149,223,25012,1,8,0:0:0:0:
149,223,25128,1,0,0:0:0:0:
211,239,25358,1,0,0:0:0:0:
199,241,25589,1,8,0:0:0:0:
199,241,25705,1,8,0:0:0:0:
199,241,25820,1,8,0:0:0:0:
144,215,26051,1,0,0:0:0:0:
184,236,26512,1,8,0:0:0:0:
198,253,26743,1,0,0:0:0:0:
198,253,26974,1,8,0:0:0:0:
198,253,27089,1,8,0:0:0:0:
198,253,27205,1,8,0:0:0:0:
158,242,27435,1,0,0:0:0:0:
158,242,27666,1,0,0:0:0:0:
158,242,27897,1,8,0:0:0:0:
152,246,28358,1,0,0:0:0:0:
152,246,28589,1,0,0:0:0:0:
152,246,28820,1,8,0:0:0:0:
152,246,28935,1,8,0:0:0:0:
152,246,29051,1,8,0:0:0:0:
152,246,29281,1,0,0:0:0:0:
160,249,29512,1,0,0:0:0:0:
160,249,29743,1,8,0:0:0:0:
88,221,30205,1,8,0:0:0:0:
119,241,30435,1,0,0:0:0:0:
89,221,30666,1,8,0:0:0:0:
249,318,30897,1,0,0:0:0:0:
119,241,31012,1,0,0:0:0:0:
91,222,31128,1,0,0:0:0:0:
120,241,31474,1,0,0:0:0:0:
92,225,31589,1,8,0:0:0:0:
187,244,31935,1,8,0:0:0:0:
185,243,32281,1,0,0:0:0:0:
223,211,32512,1,8,0:0:0:0:
223,211,32628,1,8,0:0:0:0:
218,216,32743,1,8,0:0:0:0:
183,208,32974,1,0,0:0:0:0:
118,212,33435,1,8,0:0:0:0:
116,232,33781,1,0,0:0:0:0:
118,218,34358,1,8,0:0:0:0:
144,241,34820,1,8,0:0:0:0:
144,241,35166,1,8,0:0:0:0:
144,241,35512,1,0,0:0:0:0:
144,241,35743,1,8,0:0:0:0:
143,231,36205,1,0,0:0:0:0:
143,231,36435,1,8,0:0:0:0:
143,231,36551,1,8,0:0:0:0:
143,231,36666,1,8,0:0:0:0:
151,254,37128,1,8,0:0:0:0:
151,254,37474,1,0,0:0:0:0:
151,254,37820,1,0,0:0:0:0:
151,254,38051,1,8,0:0:0:0:
160,226,38512,1,8,0:0:0:0:
160,226,38858,1,0,0:0:0:0:
160,226,39435,1,8,0:0:0:0:
174,245,39897,1,8,0:0:0:0:
174,245,40012,1,8,0:0:0:0:
174,245,40128,1,8,0:0:0:0:
174,245,40358,1,0,0:0:0:0:
174,245,40474,1,0,0:0:0:0:
174,245,40589,1,0,0:0:0:0:
174,245,40820,1,8,0:0:0:0:
165,245,41166,1,8,0:0:0:0:
165,245,41512,1,0,0:0:0:0:
159,240,41743,1,8,0:0:0:0:
161,243,42205,1,8,0:0:0:0:
161,243,42551,1,0,0:0:0:0:
161,243,43128,1,8,0:0:0:0:
180,245,43589,1,8,0:0:0:0:
180,245,43705,1,8,0:0:0:0:
180,245,43820,1,8,0:0:0:0:
180,245,44051,1,0,0:0:0:0:
153,224,44166,1,8,0:0:0:0:
145,221,44512,1,8,0:0:0:0:
145,221,44858,1,0,0:0:0:0:
145,221,45435,1,8,0:0:0:0:
126,219,45897,1,12,0:0:0:0:
158,242,46243,1,12,0:0:0:0:
158,242,46589,1,12,0:0:0:0:
158,242,46820,1,12,0:0:0:0:
180,236,47281,1,8,0:0:0:0:
180,236,47512,1,0,0:0:0:0:
180,236,47743,1,8,0:0:0:0:
180,236,47974,1,0,0:0:0:0:
180,236,48205,1,12,0:0:0:0:
182,243,48551,1,8,0:0:0:0:
182,243,48897,1,0,0:0:0:0:
182,243,49128,1,8,0:0:0:0:
160,236,49474,1,8,0:0:0:0:
160,236,49589,1,8,0:0:0:0:
160,205,49820,1,0,0:0:0:0:
160,204,50281,1,0,0:0:0:0:
160,204,50512,1,8,0:0:0:0:
216,243,50858,1,0,0:0:0:0:
216,243,50974,1,8,0:0:0:0:
162,233,51205,1,0,0:0:0:0:
162,233,51435,1,8,0:0:0:0:
162,233,51666,1,8,0:0:0:0:
137,216,51897,1,0,0:0:0:0:
167,225,52243,1,0,0:0:0:0:
167,225,52589,1,8,0:0:0:0:
167,225,52705,1,8,0:0:0:0:
167,225,52820,1,8,0:0:0:0:
170,230,53166,1,8,0:0:0:0:
170,230,53512,1,0,0:0:0:0:
169,230,53974,1,8,0:0:0:0:
169,230,54205,1,8,0:0:0:0:
229,243,54551,1,0,0:0:0:0:
235,252,54666,1,8,0:0:0:0:
107,232,54897,1,0,0:0:0:0:
109,236,55128,1,8,0:0:0:0:
181,252,55474,1,0,0:0:0:0:
181,252,55589,1,8,0:0:0:0:
204,241,55935,1,8,0:0:0:0:
204,241,56281,1,0,0:0:0:0:
204,241,56512,1,8,0:0:0:0:
164,250,56858,1,8,0:0:0:0:
164,250,57205,1,0,0:0:0:0:
185,247,57666,1,8,0:0:0:0:
185,247,58012,1,8,0:0:0:0:
185,247,58358,1,0,0:0:0:0:
185,247,58705,1,8,0:0:0:0:
185,247,59051,1,0,0:0:0:0:
196,248,59281,1,8,0:0:0:0:
219,262,59628,1,0,0:0:0:0:
165,227,59974,1,0,0:0:0:0:
219,262,60205,1,8,0:0:0:0:
233,264,60435,1,0,0:0:0:0:
233,264,60666,1,8,0:0:0:0:
233,264,60897,1,0,0:0:0:0:
218,233,61128,1,8,0:0:0:0:
242,261,61243,1,8,0:0:0:0:
242,261,61358,1,8,0:0:0:0:
242,261,61589,1,0,0:0:0:0:
231,260,61820,1,0,0:0:0:0:
247,248,62051,1,8,0:0:0:0:
231,249,62281,1,8,0:0:0:0:
231,249,62397,1,8,0:0:0:0:
231,249,62512,1,8,0:0:0:0:
197,252,62743,1,0,0:0:0:0:
197,252,62858,1,0,0:0:0:0:
197,252,62974,1,0,0:0:0:0:
260,297,63435,1,8,0:0:0:0:
260,297,63666,1,0,0:0:0:0:
260,297,63781,1,0,0:0:0:0:
260,297,63897,1,0,0:0:0:0:
196,264,64128,1,0,0:0:0:0:
227,274,64358,1,8,0:0:0:0:
227,274,64589,1,0,0:0:0:0:
216,292,64820,1,8,0:0:0:0:
202,265,65051,1,8,0:0:0:0:
198,265,65281,1,0,0:0:0:0:
198,265,65397,1,0,0:0:0:0:
198,265,65512,1,0,0:0:0:0:
198,265,65743,1,8,0:0:0:0:
202,265,66205,1,8,0:0:0:0:
202,265,66435,1,8,0:0:0:0:
161,231,66666,1,0,0:0:0:0:
179,267,67012,1,0,0:0:0:0:
179,267,67358,1,8,0:0:0:0:
179,267,67474,1,8,0:0:0:0:
179,267,67589,1,8,0:0:0:0:
205,241,67935,1,0,0:0:0:0:
185,243,68281,1,8,0:0:0:0:
194,234,68512,1,8,0:0:0:0:
175,247,68858,1,0,0:0:0:0:
175,247,69205,1,8,0:0:0:0:
175,247,69320,1,8,0:0:0:0:
175,247,69435,1,8,0:0:0:0:
189,243,69666,1,0,0:0:0:0:
189,243,69781,1,0,0:0:0:0:
189,243,69897,1,0,0:0:0:0:
189,243,70128,1,0,0:0:0:0:
189,243,70358,1,8,0:0:0:0:
187,234,70820,1,8,0:0:0:0:
187,234,71281,1,8,0:0:0:0:
188,248,71397,1,0,0:0:0:0:
188,248,71628,1,0,0:0:0:0:
188,248,71743,1,8,0:0:0:0:
187,252,71974,1,0,0:0:0:0:
187,252,72205,1,8,0:0:0:0:
190,255,72666,1,8,0:0:0:0:
190,255,72897,1,0,0:0:0:0:
190,255,73128,1,8,0:0:0:0:
294,304,73243,1,0,0:0:0:0:
187,199,73474,5,0,0:0:0:0:
190,255,73589,1,8,0:0:0:0:
147,253,73820,1,8,0:0:0:0:
218,253,74051,1,0,0:0:0:0:
220,226,74166,1,0,0:0:0:0:
220,226,74281,1,0,0:0:0:0:
210,191,74512,1,8,0:0:0:0:
216,238,74974,1,8,0:0:0:0:
216,238,75089,1,0,0:0:0:0:
216,238,75320,1,0,0:0:0:0:
216,238,75435,1,8,0:0:0:0:
203,228,75666,1,0,0:0:0:0:
203,228,75897,1,8,0:0:0:0:
218,239,76128,1,0,0:0:0:0:
218,239,76243,1,0,0:0:0:0:
218,239,76358,1,0,0:0:0:0:
237,219,76589,1,8,0:0:0:0:
228,256,76820,1,8,0:0:0:0:
228,256,76935,1,8,0:0:0:0:
228,256,77051,1,8,0:0:0:0:
228,256,77281,1,0,0:0:0:0:
228,256,77743,1,12,0:0:0:0:
256,192,77974,12,0,84781,0:0:0:0:
