osu file format v14

[General]
AudioFilename: audio.mp3
AudioLeadIn: 0
PreviewTime: 47281
Countdown: 0
SampleSet: Normal
StackLeniency: 0.7
Mode: 1
LetterboxInBreaks: 0
WidescreenStoryboard: 1

[Editor]
DistanceSpacing: 0.1
BeatDivisor: 4
GridSize: 32
TimelineZoom: 0.7999996

[Metadata]
Title:Synapse
TitleUnicode:Synapse
Artist:Imy
ArtistUnicode:Imy
Creator:ginjani
Version:Hivie's Kantan
Source:osu!
Tags:fa featured yasuho hivie artist instrumental japanese rock ray of hope 3rd Album みりん mirin アイミー myu みゅー jrock j-rock symphonic metal
BeatmapID:2675300
BeatmapSetID:1272578

[Difficulty]
HPDrainRate:9
CircleSize:2
OverallDifficulty:2
ApproachRate:9
SliderMultiplier:1.4
SliderTickRate:1

[Events]
//Background and Video events
0,0,"synapse.jpg",0,-90
//Break Periods
2,1097,6989
2,8481,14374
//Storyboard Layer 0 (Background)
//Storyboard Layer 1 (Fail)
//Storyboard Layer 2 (Pass)
//Storyboard Layer 3 (Foreground)
//Storyboard Layer 4 (Overlay)
//Storyboard Sound Samples

[TimingPoints]
205,461.538461538462,4,1,0,80,1,0
205,-100,4,1,0,70,0,0
18666,-100,4,1,0,75,0,0
33435,-100,4,1,0,75,0,0
48205,-100,4,1,0,80,0,1
77743,-100,4,1,0,80,0,0
81435,-100,4,1,0,60,0,0
81897,-100,4,1,0,50,0,0
82358,-100,4,1,0,40,0,0
82820,-100,4,1,0,30,0,0
83281,-100,4,1,0,20,0,0

[HitObjects]
256,96,205,5,4,0:0:0:0:
256,96,897,1,4,0:0:0:0:
256,96,7589,5,4,0:0:0:0:
256,96,8281,1,4,0:0:0:0:
256,96,14974,5,4,0:0:0:0:
256,96,15666,1,4,0:0:0:0:
256,192,16820,12,0,18205,0:0:0:0:
256,192,18666,5,8,0:0:0:0:
256,192,19128,1,8,0:0:0:0:
256,192,19589,1,0,0:0:0:0:
256,192,20512,1,8,0:0:0:0:
256,192,20974,1,8,0:0:0:0:
256,192,21435,1,0,0:0:0:0:
256,192,21897,1,0,0:0:0:0:
256,192,22358,1,8,0:0:0:0:
256,192,23281,1,0,0:0:0:0:
256,192,24205,1,0,0:0:0:0:
256,192,24666,1,0,0:0:0:0:
256,192,25128,1,8,0:0:0:0:
256,192,26051,1,8,0:0:0:0:
256,192,26512,1,8,0:0:0:0:
256,192,26974,1,0,0:0:0:0:
256,192,27897,1,8,0:0:0:0:
256,192,28358,1,0,0:0:0:0:
256,192,28820,1,8,0:0:0:0:
256,192,29281,1,0,0:0:0:0:
256,192,29743,1,8,0:0:0:0:
256,192,30666,1,8,0:0:0:0:
256,192,31589,1,0,0:0:0:0:
256,192,32281,1,0,0:0:0:0:
256,192,32974,1,8,0:0:0:0:
256,96,33435,1,4,0:0:0:0:
256,192,34820,1,8,0:0:0:0:
256,192,36205,1,8,0:0:0:0:
256,192,36666,1,0,0:0:0:0:
256,192,37128,1,8,0:0:0:0:
256,192,38512,1,8,0:0:0:0:
256,192,39897,1,0,0:0:0:0:
256,192,40358,1,0,0:0:0:0:
256,192,40820,1,8,0:0:0:0:
256,192,42205,1,8,0:0:0:0:
256,192,43589,1,8,0:0:0:0:
256,192,44051,1,8,0:0:0:0:
256,192,44512,1,0,0:0:0:0:
256,192,45897,1,8,0:0:0:0:
256,192,46820,1,0,0:0:0:0:
256,96,48205,5,12,0:0:0:0:
256,192,49128,1,0,0:0:0:0:
256,192,50513,1,8,0:0:0:0:
256,192,50975,1,0,0:0:0:0:
256,192,51436,1,0,0:0:0:0:
256,192,51897,1,8,0:0:0:0:
256,192,52820,1,8,0:0:0:0:
256,192,53282,1,0,0:0:0:0:
256,192,54205,1,0,0:0:0:0:
256,192,54667,1,8,0:0:0:0:
256,192,55590,1,8,0:0:0:0:
256,192,56512,1,0,0:0:0:0:
256,192,57666,1,8,0:0:0:0:
256,192,58358,1,0,0:0:0:0:
256,192,59281,1,0,0:0:0:0:
256,192,60205,1,8,0:0:0:0:
256,192,60666,1,8,0:0:0:0:
256,192,61128,1,0,0:0:0:0:
256,192,61589,1,0,0:0:0:0:
256,192,62051,1,8,0:0:0:0:
256,192,62974,1,8,0:0:0:0:
256,192,63897,1,0,0:0:0:0:
256,192,64358,1,8,0:0:0:0:
256,192,64820,1,8,0:0:0:0:
256,192,65281,1,0,0:0:0:0:
256,192,66205,1,0,0:0:0:0:
256,192,66666,1,8,0:0:0:0:
256,192,67589,1,0,0:0:0:0:
256,192,68512,1,8,0:0:0:0:
256,192,69435,1,8,0:0:0:0:
256,192,70358,1,0,0:0:0:0:
256,192,71743,1,8,0:0:0:0:
256,192,72205,1,0,0:0:0:0:
256,192,73128,1,8,0:0:0:0:
256,192,73589,1,0,0:0:0:0:
256,192,74051,1,0,0:0:0:0:
256,192,74974,1,0,0:0:0:0:
256,192,75435,1,8,0:0:0:0:
256,192,75897,1,0,0:0:0:0:
256,192,76820,1,8,0:0:0:0:
256,192,77281,1,0,0:0:0:0:
256,96,77743,1,12,0:0:0:0:
256,192,78205,12,0,84782,0:0:0:0:
