osu file format v14

[General]
AudioFilename: 02.+Sylphia.mp3
AudioLeadIn: 0
PreviewTime: 50867
Countdown: 1
SampleSet: Normal
StackLeniency: 0.7
Mode: 0
LetterboxInBreaks: 1
WidescreenStoryboard: 0

[Editor]
Bookmarks: 17117
DistanceSpacing: 0.8
BeatDivisor: 4
GridSize: 4
TimelineZoom: 1.3

[Metadata]
Title:Sylphia
TitleUnicode:Sylphia
Artist:Imy
ArtistUnicode:Imy
Creator:Nyquill
Version:Extra
Source:
Tags:jonathanlfj japanese rock jrock j-rock mirin みゅー myu アイミー featured artist
BeatmapID:638383
BeatmapSetID:282291

[Difficulty]
HPDrainRate:6
CircleSize:4
OverallDifficulty:8.5
ApproachRate:9.3
SliderMultiplier:1.8
SliderTickRate:2

[Events]
//Background and Video events
0,0,"7Tg8kxbV.jpg",0,0
//Break Periods
//Storyboard Layer 0 (Background)
//Storyboard Layer 1 (Fail)
//Storyboard Layer 2 (Pass)
//Storyboard Layer 3 (Foreground)
//Storyboard Layer 4 (Overlay)
//Storyboard Sound Samples

[TimingPoints]
1367,300,4,1,1,70,1,0
10667,-80,4,1,1,70,0,0
10967,-100,4,1,1,70,0,0
42167,-133.333333333333,4,1,1,70,0,0
46967,-100,4,1,1,70,0,0
47567,-111.111111111111,4,1,1,70,0,0
50867,-200,4,2,1,40,0,0
51767,-83.3333333333333,4,1,1,75,0,1
90167,-100,4,1,1,75,0,0
99467,-83.3333333333333,4,1,1,75,0,0
100067,-83.3333333333333,4,1,1,40,0,0
100367,-133.333333333333,4,1,1,40,0,0
108017,-133.333333333333,4,1,1,25,0,0
109367,-100,4,1,1,70,0,0
118967,-133.333333333333,4,1,1,70,0,0
123767,-100,4,1,1,70,0,0
127667,-100,4,1,1,25,0,0
128567,-83.3333333333333,4,1,1,75,0,1
166967,-100,4,1,1,75,0,0
194867,-100,4,2,1,50,0,0
200567,-100,4,2,1,75,0,0
201167,-133.333333333333,4,2,1,75,0,0
202967,-100,4,2,1,75,0,0
205217,-83.3333333333333,4,1,1,95,0,1
207617,-76.9230769230769,4,1,1,95,0,1
210167,-83.3333333333333,4,1,1,95,0,1
211217,-90.9090909090909,4,1,1,95,0,1
234167,-100,4,1,1,75,0,0
238817,-100,4,2,1,75,0,0
243167,-100,4,1,1,75,0,0
243467,-80,4,1,1,75,0,0
243767,-100,4,2,1,75,0,0
252767,-100,4,1,1,75,0,0
260567,-100,4,2,1,5,0,0

[Colours]
Combo1 : 17,254,176
Combo2 : 173,255,95
Combo3 : 255,88,100
Combo4 : 255,94,55

[HitObjects]
72,204,1367,6,0,L|180:192,1,90,4|2,0:0|3:2,0:0:0:0:
352,152,1667,2,0,P|368:220|356:256,1,90,0|2,0:0|3:2,0:0:0:0:
196,116,1967,2,0,P|223:51|253:29,1,90,0|2,0:0|3:2,0:0:0:0:
244,196,2267,1,0,0:0:0:0:
104,128,2417,1,2,3:2:0:0:
104,128,2492,1,0,3:2:0:0:
104,128,2567,5,0,0:0:0:0:
168,60,2717,1,2,3:2:0:0:
156,192,2867,1,0,0:0:0:0:
288,112,3017,1,2,3:2:0:0:
352,240,3167,2,0,P|328:288|288:304,1,90,0|2,0:0|3:2,0:0:0:0:
255,295,3392,1,0,3:0:0:0:
215,302,3467,2,0,P|176:280|159:239,1,90,0|2,0:0|3:2,0:0:0:0:
360,72,3767,6,0,P|416:104|432:136,1,90,0|2,0:0|3:2,0:0:0:0:
152,84,4067,2,0,P|96:116|80:148,1,90,0|2,0:0|3:2,0:0:0:0:
324,316,4367,2,0,P|348:252|340:220,1,90,0|2,0:0|3:2,0:0:0:0:
168,236,4667,2,0,P|167:280|188:319,1,90,0|2,0:0|3:2,0:0:0:0:
188,319,4892,1,0,3:0:0:0:
188,319,4967,5,0,1:0:0:0:
184,144,5117,1,2,3:2:0:0:
92,324,5267,1,0,0:0:0:0:
260,256,5417,1,2,3:2:0:0:
108,200,5567,2,0,P|92:168|104:88,1,90,0|2,0:0|3:2,0:0:0:0:
292,36,5867,2,0,P|289:71|237:134,1,90,0|2,0:0|3:2,0:0:0:0:
184,144,6092,1,2,2:0:0:0:
184,144,6167,6,0,L|92:140,1,90,2|0,1:2|2:0,0:0:0:0:
256,220,6467,1,0,0:0:0:0:
332,140,6617,2,0,B|352:176|352:176|344:340,1,180,2|0,0:2|0:0,0:0:0:0:
192,368,7067,2,0,L|200:264,1,90,2|0,0:2|3:0,0:0:0:0:
156,88,7367,1,0,0:0:0:0:
72,160,7517,6,0,B|152:200|152:200|244:160,1,180,2|2,0:2|0:2,0:0:0:0:
16,232,7967,2,0,L|108:284,1,90,2|0,0:2|3:0,0:0:0:0:
60,64,8267,2,0,L|144:112,1,90,0|0,0:0|3:0,0:0:0:0:
172,120,8492,1,0,3:0:0:0:
172,120,8567,6,0,B|223:110|223:110|272:75|272:75|352:59,1,180,2|2,0:2|0:2,0:0:0:0:
444,248,9017,2,0,L|456:136,1,90,2|0,0:2|2:0,0:0:0:0:
484,24,9317,1,2,0:2:0:0:
340,160,9467,2,0,B|278:188|278:188|228:188|228:188|171:210,1,180,2|0,0:2|0:2,0:0:0:0:
240,368,9917,6,0,P|252:300|248:260,1,90,2|0,0:0|2:2,0:0:0:0:
80,148,10217,1,0,0:0:0:0:
80,148,10292,1,0,0:0:0:0:
80,148,10367,2,0,P|68:216|72:256,1,90,2|0,0:0|1:0,0:0:0:0:
155,378,10667,2,2,L|171:198,1,168.75,2|0,0:0|2:2,0:0:0:0:
172,192,10967,5,4,1:0:0:0:
276,144,11117,2,0,P|288:104|284:48,1,90,2|0,3:2|0:0,0:0:0:0:
180,88,11417,1,2,3:2:0:0:
172,192,11567,1,0,0:0:0:0:
276,144,11717,1,2,3:2:0:0:
72,120,11867,2,0,P|80:168|88:228,1,90,0|2,0:0|3:2,0:0:0:0:
67,284,12092,1,0,3:0:0:0:
67,284,12167,6,0,P|75:344|83:388,1,90,0|2,0:0|2:0,0:0:0:0:
260,152,12467,2,0,P|272:80|276:40,1,90,0|2,0:0|3:2,0:0:0:0:
172,192,12767,1,0,0:0:0:0:
172,192,12917,1,2,2:0:0:0:
276,132,13067,2,0,P|328:132|396:208,1,135,0|0,0:0|2:0,0:0:0:0:
388,183,13367,6,0,P|396:152|408:84,1,90,0|2,0:0|3:2,0:0:0:0:
208,200,13667,2,0,P|212:256|224:312,1,90,0|2,0:0|3:2,0:0:0:0:
436,244,13967,2,0,P|364:236|336:236,1,90,0|2,1:0|3:2,0:0:0:0:
346,235,14192,1,0,3:0:0:0:
346,235,14267,1,0,1:0:0:0:
464,348,14417,1,2,3:2:0:0:
468,160,14567,2,0,P|448:208|432:256,1,90,0|2,0:0|3:2,0:0:0:0:
280,384,14867,2,0,P|276:328|264:280,1,90,0|2,0:0|3:2,0:0:0:0:
104,200,15167,2,2,P|92:252|88:304,1,90,0|2,1:0|3:2,2:0:0:0:
28,384,15467,1,0,0:0:0:0:
176,268,15617,2,0,P|180:244|188:216,1,45,2|2,2:0|2:0,2:0:0:0:
248,152,15767,6,0,P|168:100|80:124,1,180,4|0,0:0|0:0,0:0:0:0:
336,80,16217,2,0,B|352:136|352:136|344:208|344:208|364:272,1,180,2|2,1:2|0:2,0:0:0:0:
184,92,16667,2,0,L|207:5,1,90,2|0,0:2|3:0,0:0:0:0:
144,252,16967,1,0,0:0:0:0:
268,160,17117,2,0,B|232:188|232:188|84:168,1,180,2|0,0:2|0:0,0:0:0:0:
40,64,17567,2,0,L|154:82,1,90,2|0,0:2|3:0,0:0:0:0:
232,266,17867,2,0,L|108:246,1,90,0|0,0:0|3:2,0:0:0:0:
312,228,18092,1,0,2:0:0:0:
312,228,18167,6,0,P|388:220|456:316,1,180,2|0,0:2|1:0,0:0:0:0:
232,266,18617,2,0,P|156:258|88:354,1,180,2|2,0:2|1:2,0:0:0:0:
348,320,19067,2,0,P|412:260|408:156,1,180,2|0,1:2|0:0,0:0:0:0:
143,251,19517,6,0,P|79:191|83:87,1,180,2|0,1:2|0:0,0:0:0:0:
331,130,19967,2,0,P|339:172|311:246,1,90,2|0,0:0|0:0,0:0:0:0:
199,124,20267,2,0,P|192:79|219:8,1,90,2|0,0:0|0:0,0:0:0:0:
196,276,20567,6,0,L|176:392,1,90,8|0,0:0|0:0,0:0:0:0:
148,188,20867,1,2,2:2:0:0:
180,168,20942,1,0,2:0:0:0:
216,164,21017,1,2,2:0:0:0:
252,172,21092,1,0,2:0:0:0:
280,196,21167,1,0,2:0:0:0:
312,216,21242,1,0,2:0:0:0:
348,216,21317,1,2,2:0:0:0:
380,204,21392,1,0,2:0:0:0:
408,180,21467,2,0,P|404:244|400:300,1,90,8|0,0:0|0:0,0:0:0:0:
512,96,21767,5,2,2:2:0:0:
480,76,21842,1,0,2:0:0:0:
444,72,21917,1,2,2:0:0:0:
408,80,21992,1,0,2:0:0:0:
380,104,22067,1,0,1:0:0:0:
348,124,22142,1,0,2:0:0:0:
312,124,22217,1,2,2:0:0:0:
280,112,22292,1,0,2:0:0:0:
252,88,22367,2,0,P|256:152|260:208,1,90,8|0,0:0|0:0,0:0:0:0:
152,28,22667,1,0,0:0:0:0:
156,64,22742,1,0,0:0:0:0:
160,100,22817,1,0,0:0:0:0:
164,136,22892,1,0,0:0:0:0:
168,172,22967,6,0,L|180:272,1,90,4|0,0:0|0:0,0:0:0:0:
80,128,23267,2,0,L|292:160,1,180,8|0,0:0|0:0,0:0:0:0:
424,224,23717,1,0,0:0:0:0:
356,88,23867,1,8,0:0:0:0:
336,200,24017,2,0,B|336:264|336:264|340:352|412:368,1,180
424,224,24467,2,0,L|424:116,1,90,8|0,0:0|0:0,0:0:0:0:
260,272,24767,2,0,L|260:364,1,90
176,212,25067,2,0,P|161:125|209:52,1,180,8|0,0:0|0:2,0:0:0:0:
276,172,25517,5,0,0:0:0:0:
348,112,25667,2,0,P|344:56|320:12,1,90,8|0,0:0|0:0,0:0:0:0:
176,212,25967,2,0,P|204:276|244:300,2,90,0|0|8,0:0|0:0|0:0,0:0:0:0:
224,136,26417,2,0,P|308:164|304:264,1,180
372,116,26867,2,0,L|384:12,1,90,8|0,0:0|0:0,0:0:0:0:
492,248,27167,1,8,0:0:0:0:
460,100,27317,1,8,0:0:0:0:
380,228,27467,1,8,0:0:0:0:
512,140,27617,6,0,B|444:164|444:164|428:196|428:196|328:224,1,180,4|0,0:0|0:0,0:0:0:0:
236,100,28067,2,0,L|324:113,1,90,8|0,0:0|0:0,0:0:0:0:
144,248,28367,2,0,L|44:232,1,90
268,196,28667,1,8,0:0:0:0:
384,200,28817,2,0,P|432:120|396:28,1,180
268,196,29267,1,8,0:0:0:0:
200,116,29417,2,0,P|152:196|188:288,1,180
268,196,29867,1,8,0:0:0:0:
344,128,30017,6,0,P|428:116|520:188,1,180,4|0,0:0|0:0,0:0:0:0:
440,8,30467,2,0,P|432:96|432:108,1,90,8|0,0:0|0:0,0:0:0:0:
272,264,30767,2,0,P|280:196|280:152,1,90
396,220,31067,1,8,0:0:0:0:
368,336,31217,2,0,P|280:388|204:368,1,180
320,260,31667,2,0,L|336:164,1,90,8|0,0:0|0:0,0:0:0:0:
232,36,31967,2,0,L|212:140,1,90
232,196,32192,1,0,0:0:0:0:
232,196,32267,2,0,L|212:304,1,90,8|0,0:0|0:0,0:0:0:0:
160,348,32492,1,0,0:0:0:0:
160,348,32567,6,0,B|252:396|244:328|356:364,1,180,4|8,0:0|0:0,0:0:0:0:
32,340,33167,1,0,0:0:0:0:
124,240,33317,1,0,0:0:0:0:
160,344,33467,1,8,0:0:0:0:
40,264,33617,1,0,0:0:0:0:
164,220,33767,6,0,B|184:184|184:184|192:36,1,180,0|8,0:0|0:0,0:0:0:0:
96,160,34217,1,0,0:0:0:0:
288,120,34367,2,0,L|292:4,1,90
224,288,34667,1,8,0:0:0:0:
336,196,34817,6,0,B|240:232|249:159|140:224,1,180
396,360,35267,2,0,L|408:252,1,90,8|0,0:0|0:0,0:0:0:0:
352,116,35567,1,0,0:0:0:0:
316,280,35717,1,0,0:0:0:0:
496,164,35867,2,0,L|384:188,1,90,8|0,0:0|0:0,0:0:0:0:
288,384,36167,6,0,P|284:312|216:204,1,180,0|8,0:0|0:0,0:0:0:0:
296,0,36617,2,0,L|276:104,1,90
136,196,36917,2,0,L|160:88,1,90,0|8,0:0|0:0,0:0:0:0:
348,208,37217,6,0,B|336:272|336:272|308:308|308:308|292:380,1,180,4|0,0:0|0:0,0:0:0:0:
96,304,37667,2,0,L|154:372,1,90,8|0,0:0|0:0,0:0:0:0:
264,224,37967,2,0,L|284:128,1,90
128,128,38267,1,8,0:0:0:0:
88,236,38417,6,0,P|164:308|264:288,1,180
196,120,38867,1,8,0:0:0:0:
100,156,39017,2,8,P|80:64|128:0,1,180,0|0,0:0|0:0,0:0:0:0:
256,184,39467,1,8,0:0:0:0:
344,248,39617,6,8,P|396:184|376:72,1,180,4|0,0:0|0:0,0:0:0:0:
216,264,40067,2,0,L|92:284,1,90,8|0,0:0|0:0,0:0:0:0:
204,104,40367,2,0,L|253:179,1,90
96,112,40667,1,8,0:0:0:0:
148,192,40817,6,0,L|168:4,1,180
328,92,41267,2,0,L|232:112,1,90,8|0,0:0|0:0,0:0:0:0:
384,32,41567,1,0,0:0:0:0:
404,60,41642,1,0,0:0:0:0:
412,96,41717,1,0,0:0:0:0:
408,132,41792,1,0,0:0:0:0:
380,156,41867,5,8,0:0:0:0:
400,188,41942,1,0,0:0:0:0:
404,224,42017,1,0,0:0:0:0:
396,260,42092,1,0,0:0:0:0:
380,292,42167,6,0,P|372:348|380:388,1,67.5000025749208,4|4,0:0|0:0,0:0:0:0:
480,336,42467,1,0,0:0:0:0:
480,336,42617,1,0,0:0:0:0:
464,208,42767,2,0,P|404:178|339:192,1,135.000005149842,8|0,0:0|0:0,0:0:0:0:
240,124,43217,2,0,P|212:192|236:264,1,135.000005149842
360,304,43667,2,0,B|304:316|304:316|296:336|296:336|220:352,1,135.000005149842,0|8,0:0|0:0,0:0:0:0:
124,260,44117,1,0,0:0:0:0:
124,260,44417,5,0,0:0:0:0:
100,340,44567,1,0,0:0:0:0:
48,196,44717,2,0,P|108:160|192:180,1,135.000005149842
242,296,45167,2,0,P|178:300|114:240,1,135.000005149842,8|0,0:0|0:0,0:0:0:0:
172,120,45617,2,0,P|236:116|300:176,1,135.000005149842
120,176,46067,2,0,L|28:164,1,67.5000025749208
188,312,46367,1,8,0:0:0:0:
128,248,46517,2,0,B|60:240|60:240|-4:276,1,135.000005149842
192,180,46967,6,0,L|0:160,1,180,4|0,0:0|0:0,0:0:0:0:
308,196,47417,1,2,2:2:0:0:
272,96,47567,2,0,L|156:80,1,80.9999975280763,0|2,0:0|2:0,0:0:0:0:
71,244,47867,2,0,L|187:260,1,80.9999975280763,0|2,0:0|2:0,0:0:0:0:
96,124,48167,2,0,L|-20:108,1,80.9999975280763,0|2,0:0|2:0,0:0:0:0:
236,232,48467,2,0,L|352:248,1,80.9999975280763,0|2,0:0|2:0,0:0:0:0:
260,44,48767,1,0,0:0:0:0:
160,192,48917,1,0,0:0:0:0:
272,20,49067,1,0,0:0:0:0:
304,136,49217,1,0,0:0:0:0:
96,104,49367,5,8,0:0:0:0:
216,340,49517,2,0,L|208:244,1,80.9999975280763,8|0,0:0|2:0,0:0:0:0:
354,190,49817,2,0,P|296:177|276:155,1,80.9999975280763,8|0,0:0|2:2,0:0:0:0:
60,256,50117,2,0,P|99:218|107:181,1,80.9999975280763,8|0,0:0|2:0,0:0:0:0:
172,76,50417,1,8,0:0:0:0:
216,305,50867,5,2,0:0:0:0:
200,223,51167,1,2,0:0:0:0:
278,247,51467,1,2,0:0:0:0:
136,278,51767,6,0,P|40:190|80:94,1,215.999993408203,4|8,0:0|0:0,0:0:0:0:
264,41,52217,2,0,B|272:77|272:77|236:153,1,107.999996704102
56,118,52517,2,0,B|88:90|88:90|167:94,1,107.999996704102,0|10,0:0|0:2,0:0:0:0:
341,154,52817,6,0,P|285:238|149:194,1,215.999993408203
28,348,53267,2,0,L|56:224,1,107.999996704102,10|0,0:2|0:0,0:0:0:0:
224,40,53567,2,0,L|196:164,1,107.999996704102
364,324,53867,2,0,L|392:200,1,107.999996704102,10|0,0:2|0:0,0:0:0:0:
168,208,54167,6,0,P|96:276|140:400,1,215.999993408203,4|8,0:0|0:0,0:0:0:0:
224,137,54617,2,0,B|216:104|216:104|232:32,1,107.999996704102,0|2,0:0|0:2,0:0:0:0:
396,216,54917,2,0,B|403:256|403:256|383:320,1,107.999996704102,0|10,0:0|0:2,0:0:0:0:
308,128,55217,6,0,P|320:88|464:88,1,215.999993408203
260,216,55667,2,0,L|132:244,1,107.999996704102,10|0,0:2|0:0,0:0:0:0:
380,244,55967,2,0,L|396:104,1,107.999996704102,10|0,0:2|0:0,0:0:0:0:
296,328,56267,2,0,L|400:392,1,107.999996704102,10|8,0:2|0:0,0:0:0:0:
192,144,56567,6,0,B|124:160|124:160|80:208|80:208|-8:228,2,215.999993408203,4|8|0,0:0|0:0|0:0,0:0:0:0:
420,100,57317,2,0,P|476:60|496:4,1,107.999996704102,0|8,0:0|0:0,0:0:0:0:
280,72,57617,6,0,P|224:152|276:280,1,215.999993408203
428,288,58067,2,0,P|484:208|432:80,1,215.999993408203,8|0,0:0|0:0,0:0:0:0:
352,180,58517,1,0,0:0:0:0:
376,36,58667,1,8,0:0:0:0:
36,104,58967,6,0,P|152:28|232:76,1,215.999993408203,4|8,0:0|0:0,0:0:0:0:
428,108,59417,2,0,B|368:116|368:116|336:136|336:136|256:148,1,161.999995056153,8|0,0:0|2:0,0:0:0:0:
188,160,59717,2,0,P|136:240|176:336,1,161.999995056153,8|0,0:0|2:0,0:0:0:0:
172,328,60017,1,8,0:0:0:0:
188,160,60167,5,0,0:0:0:0:
252,324,60317,1,0,0:0:0:0:
272,145,60467,1,8,0:0:0:0:
172,260,60617,1,0,0:0:0:0:
332,224,60767,1,8,0:0:0:0:
372,212,60842,1,0,0:0:0:0:
416,220,60917,1,0,0:0:0:0:
448,248,60992,1,0,0:0:0:0:
464,288,61067,1,8,0:0:0:0:
476,100,61217,6,0,B|460:168|460:168|408:216|408:216|380:296,1,215.999993408203,4|0,0:0|0:0,0:0:0:0:
184,276,61667,2,0,L|284:356,1,107.999996704102,8|2,0:0|0:2,0:0:0:0:
240,120,61967,2,0,L|153:55,1,107.999996704102,2|0,0:2|0:0,0:0:0:0:
248,216,62267,1,8,0:0:0:0:
184,8,62417,6,0,B|200:76|200:76|252:124|252:124|280:204,1,215.999993408203,4|0,0:2|0:0,0:0:0:0:
480,160,62867,2,0,L|400:232,1,107.999996704102,8|2,0:0|0:2,0:0:0:0:
328,8,63167,2,0,L|452:28,1,107.999996704102,2|0,0:2|0:0,0:0:0:0:
304,208,63467,1,8,0:0:0:0:
128,56,63617,6,0,P|24:156|76:236,1,215.999993408203,4|0,0:0|0:0,0:0:0:0:
220,104,64067,2,0,B|228:68|228:68|216:-16|200:-20,1,107.999996704102,8|2,0:0|0:2,0:0:0:0:
112,264,64367,2,0,B|132:288|132:288|216:322|228:310,1,107.999996704102,2|0,0:2|0:0,0:0:0:0:
296,128,64667,1,8,0:0:0:0:
232,20,64817,6,0,P|333:-3|410:66,1,215.999993408203,4|0,0:2|0:0,0:0:0:0:
152,64,65267,2,0,L|176:196,1,107.999996704102,10|0,0:2|0:0,0:0:0:0:
352,364,65567,2,0,L|328:228,1,107.999996704102,10|0,0:2|0:0,0:0:0:0:
48,184,65867,2,0,L|72:316,1,107.999996704102,10|10,0:2|0:2,0:0:0:0:
336,160,66167,6,0,B|408:124|408:124|436:72|436:72|524:24,2,215.999993408203,4|8|0,0:0|0:0|0:0,0:0:0:0:
172,104,66917,2,0,L|36:92,1,107.999996704102,0|10,0:0|0:2,0:0:0:0:
216,208,67217,6,0,P|284:108|248:16,1,215.999993408203,2|0,0:2|0:0,0:0:0:0:
104,188,67667,2,0,B|92:272|92:272|92:328|116:356|188:356,1,215.999993408203,10|0,0:2|0:0,0:0:0:0:
284,264,68117,2,0,L|152:272,2,107.999996704102,0|8|0,0:0|0:0|0:0,0:0:0:0:
420,336,68567,6,2,P|472:272|440:148,1,215.999993408203,6|0,0:0|0:0,0:0:0:0:
251,201,69017,2,0,P|325:182|371:243,1,161.999995056153,10|0,0:0|2:0,0:0:0:0:
300,272,69317,2,0,B|296:216|296:216|272:176|272:176|264:104,1,161.999995056153,14|0,0:0|2:2,0:0:0:0:
248,24,69617,1,10,0:0:0:0:
360,136,69767,5,0,0:0:0:0:
176,84,69917,1,0,0:0:0:0:
336,40,70067,2,0,L|472:28,1,107.999996704102,8|0,0:0|0:0,0:0:0:0:
92,20,70367,1,0,0:0:0:0:
80,60,70442,1,0,0:0:0:0:
80,104,70517,1,0,0:0:0:0:
92,144,70592,1,0,0:0:0:0:
112,184,70667,1,0,0:0:0:0:
124,224,70742,1,0,0:0:0:0:
124,268,70817,1,0,0:0:0:0:
112,308,70892,1,0,0:0:0:0:
84,340,70967,6,0,B|216:316|136:400|308:380,1,215.999993408203,4|0,0:0|0:0,0:0:0:0:
396,384,71417,2,0,B|416:332|416:332|396:256,1,107.999996704102,0|8,0:0|0:0,0:0:0:0:
224,124,71717,2,0,B|204:176|204:176|224:252,1,107.999996704102
328,52,72017,6,0,P|424:88|460:220,1,215.999993408203
224,124,72467,2,0,L|208:0,1,107.999996704102
84,188,72767,2,0,L|64:316,1,107.999996704102,8|0,0:0|0:0,0:0:0:0:
36,96,73067,1,0,0:0:0:0:
172,168,73217,1,0,0:0:0:0:
132,68,73367,5,0,0:0:0:0:
16,200,73517,2,0,P|4:268|100:384,1,215.999993408203
176,352,73892,1,0,0:0:0:0:
176,352,73967,2,0,P|204:288|200:244,2,107.999996704102,12|0|8,0:0|0:0|0:0,0:0:0:0:
124,208,74417,6,0,P|120:104|202:40,1,215.999993408203
252,172,74867,1,0,0:0:0:0:
200,272,75017,1,0,0:0:0:0:
200,272,75092,1,0,0:0:0:0:
200,272,75167,2,0,L|192:379,1,107.999996704102,12|0,0:0|0:0,0:0:0:0:
336,172,75467,2,0,L|348:44,1,107.999996704102
104,184,75767,6,0,P|91:286|173:348,1,215.999993408203,4|0,0:2|0:0,0:0:0:0:
204,220,76217,1,0,0:0:0:0:
192,112,76367,2,0,B|232:64|232:64|412:44,1,215.999993408203,12|0,0:2|0:0,0:0:0:0:
277,279,76817,5,0,0:0:0:0:
104,248,76967,1,0,0:0:0:0:
272,144,77117,2,0,L|384:128,2,107.999996704102,4|0|0,0:2|0:0|0:0,0:0:0:0:
128,160,77567,2,0,P|44:188|24:328,1,215.999993408203,12|0,0:2|0:0,0:0:0:0:
209,212,78017,1,0,0:0:0:0:
305,58,78167,6,0,B|269:146|269:146|297:178|313:214|281:274,1,215.999993408203,4|0,0:0|0:0,0:0:0:0:
144,256,78617,1,0,0:0:0:0:
96,172,78767,2,0,P|144:120|196:108,2,107.999996704102,12|0|0,0:2|0:0|0:0,0:0:0:0:
224,304,79217,6,0,P|324:256|308:136,1,215.999993408203,0|8,0:0|0:0,0:0:0:0:
232,44,79667,1,0,0:0:0:0:
184,176,79817,1,0,0:0:0:0:
392,120,79967,2,0,L|464:88|500:72,1,107.999996704102,12|0,0:2|0:0,0:0:0:0:
256,256,80267,2,0,P|248:332|244:388,1,107.999996704102,8|8,0:0|0:0,0:0:0:0:
328,196,80567,6,0,P|240:164|176:272,1,215.999993408203,4|8,0:0|0:0,0:0:0:0:
256,256,81017,1,0,0:0:0:0:
392,148,81167,2,0,L|364:292,1,107.999996704102,8|0,0:0|0:0,0:0:0:0:
188,20,81467,2,0,L|168:128,1,107.999996704102,8|0,0:0|0:0,0:0:0:0:
259,366,81767,6,0,L|280:260,1,107.999996704102,8|0,0:0|0:0,0:0:0:0:
188,40,82067,2,0,P|134:42|92:74,1,107.999996704102,8|0,0:0|0:0,0:0:0:0:
380,52,82367,2,0,P|433:54|475:86,1,107.999996704102,8|0,0:0|0:0,0:0:0:0:
152,140,82667,2,0,P|140:220|168:276,1,107.999996704102,8|0,0:0|0:0,0:0:0:0:
364,312,82967,6,0,P|373:259|359:207,1,107.999996704102,12|0,0:0|0:0,0:0:0:0:
140,328,83267,2,0,B|100:364|100:364|12:328,1,107.999996704102,8|0,0:0|0:0,0:0:0:0:
352,288,83567,2,0,B|396:316|396:316|468:296,1,107.999996704102,8|0,0:0|0:0,0:0:0:0:
136,160,83867,2,0,B|84:128|84:128|68:72,1,107.999996704102,8|0,0:0|0:0,0:0:0:0:
352,108,84167,6,0,B|404:76|404:76|420:20,1,107.999996704102,8|0,0:0|0:0,0:0:0:0:
176,264,84467,2,0,L|160:380,1,107.999996704102,12|0,0:2|0:0,0:0:0:0:
308,120,84767,2,0,P|256:104|180:140,1,107.999996704102,8|0,0:0|0:0,0:0:0:0:
332,260,85067,2,0,L|348:376,1,107.999996704102,12|0,0:2|0:0,0:0:0:0:
496,120,85367,5,12,0:2:0:0:
424,252,85517,1,0,0:0:0:0:
388,68,85667,2,0,P|328:52|264:84,1,107.999996704102,12|0,0:2|0:0,0:0:0:0:
492,204,85967,1,12,0:2:0:0:
328,140,86117,1,0,0:0:0:0:
468,32,86267,2,0,P|468:92|428:148,1,107.999996704102,12|0,0:2|0:0,0:0:0:0:
240,124,86567,5,12,0:2:0:0:
388,68,86717,1,0,0:0:0:0:
280,216,86867,2,0,P|276:284|304:336,1,107.999996704102,12|0,0:2|0:0,0:0:0:0:
472,120,87167,2,0,P|476:52|448:0,1,107.999996704102,12|0,0:2|0:0,0:0:0:0:
240,124,87467,2,0,L|116:148,1,107.999996704102,12|0,0:2|0:0,0:0:0:0:
360,188,87767,5,12,0:2:0:0:
288,40,87917,1,0,0:0:0:0:
200,216,88067,2,0,L|172:332,1,107.999996704102,12|0,0:2|0:0,0:0:0:0:
444,176,88367,1,12,0:2:0:0:
360,24,88517,1,0,0:0:0:0:
280,200,88667,2,0,L|252:316,1,107.999996704102,12|0,0:2|0:0,0:0:0:0:
432,76,88967,5,14,1:2:0:0:
424,120,89042,1,0,2:0:0:0:
424,164,89117,1,2,2:0:0:0:
436,204,89192,1,0,2:0:0:0:
464,240,89267,1,12,1:2:0:0:
476,280,89342,1,0,2:0:0:0:
472,324,89417,1,2,2:0:0:0:
444,356,89492,1,0,2:0:0:0:
404,376,89567,1,12,1:0:0:0:
360,376,89642,1,0,2:0:0:0:
324,352,89717,1,2,2:0:0:0:
304,316,89792,1,0,2:0:0:0:
304,272,89867,1,12,1:0:0:0:
316,232,89942,1,0,2:0:0:0:
308,188,90017,1,2,2:0:0:0:
279,155,90092,1,0,0:0:0:0:
239,139,90167,6,0,P|136:136|55:124,1,180,4|0,1:0|1:0,1:0:0:0:
141,242,90617,1,2,3:2:0:0:
141,242,90692,1,0,3:2:0:0:
141,242,90767,2,0,P|191:244|244:251,1,90,0|2,1:0|3:2,0:0:0:0:
303,56,91067,2,0,P|253:54|200:47,1,90,0|2,0:0|3:2,0:0:0:0:
352,237,91367,6,0,B|367:191|367:191|351:132,1,90,0|2,0:0|3:2,0:0:0:0:
114,61,91667,2,0,B|103:101|103:101|118:147,1,90,0|2,0:0|3:2,0:0:0:0:
230,248,91967,1,0,0:0:0:0:
234,127,92117,1,2,3:2:0:0:
234,127,92192,1,0,3:2:0:0:
234,127,92267,2,0,P|233:56|230:2,1,90,0|2,0:0|2:0,0:0:0:0:
389,109,92567,6,0,P|376:161|337:183,1,90,0|2,0:0|3:2,0:0:0:0:
150,178,92867,2,0,P|115:150|108:106,1,90,0|2,0:0|3:2,0:0:0:0:
368,264,93167,2,0,P|363:333|346:354,1,90,0|2,0:0|3:2,0:0:0:0:
159,347,93467,2,0,P|139:308|143:264,1,90,0|2,0:0|3:2,0:0:0:0:
232,114,93767,5,0,0:0:0:0:
247,283,93917,1,2,3:2:0:0:
87,192,94067,2,0,P|142:175|181:192,1,90,0|2,1:0|3:2,2:0:0:0:
257,201,94292,1,0,2:0:0:0:
257,201,94367,2,0,P|320:199|347:176,1,90,0|2,1:0|3:2,0:0:0:0:
415,357,94667,2,0,B|405:320|405:320|419:245,1,90,0|0,0:0|2:0,0:0:0:0:
483,220,94892,1,0,0:0:0:0:
501,246,94967,6,0,P|508:202|494:159,1,90,2|0,0:2|2:0,0:0:0:0:
327,277,95267,1,0,0:0:0:0:
475,325,95417,2,0,B|388:310|437:383|277:363,1,180,2|0,0:2|0:0,0:0:0:0:
39,324,95867,2,0,B|124:310|75:383|206:365,1,180,2|0,0:2|0:0,0:0:0:0:
131,141,96317,6,0,P|64:130|21:147,1,90,2|0,0:2|0:0,0:0:0:0:
200,196,96617,1,0,0:0:0:0:
205,95,96767,2,0,P|93:46|11:63,1,180,2|0,0:2|0:0,0:0:0:0:
136,266,97217,1,0,0:0:0:0:
136,266,97292,1,0,0:0:0:0:
136,266,97367,6,0,P|224:282|248:266,1,90,2|0,0:2|0:0,0:0:0:0:
304,260,97667,1,0,0:0:0:0:
356,357,97817,2,0,P|392:260|360:175,1,180,2|0,0:2|0:0,0:0:0:0:
191,68,98267,2,0,P|155:165|187:250,1,180,2|0,0:2|0:0,0:0:0:0:
317,119,98717,2,0,P|377:118|413:141,1,90,2|0,0:2|0:0,0:0:0:0:
313,302,99017,1,0,0:0:0:0:
313,302,99092,1,0,0:0:0:0:
313,302,99167,2,0,P|267:263|258:212,1,90,2|0,0:0|0:0,0:0:0:0:
443,72,99467,6,0,L|277:60,1,161.999995056153,2|0,0:0|2:2,0:0:0:0:
244,56,99767,1,4,0:0:0:0:
415,254,100067,1,0,0:0:0:0:
244,56,100367,6,0,P|260:140|268:196,1,135.000005149842,0|0,1:0|3:0,0:0:0:0:
357,203,100817,2,0,P|349:155|347:126,1,67.5000025749208,0|0,1:0|0:0,0:0:0:0:
251,281,101117,1,0,3:0:0:0:
176,172,101267,1,0,3:0:0:0:
176,172,101567,1,0,1:0:0:0:
104,236,101717,2,0,P|76:312|104:388,2,135.000005149842,0|0|0,3:0|1:0|2:0,2:0:0:0:
184,304,102467,2,0,B|232:320|232:320|252:352|252:352|316:368,1,135.000005149842,0|0,3:0|0:0,0:0:0:0:
297,363,103067,5,0,3:0:0:0:
392,324,103217,1,0,2:0:0:0:
392,324,103292,1,0,2:0:0:0:
392,324,103367,2,0,L|400:240,1,67.5000025749208,0|0,2:0|0:0,0:0:0:0:
480,200,103667,2,0,P|436:152|360:164,1,135.000005149842,0|0,3:0|1:0,0:0:0:0:
300,224,104117,2,0,P|234:228|184:168,1,135.000005149842,0|0,3:0|2:0,2:0:0:0:
176,96,104567,5,0,3:0:0:0:
140,296,104867,1,0,3:0:0:0:
176,96,105167,2,0,P|180:36|180:8,1,67.5000025749208,0|0,1:0|2:0,0:0:0:0:
188,182,105467,1,0,3:0:0:0:
92,120,105617,2,0,P|84:188|80:264,1,135.000005149842,0|0,1:0|2:0,0:0:0:0:
0,224,106067,1,0,2:0:0:0:
148,300,106217,2,0,P|140:352|140:380,1,67.5000025749208,0|0,0:0|2:0,0:0:0:0:
0,224,106517,2,0,P|12:168|12:144,1,67.5000025749208,0|0,3:0|2:0,0:0:0:0:
188,182,106817,6,0,P|252:214|328:190,1,135.000005149842,0|0,1:0|2:0,0:0:0:0:
311,201,107417,1,0,3:0:0:0:
410,247,107567,2,0,P|409:200|416:168,1,67.5000025749208,0|0,0:0|2:0,0:0:0:0:
339,293,107867,1,0,0:0:0:0:
491,227,108017,1,2,1:2:0:0:
283,105,108317,1,2,2:0:0:0:
292,348,108617,1,2,2:0:0:0:
292,348,109367,6,0,B|356:324|356:324|376:300|376:300|480:256,1,180,4|8,0:0|0:0,0:0:0:0:
304,160,109817,2,0,B|288:204|288:204|308:260,1,90
484,176,110117,2,0,B|500:132|500:132|480:76,1,90
396,0,110417,6,0,L|388:179,1,180,8|0,0:0|0:0,0:0:0:0:
200,312,110867,2,0,L|206:223,1,90,8|0,0:0|0:0,0:0:0:0:
300,92,111167,1,0,0:0:0:0:
292,240,111317,1,0,0:0:0:0:
156,144,111467,2,0,P|67:151|0:209,1,180,8|0,0:0|0:0,0:0:0:0:
218,305,111917,6,0,P|220:260|216:216,1,90
160,48,112217,1,0,0:0:0:0:
300,168,112367,2,0,L|396:180,1,90,8|0,0:0|0:0,0:0:0:0:
128,220,112667,1,0,0:0:0:0:
208,152,112817,6,0,B|216:232|216:232|216:292|152:308,1,180,8|0,0:0|0:0,0:0:0:0:
104,136,113267,2,0,P|144:76|192:60,1,90,8|0,0:0|0:0,0:0:0:0:
292,256,113567,1,0,0:0:0:0:
120,208,113717,1,8,0:0:0:0:
280,176,113867,1,8,0:0:0:0:
200,384,114017,6,0,B|192:308|192:308|208:276|208:276|196:180,1,180,4|0,0:0|0:0,0:0:0:0:
102,88,114467,2,0,B|86:132|86:132|98:200,1,90,8|0,0:0|0:0,0:0:0:0:
189,112,114767,1,0,0:0:0:0:
175,24,114917,2,0,P|75:8|15:52,2,180,0|8|0,0:0|0:0|0:0,0:0:0:0:
288,88,115667,6,0,P|380:104|460:48,1,180,8|0,0:0|0:0,0:0:0:0:
292,184,116117,2,0,L|200:164,1,90,0|8,0:0|0:0,0:0:0:0:
424,280,116417,6,0,B|368:268|368:268|324:280|324:280|216:256,1,180,4|0,0:0|0:0,0:0:0:0:
132,96,116867,2,0,P|116:168|124:208,1,90,8|0,0:0|0:0,0:0:0:0:
240,328,117167,2,0,P|256:256|248:216,1,90
84,252,117467,1,0,0:0:0:0:
164,340,117617,6,0,L|356:320,1,180,8|0,0:0|0:0,0:0:0:0:
176,240,118067,2,0,P|172:168|172:116,1,90,8|0,0:0|0:0,0:0:0:0:
44,28,118367,1,0,0:0:0:0:
52,64,118442,1,0,0:0:0:0:
56,100,118517,1,0,0:0:0:0:
48,136,118592,1,0,0:0:0:0:
32,168,118667,5,8,0:0:0:0:
56,196,118742,1,0,0:0:0:0:
68,228,118817,1,0,0:0:0:0:
72,264,118892,1,0,0:0:0:0:
60,300,118967,6,0,P|112:284|140:280,1,67.5000025749208
216,252,119267,1,0,0:0:0:0:
216,252,119417,1,0,0:0:0:0:
272,328,119567,2,0,P|336:364|416:348,1,135.000005149842,8|0,0:0|0:0,0:0:0:0:
324,156,120017,2,0,P|328:240|372:288,1,135.000005149842
472,76,120467,2,0,P|416:152|420:200,1,135.000005149842,0|8,0:0|0:0,0:0:0:0:
512,160,120917,1,0,0:0:0:0:
512,160,121217,5,0,0:0:0:0:
428,124,121367,1,0,0:0:0:0:
344,176,121517,2,0,P|292:240|248:292,1,135.000005149842
328,328,121967,2,0,P|236:308|164:296,1,135.000005149842,8|0,0:0|0:0,0:0:0:0:
172,384,122417,2,0,P|140:288|120:240,1,135.000005149842
128,124,122867,2,0,L|136:68|140:40,1,67.5000025749208
216,256,123167,1,12,0:2:0:0:
44,200,123317,1,0,0:0:0:0:
288,144,123467,2,8,L|221:156,1,67.5000025749208,12|8,0:2|0:0,0:0:0:0:
412,56,123767,6,0,P|484:148|460:232,1,180,4|0,0:0|0:0,0:0:0:0:
332,12,124217,1,0,0:0:0:0:
320,112,124367,2,0,L|304:244,1,90
472,328,124667,2,0,L|360:340,1,90
200,36,124967,2,0,L|188:148,1,90
500,204,125267,2,0,L|400:220,1,90
80,72,125567,2,0,L|64:188,1,90
428,108,125867,2,0,L|328:120,1,90
256,304,126167,5,8,0:0:0:0:
256,160,126317,2,0,L|256:60,1,90,8|0,0:0|2:0,0:0:0:0:
81,228,126617,2,0,P|161:240|185:222,1,90,8|0,1:0|2:0,0:0:0:0:
412,238,126917,2,0,P|332:226|308:244,1,90,8|0,1:0|2:0,0:0:0:0:
136,327,127217,1,8,0:0:0:0:
330,107,127667,5,2,2:0:0:0:
274,159,127967,1,2,2:0:0:0:
254,87,128267,1,2,2:0:0:0:
350,179,128567,6,0,P|430:195|410:327,1,215.999993408203,4|8,0:0|0:0,0:0:0:0:
277,125,129017,2,0,P|208:110|157:131,1,107.999996704102,2|0,0:2|0:0,0:0:0:0:
262,213,129317,1,0,0:0:0:0:
384,101,129467,2,0,P|408:33|392:-15,1,107.999996704102,10|0,0:2|0:0,0:0:0:0:
320,40,129767,5,0,0:0:0:0:
400,212,129917,1,0,0:0:0:0:
256,120,130067,2,0,P|180:100|144:108,1,107.999996704102,10|0,0:2|0:0,0:0:0:0:
224,292,130367,2,0,P|279:236|290:201,1,107.999996704102,10|0,0:2|0:0,0:0:0:0:
96,184,130667,2,0,P|104:248|141:286,1,107.999996704102,10|0,0:2|0:0,0:0:0:0:
188,0,130967,6,0,B|176:72|176:72|216:92|240:156|176:224,1,215.999993408203,4|8,0:0|0:0,0:0:0:0:
16,156,131417,2,0,L|144:144,1,107.999996704102,2|0,0:2|0:0,0:0:0:0:
228,296,131717,2,0,L|116:308,1,107.999996704102,0|10,0:0|0:2,0:0:0:0:
324,164,132017,6,0,P|408:240|368:340,1,215.999993408203
248,108,132467,2,0,L|269:2,1,107.999996704102,10|0,0:2|0:0,0:0:0:0:
320,264,132767,2,0,L|301:370,1,107.999996704102,10|0,0:2|0:0,0:0:0:0:
128,140,133067,2,0,L|149:34,1,107.999996704102,10|10,0:2|0:2,0:0:0:0:
160,248,133367,6,0,P|68:144|-40:176,2,215.999993408203,4|8|0,0:0|0:0|0:0,0:0:0:0:
256,176,134117,2,0,L|384:160,1,107.999996704102,0|8,0:0|0:0,0:0:0:0:
488,208,134417,6,0,P|520:128|420:28,1,215.999993408203
320,76,134867,2,0,P|288:156|388:256,1,215.999993408203,8|0,0:0|0:0,0:0:0:0:
408,144,135317,1,0,0:0:0:0:
432,284,135467,1,8,0:0:0:0:
72,356,135767,6,0,P|164:296|232:312,1,161.999995056153,0|0,0:0|2:0,0:0:0:0:
280,348,136067,1,0,0:0:0:0:
168,240,136217,2,0,P|148:176|164:124,1,107.999996704102,0|0,0:0|2:0,0:0:0:0:
355,137,136517,2,0,P|363:189|343:239,1,107.999996704102,0|0,0:0|2:0,0:0:0:0:
172,56,136817,6,0,P|272:-4|340:76,1,215.999993408203
168,136,137267,2,0,L|44:164,1,107.999996704102
256,84,137567,1,0,0:0:0:0:
276,124,137642,1,0,0:0:0:0:
280,168,137717,1,0,0:0:0:0:
264,208,137792,1,0,0:0:0:0:
232,236,137867,1,0,0:0:0:0:
96,292,138017,6,0,B|148:256|148:256|344:284,1,215.999993408203,4|0,0:0|0:0,0:0:0:0:
336,96,138467,2,0,L|372:212,1,107.999996704102,8|2,0:0|0:2,0:0:0:0:
236,340,138767,2,0,L|268:204,1,107.999996704102,2|0,0:2|0:0,0:0:0:0:
360,336,139067,1,8,0:0:0:0:
484,188,139217,6,0,B|396:128|396:128|284:168,1,215.999993408203,4|0,0:2|0:0,0:0:0:0:
440,128,139667,2,0,B|452:72|452:72|436:16,1,107.999996704102,8|2,0:0|0:2,0:0:0:0:
200,256,139967,2,0,B|188:312|188:312|204:368,1,107.999996704102,2|0,0:2|0:2,0:0:0:0:
288,188,140267,1,8,0:0:0:0:
108,48,140417,6,0,P|16:120|40:212,1,215.999993408203,4|0,0:0|0:0,0:0:0:0:
200,120,140867,1,10,0:2:0:0:
300,40,141017,2,0,L|424:28,1,107.999996704102,2|2,0:2|0:2,0:0:0:0:
344,288,141317,2,0,P|284:240|236:200,1,107.999996704102,0|8,0:0|0:0,0:0:0:0:
472,96,141617,6,0,P|536:192|480:304,1,215.999993408203,4|0,0:2|0:0,0:0:0:0:
312,132,142067,2,0,L|288:4,1,107.999996704102,8|0,0:0|0:0,0:0:0:0:
208,260,142367,2,0,L|176:392,1,107.999996704102,8|0,0:0|0:0,0:0:0:0:
112,108,142667,2,0,L|92:-16,1,107.999996704102,8|8,0:0|0:0,0:0:0:0:
16,200,142967,6,0,P|96:276|204:236,2,215.999993408203,4|8|0,0:0|0:0|0:0,0:0:0:0:
0,108,143717,1,0,0:0:0:0:
120,184,143867,1,8,0:0:0:0:
112,40,144017,6,0,P|48:96|76:244,1,215.999993408203,2|0,0:2|0:0,0:0:0:0:
192,112,144467,2,0,B|268:96|268:96|344:108|404:144,1,215.999993408203,8|0,0:0|0:0,0:0:0:0:
316,296,144917,2,0,P|300:236|312:192,2,107.999996704102,0|8|0,0:0|0:0|0:0,0:0:0:0:
472,200,145367,6,2,P|504:116|432:28,1,161.999995056153,6|0,1:0|2:0,0:0:0:0:
448,40,145667,1,10,0:2:0:0:
248,164,145817,2,10,B|308:160|308:160|340:132|340:132|436:128,1,161.999995056153,6|0,0:0|2:0,0:0:0:0:
399,129,146117,2,0,B|427:173|427:173|399:261,1,107.999996704102,14|0,0:0|2:0,0:0:0:0:
308,280,146417,6,2,L|332:44,1,215.999993408203,6|0,0:0|0:0,0:0:0:0:
200,208,146867,2,0,L|216:76,1,107.999996704102,8|0,0:0|0:0,0:0:0:0:
92,256,147167,1,0,0:0:0:0:
124,228,147242,1,0,0:0:0:0:
168,220,147317,1,0,0:0:0:0:
208,236,147392,1,0,0:0:0:0:
240,264,147467,1,0,0:0:0:0:
260,308,147542,1,0,0:0:0:0:
300,324,147617,1,0,0:0:0:0:
344,316,147692,1,0,0:0:0:0:
380,292,147767,6,0,P|436:192|360:112,1,215.999993408203,4|0,0:0|0:0,0:0:0:0:
232,196,148217,1,0,0:0:0:0:
232,196,148292,1,0,0:0:0:0:
232,196,148367,2,0,P|296:200|360:208,1,107.999996704102,12|0,0:0|0:0,0:0:0:0:
240,324,148667,1,0,0:0:0:0:
148,140,148817,6,0,P|68:156|36:304,1,215.999993408203
236,108,149267,2,0,P|224:36|220:-20,1,107.999996704102
316,216,149567,2,0,P|328:292|332:332,1,107.999996704102,12|0,0:0|0:0,0:0:0:0:
120,240,149867,2,0,P|125:186|135:133,1,107.999996704102
184,352,150167,5,0,0:0:0:0:
40,308,150317,2,0,P|16:212|64:92,1,215.999993408203
134,133,150692,1,0,0:0:0:0:
134,133,150767,2,0,P|214:141|270:121,1,107.999996704102,12|0,0:0|0:0,0:0:0:0:
104,28,151067,1,0,0:0:0:0:
24,168,151217,6,0,P|128:240|228:232,1,215.999993408203
360,136,151667,1,0,0:0:0:0:
296,308,151817,1,0,0:0:0:0:
296,308,151892,1,0,0:0:0:0:
296,308,151967,2,0,B|284:256|284:256|296:196,1,107.999996704102,12|0,0:0|0:0,0:0:0:0:
448,20,152267,2,0,B|460:72|460:72|448:132,1,107.999996704102,4|0,0:0|0:0,0:0:0:0:
244,52,152567,6,0,L|116:48,1,107.999996704102,4|0,1:0|0:2,0:2:0:0:
400,168,152867,2,0,L|536:160,1,107.999996704102,0|0,0:2|0:0,0:0:0:0:
271,136,153167,2,0,B|243:184|243:184|231:280|255:356,1,215.999993408203,12|0,0:2|0:0,0:0:0:0:
400,168,153617,1,0,0:0:0:0:
328,80,153767,6,0,L|200:68,1,107.999996704102,8|0,0:0|0:0,0:0:0:0:
68,280,154067,2,0,L|192:268,1,107.999996704102
368,184,154367,2,0,B|320:168|320:168|140:176,1,215.999993408203,12|0,0:2|0:0,0:0:0:0:
388,288,154817,1,0,0:0:0:0:
464,208,154967,6,0,P|452:112|352:52,1,215.999993408203,4|0,0:0|0:0,0:0:0:0:
256,160,155417,1,0,0:0:0:0:
256,160,155492,1,0,0:0:0:0:
256,160,155567,2,0,L|388:152,1,107.999996704102,12|0,0:2|0:0,0:0:0:0:
288,20,155867,1,0,0:0:0:0:
180,248,156017,6,0,P|132:160|180:40,1,215.999993408203,0|8,0:0|0:0,0:0:0:0:
363,153,156467,1,0,0:0:0:0:
312,250,156617,1,0,0:0:0:0:
253,143,156767,2,0,B|261:63|261:63|297:15,1,107.999996704102,12|8,0:2|0:0,0:0:0:0:
484,217,157067,2,0,B|492:297|492:297|528:345,1,107.999996704102,8|8,0:2|0:0,0:0:0:0:
354,94,157367,6,0,B|362:174|362:174|394:218|394:218|402:310,1,215.999993408203,4|8,0:0|0:0,0:0:0:0:
464,128,157817,1,0,0:0:0:0:
423,26,157967,2,0,P|379:2|299:14,1,107.999996704102,8|0,0:0|0:0,0:0:0:0:
161,105,158267,2,0,P|205:129|285:117,1,107.999996704102,8|0,0:0|0:0,0:0:0:0:
384,291,158567,6,0,P|340:267|260:279,1,107.999996704102,8|0,0:0|0:0,0:0:0:0:
40,336,158867,2,0,B|91:357|91:357|169:337,1,107.999996704102,8|0,0:0|0:0,0:0:0:0:
66,132,159167,2,0,B|22:165|22:165|0:243,1,107.999996704102,8|0,0:0|0:0,0:0:0:0:
240,253,159467,2,0,B|232:198|232:198|176:140,1,107.999996704102,8|0,0:0|0:0,0:0:0:0:
0,327,159767,6,0,L|132:316,1,107.999996704102,12|0,0:0|0:0,0:0:0:0:
303,170,160067,2,0,L|176:158,1,107.999996704102,8|0,0:0|0:0,0:0:0:0:
74,34,160367,2,0,P|81:96|132:137,1,107.999996704102,8|0,0:0|0:0,0:0:0:0:
203,334,160667,2,0,P|197:281|162:241,1,107.999996704102,8|0,0:0|0:0,0:0:0:0:
303,170,160967,5,8,0:0:0:0:
373,261,161117,1,0,0:0:0:0:
460,183,161267,2,0,B|477:129|477:129|467:69,1,107.999996704102,12|0,0:2|0:0,0:0:0:0:
282,244,161567,1,8,0:0:0:0:
206,329,161717,1,0,0:0:0:0:
112,267,161867,2,0,B|95:213|95:213|105:153,1,107.999996704102,12|0,0:2|0:0,0:0:0:0:
216,76,162167,5,12,0:2:0:0:
200,223,162317,1,0,0:0:0:0:
372,166,162467,2,0,P|313:148|246:162,1,107.999996704102,12|0,0:2|0:0,0:0:0:0:
216,348,162767,1,12,0:2:0:0:
200,223,162917,1,0,0:0:0:0:
27,284,163067,2,0,P|86:302|153:288,1,107.999996704102,12|0,0:2|0:0,0:0:0:0:
336,254,163367,1,12,0:2:0:0:
200,223,163517,1,0,0:0:0:0:
258,384,163667,6,0,B|265:364|265:364|258:276,1,107.999996704102,12|0,0:2|0:0,0:0:0:0:
356,29,163967,2,0,B|349:49|349:49|356:137,1,107.999996704102,12|0,0:2|0:0,0:0:0:0:
512,264,164267,2,0,B|519:244|519:244|512:156,1,107.999996704102,12|0,0:2|0:0,0:0:0:0:
446,355,164567,5,12,0:2:0:0:
398,193,164717,1,0,0:0:0:0:
285,324,164867,1,12,0:2:0:0:
380,281,165017,1,0,0:0:0:0:
211,268,165167,1,12,0:2:0:0:
287,112,165317,1,0,0:0:0:0:
291,210,165467,1,12,0:2:0:0:
108,237,165617,1,0,0:0:0:0:
192,70,165767,5,12,0:2:0:0:
194,172,165917,1,0,0:0:0:0:
48,157,166067,2,0,P|44:93|72:37,1,107.999996704102,12|0,0:2|1:0,2:0:0:0:
100,33,166292,1,0,2:0:0:0:
144,37,166367,1,12,1:2:0:0:
180,61,166442,1,0,2:0:0:0:
212,93,166517,1,2,2:0:0:0:
248,117,166592,1,0,2:0:0:0:
292,121,166667,1,12,1:2:0:0:
332,105,166742,1,0,2:0:0:0:
368,85,166817,1,2,2:0:0:0:
396,49,166892,1,0,2:0:0:0:
404,5,166967,1,4,1:0:0:0:
256,192,167042,12,2,170567,2:0:0:0:
157,192,171167,5,0,0:0:0:0:
309,104,171392,1,0,0:0:0:0:
305,280,171617,1,0,0:0:0:0:
256,192,171767,5,4,0:0:0:0:
256,192,171842,12,0,174767,2:0:0:0:
192,92,175217,5,0,0:0:0:0:
192,92,175292,1,0,0:0:0:0:
192,92,175367,2,0,P|208:152|216:168,1,45,0|0,0:0|2:0,0:0:0:0:
312,184,175517,2,0,P|300:216|288:236,1,45,0|0,0:0|2:0,0:0:0:0:
216,272,175667,1,0,0:0:0:0:
201,135,175817,1,0,0:0:0:0:
312,184,175967,1,0,0:0:0:0:
124,156,176117,1,2,2:2:0:0:
292,224,176267,1,0,2:0:0:0:
140,336,176417,1,2,2:0:0:0:
320,216,176567,6,0,L|116:268,1,180,4|0,0:0|0:0,0:0:0:0:
24,332,177017,1,0,0:0:0:0:
24,332,177092,1,0,0:0:0:0:
24,332,177167,2,0,L|36:224,1,90,8|0,0:0|0:0,0:0:0:0:
160,168,177467,1,2,0:2:0:0:
196,332,177617,1,0,0:0:0:0:
33,242,177767,6,0,P|85:242|149:234,1,90
312,232,178067,1,0,0:0:0:0:
256,356,178217,1,2,0:2:0:0:
216,168,178367,2,0,L|200:76,1,90,10|0,0:2|0:0,0:0:0:0:
122,238,178667,2,0,L|138:358,1,90,10|2,0:2|0:2,0:0:0:0:
248,252,178967,6,0,L|52:220,1,180,4|0,0:0|0:0,0:0:0:0:
16,160,179342,1,0,0:0:0:0:
16,160,179417,2,0,P|-16:224|60:304,1,180,4|0,0:0|0:0,0:0:0:0:
124,248,179792,1,0,0:0:0:0:
124,248,179867,2,0,P|176:296|121:386,1,180,4|0,0:0|0:0,0:0:0:0:
44,301,180242,1,0,0:0:0:0:
44,301,180317,2,0,P|-12:255|25:151,1,180,4|0,0:0|0:0,0:0:0:0:
124,248,180692,1,0,0:0:0:0:
124,248,180767,2,0,P|172:272|184:368,2,135,8|8|8,0:0|1:0|0:0,0:0:0:0:
152,156,181367,5,0,0:0:0:0:
152,156,181442,1,0,0:0:0:0:
152,156,181517,2,0,P|112:160|88:156,1,45
12,136,181667,2,0,P|9:92|28:52,1,90
332,112,181967,2,0,L|408:112,1,45,4|0,0:2|0:0,0:0:0:0:
364,200,182117,2,0,L|416:212,1,45
384,288,182267,2,0,B|412:312|412:312|440:360,1,90
232,264,182567,5,0,0:0:0:0:
288,192,182717,1,0,0:0:0:0:
272,352,182867,1,0,0:0:0:0:
144,240,183017,1,0,0:0:0:0:
224,144,183167,2,0,P|228:88|212:32,1,90,4|0,0:2|0:0,0:0:0:0:
144,240,183467,2,0,P|140:296|156:352,1,90,8|0,0:2|0:0,0:0:0:0:
88,0,183767,6,0,P|64:96|108:176,1,180,12|0,0:0|0:0,0:0:0:0:
216,176,184142,1,0,0:0:0:0:
216,176,184217,2,0,P|260:264|224:340,1,180,12|0,0:0|0:0,0:0:0:0:
128,212,184592,1,0,0:0:0:0:
128,212,184667,2,0,L|20:196,1,90,12|0,0:0|0:0,0:0:0:0:
168,105,184967,5,0,0:0:0:0:
244,258,185117,1,0,0:0:0:0:
128,212,185267,1,0,0:0:0:0:
279,147,185417,1,0,0:0:0:0:
142,2,185567,1,8,0:0:0:0:
176,300,185717,1,0,0:0:0:0:
2,181,185867,1,8,0:0:0:0:
304,88,186017,1,8,0:0:0:0:
304,88,186467,5,0,0:0:0:0:
296,124,186542,1,0,0:0:0:0:
300,160,186617,1,0,0:0:0:0:
316,192,186692,1,0,0:0:0:0:
344,216,186767,2,0,P|268:244|236:264,1,90,12|0,0:0|0:0,0:0:0:0:
36,168,187067,2,0,P|104:184|148:208,1,90
144,300,187367,5,0,0:0:0:0:
144,300,187517,1,0,0:0:0:0:
180,128,187667,2,0,P|256:64|348:80,1,180,0|8,0:0|0:0,0:0:0:0:
280,164,188117,1,0,0:0:0:0:
404,24,188267,2,0,P|416:92|400:128,1,90
316,312,188567,6,0,B|316:188|316:188|352:124,1,180,0|8,0:0|0:0,0:0:0:0:
432,176,188942,1,0,0:0:0:0:
432,176,189017,2,0,B|459:127|459:127|459:3,1,180,4|0,0:0|0:0,0:0:0:0:
343,139,189392,1,0,0:0:0:0:
343,139,189467,2,0,B|294:167|294:167|170:167,1,180,4|0,0:2|0:0,0:0:0:0:
284,52,189917,5,0,0:0:0:0:
170,167,190067,1,0,0:0:0:0:
176,56,190217,1,0,0:0:0:0:
272,184,190367,2,0,P|280:228|256:300,1,90,8|0,0:0|0:0,0:0:0:0:
271,271,190592,2,0,L|152:260,1,90,8|0,0:0|0:0,0:0:0:0:
359,323,190817,1,8,0:0:0:0:
271,271,190967,5,0,0:0:0:0:
191,375,191117,1,0,0:0:0:0:
175,175,191267,1,0,0:0:0:0:
359,323,191417,1,0,0:0:0:0:
359,323,191492,1,0,0:0:0:0:
359,323,191567,2,0,P|315:355|187:307,1,180,12|0,0:0|0:0,0:0:0:0:
199,159,192017,2,0,P|219:99|247:51,1,90
343,211,192317,6,0,P|359:271|347:335,2,90
227,231,192767,1,8,0:0:0:0:
191,223,192842,1,0,0:0:0:0:
163,199,192917,1,8,0:0:0:0:
147,167,192992,1,0,0:0:0:0:
147,131,193067,2,0,P|155:79|155:23,1,90
67,203,193367,6,0,P|135:155|243:175,2,180,4|2|0,0:0|2:0|2:0,0:0:0:0:
27,303,194117,1,2,2:0:0:0:
119,295,194267,1,0,2:0:0:0:
111,195,194417,1,2,2:0:0:0:
19,207,194567,1,4,0:0:0:0:
192,356,194867,5,2,2:0:0:0:
204,272,195167,1,2,2:0:0:0:
216,188,195467,1,2,2:0:0:0:
232,108,195767,5,4,2:2:0:0:
236,120,196217,1,0,0:0:0:0:
240,132,196667,1,2,0:0:0:0:
244,144,197267,5,2,0:0:0:0:
188,208,197567,1,0,0:0:0:0:
268,228,197867,1,2,0:0:0:0:
200,64,198167,5,0,0:0:0:0:
196,76,198617,1,0,0:0:0:0:
192,88,199067,1,2,0:0:0:0:
188,100,199667,5,2,0:0:0:0:
252,144,199967,1,2,0:0:0:0:
328,128,200267,1,2,0:0:0:0:
188,100,200417,1,2,0:0:0:0:
236,220,200567,5,4,1:0:0:0:
252,144,200717,1,0,1:0:0:0:
220,80,200867,1,0,1:0:0:0:
152,52,201017,1,0,1:0:0:0:
80,72,201167,2,0,L|0:68,1,67.5000025749208,0|0,1:0|1:0,0:0:0:0:
108,149,201467,2,0,L|176:152,1,67.5000025749208,0|0,1:0|1:0,0:0:0:0:
72,216,201767,5,0,1:0:0:0:
0,188,201917,1,0,1:0:0:0:
36,348,202067,1,0,1:0:0:0:
108,380,202217,1,0,1:0:0:0:
212,248,202367,1,0,1:0:0:0:
192,340,202517,1,0,1:0:0:0:
352,360,202667,1,0,1:0:0:0:
256,384,202817,1,0,1:0:0:0:
352,280,202967,6,0,P|444:244|472:264,1,135,4|0,1:2|0:0,0:0:0:0:
464,332,203267,1,0,1:0:0:0:
432,96,203417,2,0,B|420:144|420:144|432:180|432:180|416:256,1,135,4|0,1:2|0:0,0:0:0:0:
422,226,203717,2,0,B|376:240|376:240|328:216,1,90,4|0,1:2|0:0,0:0:0:0:
512,76,204017,6,0,B|496:148|496:148|508:176|508:176|492:264,1,180,4|0,1:2|0:0,0:0:0:0:
328,128,204467,2,0,P|316:72|320:36,1,90,0|0,1:0|0:0,0:0:0:0:
396,184,204767,1,0,1:0:0:0:
364,164,204842,1,0,1:0:0:0:
328,156,204917,1,0,1:0:0:0:
292,160,204992,1,0,1:0:0:0:
260,176,205067,1,0,1:0:0:0:
236,204,205142,1,0,1:0:0:0:
220,248,205217,6,0,B|244:184|216:128|216:128|260:136|300:84,1,215.999993408203,4|0,0:0|0:0,0:0:0:0:
32,116,205667,1,8,0:0:0:0:
0,200,205817,1,2,0:2:0:0:
152,188,205967,1,2,0:2:0:0:
68,40,206117,1,8,0:0:0:0:
76,256,206267,1,8,0:0:0:0:
256,136,206417,6,0,B|356:152|280:256|444:276,1,215.999993408203,4|0,1:2|0:0,0:0:0:0:
196,340,206867,2,0,P|204:284|217:234,1,107.999996704102,10|0,0:2|0:0,0:0:0:0:
296,372,207167,1,0,0:0:0:0:
104,256,207317,1,10,0:2:0:0:
256,136,207467,1,10,0:2:0:0:
88,64,207617,6,0,P|4:148|60:280,1,233.999989288331,4|0,0:0|0:0,0:0:0:0:
360,132,208067,2,0,P|360:60|340:16,1,116.999994644165,8|2,0:2|0:2,0:0:0:0:
128,272,208367,2,0,P|128:344|148:388,1,116.999994644165,2|0,0:2|0:0,0:0:0:0:
392,288,208667,1,8,0:0:0:0:
248,88,208817,6,0,B|160:12|136:104|32:-4,1,233.999989288331,4|0,0:2|0:0,0:0:0:0:
376,12,209267,2,0,L|384:152,1,116.999994644165,8|0,0:0|0:0,0:0:0:0:
80,220,209567,2,0,L|188:132,1,116.999994644165,8|0,0:0|0:0,0:0:0:0:
404,384,209867,2,0,L|276:356,1,116.999994644165,8|8,0:0|0:0,0:0:0:0:
324,200,210167,6,0,B|395:216|395:216|425:261|425:261|512:279,2,215.999993408203,4|8|0,0:0|0:0|0:0,0:0:0:0:
160,328,210917,1,0,0:0:0:0:
344,292,211067,1,8,0:0:0:0:
228,172,211217,2,0,B|204:256|292:276|240:380,1,198.000006042481
56,264,211667,2,0,P|96:216|140:200,1,99.0000030212403,8|0,0:0|0:0,0:0:0:0:
160,384,211967,2,0,P|92:380|60:360,1,99.0000030212403
168,120,212267,1,8,0:0:0:0:
148,296,212417,1,0,0:0:0:0:
328,248,212567,6,0,P|264:168|192:176,1,148.50000453186,4|0,0:0|2:0,0:0:0:0:
188,176,212867,1,8,0:0:0:0:
232,260,213017,1,0,0:0:0:0:
240,84,213167,1,0,0:0:0:0:
96,144,213317,2,0,P|92:196|120:248,1,99.0000030212403,8|0,0:0|0:0,0:0:0:0:
264,100,213617,2,0,B|152:124|200:24|48:44,1,198.000006042481,8|0,0:0|0:0,0:0:0:0:
352,152,214067,2,0,P|364:92|352:48,1,99.0000030212403,8|0,0:0|0:0,0:0:0:0:
188,28,214367,1,2,2:2:0:0:
176,68,214442,1,0,2:2:0:0:
176,112,214517,1,2,2:2:0:0:
188,152,214592,1,0,2:2:0:0:
216,184,214667,1,8,1:2:0:0:
236,224,214742,1,0,2:2:0:0:
240,268,214817,1,0,1:2:0:0:
232,312,214892,1,0,2:2:0:0:
200,340,214967,6,0,P|84:344|56:268,1,198.000006042481,4|0,0:0|0:0,0:0:0:0:
240,268,215417,1,0,0:0:0:0:
240,268,215492,1,0,0:0:0:0:
240,268,215567,2,0,L|340:288,1,99.0000030212403,8|0,0:0|0:0,0:0:0:0:
272,376,215867,1,0,0:0:0:0:
152,276,216017,6,0,B|112:144|192:196|160:64,1,198.000006042481
264,120,216467,2,0,P|328:96|364:100,1,99.0000030212403
392,300,216767,2,0,P|344:256|332:208,1,99.0000030212403,12|0,0:2|0:0,0:0:0:0:
480,88,217067,2,0,P|465:151|432:184,2,99.0000030212403,0|0|4,0:0|0:0|0:0,0:0:0:0:
366,98,217517,6,0,P|290:130|328:260,1,198.000006042481
408,168,217892,1,0,0:0:0:0:
407,167,217967,2,0,P|467:163|504:176,1,99.0000030212403,8|0,0:0|0:0,0:0:0:0:
368,284,218267,1,0,0:0:0:0:
216,176,218417,2,0,P|136:168|40:260,1,198.000006042481
224,376,218867,2,0,P|216:328|212:272,1,99.0000030212403
168,20,219167,2,0,P|152:71|140:116,1,99.0000030212403,8|0,0:0|0:0,0:0:0:0:
352,204,219467,2,0,P|342:150|328:104,1,99.0000030212403
24,216,219767,6,0,P|-16:152|20:16,1,198.000006042481,4|0,0:0|0:0,0:0:0:0:
140,184,220217,1,0,0:0:0:0:
120,304,220367,2,0,B|160:328|160:328|320:300,1,198.000006042481,12|0,0:2|0:0,0:0:0:0:
152,84,220817,1,0,2:0:0:0:
152,84,220892,1,0,2:0:0:0:
152,84,220967,6,0,L|135:192,1,99.0000030212403,4|0,0:0|2:0,0:0:0:0:
326,296,221267,2,0,L|340:188,1,99.0000030212403,0|0,0:0|1:0,0:0:0:0:
192,352,221567,2,0,P|84:342|48:252,1,198.000006042481,12|0,0:2|0:0,0:0:0:0:
232,232,222017,1,0,0:0:0:0:
304,292,222167,6,0,L|416:304,1,99.0000030212403,0|0,0:0|2:0,0:0:0:0:
272,136,222467,2,0,L|152:124,1,99.0000030212403,0|0,0:0|1:0,0:0:0:0:
352,192,222767,1,12,0:2:0:0:
456,136,222917,2,0,P|508:248|472:336,1,198.000006042481
351,191,223367,6,0,B|347:155|347:155|360:80,1,99.0000030212403,0|8,0:0|0:0,0:0:0:0:
280,240,223667,1,0,0:0:0:0:
368,372,223817,1,0,0:0:0:0:
412,252,223967,1,12,0:2:0:0:
272,332,224117,1,0,0:0:0:0:
351,191,224267,2,0,P|352:138|336:80,1,99.0000030212403,8|8,0:2|0:2,0:2:0:0:
158,41,224567,6,0,P|116:139|131:234,1,198.000006042481,4|8,0:0|0:0,0:0:0:0:
264,340,225017,1,0,0:0:0:0:
129,228,225167,1,8,0:0:0:0:
264,232,225317,1,0,0:0:0:0:
112,320,225467,2,0,L|-8:324,1,99.0000030212403,8|0,0:0|0:0,0:0:0:0:
196,152,225767,6,0,L|314:147,1,99.0000030212403,8|0,0:0|0:0,0:0:0:0:
477,310,226067,2,0,L|372:298,1,99.0000030212403,8|0,0:0|0:0,0:0:0:0:
416,60,226367,2,0,P|436:140|424:188,1,99.0000030212403,8|0,0:0|0:0,0:0:0:0:
388,304,226667,1,8,0:0:0:0:
336,140,226817,1,0,0:0:0:0:
512,200,226967,6,0,B|472:228|472:228|384:216|296:236,1,198.000006042481,12|8,0:0|0:0,0:0:0:0:
164,288,227417,1,0,0:0:0:0:
164,288,227492,1,0,0:0:0:0:
164,288,227567,2,0,P|224:304|264:296,1,99.0000030212403,8|0,0:0|0:0,0:0:0:0:
416,112,227867,2,0,P|356:96|304:104,1,99.0000030212403,8|0,0:0|0:0,0:0:0:0:
152,176,228167,6,0,P|204:200|364:176,1,198.000006042481,8|8,0:0|0:0,0:0:0:0:
432,368,228617,1,0,0:0:0:0:
432,368,228692,1,0,0:0:0:0:
432,368,228767,2,0,P|420:316|428:244,1,99.0000030212403,8|0,0:0|0:0,0:0:0:0:
296,0,229067,2,0,P|308:52|296:128,1,99.0000030212403,8|0,0:0|0:0,0:0:0:0:
240,336,229367,5,4,0:2:0:0:
204,156,229517,1,0,0:0:0:0:
312,200,229667,1,12,0:2:0:0:
144,236,229817,1,0,0:0:0:0:
240,352,229967,2,0,L|224:212,1,99.0000030212403,12|0,0:2|0:0,0:0:0:0:
64,168,230267,2,0,L|52:272,1,99.0000030212403,12|0,0:2|0:2,0:2:0:0:
72,68,230567,5,12,0:2:0:0:
144,236,230717,1,0,0:0:0:0:
184,64,230867,2,0,P|232:40|296:52,1,99.0000030212403,12|0,0:2|0:0,0:0:0:0:
64,168,231167,1,12,0:2:0:0:
240,124,231317,1,0,0:0:0:0:
162,329,231467,2,0,P|140:267|152:214,1,99.0000030212403,12|0,0:2|0:0,0:0:0:0:
340,208,231767,5,12,0:2:0:0:
229,269,231917,1,0,0:0:0:0:
359,350,232067,1,12,0:2:0:0:
176,201,232217,1,0,0:0:0:0:
307,279,232367,1,12,0:2:0:0:
161,325,232517,1,0,0:0:0:0:
251,187,232667,1,12,0:2:0:0:
239,359,232817,1,0,0:0:0:0:
115,255,232967,5,12,1:2:0:0:
99,215,233042,1,0,2:2:0:0:
99,171,233117,1,2,2:2:0:0:
119,131,233192,1,0,2:2:0:0:
131,91,233267,1,12,1:2:0:0:
119,51,233342,1,0,2:2:0:0:
87,23,233417,1,2,2:2:0:0:
47,35,233492,1,0,2:2:0:0:
19,67,233567,5,12,1:0:0:0:
63,63,233642,1,0,1:2:0:0:
107,59,233717,1,0,1:2:0:0:
151,55,233792,1,0,1:2:0:0:
195,51,233867,1,12,1:2:0:0:
239,43,233942,1,0,1:2:0:0:
283,39,234017,1,0,1:2:0:0:
327,35,234092,1,0,1:2:0:0:
367,31,234167,6,0,P|419:123|391:199,1,180,4|0,1:1|1:2,1:1:0:0:
232,136,234617,1,2,3:2:0:0:
232,136,234692,1,0,3:2:0:0:
232,136,234767,2,0,L|348:120,1,90,0|2,1:2|3:2,0:0:0:0:
464,292,235067,2,0,L|344:268,1,90,0|2,0:0|3:2,0:0:0:0:
136,264,235367,6,0,L|244:244,1,90,0|2,0:0|3:2,0:0:0:0:
512,216,235667,2,0,L|416:196,1,90,0|2,0:0|3:2,0:0:0:0:
340,60,235967,1,0,0:0:0:0:
416,224,236117,1,2,3:2:0:0:
264,128,236267,1,0,0:0:0:0:
424,112,236417,1,2,3:2:0:0:
320,312,236567,6,0,P|304:272|312:208,1,90,0|2,0:2|3:2,0:0:0:0:
488,56,236867,2,0,P|504:96|496:160,1,90,0|2,1:2|3:2,0:0:0:0:
400,308,237167,1,0,1:2:0:0:
412,120,237317,1,2,3:2:0:0:
412,120,237392,1,0,3:2:0:0:
412,120,237467,1,0,1:2:0:0:
512,228,237617,1,2,3:2:0:0:
331,182,237767,6,0,P|303:147|292:104,1,90,0|2,1:2|3:2,2:0:0:0:
200,304,238067,2,0,P|272:276|312:284,1,90,0|2,1:2|3:2,0:0:0:0:
36,156,238367,2,0,L|248:200,1,180,0|0,1:2|0:0,0:0:0:0:
88,76,238817,1,2,0:2:0:0:
88,76,238892,1,0,0:0:0:0:
88,76,238967,6,0,L|-16:56,1,90,2|0,1:2|0:0,0:0:0:0:
112,264,239267,1,0,1:0:0:0:
212,192,239417,2,0,B|244:140|244:140|236:20,1,180,2|0,1:2|1:0,0:0:0:0:
104,220,239867,2,0,B|100:244|100:244|116:340,1,90,2|0,1:2|0:0,0:0:0:0:
196,180,240167,5,2,1:2:0:0:
68,132,240317,2,0,B|44:144|44:144|0:216,1,90,2|0,1:2|0:0,0:0:0:0:
156,112,240617,1,0,1:0:0:0:
188,32,240767,2,0,P|91:18|20:71,1,180,2|0,1:2|1:0,0:0:0:0:
156,112,241217,1,2,0:0:0:0:
156,112,241292,1,0,0:0:0:0:
156,112,241367,6,0,L|284:128,1,90,0|0,1:0|0:0,0:0:0:0:
344,140,241667,1,0,1:0:0:0:
276,36,241817,2,0,P|236:116|272:220,1,180,2|0,1:2|1:0,0:0:0:0:
484,368,242267,2,0,P|524:288|488:184,1,180,2|0,1:2|1:0,0:0:0:0:
339,279,242717,6,0,L|223:286,1,90,2|0,1:2|0:0,0:0:0:0:
169,123,243017,1,0,1:0:0:0:
169,123,243092,1,0,1:0:0:0:
169,123,243167,2,2,L|283:116,1,90,10|0,0:2|0:0,0:0:0:0:
470,222,243467,2,2,B|409:229|409:229|368:193|368:193|284:199,1,168.75,10|0,0:0|2:0,0:0:0:0:
285,199,243767,5,0,1:0:0:0:
169,123,243917,1,2,3:2:0:0:
281,59,244067,1,0,1:0:0:0:
193,215,244217,1,2,3:2:0:0:
369,167,244367,2,0,B|349:151|349:151|269:147,1,90,0|2,1:0|3:2,0:0:0:0:
192,303,244667,2,0,B|212:319|212:319|292:323,1,90,0|2,1:0|3:2,0:0:0:0:
442,236,244967,5,0,1:0:0:0:
350,376,245117,1,2,3:2:0:0:
498,384,245267,1,0,1:0:0:0:
444,223,245417,1,2,3:2:0:0:
444,223,245492,1,0,3:2:0:0:
444,223,245567,2,0,L|436:335,1,90,0|2,1:2|3:2,0:0:0:0:
248,184,245867,2,0,L|236:32,1,135,0|0,1:0|0:0,0:0:0:0:
237,49,246167,5,0,1:2:0:0:
324,92,246317,1,2,3:2:0:0:
160,192,246467,1,0,1:2:0:0:
160,104,246617,1,2,3:2:0:0:
332,184,246767,1,0,1:2:0:0:
212,288,246917,1,2,3:2:0:0:
360,328,247067,1,0,1:2:0:0:
248,136,247217,1,2,3:2:0:0:
248,136,247292,1,0,3:2:0:0:
248,136,247367,6,0,P|236:208|256:248,1,90,0|2,1:2|3:2,0:0:0:0:
412,240,247667,2,0,P|424:168|404:128,1,90,0|2,1:2|3:2,0:0:0:0:
208,312,247967,2,0,P|164:284|148:240,1,90,0|2,1:2|3:2,0:0:0:0:
356,344,248267,2,0,P|420:348|500:304,1,135,2|2,1:2|0:2,0:0:0:0:
483,319,248567,6,0,P|467:255|471:219,1,90,4|0,1:2|0:0,0:0:0:0:
512,108,248867,1,0,1:0:0:0:
352,192,249017,2,0,P|256:156|212:56,1,180,2|0,1:2|1:0,0:0:0:0:
16,312,249467,2,0,P|108:292|172:232,1,180,2|0,1:2|1:0,0:0:0:0:
352,192,249917,6,0,B|440:240|376:280|492:340,1,180,2|0,1:2|1:0,0:0:0:0:
244,248,250367,2,0,P|220:184|236:136,1,90,4|0,1:2|0:0,0:0:0:0:
424,40,250667,2,0,P|429:84|413:125,1,90,4|0,1:2|0:0,0:0:0:0:
120,124,250967,6,2,P|232:52|280:76,1,180,6|0,1:2|1:0,0:0:0:0:
121,245,251417,2,0,P|37:221|1:125,1,180,2|0,1:2|1:0,0:0:0:0:
222,164,251867,2,2,P|246:247|183:329,1,180,6|0,1:2|1:0,0:0:0:0:
0,310,252317,2,0,P|48:250|168:258,1,180,2|2,1:2|1:2,0:0:0:0:
406,344,252767,5,0,0:0:0:0:
406,344,252842,1,0,0:0:0:0:
406,344,252917,2,0,L|298:324,1,90
282,320,253142,1,0,0:0:0:0:
246,324,253217,1,0,0:0:0:0:
214,336,253292,1,0,0:0:0:0:
190,364,253367,1,4,0:0:0:0:
256,192,253442,12,0,260567,0:0:0:0:
