osu file format v14

[General]
AudioFilename: audio.mp3
AudioLeadIn: 0
PreviewTime: 192151
Countdown: 0
SampleSet: None
StackLeniency: 0.6
Mode: 0
LetterboxInBreaks: 0
WidescreenStoryboard: 1

[Editor]
DistanceSpacing: 6
BeatDivisor: 2
GridSize: 16
TimelineZoom: 0.8999989

[Metadata]
Title:Seimei no Tomoshibi
TitleUnicode:生命の灯火
Artist:Imy
ArtistUnicode:Imy
Creator:apoq
Version:AR10
Source:
Tags:imy lights of life aitsuki nakuru seimei no tomoshibi
BeatmapID:1587897
BeatmapSetID:749833

[Difficulty]
HPDrainRate:4
CircleSize:4
OverallDifficulty:9
ApproachRate:10
SliderMultiplier:1.2
SliderTickRate:1

[Events]
//Background and Video events
0,0,"67882000_p0.jpg",0,0
//Break Periods
2,22250,30567
2,178784,191408
//Storyboard Layer 0 (Background)
//Storyboard Layer 1 (Fail)
//Storyboard Layer 2 (Pass)
//Storyboard Layer 3 (Foreground)
//Storyboard Sound Samples

[TimingPoints]
270,297.029702970297,4,1,0,100,1,0
1458,-71.4285714285714,4,1,0,100,0,0
2497,-71.4285714285714,4,1,0,100,0,0
10963,-100,4,1,0,100,0,0
12002,-55.5555555555556,4,1,0,100,0,0
21656,-125,4,1,0,100,0,0
31161,-83.3333333333333,4,1,0,100,0,0
40666,-71.4285714285714,4,1,0,100,0,0
50170,-62.5,4,1,0,100,0,0
59527,-50,4,1,0,100,0,1
68141,-50,4,1,0,5,0,1
68289,-50,4,1,0,100,0,1
73413,-50,4,1,0,5,0,1
73562,-50,4,1,0,100,0,1
73636,-50,4,1,0,5,0,1
73784,-50,4,1,0,100,0,1
87002,-100,4,1,0,100,0,1
88042,-55.5555555555556,4,1,0,100,0,0
97695,-71.4285714285714,4,1,0,100,0,0
109279,-125,4,1,0,100,0,0
109428,-125,4,1,0,5,0,0
109576,-71.4285714285714,4,1,0,100,0,0
116705,-125,4,1,0,100,0,0
118042,-125,4,1,0,5,0,0
118784,-125,4,1,0,100,0,0
124873,-125,4,1,0,5,0,0
125913,-125,4,1,0,100,0,0
127398,-100,4,1,0,100,0,0
128586,-83.3333333333333,4,1,0,100,0,0
129774,-71.4285714285714,4,1,0,100,0,0
133339,-83.3333333333333,4,1,0,100,0,0
134378,-62.5,4,1,0,100,0,0
135567,-50,4,1,0,100,0,1
144180,-50,4,1,0,5,0,1
144329,-50,4,1,0,100,0,1
149453,-50,4,1,0,5,0,1
149601,-50,4,1,0,100,0,1
149675,-50,4,1,0,5,0,1
149824,-50,4,1,0,100,0,1
159329,-50,4,1,0,100,0,0
178339,-125,4,1,0,100,0,0
192448,-125,4,1,0,5,0,0
192596,-83.3333333333333,4,1,0,100,0,0
193784,-62.5,4,1,0,100,0,0
194972,-50,4,1,0,100,0,1
201210,-50,4,1,0,5,0,1
201359,-50,4,1,0,100,0,1
206482,-50,4,1,0,5,0,1
206631,-50,4,1,0,100,0,1
206705,-50,4,1,0,5,0,1
206854,-50,4,1,0,100,0,1
207596,-50,4,1,0,5,0,1
207745,-50,4,1,0,100,0,1
208190,-50,4,1,0,5,0,1
208339,-50,4,1,0,100,0,1
218883,-50,4,1,0,5,0,1
219032,-50,4,1,0,100,0,1
225864,-50,4,1,0,100,0,0
235517,-125,4,1,0,100,0,0

[HitObjects]
256,192,270,12,0,1458,0:0:0:0:
334,193,1903,5,0,0:0:0:0:
370,193,1977,1,0,0:0:0:0:
406,193,2052,1,0,0:0:0:0:
64,197,2200,1,0,0:0:0:0:
64,197,2497,6,0,P|145:223|186:299,1,167.999994873047
359,106,2943,2,0,L|454:97,1,83.9999974365235
251,186,3240,2,0,L|346:194,1,83.9999974365235
173,57,3537,2,0,L|268:48,1,83.9999974365235
185,291,3834,1,0,0:0:0:0:
185,291,3982,2,0,P|137:275|89:291,1,83.9999974365235
251,186,4279,1,0,0:0:0:0:
409,366,4428,5,0,0:0:0:0:
359,106,4576,1,0,0:0:0:0:
185,291,4725,1,0,0:0:0:0:
256,49,4873,2,0,B|192:55|139:12|139:12|128:62,1,167.999994873047
185,291,5319,6,0,P|121:307|57:291,1,83.9999974365235
272,306,5616,2,0,P|233:359|173:388,1,83.9999974365235
348,260,5913,2,0,P|352:325|325:386,1,83.9999974365235
430,103,6210,5,0,0:0:0:0:
150,164,6359,1,0,0:0:0:0:
348,260,6507,1,0,0:0:0:0:
66,171,6656,2,0,P|146:163|226:171,1,83.9999974365235
350,180,6953,2,0,P|427:199|500:234,1,83.9999974365235
312,81,7250,1,0,0:0:0:0:
214,312,7398,5,0,0:0:0:0:
350,180,7547,1,0,0:0:0:0:
119,79,7695,2,0,L|110:174,1,83.9999974365235
214,312,7992,2,0,L|222:216,1,83.9999974365235
376,29,8289,1,0,0:0:0:0:
376,29,8438,2,0,P|423:47|449:90,1,83.9999974365235
414,204,8735,1,0,0:0:0:0:
263,136,8883,2,0,B|223:128|223:128|175:136,1,83.9999974365235
443,72,9180,5,0,0:0:0:0:
263,136,9329,1,0,0:0:0:0:
425,304,9477,1,0,0:0:0:0:
383,54,9626,2,0,B|319:59|319:59|288:78|288:78|209:85,1,167.999994873047
200,86,9997,1,0,0:0:0:0:
179,88,10071,6,0,L|115:93,1,41.9999987182618
316,205,10220,1,0,0:0:0:0:
337,208,10294,1,0,0:0:0:0:
356,212,10369,6,0,L|403:220,1,41.9999987182618
188,205,10517,1,0,0:0:0:0:
169,210,10591,1,0,0:0:0:0:
149,216,10666,6,0,L|102:228,1,41.9999987182618
341,321,10814,2,0,L|386:337,1,41.9999987182618
70,151,10963,5,0,0:0:0:0:
363,94,11111,1,0,0:0:0:0:
479,230,11557,5,0,0:0:0:0:
186,173,11705,1,0,0:0:0:0:
70,309,12002,6,0,B|116:288|165:300|165:300|180:291|180:291|230:303|293:289,1,215.999993408203
386,78,12448,1,0,0:0:0:0:
186,173,12596,1,0,0:0:0:0:
428,316,12745,1,0,0:0:0:0:
262,63,12893,1,0,0:0:0:0:
83,220,13042,1,0,0:0:0:0:
323,189,13190,6,0,B|331:173|355:157|355:157|275:157|243:173|179:173,1,215.999993408203
386,78,13636,1,0,0:0:0:0:
266,307,13784,1,0,0:0:0:0:
386,68,13933,1,0,0:0:0:0:
185,172,14081,1,0,0:0:0:0:
386,58,14230,1,0,0:0:0:0:
266,307,14378,6,0,P|137:306|99:211,1,215.999993408203
276,50,14824,1,0,0:0:0:0:
435,253,14972,1,0,0:0:0:0:
199,233,15121,1,0,0:0:0:0:
386,58,15269,1,0,0:0:0:0:
266,307,15418,1,0,0:0:0:0:
196,20,15567,6,0,B|184:69|205:123|205:123|194:180|194:180|199:244,1,215.999993408203
72,58,16012,1,0,0:0:0:0:
288,62,16161,1,0,0:0:0:0:
24,155,16309,1,0,0:0:0:0:
266,307,16458,1,0,0:0:0:0:
72,58,16606,1,0,0:0:0:0:
93,97,16680,1,0,0:0:0:0:
128,124,16754,1,0,0:0:0:0:
171,135,16828,1,0,0:0:0:0:
215,127,16903,6,0,P|286:131|325:191,1,107.999996704102
266,307,17200,1,0,0:0:0:0:
385,126,17349,1,0,0:0:0:0:
138,212,17497,2,0,P|233:203|327:178,1,107.999996704102
395,126,17794,1,0,0:0:0:0:
143,53,17943,6,0,P|79:133|142:213,1,215.999993408203
311,153,18388,1,0,0:0:0:0:
175,322,18537,1,0,0:0:0:0:
160,133,18685,2,0,B|216:130|216:130|287:146,1,107.999996704102
443,256,18982,2,0,P|347:264|253:289,1,107.999996704102
98,351,19279,5,0,0:0:0:0:
391,180,19428,1,0,0:0:0:0:
56,96,19576,1,0,0:0:0:0:
335,266,19725,1,0,0:0:0:0:
42,11,19873,1,0,0:0:0:0:
397,78,20022,1,0,0:0:0:0:
70,181,20170,1,0,0:0:0:0:
391,180,20319,1,0,0:0:0:0:
98,351,20468,5,0,0:0:0:0:
304,38,20616,1,0,0:0:0:0:
304,38,20690,1,0,0:0:0:0:
304,38,20765,2,0,L|313:149,1,107.999996704102
155,259,21062,2,0,L|75:265,2,71.9999978027344
391,180,21359,2,0,L|470:186,2,71.9999978027344
137,127,21656,5,0,0:0:0:0:
392,221,31161,6,0,P|384:285|392:349,1,71.9999978027344
289,183,31458,1,0,0:0:0:0:
289,183,31606,2,0,L|193:191,1,71.9999978027344
323,90,31903,2,0,P|366:116|384:163,1,71.9999978027344
158,220,32200,6,0,P|206:188|254:220,1,71.9999978027344
298,308,32497,1,0,0:0:0:0:
323,90,32646,2,0,L|227:98,1,71.9999978027344
86,213,32943,2,0,P|150:217|211:237,1,71.9999978027344
323,336,33240,2,0,P|273:347|227:327,1,71.9999978027344
86,213,33537,6,0,P|116:124|208:110,2,143.999995605469
178,198,34279,1,0,0:0:0:0:
377,133,34428,2,0,L|385:37,1,71.9999978027344
284,166,34725,1,0,0:0:0:0:
284,166,34873,1,0,0:0:0:0:
460,291,35022,6,0,L|468:195,1,71.9999978027344
383,61,35319,1,0,0:0:0:0:
301,261,35468,1,0,0:0:0:0:
472,130,35616,1,0,0:0:0:0:
460,291,35765,1,0,0:0:0:0:
284,166,35913,6,0,P|233:164|193:133,1,71.9999978027344
117,48,36210,1,0,0:0:0:0:
117,48,36359,2,0,L|108:143,1,71.9999978027344
106,264,36656,1,0,0:0:0:0:
284,166,36804,6,0,P|288:102|308:41,1,71.9999978027344
179,188,37101,1,0,0:0:0:0:
179,188,37250,1,0,0:0:0:0:
371,285,37398,2,0,L|467:293,1,71.9999978027344
362,170,37695,1,0,0:0:0:0:
291,296,37844,1,0,0:0:0:0:
439,143,37992,2,0,P|407:102|359:88,1,71.9999978027344
173,77,38289,6,0,P|192:125|180:173,1,71.9999978027344
4,206,38586,2,0,P|35:164|83:150,1,71.9999978027344
319,79,38883,6,0,P|287:38|239:24,1,71.9999978027344
123,161,39180,2,0,P|174:153|210:119,1,71.9999978027344
346,289,39477,6,0,P|294:281|258:247,1,71.9999978027344
319,79,39774,2,0,P|338:127|326:175,1,71.9999978027344
187,302,40071,5,0,0:0:0:0:
173,77,40220,1,0,0:0:0:0:
278,271,40369,1,0,0:0:0:0:
319,79,40517,1,0,0:0:0:0:
101,207,40666,5,0,0:0:0:0:
256,144,40814,1,0,0:0:0:0:
187,302,40963,1,0,0:0:0:0:
342,239,41111,1,0,0:0:0:0:
101,207,41260,5,0,0:0:0:0:
101,207,41557,1,0,0:0:0:0:
284,35,41705,1,0,0:0:0:0:
284,35,42002,1,0,0:0:0:0:
284,35,42299,5,0,0:0:0:0:
394,161,42448,1,0,0:0:0:0:
222,227,42596,1,0,0:0:0:0:
395,291,42745,1,0,0:0:0:0:
289,120,42893,1,0,0:0:0:0:
395,291,43042,5,0,0:0:0:0:
187,302,43190,1,0,0:0:0:0:
190,99,43339,1,0,0:0:0:0:
285,275,43487,1,0,0:0:0:0:
106,180,43636,5,0,0:0:0:0:
106,180,43933,1,0,0:0:0:0:
373,200,44081,1,0,0:0:0:0:
373,200,44378,1,0,0:0:0:0:
373,200,44675,5,0,0:0:0:0:
373,200,44750,1,0,0:0:0:0:
373,200,44824,1,0,0:0:0:0:
187,302,44972,1,0,0:0:0:0:
258,77,45121,1,0,0:0:0:0:
308,272,45270,1,0,0:0:0:0:
258,77,45418,5,0,0:0:0:0:
99,227,45567,1,0,0:0:0:0:
311,178,45715,1,0,0:0:0:0:
111,87,45864,1,0,0:0:0:0:
253,313,46012,1,0,0:0:0:0:
348,97,46161,1,0,0:0:0:0:
99,227,46309,1,0,0:0:0:0:
385,228,46458,5,0,0:0:0:0:
385,228,46755,1,0,0:0:0:0:
385,228,47052,1,0,0:0:0:0:
385,228,47126,1,0,0:0:0:0:
385,228,47200,1,0,0:0:0:0:
243,18,47349,1,0,0:0:0:0:
187,263,47497,1,0,0:0:0:0:
367,86,47646,5,0,0:0:0:0:
367,86,47943,1,0,0:0:0:0:
367,86,48240,1,0,0:0:0:0:
107,150,48388,1,0,0:0:0:0:
385,228,48537,1,0,0:0:0:0:
155,89,48685,1,0,0:0:0:0:
241,344,48834,5,0,0:0:0:0:
241,344,49131,1,0,0:0:0:0:
241,344,49428,1,0,0:0:0:0:
367,86,49576,1,0,0:0:0:0:
107,150,49725,2,0,L|170:155,1,41.9999987182618
399,174,49873,1,0,0:0:0:0:
133,320,50022,1,0,0:0:0:0:
288,12,50170,6,0,B|287:60|287:60|271:106,1,96
133,320,50468,2,0,L|142:208,1,96
329,184,50765,2,0,L|319:295,1,96
271,105,51062,1,0,0:0:0:0:
435,6,51210,6,0,P|468:93|407:163,1,192
218,169,51656,1,0,0:0:0:0:
380,80,51804,1,0,0:0:0:0:
320,279,51953,1,0,0:0:0:0:
380,80,52101,2,0,P|332:64|284:80,1,96
122,162,52398,2,0,P|186:170|250:162,1,96
380,80,52695,5,0,0:0:0:0:
211,314,52844,2,0,L|99:304,1,96
26,153,53141,2,0,L|137:162,1,96
299,235,53438,1,0,0:0:0:0:
121,161,53586,6,0,B|90:142|90:142|218:153|218:153|251:140,1,192
395,317,54032,1,0,0:0:0:0:
344,93,54180,1,0,0:0:0:0:
109,261,54329,1,0,0:0:0:0:
336,227,54477,1,0,0:0:0:0:
336,227,54552,1,0,0:0:0:0:
336,227,54626,1,0,0:0:0:0:
116,41,54774,1,0,0:0:0:0:
188,320,54923,6,0,P|259:315|298:256,1,96
344,93,55220,2,0,L|232:83,1,96
30,207,55517,1,0,0:0:0:0:
276,302,55666,1,0,0:0:0:0:
136,95,55814,1,0,0:0:0:0:
418,32,55963,6,0,P|434:128|418:224,1,192
184,301,56408,1,0,0:0:0:0:
312,63,56557,1,0,0:0:0:0:
120,259,56705,1,0,0:0:0:0:
373,102,56854,1,0,0:0:0:0:
82,184,57002,1,0,0:0:0:0:
409,174,57151,1,0,0:0:0:0:
97,53,57299,5,0,0:0:0:0:
336,290,57448,1,0,0:0:0:0:
240,290,57745,1,0,0:0:0:0:
144,290,58042,1,0,0:0:0:0:
48,290,58339,6,0,P|72:185|171:142,1,192
164,143,58710,1,0,0:0:0:0:
187,143,58784,2,0,L|234:147,1,48
465,323,58933,2,0,L|417:318,1,48
172,268,59081,1,0,0:0:0:0:
499,65,59230,1,0,0:0:0:0:
499,65,59527,6,0,B|355:113|419:17|259:65,1,240
115,247,59972,2,0,P|86:306|32:345,1,120
222,177,60269,2,0,P|238:241|222:305,1,120
258,54,60567,2,0,P|311:92|340:152,1,120
115,247,60864,5,0,0:0:0:0:
178,16,61012,1,0,0:0:0:0:
336,139,61161,2,0,L|348:282,1,120
156,110,61458,1,0,0:0:0:0:
451,62,61606,1,0,0:0:0:0:
358,348,61755,1,0,0:0:0:0:
239,59,61903,6,0,P|93:34|91:182,1,240
277,196,62349,2,0,L|420:208,1,120
186,324,62646,2,0,L|43:336,1,120
156,110,62943,1,0,0:0:0:0:
424,321,63091,6,0,B|304:337|304:337|168:321,1,240
156,110,63537,1,0,0:0:0:0:
376,202,63685,2,0,L|296:213,1,60
77,248,63834,1,0,0:0:0:0:
278,11,63982,1,0,0:0:0:0:
185,323,64131,1,0,0:0:0:0:
420,94,64279,6,0,P|409:158|368:210,1,120
185,323,64576,1,0,0:0:0:0:
306,114,64725,1,0,0:0:0:0:
377,342,64873,1,0,0:0:0:0:
306,114,65022,2,0,B|271:103|271:103|161:123,1,120
9,279,65319,1,0,0:0:0:0:
280,179,65468,6,0,B|185:195|185:195|151:185|151:185|40:204,1,240
216,37,65913,1,0,0:0:0:0:
147,284,66062,1,0,0:0:0:0:
147,284,66136,1,0,0:0:0:0:
147,284,66210,1,0,0:0:0:0:
98,48,66359,1,0,0:0:0:0:
399,123,66507,1,0,0:0:0:0:
44,204,66656,1,0,0:0:0:0:
384,317,66804,5,0,0:0:0:0:
428,315,66878,1,0,0:0:0:0:
469,297,66952,1,0,0:0:0:0:
494,261,67026,1,0,0:0:0:0:
499,216,67101,1,0,0:0:0:0:
484,174,67175,1,0,0:0:0:0:
449,147,67249,5,0,0:0:0:0:
422,182,67323,1,0,0:0:0:0:
385,206,67398,1,0,0:0:0:0:
341,214,67472,1,0,0:0:0:0:
297,204,67546,1,0,0:0:0:0:
261,177,67620,1,0,0:0:0:0:
238,139,67695,2,0,L|243:75,1,60
100,272,67844,2,0,L|94:335,1,60
344,121,67992,6,0,P|360:217|344:313,1,180
339,327,68289,1,0,0:0:0:0:
54,197,68438,1,0,0:0:0:0:
312,24,68586,1,0,0:0:0:0:
217,322,68735,1,0,0:0:0:0:
217,322,68809,1,0,0:0:0:0:
217,322,68883,1,0,0:0:0:0:
217,322,68958,1,0,0:0:0:0:
217,322,69032,6,0,P|89:247|182:132,1,240
312,24,69477,2,0,L|455:34,1,120
208,122,69774,2,0,L|351:111,1,120
186,229,70071,1,0,0:0:0:0:
431,32,70220,5,0,0:0:0:0:
393,245,70369,1,0,0:0:0:0:
242,11,70517,2,0,P|235:76|198:131,1,120
393,245,70814,2,0,P|329:213|265:245,1,120
431,32,71111,2,0,P|417:88|463:122,1,120
186,229,71408,5,0,0:0:0:0:
186,229,71854,6,0,L|43:239,1,120
207,121,72151,2,0,B|271:113|271:113|335:121,1,120
452,327,72448,1,0,0:0:0:0:
186,229,72596,6,0,B|155:210|155:210|362:228,1,240
138,325,73042,1,0,0:0:0:0:
350,108,73190,1,0,0:0:0:0:
350,108,73265,1,0,0:0:0:0:
350,108,73339,2,0,L|360:251,1,120
274,262,73562,2,0,L|264:119,1,120
180,176,73784,1,0,0:0:0:0:
180,176,73933,5,0,0:0:0:0:
358,227,74081,1,0,0:0:0:0:
185,58,74230,1,0,0:0:0:0:
228,341,74378,1,0,0:0:0:0:
228,341,74675,5,0,0:0:0:0:
307,63,74824,1,0,0:0:0:0:
400,359,74972,1,0,0:0:0:0:
400,359,75270,5,0,0:0:0:0:
265,142,75418,1,0,0:0:0:0:
63,349,75567,2,0,B|79:341|79:341|95:349|95:349|111:341|111:341|159:349|159:349|231:333|303:357,1,240
445,168,76012,1,0,0:0:0:0:
162,32,76161,6,0,P|67:146|194:222,1,240
445,168,76606,1,0,0:0:0:0:
164,129,76755,1,0,0:0:0:0:
380,317,76903,1,0,0:0:0:0:
164,129,77052,1,0,0:0:0:0:
458,30,77200,1,0,0:0:0:0:
277,285,77349,6,0,P|149:301|21:285,1,240
162,32,77794,1,0,0:0:0:0:
347,185,77943,2,0,L|267:191,1,60
1,103,78091,1,0,0:0:0:0:
305,29,78240,1,0,0:0:0:0:
162,332,78388,1,0,0:0:0:0:
162,32,78537,6,0,B|190:53|190:53|395:89,1,240
182,247,78982,1,0,0:0:0:0:
305,29,79131,1,0,0:0:0:0:
375,282,79279,1,0,0:0:0:0:
153,137,79428,1,0,0:0:0:0:
439,16,79576,1,0,0:0:0:0:
375,282,79725,6,0,B|311:266|247:282|247:282|119:266,1,240
370,145,80170,1,0,0:0:0:0:
194,309,80319,1,0,0:0:0:0:
89,39,80468,1,0,0:0:0:0:
194,319,80616,1,0,0:0:0:0:
323,60,80765,1,0,0:0:0:0:
39,187,80913,1,0,0:0:0:0:
39,187,81062,6,0,L|278:207,1,240
442,49,81507,2,0,L|314:60,1,120
86,108,81804,2,0,L|213:119,1,120
386,271,82101,2,0,B|394:207|394:207|386:143,1,120
186,22,82398,1,0,0:0:0:0:
100,323,82547,5,0,0:0:0:0:
388,152,82695,1,0,0:0:0:0:
388,152,82770,1,0,0:0:0:0:
388,152,82844,1,0,0:0:0:0:
64,67,82992,1,0,0:0:0:0:
327,314,83141,1,0,0:0:0:0:
304,27,83289,6,0,P|289:147|191:220,1,240
470,325,83735,1,0,0:0:0:0:
397,22,83883,1,0,0:0:0:0:
327,314,84032,1,0,0:0:0:0:
157,70,84180,1,0,0:0:0:0:
157,70,84477,5,0,0:0:0:0:
470,192,84626,1,0,0:0:0:0:
154,304,84774,1,0,0:0:0:0:
397,22,84923,1,0,0:0:0:0:
405,50,84997,1,0,0:0:0:0:
408,80,85071,1,0,0:0:0:0:
403,109,85145,1,0,0:0:0:0:
392,137,85220,5,0,0:0:0:0:
154,304,85369,1,0,0:0:0:0:
51,10,85517,1,0,0:0:0:0:
329,200,85666,1,0,0:0:0:0:
329,200,85963,5,0,0:0:0:0:
2,272,86111,1,0,0:0:0:0:
361,308,86260,1,0,0:0:0:0:
49,85,86408,1,0,0:0:0:0:
388,194,86557,2,0,L|308:200,1,60
39,85,86705,1,0,0:0:0:0:
446,47,86854,1,0,0:0:0:0:
112,331,87002,5,0,0:0:0:0:
175,36,87151,1,0,0:0:0:0:
317,15,87596,5,0,0:0:0:0:
254,310,87745,1,0,0:0:0:0:
396,331,88042,6,0,B|406:265|386:219|386:219|395:138|373:75,1,215.999993408203
174,67,88487,1,0,0:0:0:0:
278,256,88636,1,0,0:0:0:0:
330,47,88784,1,0,0:0:0:0:
96,93,88933,1,0,0:0:0:0:
278,266,89081,1,0,0:0:0:0:
96,83,89230,6,0,P|208:19|288:82,1,215.999993408203
201,282,89675,1,0,0:0:0:0:
192,116,89824,1,0,0:0:0:0:
201,292,89972,1,0,0:0:0:0:
424,159,90121,1,0,0:0:0:0:
182,116,90270,1,0,0:0:0:0:
371,284,90418,6,0,B|339:300|339:300|259:300|195:332|195:332|211:236,1,215.999993408203
280,76,90864,1,0,0:0:0:0:
465,223,91012,1,0,0:0:0:0:
183,210,91161,1,0,0:0:0:0:
414,17,91309,1,0,0:0:0:0:
371,284,91458,1,0,0:0:0:0:
186,67,91606,6,0,B|170:35|170:35|154:99|154:99|186:179|186:259,1,215.999993408203
371,284,92052,1,0,0:0:0:0:
286,39,92200,1,0,0:0:0:0:
201,284,92349,1,0,0:0:0:0:
402,122,92497,1,0,0:0:0:0:
170,122,92646,2,0,L|106:127,1,53.9999983520508
374,200,92794,2,0,L|437:205,1,53.9999983520508
118,310,92943,5,0,0:0:0:0:
310,107,93091,1,0,0:0:0:0:
308,323,93240,1,0,0:0:0:0:
72,217,93388,1,0,0:0:0:0:
320,107,93537,1,0,0:0:0:0:
48,40,93685,1,0,0:0:0:0:
118,310,93834,1,0,0:0:0:0:
48,30,93982,6,0,P|160:14|272:30,1,215.999993408203
426,227,94428,1,0,0:0:0:0:
146,210,94576,1,0,0:0:0:0:
387,25,94725,1,0,0:0:0:0:
278,329,94873,1,0,0:0:0:0:
65,112,95022,1,0,0:0:0:0:
426,227,95170,1,0,0:0:0:0:
142,315,95319,5,0,0:0:0:0:
135,262,95393,1,0,0:0:0:0:
146,210,95468,2,0,L|225:203,1,53.9999983520508
426,180,95616,5,0,0:0:0:0:
471,152,95690,1,0,0:0:0:0:
490,103,95764,1,0,0:0:0:0:
474,52,95838,1,0,0:0:0:0:
433,18,95913,1,0,0:0:0:0:
380,11,95987,1,0,0:0:0:0:
333,35,96061,1,0,0:0:0:0:
307,81,96135,1,0,0:0:0:0:
302,135,96210,5,0,0:0:0:0:
313,188,96284,5,0,0:0:0:0:
333,238,96359,6,0,P|316:293|259:299,1,107.999996704102
49,170,96656,5,0,0:0:0:0:
392,99,96804,1,0,0:0:0:0:
25,60,96953,1,0,0:0:0:0:
426,180,97101,1,0,0:0:0:0:
73,280,97250,1,0,0:0:0:0:
392,99,97398,1,0,0:0:0:0:
392,99,97472,1,0,0:0:0:0:
392,99,97547,1,0,0:0:0:0:
392,99,97621,1,0,0:0:0:0:
392,99,97695,6,0,L|383:194,1,83.9999974365235
216,187,97992,1,0,0:0:0:0:
216,187,98141,2,0,P|264:171|312:187,1,83.9999974365235
273,344,98438,2,0,L|264:248,1,83.9999974365235
43,139,98735,6,0,B|42:179|42:179|59:233,1,83.9999974365235
216,183,99032,1,0,0:0:0:0:
382,19,99180,2,0,P|398:67|381:114,1,83.9999974365235
171,199,99477,2,0,B|155:183|155:183|251:183,1,83.9999974365235
454,267,99774,2,0,L|358:258,1,83.9999974365235
307,70,100071,6,0,P|225:115|227:208,2,167.999994873047
308,165,100814,1,0,0:0:0:0:
108,39,100963,2,0,L|12:30,1,83.9999974365235
132,160,101260,1,0,0:0:0:0:
132,160,101408,1,0,0:0:0:0:
307,70,101557,6,0,L|402:61,1,83.9999974365235
216,182,101854,1,0,0:0:0:0:
429,279,102002,1,0,0:0:0:0:
429,279,102076,1,0,0:0:0:0:
429,279,102151,1,0,0:0:0:0:
307,70,102299,1,0,0:0:0:0:
307,70,102448,6,0,B|307:110|307:110|290:164,1,83.9999974365235
161,326,102745,2,0,L|65:317,1,83.9999974365235
127,157,103042,1,0,0:0:0:0:
252,267,103190,1,0,0:0:0:0:
179,60,103339,2,0,L|83:68,1,83.9999974365235
145,229,103636,5,0,0:0:0:0:
270,119,103784,1,0,0:0:0:0:
379,326,103933,2,0,L|474:317,1,83.9999974365235
413,157,104230,1,0,0:0:0:0:
288,267,104378,1,0,0:0:0:0:
361,60,104527,2,0,L|456:68,1,83.9999974365235
203,143,104824,6,0,L|123:136,2,41.9999987182618
28,128,105121,1,0,0:0:0:0:
259,229,105270,6,0,L|338:222,2,41.9999987182618
434,214,105567,1,0,0:0:0:0:
203,315,105715,6,0,L|123:308,2,41.9999987182618
28,300,106012,1,0,0:0:0:0:
203,143,106161,5,0,0:0:0:0:
203,143,106235,1,0,0:0:0:0:
203,143,106309,1,0,0:0:0:0:
203,315,106458,1,0,0:0:0:0:
111,81,106606,1,0,0:0:0:0:
28,300,106755,1,0,0:0:0:0:
205,35,106903,2,0,P|254:45|288:83,1,83.9999974365235
203,315,107200,5,0,0:0:0:0:
203,315,107274,1,0,0:0:0:0:
203,315,107349,1,0,0:0:0:0:
377,256,107497,1,0,0:0:0:0:
196,136,107646,1,0,0:0:0:0:
286,334,107794,1,0,0:0:0:0:
413,135,107943,1,0,0:0:0:0:
175,52,108091,1,0,0:0:0:0:
377,256,108240,1,0,0:0:0:0:
377,256,109131,5,0,0:0:0:0:
377,256,109205,1,0,0:0:0:0:
377,256,109279,2,0,B|365:250|365:250|345:253|345:253|325:247|285:245,1,72
285,244,109576,6,0,P|240:162|147:164,2,167.999994873047
190,245,110319,1,0,0:0:0:0:
353,74,110468,2,0,L|464:83,1,83.9999974365235
257,65,110765,1,0,0:0:0:0:
190,245,110913,1,0,0:0:0:0:
429,163,111062,6,0,L|317:153,1,83.9999974365235
92,165,111359,1,0,0:0:0:0:
279,274,111507,1,0,0:0:0:0:
255,56,111656,1,0,0:0:0:0:
114,263,111804,1,0,0:0:0:0:
176,37,111953,6,0,P|226:38|266:69,1,83.9999974365235
195,247,112250,1,0,0:0:0:0:
195,247,112398,2,0,P|115:263|35:247,1,83.9999974365235
198,117,112695,1,0,0:0:0:0:
388,256,112844,6,0,P|337:257|297:288,1,83.9999974365235
198,117,113141,1,0,0:0:0:0:
358,163,113289,1,0,0:0:0:0:
136,245,113438,2,0,L|24:235,1,83.9999974365235
198,117,113735,1,0,0:0:0:0:
210,317,113883,1,0,0:0:0:0:
181,323,113957,1,0,0:0:0:0:
150,324,114032,2,0,L|38:314,1,83.9999974365235
198,117,114329,5,0,0:0:0:0:
336,305,114477,1,0,0:0:0:0:
198,107,114626,1,0,0:0:0:0:
150,324,114774,2,0,L|154:276,1,41.9999987182618
198,97,114923,1,0,0:0:0:0:
396,221,115071,1,0,0:0:0:0:
145,190,115220,1,0,0:0:0:0:
381,60,115369,1,0,0:0:0:0:
204,261,115517,6,0,P|157:281|108:271,2,55.9999982910157
109,122,115814,2,0,P|60:108|29:68,2,55.9999982910157
297,52,116111,2,0,L|408:61,1,83.9999974365235
405,140,116334,2,0,L|293:130,1,83.9999974365235
345,212,116557,1,0,0:0:0:0:
345,212,116705,6,0,B|243:273|243:273|196:207|109:246|109:246|214:140|141:79|96:113,1,480
95,113,118784,5,0,0:0:0:0:
276,51,119081,6,0,P|323:94|358:149,1,96
169,205,119527,2,0,P|233:189|297:205,1,96
321,314,119972,2,0,P|322:263|353:223,1,96
116,323,120567,5,0,0:0:0:0:
190,146,120864,1,0,0:0:0:0:
376,101,121161,1,0,0:0:0:0:
211,331,121458,6,0,L|99:321,1,96
285,235,121903,2,0,L|173:225,1,96
359,139,122349,2,0,L|247:129,1,96
401,338,122943,5,0,0:0:0:0:
224,264,123240,1,0,0:0:0:0:
179,78,123537,1,0,0:0:0:0:
179,78,123685,1,0,0:0:0:0:
179,78,123834,6,0,B|321:74|245:209|409:224|417:118|417:118|373:97|350:55,1,384
362,73,125913,5,0,0:0:0:0:
178,128,126210,6,0,P|192:166|191:206,1,48
201,268,126507,1,0,0:0:0:0:
347,143,126656,2,0,P|350:200|298:226,1,96
193,172,127101,2,0,P|178:133|179:93,1,48
302,332,127398,6,0,L|426:321,1,120
279,257,127844,2,0,L|155:246,1,120
302,182,128289,2,0,L|381:175,1,60
125,28,128586,6,0,L|138:187,1,143.999995605469
280,293,129032,2,0,L|266:133,1,143.999995605469
409,28,129477,2,0,L|417:123,1,71.9999978027344
148,305,129774,6,0,P|97:303|57:272,2,83.9999974365235
383,213,130220,2,0,L|271:203,1,83.9999974365235
62,117,130517,2,0,L|173:107,1,83.9999974365235
429,72,130814,5,0,0:0:0:0:
383,213,130963,1,0,0:0:0:0:
288,75,131111,1,0,0:0:0:0:
459,145,131260,1,0,0:0:0:0:
329,298,131408,1,0,0:0:0:0:
359,81,131557,1,0,0:0:0:0:
485,297,131705,1,0,0:0:0:0:
216,197,131854,1,0,0:0:0:0:
511,72,132002,6,0,B|471:64|471:64|423:72,1,83.9999974365235
216,197,132299,1,0,0:0:0:0:
451,193,132448,1,0,0:0:0:0:
212,37,132596,1,0,0:0:0:0:
149,316,132745,1,0,0:0:0:0:
342,84,132893,1,0,0:0:0:0:
45,148,133042,2,0,P|73:207|127:246,1,83.9999974365235
451,193,133339,5,0,0:0:0:0:
451,193,134378,2,0,B|419:209|419:209|387:193|387:193|323:209|259:193,1,192
244,188,134750,1,0,0:0:0:0:
222,178,134824,2,0,L|218:131,1,48
462,279,134972,2,0,L|466:326,1,48
369,52,135121,1,0,0:0:0:0:
325,44,135195,1,0,0:0:0:0:
280,46,135269,1,0,0:0:0:0:
14,324,135418,1,0,0:0:0:0:
14,324,135567,6,0,B|60:303|109:315|109:315|171:294|171:294|221:305|267:285,1,240
373,61,136012,2,0,P|309:29|245:61,1,120
337,316,136309,2,0,P|396:276|401:205,1,120
134,157,136606,2,0,P|138:228|197:267,1,120
408,142,136903,5,0,0:0:0:0:
155,60,137052,1,0,0:0:0:0:
246,306,137200,2,0,L|389:318,1,120
134,157,137497,1,0,0:0:0:0:
398,40,137646,1,0,0:0:0:0:
365,316,137794,1,0,0:0:0:0:
104,65,137943,6,0,B|90:98|90:98|108:305,1,240
367,178,138388,2,0,P|338:118|284:79,1,120
224,291,138685,2,0,P|160:307|80:291,1,120
34,46,138982,1,0,0:0:0:0:
367,178,139131,6,0,B|397:196|397:196|142:174,1,240
34,46,139576,1,0,0:0:0:0:
322,47,139725,2,0,L|311:127,1,60
106,300,139873,1,0,0:0:0:0:
208,4,140022,1,0,0:0:0:0:
354,278,140170,1,0,0:0:0:0:
18,144,140319,6,0,B|51:130|51:130|146:139,1,120
354,278,140616,1,0,0:0:0:0:
284,22,140765,1,0,0:0:0:0:
116,224,140913,1,0,0:0:0:0:
284,22,141062,2,0,L|272:149,1,120
116,224,141359,1,0,0:0:0:0:
413,22,141507,6,0,L|390:277,1,240
180,376,141953,1,0,0:0:0:0:
213,139,142101,1,0,0:0:0:0:
243,137,142175,1,0,0:0:0:0:
273,141,142249,1,0,0:0:0:0:
499,320,142398,1,0,0:0:0:0:
164,279,142547,1,0,0:0:0:0:
413,22,142695,1,0,0:0:0:0:
260,349,142844,5,0,0:0:0:0:
215,345,142918,1,0,0:0:0:0:
171,334,142992,1,0,0:0:0:0:
132,312,143066,1,0,0:0:0:0:
104,278,143141,1,0,0:0:0:0:
89,235,143215,1,0,0:0:0:0:
85,190,143289,5,0,0:0:0:0:
125,173,143363,1,0,0:0:0:0:
169,181,143438,1,0,0:0:0:0:
211,197,143512,1,0,0:0:0:0:
254,208,143586,1,0,0:0:0:0:
299,205,143660,1,0,0:0:0:0:
340,186,143735,2,0,L|345:122,1,60
135,10,143883,2,0,L|130:74,1,60
367,344,144032,6,0,P|444:291|434:198,1,180
427,186,144329,1,0,0:0:0:0:
130,69,144477,1,0,0:0:0:0:
260,349,144626,1,0,0:0:0:0:
400,45,144774,1,0,0:0:0:0:
370,48,144848,1,0,0:0:0:0:
340,50,144922,1,0,0:0:0:0:
310,53,144996,1,0,0:0:0:0:
280,55,145071,6,0,B|232:199|328:135|280:295,1,240
55,368,145517,1,0,0:0:0:0:
198,222,145666,1,0,0:0:0:0:
414,372,145814,1,0,0:0:0:0:
134,300,145963,1,0,0:0:0:0:
358,120,146111,1,0,0:0:0:0:
134,300,146260,6,0,B|198:308|198:308|262:300,1,120
483,97,146557,2,0,P|453:37|400:-1,1,120
351,235,146854,2,0,P|367:170|351:105,1,120
161,255,147151,2,0,P|215:216|244:156,1,120
495,305,147448,5,0,0:0:0:0:
495,305,147893,6,0,L|352:317,1,120
141,190,148190,2,0,L|284:202,1,120
495,305,148487,1,0,0:0:0:0:
136,373,148636,6,0,P|86:233|231:205,1,240
400,149,149081,1,0,0:0:0:0:
171,282,149229,1,0,0:0:0:0:
171,282,149304,1,0,0:0:0:0:
171,282,149378,2,0,L|314:292,1,120
325,206,149601,2,0,L|181:196,1,120
239,112,149823,1,0,0:0:0:0:
239,112,149972,5,0,0:0:0:0:
429,295,150121,1,0,0:0:0:0:
171,282,150270,1,0,0:0:0:0:
239,112,150418,1,0,0:0:0:0:
397,342,150715,5,0,0:0:0:0:
159,241,150864,1,0,0:0:0:0:
281,105,151012,1,0,0:0:0:0:
352,375,151309,5,0,0:0:0:0:
162,199,151458,1,0,0:0:0:0:
324,113,151606,2,0,B|328:209|328:209|344:240|344:240|349:352,1,240
413,91,152052,1,0,0:0:0:0:
63,170,152200,6,0,B|79:178|79:178|95:170|95:170|111:178|111:178|159:170|159:170|231:186|303:162,1,240
70,304,152646,1,0,0:0:0:0:
223,49,152794,1,0,0:0:0:0:
271,346,152943,1,0,0:0:0:0:
117,89,153091,1,0,0:0:0:0:
389,185,153240,1,0,0:0:0:0:
98,7,153388,6,0,B|82:127|82:127|98:263,1,240
389,185,153834,1,0,0:0:0:0:
187,15,153982,1,0,0:0:0:0:
174,58,154056,1,0,0:0:0:0:
171,102,154130,1,0,0:0:0:0:
366,346,154279,1,0,0:0:0:0:
352,9,154428,1,0,0:0:0:0:
95,245,154576,6,0,L|334:265,1,240
453,55,155022,1,0,0:0:0:0:
171,102,155170,1,0,0:0:0:0:
429,231,155319,1,0,0:0:0:0:
187,15,155468,1,0,0:0:0:0:
261,292,155616,1,0,0:0:0:0:
424,19,155765,6,0,P|296:3|168:19,1,240
50,240,156210,1,0,0:0:0:0:
323,146,156359,1,0,0:0:0:0:
29,244,156507,1,0,0:0:0:0:
329,141,156656,1,0,0:0:0:0:
69,364,156804,1,0,0:0:0:0:
186,14,156953,1,0,0:0:0:0:
338,312,157101,5,0,0:0:0:0:
8,111,157250,1,0,0:0:0:0:
306,22,157398,1,0,0:0:0:0:
129,280,157547,1,0,0:0:0:0:
186,14,157695,1,0,0:0:0:0:
129,290,157844,1,0,0:0:0:0:
394,106,157992,1,0,0:0:0:0:
47,125,158141,6,0,P|60:272|204:237,1,240
394,106,158586,1,0,0:0:0:0:
117,23,158735,2,0,L|123:103,1,60
287,373,158883,1,0,0:0:0:0:
429,14,159032,1,0,0:0:0:0:
128,289,159180,1,0,0:0:0:0:
488,122,159329,6,0,B|392:122|328:58|328:58|328:122,1,240
475,309,159774,2,0,P|420:345|354:352,1,120
146,258,160071,1,0,0:0:0:0:
328,120,160220,1,0,0:0:0:0:
146,258,160369,2,0,L|3:270,1,120
327,119,160666,6,0,B|369:110|396:170|396:170|376:239|390:318,1,240
141,317,161111,2,0,L|147:237,1,60
266,47,161260,1,0,0:0:0:0:
299,331,161408,1,0,0:0:0:0:
55,134,161557,1,0,0:0:0:0:
371,25,161705,6,0,B|394:77|383:140|383:140|358:185|366:235|366:235|342:279,1,240
144,95,162151,2,0,L|224:101,1,60
414,252,162299,2,0,L|334:258,1,60
117,204,162448,1,0,0:0:0:0:
267,18,162596,1,0,0:0:0:0:
223,9,162670,1,0,0:0:0:0:
178,6,162745,2,0,P|131:39|144:95,1,120
413,197,163042,5,0,0:0:0:0:
430,238,163116,1,0,0:0:0:0:
433,283,163190,1,0,0:0:0:0:
422,326,163264,1,0,0:0:0:0:
401,366,163339,5,0,0:0:0:0:
373,331,163413,1,0,0:0:0:0:
337,305,163487,1,0,0:0:0:0:
294,292,163561,1,0,0:0:0:0:
250,283,163636,1,0,0:0:0:0:
207,269,163710,1,0,0:0:0:0:
174,239,163784,1,0,0:0:0:0:
162,196,163858,1,0,0:0:0:0:
177,155,163933,5,0,0:0:0:0:
213,129,164007,5,0,0:0:0:0:
257,130,164081,6,0,B|273:126|273:126|281:130|293:126|303:134|311:130|319:134|339:138|339:138|359:134|391:130|391:130|431:142|468:202,1,240
207,269,164527,2,0,L|64:281,1,120
257,130,164824,2,0,L|400:142,1,120
207,269,165121,5,0,0:0:0:0:
257,130,165270,1,0,0:0:0:0:
119,214,165418,1,0,0:0:0:0:
281,206,165567,1,0,0:0:0:0:
95,138,165715,1,0,0:0:0:0:
335,148,165864,1,0,0:0:0:0:
42,197,166012,1,0,0:0:0:0:
358,223,166161,1,0,0:0:0:0:
95,138,166309,1,0,0:0:0:0:
323,314,166458,6,0,B|403:362|499:346|499:346|467:314|387:298,1,240
167,270,166903,1,0,0:0:0:0:
343,40,167052,1,0,0:0:0:0:
375,301,167200,1,0,0:0:0:0:
135,9,167349,2,0,L|141:89,1,60
167,270,167497,1,0,0:0:0:0:
479,144,167646,6,0,B|510:125|510:125|303:143,1,240
35,235,168091,1,0,0:0:0:0:
316,300,168240,1,0,0:0:0:0:
64,79,168388,1,0,0:0:0:0:
368,138,168537,2,0,L|288:144,1,60
35,235,168685,1,0,0:0:0:0:
397,232,168834,6,0,P|458:97|316:57,1,240
117,158,169279,2,0,B|109:222|109:222|117:286,1,120
368,138,169576,1,0,0:0:0:0:
131,68,169725,1,0,0:0:0:0:
366,257,169873,2,0,B|374:193|374:193|366:129,1,120
131,68,170170,1,0,0:0:0:0:
281,314,170319,1,0,0:0:0:0:
408,48,170468,1,0,0:0:0:0:
162,301,170616,6,0,B|141:255|153:206|153:206|132:144|132:144|143:94|123:48,1,240
36,328,171062,1,0,0:0:0:0:
304,89,171210,5,0,0:0:0:0:
304,89,171359,2,0,P|324:157|281:215,1,120
36,328,171656,2,0,L|179:340,1,120
304,89,171953,1,0,0:0:0:0:
37,195,172101,1,0,0:0:0:0:
332,298,172250,1,0,0:0:0:0:
78,44,172398,5,0,0:0:0:0:
78,44,172547,2,0,P|140:62|188:108,1,120
155,338,172844,1,0,0:0:0:0:
30,138,172992,2,0,L|110:144,1,60
389,186,173141,1,0,0:0:0:0:
155,338,173289,1,0,0:0:0:0:
316,41,173438,1,0,0:0:0:0:
387,343,173586,6,0,B|371:351|339:351|339:351|291:343|291:343|219:359|147:335,1,240
122,324,173958,1,0,0:0:0:0:
97,306,174032,2,0,L|103:226,1,60
237,49,174180,2,0,L|231:129,1,60
278,291,174329,5,0,0:0:0:0:
300,329,174403,1,0,0:0:0:0:
339,349,174477,1,0,0:0:0:0:
384,344,174551,1,0,0:0:0:0:
418,315,174626,2,0,L|424:235,1,60
369,71,174774,5,0,0:0:0:0:
323,56,174848,1,0,0:0:0:0:
275,50,174922,1,0,0:0:0:0:
227,50,174996,1,0,0:0:0:0:
180,59,175071,1,0,0:0:0:0:
135,75,175145,1,0,0:0:0:0:
93,98,175219,5,0,0:0:0:0:
130,127,175293,1,0,0:0:0:0:
157,167,175368,1,0,0:0:0:0:
171,212,175442,1,0,0:0:0:0:
172,260,175517,6,0,P|124:292|76:260,1,120
79,213,175740,1,0,0:0:0:0:
101,170,175814,1,0,0:0:0:0:
443,79,175963,6,0,B|453:112|453:112|416:317,1,240
369,318,176334,1,0,0:0:0:0:
321,313,176408,1,0,0:0:0:0:
142,85,176557,1,0,0:0:0:0:
321,323,176705,1,0,0:0:0:0:
230,23,176854,1,0,0:0:0:0:
321,333,177002,1,0,0:0:0:0:
443,79,177151,5,0,0:0:0:0:
92,154,177299,1,0,0:0:0:0:
463,256,177448,1,0,0:0:0:0:
82,154,177596,1,0,0:0:0:0:
502,74,177745,2,0,L|422:80,1,60
72,154,177893,1,0,0:0:0:0:
428,354,178042,1,0,0:0:0:0:
210,10,178190,1,0,0:0:0:0:
80,357,178339,5,0,0:0:0:0:
287,122,192151,6,0,B|207:115|207:115|156:142,1,120
148,161,192596,6,0,B|204:226|122:298|242:337|242:337|286:280|352:249|352:249|297:186|284:108,1,503.999984619141
81,16,193784,6,0,B|76:63|56:110|56:110|51:173|51:173|78:224,1,192
82,217,194156,1,0,0:0:0:0:
104,226,194230,2,0,L|152:221,1,48
380,48,194378,2,0,L|332:53,1,48
27,105,194527,1,0,0:0:0:0:
353,303,194675,1,0,0:0:0:0:
353,303,194972,6,0,B|321:311|321:311|289:303|273:303|273:303|241:311|241:311|177:319|113:303,1,240
180,46,195418,2,0,P|249:62|278:128,1,120
116,303,195715,2,0,P|104:239|125:176,1,120
331,28,196012,1,0,0:0:0:0:
119,187,196161,6,0,B|151:203|151:203|199:195|199:195|279:203|359:187,1,240
108,92,196606,1,0,0:0:0:0:
262,335,196755,2,0,L|251:255,1,60
157,5,196903,1,0,0:0:0:0:
35,319,197052,1,0,0:0:0:0:
349,100,197200,1,0,0:0:0:0:
31,47,197349,6,0,B|20:82|20:82|40:191,1,120
253,275,197646,1,0,0:0:0:0:
281,13,197794,1,0,0:0:0:0:
94,233,197943,1,0,0:0:0:0:
281,13,198091,2,0,P|322:62|336:127,1,120
94,233,198388,1,0,0:0:0:0:
451,185,198537,6,0,B|420:204|420:204|213:222,1,240
28,75,198982,1,0,0:0:0:0:
313,30,199131,1,0,0:0:0:0:
315,60,199205,1,0,0:0:0:0:
311,90,199279,1,0,0:0:0:0:
121,308,199428,1,0,0:0:0:0:
219,13,199576,1,0,0:0:0:0:
410,290,199725,1,0,0:0:0:0:
52,154,199873,5,0,0:0:0:0:
66,108,199947,1,0,0:0:0:0:
92,68,200022,2,0,L|155:73,1,60
351,95,200170,5,0,0:0:0:0:
363,141,200244,1,0,0:0:0:0:
360,189,200318,1,0,0:0:0:0:
346,234,200392,5,0,0:0:0:0:
298,235,200467,1,0,0:0:0:0:
251,227,200541,1,0,0:0:0:0:
207,207,200615,1,0,0:0:0:0:
172,175,200689,1,0,0:0:0:0:
146,133,200765,2,0,L|151:69,1,60
345,233,200913,2,0,L|339:296,1,60
49,72,201062,6,0,P|141:42|239:45,1,180
247,48,201359,1,0,0:0:0:0:
339,292,201507,1,0,0:0:0:0:
51,168,201656,1,0,0:0:0:0:
424,85,201804,1,0,0:0:0:0:
436,125,201878,1,0,0:0:0:0:
432,165,201952,1,0,0:0:0:0:
428,206,202026,1,0,0:0:0:0:
440,246,202101,6,0,P|311:319|257:181,1,240
50,72,202547,2,0,L|61:200,1,120
343,225,202844,2,0,L|332:97,1,120
60,191,203141,1,0,0:0:0:0:
288,327,203289,6,0,P|329:278|343:213,1,120
148,44,203586,2,0,B|83:36|83:36|20:44,1,120
215,221,203883,1,0,0:0:0:0:
368,4,204032,1,0,0:0:0:0:
432,283,204180,1,0,0:0:0:0:
236,70,204329,1,0,0:0:0:0:
35,337,204477,5,0,0:0:0:0:
35,337,204923,6,0,B|99:345|99:345|163:337,1,120
309,123,205220,2,0,P|245:107|181:123,1,120
35,337,205517,1,0,0:0:0:0:
360,248,205666,6,0,B|327:234|327:234|120:252,1,240
372,337,206111,1,0,0:0:0:0:
266,16,206260,1,0,0:0:0:0:
266,16,206335,1,0,0:0:0:0:
266,16,206409,2,0,L|276:159,1,120
190,170,206632,2,0,L|180:27,1,120
96,84,206854,1,0,0:0:0:0:
96,84,207002,5,0,0:0:0:0:
211,295,207151,1,0,0:0:0:0:
332,8,207299,1,0,0:0:0:0:
96,84,207448,2,0,P|193:79|286:107,1,180
298,116,207745,5,0,0:0:0:0:
57,313,207893,1,0,0:0:0:0:
322,199,208042,2,0,P|224:194|131:222,1,180
120,231,208339,5,0,0:0:0:0:
384,342,208487,1,0,0:0:0:0:
235,66,208636,2,0,B|247:114|227:161|227:161|237:225|237:225|217:273|229:321,1,240
48,107,209081,1,0,0:0:0:0:
358,109,209230,6,0,P|408:248|262:276,1,240
58,198,209675,1,0,0:0:0:0:
324,200,209824,1,0,0:0:0:0:
47,342,209972,1,0,0:0:0:0:
169,28,210121,1,0,0:0:0:0:
275,322,210270,1,0,0:0:0:0:
406,32,210418,6,0,P|278:16|150:32,1,240
10,269,210864,1,0,0:0:0:0:
295,241,211012,1,0,0:0:0:0:
8,115,211161,1,0,0:0:0:0:
342,127,211309,1,0,0:0:0:0:
55,346,211458,1,0,0:0:0:0:
437,325,211606,6,0,B|453:205|453:205|437:69,1,240
168,27,212052,1,0,0:0:0:0:
231,282,212200,1,0,0:0:0:0:
357,49,212349,1,0,0:0:0:0:
117,157,212497,1,0,0:0:0:0:
367,49,212646,1,0,0:0:0:0:
196,358,212794,6,0,P|113:269|120:147,1,240
367,49,213240,1,0,0:0:0:0:
331,333,213388,1,0,0:0:0:0:
367,39,213537,1,0,0:0:0:0:
83,80,213685,1,0,0:0:0:0:
350,242,213834,1,0,0:0:0:0:
151,2,213982,1,0,0:0:0:0:
426,155,214131,6,0,P|393:211|337:246,1,120
64,182,214428,1,0,0:0:0:0:
329,20,214576,2,0,L|319:163,1,120
55,301,214873,2,0,L|65:158,1,120
318,316,215170,1,0,0:0:0:0:
204,76,215319,1,0,0:0:0:0:
155,336,215468,1,0,0:0:0:0:
439,140,215616,6,0,B|375:132|375:132|311:140,1,120
55,301,215913,1,0,0:0:0:0:
336,237,216062,1,0,0:0:0:0:
141,25,216210,1,0,0:0:0:0:
263,301,216359,6,0,P|410:300|387:153,1,240
236,25,216804,1,0,0:0:0:0:
336,237,216953,1,0,0:0:0:0:
61,153,217101,1,0,0:0:0:0:
365,80,217250,1,0,0:0:0:0:
51,153,217398,1,0,0:0:0:0:
346,237,217547,6,0,B|350:171|323:110|323:110|317:-17,1,240
51,153,217992,2,0,B|112:171|112:171|177:175,1,120
416,26,218289,2,0,P|448:89|416:154,1,120
168,174,218586,1,0,0:0:0:0:
416,26,218735,6,0,B|432:122|432:122|416:218,1,180
412,233,219032,1,0,0:0:0:0:
163,46,219180,1,0,0:0:0:0:
39,333,219329,6,0,L|278:313,1,240
307,310,219700,1,0,0:0:0:0:
336,307,219774,1,0,0:0:0:0:
446,14,219923,6,0,B|351:30|351:30|317:20|317:20|206:39,1,240
19,255,220369,1,0,0:0:0:0:
327,217,220517,1,0,0:0:0:0:
57,57,220666,1,0,0:0:0:0:
220,349,220814,1,0,0:0:0:0:
425,51,220963,1,0,0:0:0:0:
95,219,221111,6,0,B|239:267|175:171|335:219,1,240
57,57,221557,1,0,0:0:0:0:
262,290,221705,1,0,0:0:0:0:
388,3,221854,1,0,0:0:0:0:
159,148,222002,1,0,0:0:0:0:
398,3,222151,1,0,0:0:0:0:
262,290,222299,6,0,P|113:283|141:138,1,240
377,86,222745,1,0,0:0:0:0:
278,380,222893,1,0,0:0:0:0:
135,74,223042,1,0,0:0:0:0:
445,198,223190,1,0,0:0:0:0:
125,74,223339,1,0,0:0:0:0:
394,273,223487,6,0,B|394:177|458:113|458:113|394:113,1,240
89,179,223933,1,0,0:0:0:0:
347,351,224081,1,0,0:0:0:0:
233,33,224230,1,0,0:0:0:0:
81,331,224378,1,0,0:0:0:0:
233,23,224527,1,0,0:0:0:0:
394,273,224675,1,0,0:0:0:0:
49,101,224824,5,0,0:0:0:0:
404,50,224972,1,0,0:0:0:0:
173,358,225121,1,0,0:0:0:0:
77,9,225270,2,0,L|157:15,1,60
462,164,225418,1,0,0:0:0:0:
81,331,225567,1,0,0:0:0:0:
325,5,225715,1,0,0:0:0:0:
497,335,225864,6,0,B|481:343|481:343|465:335|465:335|449:343|449:343|401:335|401:335|329:351|257:327,1,240
61,144,226309,1,0,0:0:0:0:
334,102,226458,1,0,0:0:0:0:
51,144,226606,1,0,0:0:0:0:
344,102,226755,1,0,0:0:0:0:
140,304,226903,1,0,0:0:0:0:
261,52,227052,6,0,P|407:27|409:175,1,240
270,318,227497,1,0,0:0:0:0:
344,102,227646,1,0,0:0:0:0:
450,368,227794,1,0,0:0:0:0:
440,94,227943,1,0,0:0:0:0:
200,252,228091,1,0,0:0:0:0:
508,201,228240,6,0,B|492:193|476:201|460:193|460:193|412:201|412:201|340:185|268:209,1,240
11,328,228685,1,0,0:0:0:0:
137,41,228834,1,0,0:0:0:0:
11,338,228982,1,0,0:0:0:0:
137,31,229131,1,0,0:0:0:0:
312,287,229279,1,0,0:0:0:0:
37,136,229428,6,0,B|7:118|7:118|262:140,1,240
469,261,229873,1,0,0:0:0:0:
181,293,230022,1,0,0:0:0:0:
374,49,230170,1,0,0:0:0:0:
353,361,230319,1,0,0:0:0:0:
143,96,230468,1,0,0:0:0:0:
98,97,230542,1,0,0:0:0:0:
58,117,230616,1,0,0:0:0:0:
30,151,230690,1,0,0:0:0:0:
18,194,230765,6,0,P|46:259|116:276,1,120
344,145,231062,1,0,0:0:0:0:
86,17,231210,1,0,0:0:0:0:
220,272,231359,2,0,L|363:260,1,120
508,57,231656,1,0,0:0:0:0:
194,36,231804,6,0,B|183:69|183:69|220:274,1,240
360,19,232250,1,0,0:0:0:0:
83,94,232398,1,0,0:0:0:0:
371,114,232547,2,0,P|436:121|491:158,1,120
219,271,232844,2,0,B|184:282|184:282|74:262,1,120
371,114,233141,5,0,0:0:0:0:
67,182,233289,1,0,0:0:0:0:
380,305,233438,1,0,0:0:0:0:
107,71,233586,1,0,0:0:0:0:
466,39,233735,1,0,0:0:0:0:
142,243,233883,1,0,0:0:0:0:
511,344,234032,1,0,0:0:0:0:
252,30,234180,1,0,0:0:0:0:
142,243,234329,5,0,0:0:0:0:
437,147,234477,1,0,0:0:0:0:
76,127,234626,1,0,0:0:0:0:
328,308,234774,1,0,0:0:0:0:
63,207,234923,2,0,B|56:246|56:246|64:286,2,80
342,136,235220,2,0,B|349:97|349:97|341:57,2,80
35,46,235517,5,0,0:0:0:0:
256,192,235666,12,0,240270,0:0:0:0:
