osu file format v14

[General]
AudioFilename: audio.mp3
AudioLeadIn: 0
PreviewTime: -1
Countdown: 1
SampleSet: Soft
StackLeniency: 0.7
Mode: 0
LetterboxInBreaks: 0
WidescreenStoryboard: 0

[Editor]
Bookmarks: 28517,38117,47717,57317,68991,78372,87753
DistanceSpacing: 4.8
BeatDivisor: 4
GridSize: 32
TimelineZoom: 1.4

[Metadata]
Title:Reincarnation
TitleUnicode:Reincarnation
Artist:Imy
ArtistUnicode:Imy
Creator:Shademphrik
Version:Rebirth
Source:
Tags:
BeatmapID:2073320
BeatmapSetID:991355

[Difficulty]
HPDrainRate:5.3
CircleSize:3.2
OverallDifficulty:8
ApproachRate:9.5
SliderMultiplier:3
SliderTickRate:1

[Events]
//Background and Video events
0,0,"74268055_p0.jpg",0,0
//Break Periods
2,47917,54363
//Storyboard Layer 0 (Background)
//Storyboard Layer 1 (Fail)
//Storyboard Layer 2 (Pass)
//Storyboard Layer 3 (Foreground)
//Storyboard Sound Samples

[TimingPoints]
5654,428.571428571429,6,2,0,35,1,0
5654,-333.333333333333,6,2,0,35,0,0
14654,-666.666666666667,6,2,0,35,0,0
16025,428.571428571429,6,2,0,35,1,0
16025,-250,6,2,0,35,0,0
18596,-1000,6,2,0,35,0,0
22882,-333.333333333333,6,2,0,35,0,0
23739,535.714285714286,4,2,0,35,1,0
23739,-500,6,2,0,35,0,0
24774,500,4,2,0,35,1,0
25274,-1000,6,2,0,35,0,0
26295,555.555555555556,4,2,0,35,1,0
27961,-1000,6,2,0,35,0,0
28517,400,6,2,0,35,1,0
28517,-80,6,2,0,35,0,0
29117,-66.6666666666667,6,2,0,35,0,0
30517,-100,6,2,0,35,0,0
30917,-80,6,2,0,35,0,0
31517,-66.6666666666667,6,2,0,35,0,0
32917,-100,6,2,0,35,0,0
33117,-66.6666666666667,6,2,0,35,0,0
35317,-100,6,2,0,35,0,0
35517,-66.6666666666667,6,2,0,35,0,0
35517,-66.6666666666667,6,2,0,35,0,0
36917,-100,6,2,0,35,0,0
37317,-66.6666666666667,6,2,0,35,0,0
37717,-50,6,2,0,35,0,0
38117,-66.6666666666667,6,2,0,35,0,0
38717,-55.5555555555556,6,2,0,35,0,0
40117,-90.9090909090909,6,2,0,35,0,0
40317,-66.6666666666667,6,2,0,35,0,0
41117,-55.5555555555556,6,2,0,35,0,0
42517,-80,6,2,0,35,0,0
42717,-55.5555555555556,6,2,0,35,0,0
42917,-66.6666666666667,6,2,0,35,0,0
43517,-55.5555555555556,6,2,0,35,0,0
44917,-76.9230769230769,6,2,0,35,0,0
45117,-55.5555555555556,6,2,0,35,0,0
46517,-100,6,2,0,35,0,0
46917,-76.9230769230769,6,2,0,35,0,0
47717,-1000,6,2,0,35,0,0
57317,390.879478827362,4,2,0,35,1,0
57317,-55.5555555555556,6,2,0,35,0,0
57903,-50,6,2,0,35,0,0
59271,-76.9230769230769,6,2,0,35,0,0
59662,-55.5555555555556,6,2,0,35,0,0
60248,-50,6,2,0,35,0,0
61225,-76.9230769230769,6,2,0,35,0,0
61616,-50,6,2,0,35,0,0
62007,-55.5555555555556,6,2,0,35,0,0
62593,-50,6,2,0,35,0,0
63961,-76.9230769230769,6,2,0,35,0,0
64352,-50,6,2,0,35,0,0
64939,-66.6666666666667,6,2,0,35,0,0
65525,-80,6,2,0,35,0,0
66111,-100,6,2,0,35,0,0
66684,576.923076923077,4,2,0,35,1,0
68414,-1000,6,2,0,35,0,0
68991,390.879478827362,6,2,0,35,1,0
68991,-66.6666666666667,6,2,0,40,0,0
69577,-100,6,2,0,40,0,0
69772,-50,6,2,0,40,0,0
70163,-50,6,2,0,40,0,0
70945,-76.9230769230769,6,2,0,40,0,0
71336,-50,6,2,0,40,0,0
72508,-55.5555555555556,6,2,0,40,0,0
72899,-83.3333333333333,6,2,0,40,0,0
73681,-58.8235294117647,6,2,0,40,0,0
74267,-83.3333333333333,6,2,0,40,0,0
74854,-50,6,2,0,40,0,0
77199,-83.3333333333333,6,2,0,40,0,0
77785,-50,6,2,0,40,0,0
78372,-55.5555555555556,6,2,0,40,0,0
78958,-83.3333333333333,6,2,0,40,0,0
79153,-45.4545454545455,6,2,0,40,0,0
80326,-83.3333333333333,6,2,0,40,0,0
80717,-50,6,2,0,40,0,0
81890,-55.5555555555556,6,2,0,40,0,0
82280,-100,6,2,0,40,0,0
82671,-47.6190476190476,6,2,0,40,0,0
83062,-58.8235294117647,6,2,0,40,0,0
83648,-76.9230769230769,6,2,0,40,0,0
84235,-45.4545454545455,6,2,0,40,0,0
86776,-76.9230769230769,6,2,0,40,0,0
86971,-45.4545454545455,6,2,0,40,0,0
87362,-45.4545454545455,6,2,0,40,0,0

[HitObjects]
8,0,5654,6,0,P|25:78|29:142,1,134.999995880127,0|0,2:0|2:0,2:0:0:0:
128,164,6511,1,0,2:0:0:0:
128,164,6939,2,0,P|113:206|108:251,2,89.9999972534181,0|0|0,2:0|2:0|2:0,2:0:0:0:
115,261,8225,6,0,L|213:252,1,89.9999972534181,0|0,2:0|2:0,2:0:0:0:
282,323,9082,1,0,2:0:0:0:
282,323,9511,2,0,P|302:282|308:221,1,89.9999972534181,0|0,2:0|2:0,2:0:0:0:
243,164,10368,1,0,2:0:0:0:
258,343,10796,6,0,L|241:143,1,179.999994506836,0|0,2:0|2:0,2:0:0:0:
235,143,12082,2,0,P|265:118|318:122,2,89.9999972534181,0|0|0,2:0|2:0|2:0,2:0:0:0:
416,155,13368,6,0,P|397:76|334:-2,1,179.999994506836,0|0,2:0|2:0,2:0:0:0:
318,0,14654,6,0,P|290:36|279:80,1,89.9999972534181,0|0,2:0|2:0,2:0:0:0:
278,92,16025,6,0,B|232:42|260:-24|333:96|331:198,1,240,0|0,2:0|2:0,2:0:0:0:
294,360,17310,2,0,P|414:349|515:284,1,240,0|0,2:0|2:0,2:0:0:0:
124,290,18596,2,0,B|50:298|70:313|7:318,1,120,0|0,2:0|2:0,2:0:0:0:
0,305,20739,1,0,2:0:0:0:
0,305,21167,2,0,P|5:269|23:213,1,90,0|0,2:0|2:0,2:0:0:0:
129,191,22882,2,0,B|171:222|229:194,1,89.9999972534181,0|0,2:0|2:0,2:0:0:0:
358,166,23739,6,0,P|394:111|410:49,1,120,0|0,2:0|2:0,2:0:0:0:
495,0,25274,6,0,B|496:28|496:28|509:57,1,60,0|0,2:0|2:0,2:0:0:0:
256,192,26433,12,0,27822,2:0:0:0:
59,275,27961,6,0,L|54:248,1,22.5,0|0,2:0|2:0,2:0:0:0:
59,289,28517,6,0,P|73:189|85:60,1,187.5,0|0,2:0|2:0,2:0:0:0:
0,0,28917,1,0,2:0:0:0:
302,176,29117,2,0,P|232:84|158:-4,1,225.000008583069,0|0,2:0|2:0,2:0:0:0:
6,9,29517,1,0,2:0:0:0:
477,237,29717,6,0,P|371:30|278:13,1,337.500012874604,0|0,2:0|2:0,2:0:0:0:
447,290,30117,2,0,P|437:52|376:-12,1,337.500012874604,0|0,2:0|2:0,2:0:0:0:
438,331,30517,2,0,P|421:295|407:250,1,75,0|0,2:0|2:0,2:0:0:0:
392,89,30717,2,0,L|459:35,1,75,0|0,2:0|2:0,2:0:0:0:
71,221,30917,6,0,P|43:112|21:1,1,187.5,0|0,2:0|2:0,2:0:0:0:
0,8,31317,1,0,2:0:0:0:
211,384,31517,2,0,P|238:275|259:164,1,225.000008583069,0|0,2:0|2:0,2:0:0:0:
361,6,31917,1,0,2:0:0:0:
23,290,32117,6,0,P|34:134|188:106,1,337.500012874604,0|0,2:0|2:0,2:0:0:0:
32,319,32517,2,0,P|30:152|116:9,1,337.500012874604,0|0,2:0|2:0,2:0:0:0:
46,341,32918,2,0,L|62:229,1,75,0|0,2:0|2:0,2:0:0:0:
307,1,33117,2,0,P|275:61|266:105,1,112.500004291535,0|0,2:0|2:0,2:0:0:0:
404,361,33317,6,0,P|305:341|198:266,1,225.000008583069,0|0,2:0|2:0,2:0:0:0:
29,34,33717,1,0,2:0:0:0:
0,384,33917,2,0,P|20:285|95:178,1,225.000008583069,0|0,2:0|2:0,2:0:0:0:
406,0,34317,1,0,2:0:0:0:
356,315,34517,6,0,P|338:182|242:-11,1,337.500012874604,0|0,2:0|2:0,2:0:0:0:
352,346,34917,2,0,P|320:237|480:71,1,337.500012874604,0|0,2:0|2:0,2:0:0:0:
355,371,35317,2,0,P|362:334|362:296,1,75,0|0,2:0|2:0,2:0:0:0:
377,79,35517,2,0,L|265:106,1,112.500004291535,0|0,2:0|2:0,2:0:0:0:
0,343,35717,6,0,P|157:370|362:375,1,337.500012874604,0|0,2:0|2:0,2:0:0:0:
367,364,36117,1,0,2:0:0:0:
512,102,36317,2,0,P|309:150|179:188,1,337.500012874604,0|0,2:0|2:0,2:0:0:0:
121,237,36717,1,0,2:0:0:0:
0,0,36917,6,0,P|45:17|71:32,1,75,0|0,2:0|2:0,2:0:0:0:
55,173,37117,2,0,P|98:149|136:136,1,75,0|0,2:0|2:0,2:0:0:0:
220,10,37317,2,0,P|250:65|267:114,1,112.500004291535,0|0,2:0|2:0,2:0:0:0:
178,290,37517,2,0,P|221:253|269:224,1,112.500004291535,0|0,2:0|2:0,2:0:0:0:
512,0,37717,2,0,P|490:74|454:140,1,150,0|0,2:0|2:0,2:0:0:0:
450,384,37917,2,0,P|414:318|392:246,1,150,0|0,2:0|2:0,2:0:0:0:
483,22,38117,6,0,P|372:30|275:85,1,225.000008583069,0|0,2:0|2:0,2:0:0:0:
496,29,38517,1,0,2:0:0:0:
50,103,38717,2,0,P|187:181|345:194,1,269.999991760254,0|0,2:0|2:0,2:0:0:0:
0,0,39117,1,0,2:0:0:0:
450,316,39317,6,0,P|325:238|346:-26,1,404.999987640381,0|0,2:0|2:0,2:0:0:0:
472,304,39717,2,0,P|344:240|145:29,1,404.999987640381,0|0,2:0|2:0,2:0:0:0:
483,335,40117,2,0,P|401:329|383:330,1,82.5000025177003,0|0,2:0|2:0,2:0:0:0:
265,224,40317,2,0,P|238:333|234:357,1,112.500004291535,0|0,2:0|2:0,2:0:0:0:
0,18,40517,6,0,P|28:143|60:246,1,225.000008583069,0|0,2:0|2:0,2:0:0:0:
5,3,40917,1,0,2:0:0:0:
213,312,41117,2,0,P|252:181|281:47,1,269.999991760254,0|0,2:0|2:0,2:0:0:0:
128,381,41517,1,0,2:0:0:0:
451,15,41717,6,0,P|253:33|108:170,1,404.999987640381,0|0,2:0|2:0,2:0:0:0:
492,48,42117,2,0,P|399:29|88:26,1,404.999987640381,0|0,2:0|2:0,2:0:0:0:
512,36,42517,2,0,P|460:65|422:78,1,93.75,0|0,2:0|2:0,2:0:0:0:
221,34,42717,2,0,P|266:85|304:141,1,134.999995880127,0|0,2:0|2:0,2:0:0:0:
11,327,42917,6,0,P|128:338|297:375,1,225.000008583069,0|0,2:0|2:0,2:0:0:0:
0,335,43317,1,0,2:0:0:0:
444,110,43517,2,0,P|312:138|177:152,1,269.999991760254,0|0,2:0|2:0,2:0:0:0:
512,0,43917,1,0,2:0:0:0:
0,0,44117,6,0,P|139:149|378:170,1,404.999987640381,0|0,2:0|2:0,2:0:0:0:
13,0,44517,2,0,P|137:147|220:344,1,404.999987640381,0|0,2:0|2:0,2:0:0:0:
33,0,44917,2,0,P|43:66|63:132,1,97.4999955368044,0|0,2:0|2:0,2:0:0:0:
77,328,45117,2,0,P|102:286|146:209,1,134.999995880127,0|0,2:0|2:0,2:0:0:0:
512,384,45317,6,0,P|489:283|358:1,1,404.999987640381,0|0,2:0|2:0,2:0:0:0:
331,0,45717,1,0,2:0:0:0:
0,384,45917,2,0,P|23:283|154:1,1,404.999987640381,0|0,2:0|2:0,2:0:0:0:
181,0,46317,1,0,2:0:0:0:
113,296,46517,6,0,P|121:330|136:366,1,75,0|0,2:0|2:0,2:0:0:0:
40,107,46717,2,0,P|24:72|4:41,1,75,0|0,2:0|2:0,2:0:0:0:
137,367,46917,2,0,P|97:291|157:84,1,292.499986610413,0|0,2:0|2:0,2:0:0:0:
97,10,47317,6,0,P|39:27|-22:56,1,97.4999955368044,0|0,2:0|2:0,2:0:0:0:
421,127,47517,2,0,P|479:144|540:173,1,97.4999955368044,0|0,2:0|2:0,2:0:0:0:
255,384,47717,1,0,2:0:0:0:
256,192,54917,12,0,56817,2:0:0:0:
27,109,56917,6,0,L|22:82,1,22.5,0|0,2:0|2:0,2:0:0:0:
24,123,57317,6,0,L|443:27,1,404.999987640381,0|0,2:0|2:0,2:0:0:0:
422,7,57707,1,0,2:0:0:0:
0,104,57903,2,0,B|122:80|122:80|482:136,1,450,0|0,2:0|2:0,2:0:0:0:
512,61,58294,1,0,2:0:0:0:
39,384,58489,6,0,P|73:165|231:11,1,450,0|0,2:0|2:0,2:0:0:0:
512,128,58880,2,0,B|311:18|311:18|66:-2,1,450,0|0,2:0|2:0,2:0:0:0:
55,384,59271,2,0,P|42:312|23:255,1,97.4999955368044,0|0,2:0|2:0,2:0:0:0:
87,83,59466,2,0,P|45:105|5:133,1,97.4999955368044,0|0,2:0|2:0,2:0:0:0:
463,340,59662,6,0,L|239:-8,1,404.999987640381,0|0,2:0|2:0,2:0:0:0:
269,0,60053,1,0,2:0:0:0:
463,384,60248,2,0,P|361:246|482:2,1,450,0|0,2:0|2:0,2:0:0:0:
512,84,60639,1,0,2:0:0:0:
0,384,60834,6,0,B|182:293|182:293|464:283,1,450,0|0,2:0|2:0,2:0:0:0:
448,301,61225,2,0,P|495:274|515:202,1,97.4999955368044,0|0,2:0|2:0,2:0:0:0:
268,133,61421,2,0,L|146:179,1,97.4999955368044,0|0,2:0|2:0,2:0:0:0:
512,210,61616,2,0,P|502:143|434:77,1,150,0|0,2:0|2:0,2:0:0:0:
0,0,61812,2,0,L|53:151,1,150,0|0,2:0|2:0,2:0:0:0:
497,322,62007,6,0,L|132:93,1,404.999987640381,0|0,2:0|2:0,2:0:0:0:
146,83,62398,1,0,2:0:0:0:
512,384,62593,2,0,B|401:280|401:280|268:0,1,450,0|0,2:0|2:0,2:0:0:0:
377,0,62984,1,0,2:0:0:0:
0,237,63180,6,0,P|178:106|399:109,1,450,0|0,2:0|2:0,2:0:0:0:
512,384,63571,2,0,B|484:161|484:161|292:22,1,450,0|0,2:0|2:0,2:0:0:0:
36,262,63961,2,0,P|21:234|28:155,1,97.4999955368044,0|0,2:0|2:0,2:0:0:0:
281,36,64157,2,0,L|382:28,1,97.4999955368044,0|0,2:0|2:0,2:0:0:0:
0,11,64352,6,0,P|143:-2|462:123,1,450,0|0,2:0|2:0,2:0:0:0:
445,104,64743,1,0,2:0:0:0:
0,15,64939,6,0,P|90:57|330:51,1,337.500012874604,0|0,2:0|2:0,2:0:0:0:
457,99,65330,1,0,2:0:0:0:
19,323,65525,6,0,P|116:248|265:167,1,281.25,0|0,2:0|2:0,2:0:0:0:
460,106,65916,1,0,2:0:0:0:
111,14,66111,6,0,P|223:23|332:47,1,225,0|0,2:0|2:0,2:0:0:0:
473,97,66502,1,0,2:0:0:0:
256,192,66684,12,0,68270,2:0:0:0:
228,269,68414,6,0,L|223:242,1,22.5,0|0,2:0|2:0,2:0:0:0:
221,276,68991,6,0,B|165:146|279:-28|418:42|417:195|308:205,1,450.000017166138,0|0,2:0|2:0,2:0:0:0:
321,202,69577,2,0,P|318:164|310:122,1,75,0|0,2:0|2:0,2:0:0:0:
29,129,69772,6,0,B|-66:121|-56:-97|205:-55|102:105|233:115|312:24,1,450,0|0,2:0|2:0,2:0:0:0:
512,0,70163,6,0,P|348:22|248:307,1,450,0|0,2:0|2:0,2:0:0:0:
484,0,70554,2,0,B|195:-22|339:46|139:106|-5:33,1,450,0|0,2:0|2:0,2:0:0:0:
456,0,70945,2,0,P|414:1|303:60,1,97.4999955368044,0|0,2:0|2:0,2:0:0:0:
190,0,71140,2,0,P|218:40|252:74,1,97.4999955368044,0|0,2:0|2:0,2:0:0:0:
76,306,71336,6,0,P|30:147|-9:-28,1,300,0|0,2:0|2:0,2:0:0:0:
0,0,71727,1,0,2:0:0:0:
237,384,71922,2,0,P|267:237|292:56,1,300,0|0,2:0|2:0,2:0:0:0:
68,318,72313,1,0,2:0:0:0:
476,36,72508,2,0,B|486:61|560:180|497:268|401:272|356:136|453:5,1,404.999987640381,0|0,2:0|2:0,2:0:0:0:
438,22,72899,2,0,P|497:53|533:109,1,89.9999972534181,0|0,2:0|2:0,2:0:0:0:
334,192,73095,2,0,P|270:172|204:186,1,89.9999972534181,0|0,2:0|2:0,2:0:0:0:
485,297,73290,2,0,L|522:418,1,89.9999972534181,0|0,2:0|2:0,2:0:0:0:
237,173,73486,2,0,L|210:86,1,89.9999972534181,0|0,2:0|2:0,2:0:0:0:
493,383,73681,6,0,B|338:395|264:293|346:104|389:-13|380:250|536:132|405:-76|351:173|254:206|327:308,1,637.500012159348,0|0,2:0|2:0,2:0:0:0:
313,284,74267,2,0,P|312:220|299:157,1,89.9999972534181,0|0,2:0|2:0,2:0:0:0:
60,90,74463,2,0,L|186:102,1,89.9999972534181,0|0,2:0|2:0,2:0:0:0:
449,68,74658,2,0,P|391:79|363:160,1,89.9999972534181,0|0,2:0|2:0,2:0:0:0:
324,20,74854,6,0,P|363:160|94:184,1,450,0|0,2:0|2:0,2:0:0:0:
324,20,75245,2,0,B|486:58|399:220|280:32|97:6|74:104,1,450,0|0,2:0|2:0,2:0:0:0:
324,20,75635,2,0,P|352:65|485:112,1,150,0|0,2:0|2:0,2:0:0:0:
401,293,75831,2,0,P|468:260|512:201,1,150,0|0,2:0|2:0,2:0:0:0:
0,0,76026,6,0,P|51:140|91:285,1,300,0|0,2:0|2:0,2:0:0:0:
0,384,76417,1,0,2:0:0:0:
333,0,76613,6,0,P|280:140|216:276,1,300,0|0,2:0|2:0,2:0:0:0:
0,384,77004,1,0,2:0:0:0:
512,0,77199,6,0,P|457:52|399:101,1,89.9999972534181,0|0,2:0|2:0,2:0:0:0:
283,209,77394,2,0,P|355:189|426:165,1,89.9999972534181,0|0,2:0|2:0,2:0:0:0:
512,11,77590,2,0,P|436:8|360:2,1,89.9999972534181,0|0,2:0|2:0,2:0:0:0:
66,31,77785,6,0,P|81:116|191:115,1,150,0|0,2:0|2:0,2:0:0:0:
435,337,77981,2,0,P|449:263|446:188,1,150,0|0,2:0|2:0,2:0:0:0:
137,149,78176,2,0,L|3:217,1,150,0|0,2:0|2:0,2:0:0:0:
444,354,78372,6,0,B|527:358|573:276|598:175|292:73|328:354|323:375|249:399|156:367|261:331|325:306|330:186,1,539.999983520508,0|0,2:0|2:0,2:0:0:0:
307,262,78958,2,0,P|322:225|323:170,1,89.9999972534181,0|0,2:0|2:0,2:0:0:0:
117,113,79153,2,0,B|23:76|-31:-61|151:-91|231:70|177:248,1,495.000015106202,0|0,2:0|2:0,2:0:0:0:
25,339,79544,6,0,P|186:196|454:279,1,495.000015106202,0|0,2:0|2:0,2:0:0:0:
18,356,79935,2,0,B|-15:238|95:83|331:200|204:258|318:286|394:228,1,495.000015106202,0|0,2:0|2:0,2:0:0:0:
18,367,80326,2,0,P|5:317|3:265,1,89.9999972534181,0|0,2:0|2:0,2:0:0:0:
0,97,80521,2,0,P|28:137|62:171,1,97.4999955368044,0|0,2:0|2:0,2:0:0:0:
512,248,80717,6,0,P|432:120|336:-4,1,300,0|0,2:0|2:0,2:0:0:0:
47,12,81108,1,0,2:0:0:0:
459,302,81303,2,0,P|492:155|512:0,1,300,0|0,2:0|2:0,2:0:0:0:
31,9,81694,1,0,2:0:0:0:
364,350,81890,6,0,B|494:304|506:200|407:106|398:151|302:250|383:323,1,404.999987640381,0|0,2:0|2:0,2:0:0:0:
391,344,82280,6,0,P|349:371|199:297,1,225,0|0,2:0|2:0,2:0:0:0:
352,40,82671,2,0,L|541:23,1,157.499995193482,0|0,2:0|2:0,2:0:0:0:
157,136,82867,2,0,L|-32:153,1,157.499995193482,0|0,2:0|2:0,2:0:0:0:
469,307,83062,6,0,B|322:351|48:209|327:31|292:-61|299:148|175:53|279:-112|323:86|401:113|342:194,1,637.500012159348,0|0,2:0|2:0,2:0:0:0:
346,198,83648,2,0,P|357:150|365:84,1,97.4999955368044,0|0,2:0|2:0,2:0:0:0:
123,304,83844,2,0,L|249:316,1,89.9999972534181,0|0,2:0|2:0,2:0:0:0:
475,83,84039,2,0,P|482:36|438:-5,1,97.4999955368044,0|0,2:0|2:0,2:0:0:0:
97,120,84235,6,0,P|297:40|520:210,1,495.000015106202,0|0,2:0|2:0,2:0:0:0:
85,130,84626,2,0,B|5:108|29:-85|327:-23|299:270|128:368,1,495.000015106202,0|0,2:0|2:0,2:0:0:0:
110,114,85017,2,0,P|82:159|-51:206,1,150,0|0,2:0|2:0,2:0:0:0:
143,334,85212,2,0,P|91:346|-35:285,1,150,0|0,2:0|2:0,2:0:0:0:
356,0,85407,6,0,P|425:126|506:312,1,330.000010070801,0|0,2:0|2:0,2:0:0:0:
512,384,85798,1,0,2:0:0:0:
162,0,85994,2,0,P|299:40|488:114,1,330.000010070801,0|0,2:0|2:0,2:0:0:0:
512,384,86385,1,0,2:0:0:0:
0,73,86580,6,0,P|72:33|148:0,1,165.000005035401,0|0,2:0|2:0,2:0:0:0:
283,61,86776,2,0,P|254:100|223:137,1,97.4999955368044,0|0,2:0|2:0,2:0:0:0:
447,0,86971,6,0,P|474:77|500:156,1,165.000005035401,0|0,2:0|2:0,2:0:0:0:
424,384,87166,2,0,P|398:306|372:228,1,165.000005035401,0|0,2:0|2:0,2:0:0:0:
258,0,87362,2,0,P|231:77|205:156,1,165.000005035401,0|0,2:0|2:0,2:0:0:0:
0,384,87557,2,0,P|26:306|52:228,1,165.000005035401,0|0,2:0|2:0,2:0:0:0:
256,192,87948,12,0,92443,2:0:0:0:
