osu file format v14

[General]
AudioFilename: audio.mp3
AudioLeadIn: 0
PreviewTime: 50977
Countdown: 0
SampleSet: Soft
StackLeniency: 0.5
Mode: 0
LetterboxInBreaks: 0
WidescreenStoryboard: 1

[Editor]
DistanceSpacing: 1.4
BeatDivisor: 4
GridSize: 8
TimelineZoom: 3.499999

[Metadata]
Title:Ray of hope
TitleUnicode:Ray of hope
Artist:Imy
ArtistUnicode:Imy
Creator:Lasse
Version:Insane
Source:
Tags:アイミー japanese doujin rock symphonic metal mirin みりん myu みゅー Delis ShirohaMyMommy SMM
BeatmapID:2558546
BeatmapSetID:1227702

[Difficulty]
HPDrainRate:5.4
CircleSize:4
OverallDifficulty:8
ApproachRate:9
SliderMultiplier:1.6
SliderTickRate:1

[Events]
//Background and Video events
0,0,"79919334_p0.jpg",0,0
//Break Periods
2,18501,24675
//Storyboard Layer 0 (Background)
//Storyboard Layer 1 (Fail)
//Storyboard Layer 2 (Pass)
//Storyboard Layer 3 (Foreground)
//Storyboard Layer 4 (Overlay)
//Storyboard Sound Samples

[TimingPoints]
140,324.324324324324,4,2,35,60,1,0
2734,-100,4,2,35,65,0,0
3869,-111.111111111111,4,2,34,70,0,0
4194,-111.111111111111,4,2,35,70,0,0
5329,-100,4,2,34,72,0,0
5572,-100,4,2,34,36,0,0
5653,-100,4,2,35,72,0,0
5896,-100,4,2,34,36,0,0
5977,-100,4,2,35,72,0,0
6707,-100,4,2,34,36,0,0
6788,-100,4,2,35,72,0,0
8734,-100,4,2,35,60,0,0
8815,-100,4,2,35,61,0,0
8896,-100,4,2,35,62,0,0
8977,-100,4,2,35,63,0,0
9058,-100,4,2,35,64,0,0
9139,-100,4,2,35,65,0,0
9221,-100,4,2,35,66,0,0
9302,-100,4,2,35,67,0,0
9383,-100,4,2,35,68,0,0
9464,-100,4,2,35,69,0,0
9545,-100,4,2,35,70,0,0
9626,-100,4,2,35,71,0,0
9707,-100,4,2,35,72,0,0
11085,-100,4,2,34,36,0,0
11167,-100,4,2,35,72,0,0
11896,-100,4,2,34,36,0,0
11977,-100,4,2,35,72,0,0
15545,-200,4,2,35,72,0,0
15626,-200,4,2,35,5,0,0
18302,-200,4,2,98,38,0,0
25275,-111.111111111111,4,2,35,54,0,0
25437,-111.111111111111,4,2,35,56,0,0
25599,-111.111111111111,4,2,35,58,0,0
25761,-111.111111111111,4,2,35,60,0,0
25842,-111.111111111111,4,2,35,61,0,0
25923,-111.111111111111,4,2,35,62,0,0
26004,-111.111111111111,4,2,35,63,0,0
26085,-111.111111111111,4,2,34,64,0,0
26410,-111.111111111111,4,2,35,60,0,0
34112,-111.111111111111,4,2,35,30,0,0
34194,-111.111111111111,4,2,35,60,0,0
34518,-111.111111111111,4,2,35,62,0,0
35167,-111.111111111111,4,2,35,64,0,0
35815,-111.111111111111,4,2,35,66,0,0
36464,-100,4,2,34,68,0,0
36707,-100,4,2,34,34,0,0
36788,-90.9090909090909,4,2,35,68,0,0
37112,-83.3333333333333,4,2,35,68,0,0
37599,-90.9090909090909,4,2,35,68,0,0
37842,-90.9090909090909,4,2,34,34,0,0
37923,-90.9090909090909,4,2,35,68,0,0
38167,-90.9090909090909,4,2,34,34,0,0
38248,-90.9090909090909,4,2,35,68,0,0
39058,-111.111111111111,4,2,34,68,0,0
39302,-111.111111111111,4,2,34,34,0,0
39383,-111.111111111111,4,2,35,68,0,0
41045,-111.111111111111,4,2,35,5,0,0
41167,-111.111111111111,4,2,35,68,0,0
41207,-111.111111111111,4,2,35,5,0,0
41329,-111.111111111111,4,2,35,68,0,0
41369,-111.111111111111,4,2,35,5,0,0
41491,-111.111111111111,4,2,35,68,0,0
41531,-111.111111111111,4,2,35,5,0,0
41653,-100,4,2,34,68,0,0
41896,-100,4,2,34,34,0,0
41977,-90.9090909090909,4,2,35,68,0,0
42302,-83.3333333333333,4,2,35,68,0,0
42788,-90.9090909090909,4,2,35,68,0,0
43031,-90.9090909090909,4,2,34,34,0,0
43112,-90.9090909090909,4,2,35,68,0,0
43356,-90.9090909090909,4,2,34,34,0,0
43437,-90.9090909090909,4,2,35,68,0,0
43599,-90.9090909090909,4,2,35,66,0,0
43680,-90.9090909090909,4,2,35,64,0,0
43761,-90.9090909090909,4,2,35,63,0,0
43842,-90.9090909090909,4,2,35,62,0,0
43923,-90.9090909090909,4,2,35,64,0,0
44004,-90.9090909090909,4,2,35,65,0,0
44085,-90.9090909090909,4,2,35,66,0,0
44167,-90.9090909090909,4,2,35,67,0,0
44248,-90.9090909090909,4,2,35,68,0,0
44572,-111.111111111111,4,2,35,60,0,0
44815,-111.111111111111,4,2,35,30,0,0
44896,-111.111111111111,4,2,35,60,0,0
46842,-111.111111111111,4,2,35,62,0,0
47329,-111.111111111111,4,2,35,64,0,0
47815,-111.111111111111,4,2,35,66,0,0
48302,-111.111111111111,4,2,35,68,0,0
48788,-111.111111111111,4,2,35,65,0,0
49112,-111.111111111111,4,2,35,66,0,0
49437,-111.111111111111,4,2,35,68,0,0
51383,-111.111111111111,4,2,35,30,0,0
51869,-83.3333333333333,4,2,34,74,0,1
52194,-83.3333333333333,4,2,35,74,0,1
57464,-83.3333333333333,4,2,35,36,0,1
57545,-83.3333333333333,4,2,35,74,0,1
61761,-111.111111111111,4,2,35,74,0,0
61842,-111.111111111111,4,2,35,73,0,0
61923,-111.111111111111,4,2,35,72,0,0
62004,-111.111111111111,4,2,35,71,0,0
62085,-111.111111111111,4,2,76,70,0,0
62167,-111.111111111111,4,2,76,69,0,0
62248,-83.3333333333333,4,2,34,74,0,1
62572,-83.3333333333333,4,2,35,74,0,1
67842,-83.3333333333333,4,2,35,36,0,1
67923,-83.3333333333333,4,2,35,74,0,1
69139,-83.3333333333333,4,2,35,36,0,1
69221,-83.3333333333333,4,2,35,74,0,1
71653,-83.3333333333333,4,2,35,72,0,1
71977,-83.3333333333333,4,2,35,70,0,1
72139,-83.3333333333333,4,2,35,68,0,1
72302,-83.3333333333333,4,2,76,66,0,1
72464,-83.3333333333333,4,2,76,64,0,1
72626,-83.3333333333333,4,2,76,60,0,1
72788,-125,4,2,35,64,0,0
77977,-100,4,2,35,68,0,1
79437,-100,4,2,35,68,0,0
80572,-90.9090909090909,4,2,35,70,0,1
81058,-90.9090909090909,4,2,35,71,0,1
81545,-90.9090909090909,4,2,35,72,0,1
81869,-90.9090909090909,4,2,35,73,0,1
82194,-90.9090909090909,4,2,35,74,0,1
82518,-90.9090909090909,4,2,35,75,0,1
82842,-111.111111111111,4,2,35,75,0,1
83004,-111.111111111111,4,2,35,70,0,1
83167,-100,4,2,34,72,0,0
83410,-100,4,2,34,36,0,0
83491,-100,4,2,35,72,0,0
83734,-100,4,2,34,36,0,0
83815,-100,4,2,35,72,0,0
84545,-100,4,2,34,36,0,0
84626,-100,4,2,35,72,0,0
86572,-100,4,2,35,60,0,0
86653,-100,4,2,35,61,0,0
86734,-100,4,2,35,62,0,0
86815,-100,4,2,35,63,0,0
86896,-100,4,2,35,64,0,0
86977,-100,4,2,35,65,0,0
87058,-100,4,2,35,66,0,0
87139,-100,4,2,35,67,0,0
87221,-100,4,2,35,68,0,0
87302,-100,4,2,35,69,0,0
87383,-100,4,2,35,70,0,0
87464,-100,4,2,35,71,0,0
87545,-100,4,2,35,72,0,0
88923,-100,4,2,34,36,0,0
89004,-100,4,2,35,72,0,0
89734,-100,4,2,34,36,0,0
89815,-100,4,2,35,72,0,0
93383,-200,4,2,35,72,0,0
93464,-200,4,2,35,5,0,0
96139,-200,4,2,98,38,0,0
97437,-200,4,2,76,36,0,0
97599,-200,4,2,76,37,0,0
97761,-200,4,2,76,38,0,0
97923,-200,4,2,76,39,0,0
98085,-200,4,2,76,40,0,0
98248,-200,4,2,76,41,0,0
98410,-200,4,2,76,42,0,0
98572,-200,4,2,76,43,0,0
98734,-200,4,2,76,44,0,0
98775,-200,4,2,76,30,0,0
100031,-200,4,2,76,34,0,0
102626,-200,4,2,76,36,0,0
103275,-200,4,2,76,38,0,0
103923,-200,4,2,76,40,0,0
104248,-200,4,2,76,34,0,0
105058,-200,4,2,76,28,0,0
105383,-200,4,2,76,34,0,0
105545,-200,4,2,76,28,0,0
105869,-200,4,2,76,34,0,0
106194,-200,4,2,76,36,0,0
106518,-200,4,2,76,40,0,0
107004,-200,4,2,76,34,0,0
107491,-200,4,2,76,32,0,0
107815,-200,4,2,76,34,0,0
108139,-200,4,2,76,36,0,0
108464,-200,4,2,76,38,0,0
108788,-200,4,2,76,40,0,0
109112,-200,4,2,76,42,0,0
109437,-200,4,2,76,36,0,0
110085,-200,4,2,76,38,0,0
110248,-200,4,2,76,36,0,0
110410,-200,4,2,76,34,0,0
110572,-200,4,2,76,32,0,0
110734,-200,4,2,76,30,0,0
111058,-200,4,2,76,34,0,0
111383,-200,4,2,76,38,0,0
113491,-111.111111111111,4,2,35,60,0,0
113815,-111.111111111111,4,2,35,62,0,0
113977,-111.111111111111,4,2,35,64,0,0
114139,-111.111111111111,4,2,35,66,0,0
114302,-100,4,2,34,68,0,0
114545,-100,4,2,34,34,0,0
114626,-90.9090909090909,4,2,35,68,0,0
114950,-83.3333333333333,4,2,35,68,0,0
115437,-90.9090909090909,4,2,35,68,0,0
115680,-90.9090909090909,4,2,34,34,0,0
115761,-90.9090909090909,4,2,35,68,0,0
116004,-90.9090909090909,4,2,34,34,0,0
116085,-90.9090909090909,4,2,35,68,0,0
116896,-111.111111111111,4,2,34,68,0,0
117139,-111.111111111111,4,2,34,34,0,0
117221,-111.111111111111,4,2,35,68,0,0
118883,-111.111111111111,4,2,35,5,0,0
119004,-111.111111111111,4,2,35,68,0,0
119045,-111.111111111111,4,2,35,5,0,0
119167,-111.111111111111,4,2,35,68,0,0
119207,-111.111111111111,4,2,35,5,0,0
119329,-111.111111111111,4,2,35,68,0,0
119369,-111.111111111111,4,2,35,5,0,0
119491,-100,4,2,34,68,0,0
119734,-100,4,2,34,34,0,0
119815,-90.9090909090909,4,2,35,68,0,0
120139,-83.3333333333333,4,2,35,68,0,0
120626,-90.9090909090909,4,2,35,68,0,0
120869,-90.9090909090909,4,2,34,34,0,0
120950,-90.9090909090909,4,2,35,68,0,0
121194,-90.9090909090909,4,2,34,34,0,0
121275,-90.9090909090909,4,2,35,68,0,0
122410,-111.111111111111,4,2,35,60,0,0
122653,-111.111111111111,4,2,35,30,0,0
122734,-111.111111111111,4,2,35,60,0,0
124680,-111.111111111111,4,2,35,62,0,0
125167,-111.111111111111,4,2,35,64,0,0
125653,-111.111111111111,4,2,35,66,0,0
126139,-111.111111111111,4,2,35,68,0,0
126626,-111.111111111111,4,2,35,65,0,0
126950,-111.111111111111,4,2,35,66,0,0
127275,-133.333333333333,4,2,35,68,0,0
127437,-133.333333333333,4,2,35,30,0,0
128410,-133.333333333333,4,2,35,60,0,0
128572,-111.111111111111,4,2,35,62,0,0
128734,-111.111111111111,4,2,35,64,0,0
128896,-100,4,2,35,65,0,0
129058,-100,4,2,35,66,0,0
129139,-100,4,2,35,67,0,0
129221,-100,4,2,35,68,0,0
129302,-100,4,2,35,69,0,0
129383,-100,4,2,35,70,0,0
129464,-100,4,2,35,71,0,0
129545,-100,4,2,35,72,0,0
129626,-100,4,2,35,5,0,0
129707,-83.3333333333333,4,2,34,74,0,1
130031,-83.3333333333333,4,2,35,74,0,1
139599,-111.111111111111,4,2,35,74,0,0
139680,-111.111111111111,4,2,35,73,0,0
139761,-111.111111111111,4,2,35,72,0,0
139842,-111.111111111111,4,2,35,71,0,0
139923,-111.111111111111,4,2,76,70,0,0
140004,-111.111111111111,4,2,76,69,0,0
140085,-83.3333333333333,4,2,34,74,0,1
140410,-83.3333333333333,4,2,35,74,0,1
145680,-83.3333333333333,4,2,35,36,0,1
145761,-83.3333333333333,4,2,35,74,0,1
146977,-83.3333333333333,4,2,35,36,0,1
147058,-83.3333333333333,4,2,35,74,0,1
149491,-83.3333333333333,4,2,35,72,0,1
149815,-83.3333333333333,4,2,35,70,0,1
149977,-83.3333333333333,4,2,35,68,0,1
150139,-83.3333333333333,4,2,76,66,0,1
150302,-83.3333333333333,4,2,76,64,0,1
150464,-83.3333333333333,4,2,76,60,0,1
150626,-125,4,2,35,64,0,0
155815,-100,4,2,35,68,0,1
157275,-100,4,2,35,68,0,0
158410,-90.9090909090909,4,2,35,70,0,1
158896,-90.9090909090909,4,2,35,71,0,1
159383,-90.9090909090909,4,2,35,72,0,1
159707,-90.9090909090909,4,2,35,73,0,1
160031,-90.9090909090909,4,2,35,74,0,1
160356,-90.9090909090909,4,2,35,75,0,1
160518,-90.9090909090909,4,2,35,70,0,1
160680,-111.111111111111,4,2,35,70,0,0
161004,-83.3333333333333,4,2,34,74,0,1
161815,-83.3333333333333,4,2,35,68,0,1
161977,-83.3333333333333,4,2,35,72,0,1
162139,-83.3333333333333,4,2,35,74,0,1
162383,-83.3333333333333,4,2,35,50,0,1
162464,-83.3333333333333,4,2,35,74,0,1
162869,-83.3333333333333,4,2,35,73,0,1
162950,-83.3333333333333,4,2,35,72,0,1
163031,-83.3333333333333,4,2,35,71,0,1
163112,-83.3333333333333,4,2,35,70,0,1
163194,-83.3333333333333,4,2,35,69,0,1
163275,-83.3333333333333,4,2,35,68,0,1
163356,-83.3333333333333,4,2,35,67,0,1
163437,-83.3333333333333,4,2,35,66,0,1
163518,-83.3333333333333,4,2,35,65,0,1
163599,-83.3333333333333,4,2,35,74,0,1
164977,-83.3333333333333,4,2,35,50,0,1
165058,-83.3333333333333,4,2,35,74,0,1
166031,-83.3333333333333,4,2,35,68,0,1
166194,-83.3333333333333,4,2,35,74,0,1
168221,-83.3333333333333,4,2,35,50,0,1
168302,-83.3333333333333,4,2,35,74,0,1
170248,-83.3333333333333,4,2,35,70,0,1
170410,-83.3333333333333,4,2,35,72,0,1
170572,-83.3333333333333,4,2,35,70,0,1
170734,-83.3333333333333,4,2,35,70,0,0
171058,-83.3333333333333,4,2,35,74,0,0
171383,-83.3333333333333,4,2,34,74,0,1
171626,-83.3333333333333,4,2,35,50,0,1
171707,-83.3333333333333,4,2,34,74,0,1
171869,-83.3333333333333,4,2,35,74,0,1
173653,-133.333333333333,4,2,35,74,0,1
173896,-133.333333333333,4,2,35,50,0,1
173977,-83.3333333333333,4,2,35,74,0,1
175761,-83.3333333333333,4,2,35,72,0,1
176085,-83.3333333333333,4,2,35,70,0,1
176248,-83.3333333333333,4,2,35,70,0,0
176572,-83.3333333333333,4,2,34,72,0,1
176653,-83.3333333333333,4,2,35,72,0,1
178356,-83.3333333333333,4,2,35,72,0,0
178437,-83.3333333333333,4,2,35,71,0,0
178518,-83.3333333333333,4,2,35,70,0,0
178599,-83.3333333333333,4,2,35,69,0,0
178680,-83.3333333333333,4,2,35,68,0,0
178761,-83.3333333333333,4,2,35,67,0,0
178842,-83.3333333333333,4,2,35,66,0,0
178923,-83.3333333333333,4,2,35,65,0,0
179004,-83.3333333333333,4,2,35,64,0,0
179085,-83.3333333333333,4,2,35,63,0,0
179167,-83.3333333333333,4,2,35,62,0,1
179329,-83.3333333333333,4,2,35,63,0,1
179491,-83.3333333333333,4,2,35,64,0,1
179653,-83.3333333333333,4,2,35,65,0,1
179815,-83.3333333333333,4,2,35,66,0,1
179977,-83.3333333333333,4,2,35,67,0,1
180139,-83.3333333333333,4,2,35,68,0,1
180302,-83.3333333333333,4,2,35,69,0,1
180464,-83.3333333333333,4,2,35,70,0,1
180626,-83.3333333333333,4,2,35,71,0,1
180788,-83.3333333333333,4,2,35,72,0,1
180950,-83.3333333333333,4,2,35,73,0,1
181275,-83.3333333333333,4,2,35,74,0,1
181599,-83.3333333333333,4,2,35,75,0,1
181680,-83.3333333333333,4,2,35,65,0,1
181761,-100,4,2,34,68,0,0
182004,-100,4,2,34,34,0,0
182085,-90.9090909090909,4,2,35,68,0,0
182409,-83.3333333333333,4,2,35,68,0,0
182896,-90.9090909090909,4,2,35,68,0,0
183139,-90.9090909090909,4,2,34,34,0,0
183221,-90.9090909090909,4,2,35,68,0,0
183464,-90.9090909090909,4,2,34,34,0,0
183545,-90.9090909090909,4,2,35,68,0,0
184356,-111.111111111111,4,2,34,68,0,0
184599,-111.111111111111,4,2,34,34,0,0
184680,-111.111111111111,4,2,35,68,0,0
186342,-111.111111111111,4,2,35,5,0,0
186464,-111.111111111111,4,2,35,68,0,0
186504,-111.111111111111,4,2,35,5,0,0
186626,-111.111111111111,4,2,35,68,0,0
186667,-111.111111111111,4,2,35,5,0,0
186788,-111.111111111111,4,2,35,68,0,0
186829,-111.111111111111,4,2,35,5,0,0
186950,-100,4,2,34,68,0,0
187194,-100,4,2,34,34,0,0
187275,-90.9090909090909,4,2,35,68,0,0
187599,-83.3333333333333,4,2,35,68,0,0
188085,-90.9090909090909,4,2,35,68,0,0
188329,-90.9090909090909,4,2,34,34,0,0
188410,-90.9090909090909,4,2,35,68,0,0
188653,-90.9090909090909,4,2,34,34,0,0
188734,-90.9090909090909,4,2,35,68,0,0
189869,-111.111111111111,4,2,35,60,0,0
190112,-111.111111111111,4,2,35,30,0,0
190194,-111.111111111111,4,2,35,60,0,0
192139,-111.111111111111,4,2,35,62,0,0
192626,-111.111111111111,4,2,35,64,0,0
193437,-111.111111111111,4,2,35,66,0,0
193599,-111.111111111111,4,2,35,68,0,0
194085,-111.111111111111,4,2,35,70,0,0
194734,-142.857142857143,4,2,35,72,0,0
194815,-142.857142857143,4,2,35,5,0,0
197167,-142.857142857143,4,2,98,40,0,0
199112,-117.647058823529,4,2,35,62,0,0
199437,-133.333333333333,4,2,35,68,0,0
199680,-133.333333333333,4,2,35,5,0,0
199761,-76.9230769230769,4,2,34,76,0,1
200085,-76.9230769230769,4,2,35,76,0,1
200491,-76.9230769230769,4,2,35,38,0,1
200572,-76.9230769230769,4,2,35,76,0,1
201139,-76.9230769230769,4,2,35,38,0,1
201221,-76.9230769230769,4,2,35,76,0,1
202761,-76.9230769230769,4,2,35,38,0,1
202842,-76.9230769230769,4,2,35,76,0,1
207058,-76.9230769230769,4,2,35,76,0,0
207139,-76.9230769230769,4,2,35,75,0,0
207221,-76.9230769230769,4,2,35,74,0,0
207302,-76.9230769230769,4,2,35,73,0,0
207383,-76.9230769230769,4,2,76,72,0,0
207464,-76.9230769230769,4,2,76,71,0,0
207545,-76.9230769230769,4,2,34,76,0,1
208031,-76.9230769230769,4,2,35,76,0,1
210869,-76.9230769230769,4,2,35,38,0,1
210950,-76.9230769230769,4,2,35,76,0,1
211518,-76.9230769230769,4,2,35,38,0,1
211599,-76.9230769230769,4,2,35,76,0,1
213139,-76.9230769230769,4,2,35,38,0,1
213220,-76.9230769230769,4,2,35,76,0,1
214437,-76.9230769230769,4,2,35,38,0,1
214518,-76.9230769230769,4,2,35,76,0,1
216788,-76.9230769230769,4,2,35,74,0,1
216950,-76.9230769230769,4,2,35,72,0,1
217275,-76.9230769230769,4,2,35,70,0,1
217437,-76.9230769230769,4,2,35,68,0,1
217599,-76.9230769230769,4,2,76,66,0,1
217761,-76.9230769230769,4,2,76,64,0,1
217923,-76.9230769230769,4,2,76,60,0,1
218085,-76.9230769230769,4,2,35,72,0,0
223275,-76.9230769230769,4,2,35,68,0,1
223923,-100,4,2,35,68,0,1
224734,-76.9230769230769,4,2,35,68,0,0
225869,-90.9090909090909,4,2,35,70,0,1
226356,-90.9090909090909,4,2,35,71,0,1
226842,-90.9090909090909,4,2,35,72,0,1
227167,-90.9090909090909,4,2,35,73,0,1
227491,-90.9090909090909,4,2,35,74,0,1
227815,-90.9090909090909,4,2,35,70,0,1
228139,-90.9090909090909,4,2,35,71,0,1
228464,-100,4,2,34,72,0,0
228707,-100,4,2,34,36,0,0
228788,-100,4,2,35,72,0,0
229031,-100,4,2,34,36,0,0
229112,-100,4,2,35,72,0,0
229842,-100,4,2,34,36,0,0
229923,-100,4,2,35,72,0,0
231869,-100,4,2,35,60,0,0
231950,-100,4,2,35,61,0,0
232031,-100,4,2,35,62,0,0
232112,-100,4,2,35,63,0,0
232194,-100,4,2,35,64,0,0
232275,-100,4,2,35,65,0,0
232356,-100,4,2,35,66,0,0
232437,-100,4,2,35,67,0,0
232518,-100,4,2,35,68,0,0
232599,-100,4,2,35,69,0,0
232680,-100,4,2,35,70,0,0
232761,-100,4,2,35,71,0,0
232842,-100,4,2,35,72,0,0
234221,-100,4,2,34,36,0,0
234302,-100,4,2,35,72,0,0
235031,-100,4,2,34,36,0,0
235112,-100,4,2,35,72,0,0
241112,-100,4,2,76,72,0,0
241275,-169.491525423729,4,2,35,72,0,0
241356,-169.491525423729,4,2,35,5,0,0
246626,-169.491525423729,4,2,98,14,0,0

[Colours]
Combo1 : 190,230,250
Combo2 : 125,205,240
Combo3 : 220,220,220
Combo4 : 255,120,120
Combo5 : 230,210,255
Combo6 : 180,170,240
Combo7 : 170,170,170
Combo8 : 255,185,120

[HitObjects]
0,121,140,21,10,0:1:0:0:
14,239,302,1,10,0:1:0:0:
125,71,2734,53,10,0:1:0:0:
100,202,2896,1,10,0:1:0:0:
193,77,3869,86,0,B|247:65|247:65|263:35|263:35|320:26,1,143.999995605469,14|8,0:1|0:1,0:0:0:0:
428,40,4356,1,8,0:0:0:0:
423,57,4437,1,8,0:0:0:0:
425,75,4518,1,8,0:0:0:0:
431,91,4599,1,8,0:0:0:0:
443,105,4680,2,0,L|489:120,3,35.9999989013672,8|8|8|8,0:3|0:3|0:3|0:3,0:0:0:0:
502,192,5004,2,0,L|491:226,3,35.9999989013672,4|4|4|4,0:3|0:3|0:3|0:3,0:0:0:0:
425,270,5329,70,0,P|388:251|296:258,1,120,14|0,0:1|0:0,0:0:0:0:
299,263,5653,2,0,L|281:375,1,80,10|0,0:0|0:0,0:0:0:0:
153,286,5977,1,10,0:1:0:0:
163,380,6139,2,0,L|150:301,1,80,10|8,0:1|0:0,0:0:0:0:
115,146,6464,54,0,B|72:147|38:168|38:168|26:129|-1:100,1,160,14|10,0:1|0:1,0:0:0:0:
118,21,6950,1,10,0:0:0:0:
204,102,7112,2,0,P|202:135|228:195,1,80,14|0,0:1|0:0,0:0:0:0:
328,54,7437,53,10,0:1:0:0:
328,54,7518,1,10,0:1:0:0:
328,54,7599,1,10,0:0:0:0:
403,25,7761,1,2,0:0:0:0:
474,60,7923,2,0,P|490:99|477:165,1,80,14|8,0:1|0:1,0:0:0:0:
399,210,8248,53,10,0:0:0:0:
304,204,8410,1,10,0:1:0:0:
304,204,8491,1,8,0:0:0:0:
304,204,8572,1,8,0:1:0:0:
298,346,8734,53,10,0:1:0:0:
401,354,8896,1,10,0:0:0:0:
284,357,9058,2,0,B|234:345|234:345|195:369|195:369|125:357,1,160,14|10,0:1|0:1,0:0:0:0:
56,382,9545,1,10,0:0:0:0:
25,239,9707,1,10,0:1:0:0:
25,239,9788,1,0,0:0:0:0:
25,239,9869,1,8,0:1:0:0:
123,220,10031,53,10,0:1:0:0:
186,273,10194,1,10,0:0:0:0:
202,192,10356,1,2,0:0:0:0:
61,163,10518,54,0,P|61:124|76:87,1,80,14|8,0:1|0:1,0:0:0:0:
236,113,10842,2,0,P|264:85|300:69,1,80,10|0,0:0|0:0,0:0:0:0:
370,226,11167,1,10,0:1:0:0:
436,188,11329,2,0,P|475:188|512:202,1,80,10|8,0:1|0:0,0:0:0:0:
304,152,11653,54,0,P|275:89|277:-10,1,160,14|10,0:1|0:1,0:0:0:0:
274,0,12139,1,10,0:0:0:0:
190,95,12302,2,0,L|95:80,1,80,14|0,0:1|0:0,0:0:0:0:
110,82,12545,1,2,0:0:0:0:
110,82,12626,1,10,0:1:0:0:
48,126,12788,1,10,0:0:0:0:
85,10,12950,1,10,0:0:0:0:
190,176,13112,53,14,0:1:0:0:
269,119,13275,1,10,0:1:0:0:
326,198,13437,1,10,0:0:0:0:
247,255,13599,1,14,0:1:0:0:
247,255,13923,53,10,0:1:0:0:
304,334,14085,1,10,0:0:0:0:
383,277,14248,1,14,0:1:0:0:
383,277,14572,53,10,0:1:0:0:
326,198,14734,1,10,0:0:0:0:
405,141,14896,1,14,0:1:0:0:
405,141,15221,53,10,0:1:0:0:
348,62,15383,1,10,0:0:0:0:
269,119,15545,2,0,B|224:144|224:144|68:112|68:112|52:110|16:107|-4:161|28:184|44:189|44:189|174:216|174:216|187:219|234:230|214:315|163:292|150:291|150:291|57:271,1,680,14|0,0:1|0:1,0:0:0:0:
0,342,25275,69,8,0:1:0:0:
61,292,25437,1,8,0:0:0:0:
92,364,25599,1,8,0:1:0:0:
159,323,25761,1,8,0:0:0:0:
156,297,25842,1,8,0:0:0:0:
160,271,25923,1,8,0:0:0:0:
171,248,26004,1,8,0:0:0:0:
187,228,26085,1,14,0:1:0:0:
372,350,26410,86,0,L|477:341,1,71.9999978027344,10|0,0:0|0:0,0:0:0:0:
375,249,26734,2,0,P|379:213|362:159,1,71.9999978027344,10|8,0:1|0:1,0:0:0:0:
371,178,27058,1,10,0:0:0:0:
232,231,27221,54,0,L|69:211,1,143.999995605469,10|8,0:1|0:1,0:0:0:0:
147,108,27707,2,0,L|163:6,1,71.9999978027344,10|0,0:0|0:0,0:0:0:0:
243,159,28031,2,0,L|227:261,1,71.9999978027344,10|8,0:1|0:1,0:0:0:0:
357,185,28356,2,0,L|459:201,1,71.9999978027344,10|0,0:0|0:0,0:0:0:0:
320,86,28680,54,0,P|331:42|322:-6,1,71.9999978027344,10|8,0:1|0:1,0:0:0:0:
328,15,28923,1,8,0:1:0:0:
328,15,29004,1,10,0:0:0:0:
223,50,29167,2,0,L|53:54,1,143.999995605469,2|8,0:0|0:1,0:0:0:0:
0,136,29653,53,10,0:0:0:0:
0,136,29815,1,8,0:1:0:0:
75,185,29977,2,0,P|114:184|162:149,1,71.9999978027344,2|8,0:0|0:1,0:0:0:0:
223,50,30302,2,0,P|204:84|210:143,1,71.9999978027344,10|0,0:0|0:0,0:0:0:0:
265,245,30626,2,0,P|244:211|190:187,1,71.9999978027344,10|8,0:1|0:1,0:0:0:0:
75,185,30950,2,0,P|110:184|143:169,1,71.9999978027344,10|0,0:0|0:0,0:0:0:0:
202,116,31275,54,0,P|205:81|316:25,1,143.999995605469,10|8,0:1|0:0,0:0:0:0:
382,73,31761,1,2,0:0:0:0:
382,73,31842,1,2,0:0:0:0:
382,73,31923,2,0,L|394:158,1,71.9999978027344,10|8,0:1|0:1,0:0:0:0:
320,245,32248,53,10,0:0:0:0:
306,162,32410,2,0,L|283:-1,1,143.999995605469,10|8,0:1|0:1,0:0:0:0:
202,116,32896,2,0,L|130:126,1,71.9999978027344,10|8,0:0|0:1,0:0:0:0:
112,47,33221,2,0,L|183:36,1,71.9999978027344,2|8,0:0|0:1,0:0:0:0:
229,192,33545,2,0,L|157:202,1,71.9999978027344,10|0,0:0|0:0,0:0:0:0:
24,262,33869,54,0,P|6:312|23:363,1,107.999996704102,14|0,0:1|0:0,0:0:0:0:
32,376,34194,2,0,L|103:365,1,71.9999978027344,10|0,0:0|0:0,0:0:0:0:
223,294,34518,53,10,0:1:0:0:
223,294,34680,1,8,0:1:0:0:
299,376,34842,1,8,0:0:0:0:
299,376,35004,1,8,0:1:0:0:
331,265,35167,54,0,P|336:232|329:191,1,71.9999978027344,10|8,0:1|0:1,0:0:0:0:
142,229,35491,2,0,P|137:193|142:158,1,71.9999978027344,8|8,0:0|0:1,0:0:0:0:
222,43,35815,53,14,0:0:0:0:
258,144,35977,1,8,0:0:0:0:
359,108,36139,1,8,0:0:0:0:
323,7,36302,1,8,0:0:0:0:
177,119,36464,102,0,B|152:147|152:147|46:124,1,120,14|0,0:1|0:0,0:1:0:0:
2,153,36788,2,0,P|2:99|34:65,1,88.000002685547,10|8,0:1|0:1,0:1:0:0:
202,27,37112,2,0,B|243:69|243:69|399:37,1,191.999994140625,14|8,0:0|0:1,0:0:0:0:
499,200,37599,54,0,B|522:149|470:116|470:116|443:136,1,132.00000402832,14|0,0:1|0:0,0:0:0:0:
405,212,37923,2,0,P|456:244|499:200,1,132.00000402832,10|0,0:0|0:0,0:0:0:0:
444,136,38248,2,0,B|419:120|419:120|412:101|412:101|378:83,1,88.000002685547,14|8,0:1|0:0,0:0:0:0:
222,30,38572,53,10,0:1:0:0:
283,105,38734,1,8,0:1:0:0:
316,7,38896,1,8,0:0:0:0:
273,120,39058,54,0,P|264:170|303:211,1,107.999996704102,14|0,0:1|0:0,0:0:0:0:
317,216,39383,2,0,P|361:205|399:219,1,71.9999978027344,10|8,0:1|0:1,0:0:0:0:
428,299,39707,2,0,P|401:359|330:353,1,143.999995605469,14|8,0:0|0:1,0:0:0:0:
246,313,40194,2,0,P|180:283|94:314,2,143.999995605469,10|8|8,0:1|0:0|0:1,0:0:0:0:
340,371,41004,37,10,0:2:0:0:
352,366,41167,53,10,0:2:0:0:
364,361,41329,53,10,0:2:0:0:
376,356,41491,53,10,0:2:0:0:
506,384,41653,70,0,B|522:352|522:352|484:239,1,120,14|0,0:1|0:0,0:0:0:0:
433,225,41977,2,0,P|468:200|511:199,1,88.000002685547,10|8,0:1|0:1,0:0:0:0:
370,125,42302,2,0,B|254:115|330:53|177:50,1,191.999994140625,14|8,0:0|0:1,0:0:0:0:
26,164,42788,54,0,P|16:108|65:38,1,132.00000402832,14|0,0:1|0:0,0:0:0:0:
123,83,43112,2,0,P|133:139|84:209,1,132.00000402832,10|0,0:0|0:0,0:0:0:0:
30,245,43437,2,0,B|-10:319|58:368|58:368|110:346,1,176.000005371094,14|0,0:1|1:1,0:0:0:0:
170,294,43923,53,0,1:2:0:0:
172,278,44004,1,0,1:1:0:0:
175,262,44085,1,0,1:1:0:0:
177,246,44167,1,0,1:1:0:0:
180,230,44248,1,14,1:1:0:0:
358,384,44572,70,0,L|351:270,1,107.999996704102,10|0,0:0|0:0,0:0:0:0:
366,261,44896,2,0,B|436:279|436:279|496:239,1,143.999995605469,10|10,0:1|0:0,0:0:0:0:
357,162,45383,2,0,P|369:93|316:44,1,143.999995605469,10|8,0:1|0:1,0:0:0:0:
233,132,45869,54,0,L|140:123,1,71.9999978027344,10|0,0:0|0:0,0:0:0:0:
40,141,46194,2,0,L|46:69,1,71.9999978027344,10|8,0:1|0:1,0:0:0:0:
233,132,46518,2,0,L|226:203,1,71.9999978027344,10|8,0:0|0:1,0:0:0:0:
297,327,46842,69,14,0:0:0:0:
372,351,47004,1,8,0:1:0:0:
448,334,47167,1,8,0:1:0:0:
394,271,47329,53,14,0:0:0:0:
452,218,47491,1,8,0:1:0:0:
475,143,47653,1,8,0:1:0:0:
395,158,47815,53,14,0:0:0:0:
378,81,47977,1,8,0:1:0:0:
324,23,48139,1,8,0:1:0:0:
295,99,48302,53,14,0:0:0:0:
219,75,48464,1,8,0:1:0:0:
142,92,48626,1,8,0:1:0:0:
195,157,48788,86,0,P|171:182|159:212,2,47.9999985351563,8|8|8,0:3|0:3|0:3,0:0:0:0:
262,94,49112,53,4,0:3:0:0:
300,114,49221,1,4,0:3:0:0:
342,105,49329,1,4,0:3:0:0:
361,66,49437,53,14,0:1:0:0:
256,192,49518,12,2,51383,0:0:0:0:
475,338,51869,86,0,P|499:248|450:169,1,191.999994140625,14|8,0:1|0:1,0:0:0:0:
251,200,52356,2,0,L|242:295,1,95.9999970703126,10|0,0:0|0:0,0:0:0:0:
362,333,52680,2,0,L|370:237,1,95.9999970703126,10|8,0:1|0:1,0:0:0:0:
235,106,53004,53,10,0:0:0:0:
148,155,53167,2,0,P|98:233|123:323,1,191.999994140625,2|8,0:0|0:1,0:0:0:0:
362,333,53653,2,0,L|370:237,1,95.9999970703126,10|0,0:0|0:0,0:0:0:0:
379,220,53896,1,8,0:0:0:0:
389,203,53977,2,0,P|402:158|388:109,1,95.9999970703126,10|8,0:1|0:1,0:0:0:0:
266,0,54302,53,10,0:0:0:0:
211,91,54464,2,0,B|190:132|128:125|128:125|112:71|63:60,1,191.999994140625,14|8,0:1|0:1,0:0:0:0:
44,63,54869,1,8,0:1:0:0:
26,70,54950,2,0,P|-1:116|9:171,1,95.9999970703126,8|0,0:0|0:0,0:0:0:0:
124,246,55275,53,10,0:1:0:0:
124,246,55437,1,8,0:1:0:0:
40,342,55599,2,0,L|32:233,1,95.9999970703126,8|0,0:0|0:0,0:0:0:0:
179,174,55923,53,10,0:1:0:0:
179,174,56085,1,8,0:1:0:0:
263,270,56248,2,0,L|270:174,1,95.9999970703126,8|0,0:0|0:0,0:0:0:0:
270,174,56491,1,8,0:0:0:0:
270,174,56572,1,10,0:1:0:0:
356,218,56734,1,8,0:1:0:0:
356,218,56815,1,8,0:1:0:0:
356,218,56896,1,8,0:0:0:0:
392,88,57058,53,10,0:1:0:0:
471,160,57221,2,0,P|507:226|467:364,1,191.999994140625,14|10,0:1|0:0,0:0:0:0:
323,347,57707,2,0,L|203:331,1,95.9999970703126,2|8,0:0|0:1,0:0:0:0:
260,205,58031,2,0,L|355:217,1,95.9999970703126,10|8,0:1|0:0,0:1:0:0:
248,48,58356,54,0,P|214:128|131:102,1,191.999994140625,10|8,0:1|0:1,0:0:0:0:
25,141,58842,2,0,P|16:94|35:36,1,95.9999970703126,10|0,0:0|0:0,0:0:0:0:
42,35,59085,1,8,0:0:0:0:
60,28,59167,2,0,L|162:12,1,95.9999970703126,10|8,0:1|0:1,0:0:0:0:
207,170,59491,2,0,L|309:154,1,95.9999970703126,10|8,0:0|0:1,0:0:0:0:
419,55,59815,53,14,0:1:0:0:
419,55,59977,1,8,0:1:0:0:
500,201,60139,2,0,P|508:150|486:110,1,95.9999970703126,8|0,0:0|0:0,0:0:0:0:
293,177,60464,53,10,0:1:0:0:
375,225,60626,1,8,0:1:0:0:
327,307,60788,1,8,0:0:0:0:
245,259,60950,2,0,B|141:230|167:311|52:268,1,191.999994140625,14|8,0:1|0:1,0:1:0:0:
178,152,61437,2,8,P|174:106|203:52,1,95.9999970703126,8|10,3:2|3:1,3:1:0:0:
372,6,61761,5,8,3:3:0:0:
373,17,61842,1,8,3:3:0:0:
375,29,61923,1,4,3:3:0:0:
377,41,62004,1,4,3:3:0:0:
379,53,62085,1,8,3:3:0:0:
380,65,62167,1,8,3:3:0:0:
381,76,62248,102,0,B|396:114|411:129|411:129|413:169|396:198|396:198|413:226|418:255,1,191.999994140625,14|8,0:1|0:1,0:1:0:0:
232,382,62734,2,0,B|235:347|235:347|232:342|232:342|236:336|236:336|245:280,1,95.9999970703126,10|0,0:0|0:0,0:0:0:0:
432,346,63058,2,0,B|427:311|427:311|429:306|429:306|425:300|425:300|418:253,1,95.9999970703126,10|8,0:1|0:1,0:0:0:0:
243,158,63383,53,10,0:0:0:0:
156,223,63545,2,0,B|75:273|75:273|1:210,1,191.999994140625,2|0,0:0|0:0,0:0:0:0:
89,111,64031,2,0,P|93:56|130:6,1,95.9999970703126,8|0,0:0|0:0,0:0:0:0:
113,21,64275,1,8,0:0:0:0:
113,21,64356,1,8,0:1:0:0:
303,71,64518,53,10,0:1:0:0:
230,0,64680,1,10,0:0:0:0:
187,108,64842,2,0,P|174:202|200:294,1,191.999994140625,14|8,0:1|0:1,0:0:0:0:
213,310,65248,1,8,0:1:0:0:
224,325,65329,2,0,B|344:307,1,95.9999970703126,10|0,0:0|0:0,0:0:0:0:
486,368,65653,53,10,0:1:0:0:
486,368,65815,1,8,0:1:0:0:
415,261,65977,2,0,L|397:368,1,95.9999970703126,10|0,0:0|0:0,0:0:0:0:
295,218,66302,53,10,0:1:0:0:
295,218,66464,1,8,0:1:0:0:
224,325,66626,2,0,L|196:160,1,143.999995605469,10|8,0:0|0:0,0:0:0:0:
161,116,66950,54,0,P|119:93|65:106,1,95.9999970703126,10|0,0:1|0:0,0:0:0:0:
72,100,67194,1,2,0:0:0:0:
72,100,67275,1,10,0:0:0:0:
0,215,67437,54,0,P|31:203|63:198,1,47.9999985351563,10|8,0:3|0:3,0:0:0:0:
106,242,67599,2,0,P|134:327|224:325,1,191.999994140625,14|10,0:1|0:2,0:0:0:0:
297,208,68085,2,0,L|270:104,1,95.9999970703126,2|8,0:0|0:1,0:0:0:0:
200,213,68410,2,0,L|176:121,1,95.9999970703126,2|8,0:0|0:0,0:0:0:0:
379,154,68734,53,2,1:0:0:0:
379,154,68815,1,2,1:0:0:0:
379,154,68896,2,0,P|467:141|482:53,1,191.999994140625,10|10,0:1|0:0,0:0:0:0:
282,19,69383,2,0,L|272:114,1,95.9999970703126,2|8,0:0|0:1,0:0:0:0:
125,150,69707,2,0,L|134:54,1,95.9999970703126,2|8,0:0|0:0,0:0:0:0:
201,227,70031,53,2,0:0:0:0:
279,207,70194,2,0,L|382:183,1,95.9999970703126,14|8,0:1|0:1,0:0:0:0:
319,280,70518,2,0,L|422:256,1,95.9999970703126,8|8,0:0|0:1,0:0:0:0:
198,311,70842,54,0,L|95:287,1,95.9999970703126,10|8,0:1|0:1,0:0:0:0:
158,384,71167,2,0,L|55:360,1,95.9999970703126,8|8,0:0|0:1,0:0:0:0:
20,226,71491,53,10,0:1:0:0:
112,296,71653,1,8,0:1:0:0:
112,296,71734,1,8,0:1:0:0:
112,296,71815,2,0,L|133:196,1,95.9999970703126,8|8,0:0|0:3,0:0:0:0:
211,94,72139,53,4,0:3:0:0:
265,196,72302,1,8,0:3:0:0:
367,142,72464,1,4,0:3:0:0:
313,40,72626,1,4,0:3:0:0:
295,122,72788,69,14,0:1:0:0:
295,122,72950,1,8,0:1:0:0:
295,122,73112,1,8,0:1:0:0:
256,320,73437,53,8,0:0:0:0:
160,192,73761,53,8,0:1:0:0:
160,192,73923,1,8,0:1:0:0:
256,320,74248,53,8,0:0:0:0:
163,332,74572,53,8,0:1:0:0:
256,320,74734,1,8,0:0:0:0:
311,380,74896,1,8,0:1:0:0:
402,220,75221,53,8,0:1:0:0:
337,182,75383,53,12,0:1:0:0:
337,182,75545,1,8,0:1:0:0:
337,182,75707,1,8,0:1:0:0:
256,320,76031,53,8,0:0:0:0:
233,141,76356,53,8,0:1:0:0:
233,141,76518,1,8,0:1:0:0:
256,320,76842,53,8,0:0:0:0:
341,298,77167,53,8,0:1:0:0:
256,320,77329,1,8,0:0:0:0:
356,381,77491,1,8,0:1:0:0:
256,320,77653,1,8,0:0:0:0:
512,187,77977,85,14,0:0:0:0:
442,241,78139,1,8,0:1:0:0:
375,165,78302,1,8,0:1:0:0:
332,253,78464,1,8,0:0:0:0:
263,175,78626,5,8,0:3:0:0:
263,175,78734,2,0,P|275:154|267:116,1,53.3333333333333,8|8,0:3|0:3,0:0:0:0:
198,109,78950,53,4,0:3:0:0:
198,109,79058,2,0,P|197:84|171:55,1,53.3333333333333,4|4,0:3|0:3,0:0:0:0:
105,91,79275,69,10,0:1:0:0:
72,0,79437,1,10,0:1:0:0:
0,152,80572,6,0,L|8:59,2,88.000002685547,14|8|8,0:0|0:1|0:1,0:0:0:0:
49,291,81058,2,0,L|41:384,2,88.000002685547,14|8|8,0:0|0:1|0:1,0:0:0:0:
156,197,81545,53,14,0:0:0:0:
176,290,81707,1,8,0:1:0:0:
265,244,81869,53,14,0:0:0:0:
245,151,82031,1,8,0:1:0:0:
346,161,82194,53,14,0:0:0:0:
366,254,82356,1,8,0:1:0:0:
456,214,82518,53,14,0:0:0:0:
436,121,82680,1,10,0:1:0:0:
436,121,82761,1,10,0:1:0:0:
436,121,82842,2,0,L|418:36,1,71.9999978027344,14|8,0:0|0:1,0:0:0:0:
266,51,83167,86,0,B|225:40|225:40|199:55|199:55|137:39,1,120,14|0,0:1|0:0,0:0:0:0:
45,132,83491,2,0,L|38:20,1,80,10|0,0:0|0:0,0:0:0:0:
166,185,83815,1,10,0:1:0:0:
262,131,83977,2,0,L|269:19,1,80,10|8,0:1|0:0,0:0:0:0:
362,218,84302,54,0,B|411:187|476:221|476:221|516:202,1,160,14|10,0:1|0:1,0:0:0:0:
409,113,84788,1,10,0:0:0:0:
362,218,84950,2,0,L|357:297,1,80,14|0,0:1|0:0,0:0:0:0:
242,368,85275,53,10,0:1:0:0:
242,368,85356,1,10,0:1:0:0:
242,368,85437,1,10,0:0:0:0:
167,335,85599,1,2,0:0:0:0:
86,364,85761,2,0,L|90:284,1,80,14|8,0:1|0:1,0:0:0:0:
189,158,86085,53,10,0:0:0:0:
204,259,86248,1,10,0:1:0:0:
204,259,86329,1,8,0:0:0:0:
204,259,86410,1,8,0:1:0:0:
334,221,86572,53,10,0:1:0:0:
319,120,86734,1,10,0:0:0:0:
339,236,86896,2,0,B|409:275|409:275|465:217,1,160,14|10,0:1|0:1,0:0:0:0:
512,158,87383,1,10,0:0:0:0:
403,70,87545,1,10,0:1:0:0:
403,70,87626,1,0,0:0:0:0:
403,70,87707,1,8,0:1:0:0:
319,13,87869,53,10,0:1:0:0:
307,94,88031,1,10,0:0:0:0:
241,45,88194,1,2,0:0:0:0:
163,130,88356,54,0,P|151:92|160:47,1,80,14|8,0:1|0:1,0:0:0:0:
279,179,88680,2,0,P|285:218|273:255,1,80,10|0,0:0|0:0,0:0:0:0:
176,368,89004,1,10,0:1:0:0:
103,320,89167,2,0,P|91:282|97:243,1,80,10|8,0:1|0:0,0:0:0:0:
261,166,89491,54,0,B|312:146|312:146|332:105|332:105|387:83,1,160,14|10,0:1|0:1,0:0:0:0:
387,83,89977,1,10,0:0:0:0:
246,80,90139,2,0,L|155:68,1,80,14|0,0:1|0:0,0:0:0:0:
166,69,90383,1,2,0:0:0:0:
166,69,90464,1,10,0:1:0:0:
62,96,90626,1,10,0:0:0:0:
87,0,90788,1,10,0:0:0:0:
141,164,90950,53,14,0:1:0:0:
52,201,91112,1,10,0:1:0:0:
89,290,91275,1,10,0:0:0:0:
178,253,91437,1,14,0:1:0:0:
178,253,91761,53,10,0:1:0:0:
215,342,91923,1,10,0:0:0:0:
304,305,92085,1,14,0:1:0:0:
304,305,92410,53,10,0:1:0:0:
267,216,92572,1,10,0:0:0:0:
356,179,92734,1,14,0:1:0:0:
356,179,93058,53,10,0:1:0:0:
361,198,93139,1,8,0:1:0:0:
367,217,93221,1,10,0:0:0:0:
444,284,93383,2,0,B|479:304|479:304|497:59|497:59|499:42|483:19|449:15|428:36|427:53|427:53|418:163|418:163|417:175|395:201|361:198|348:169|348:153|348:153|354:59,1,680,14|0,0:1|0:1,0:0:0:0:
353,73,97437,69,2,0:0:0:0:
363,63,97599,1,0,0:0:0:0:
430,94,97761,1,0,0:0:0:0:
380,156,97923,1,0,0:0:0:0:
311,147,98085,1,2,0:0:0:0:
371,99,98248,1,0,0:0:0:0:
412,170,98410,1,0,0:0:0:0:
338,183,98572,1,0,0:0:0:0:
382,84,98734,1,10,0:0:0:0:
382,84,100031,53,2,0:0:0:0:
460,181,100680,1,2,0:0:0:0:
337,201,101329,1,10,0:0:0:0:
245,114,102626,53,2,0:0:0:0:
120,236,103275,1,2,0:0:0:0:
290,283,103923,1,10,0:0:0:0:
391,224,104248,53,2,0:0:0:0:
404,342,104572,1,2,0:0:0:0:
484,274,104896,53,2,0:0:0:0:
484,274,105058,1,2,0:0:0:0:
383,208,105383,53,2,0:0:0:0:
383,208,105545,1,2,0:0:0:0:
486,150,105869,53,2,0:0:0:0:
484,274,106194,1,2,0:0:0:0:
363,189,106518,53,10,0:0:0:0:
340,174,107491,53,2,0:0:0:0:
305,347,107815,1,2,0:0:0:0:
229,186,108139,1,2,0:0:0:0:
385,272,108464,1,2,0:0:0:0:
209,294,108788,1,2,0:0:0:0:
229,186,109112,53,10,0:0:0:0:
301,254,109437,53,2,0:0:0:0:
301,254,109599,1,2,0:0:0:0:
293,23,110085,53,2,0:0:0:0:
250,89,110248,1,0,0:0:0:0:
304,42,110410,1,2,0:0:0:0:
236,61,110572,1,0,0:0:0:0:
274,70,110734,1,2,0:0:0:0:
393,44,111058,53,2,0:0:0:0:
463,136,111383,53,2,0:0:0:0:
0,122,113491,37,8,2:2:0:0:
0,122,113572,1,8,2:2:0:0:
0,122,113653,1,8,2:2:0:0:
44,213,113815,1,8,2:2:0:0:
135,169,113977,1,8,2:2:0:0:
91,78,114139,1,8,2:2:0:0:
219,120,114302,22,0,B|276:145|276:145|345:104,1,120,14|0,0:1|0:0,0:1:0:0:
400,130,114626,2,0,P|397:84|369:53,1,88.000002685547,10|8,0:1|0:1,0:1:0:0:
204,135,114950,2,0,P|177:195|214:332,1,191.999994140625,14|8,0:0|0:1,0:0:0:0:
398,379,115437,54,0,B|376:337|376:337|412:244,1,132.00000402832,14|0,0:1|0:0,0:0:0:0:
479,217,115761,2,0,B|501:259|501:259|470:337,1,132.00000402832,10|0,0:0|0:0,0:0:0:0:
398,379,116085,2,0,B|371:372|371:372|349:376|349:376|304:360,1,88.000002685547,14|8,0:1|0:0,0:0:0:0:
210,293,116410,53,10,0:1:0:0:
309,249,116572,1,8,0:1:0:0:
199,278,116734,1,8,0:0:0:0:
264,167,116896,54,0,P|283:133|269:65,1,107.999996704102,14|0,0:1|0:0,0:0:0:0:
259,58,117221,2,0,L|181:44,1,71.9999978027344,10|8,0:1|0:1,0:0:0:0:
84,86,117545,2,0,P|55:134|69:236,1,143.999995605469,14|8,0:0|0:1,0:0:0:0:
145,279,118031,2,0,L|302:307,2,143.999995605469,10|8|8,0:1|0:0|0:1,0:0:0:0:
59,219,118842,37,10,0:2:0:0:
58,206,119004,53,10,0:2:0:0:
58,193,119167,53,10,0:2:0:0:
58,180,119329,53,10,0:2:0:0:
121,92,119491,70,0,B|161:83|161:83|180:61|180:61|232:54,1,120,14|0,0:1|0:0,0:0:0:0:
308,86,119815,2,0,B|318:43|318:43|296:5,1,88.000002685547,10|8,0:1|0:1,0:0:0:0:
199,158,120139,2,0,B|176:197|176:197|225:360,1,191.999994140625,14|8,0:0|0:1,0:0:0:0:
403,384,120626,54,0,L|407:241,1,132.00000402832,14|0,0:1|0:0,0:0:0:0:
487,321,120950,2,0,L|490:189,1,132.00000402832,10|0,0:0|0:0,0:0:0:0:
406,252,121275,2,0,L|409:143,1,88.000002685547,14|8,0:1|2:0,0:0:0:0:
330,52,121599,53,10,0:1:0:0:
289,199,121761,1,10,0:0:0:0:
220,100,121923,1,8,0:0:0:0:
398,150,122085,1,14,0:1:0:0:
398,150,122410,70,0,P|410:213|385:267,1,107.999996704102,10|0,0:0|0:0,0:0:0:0:
383,276,122734,2,0,B|339:266|339:266|300:284|300:284|224:269,1,143.999995605469,10|10,0:1|0:0,0:0:0:0:
139,379,123221,2,0,L|130:223,1,143.999995605469,10|8,0:1|0:1,0:0:0:0:
30,183,123707,54,0,L|22:260,1,71.9999978027344,10|0,0:0|0:0,0:0:0:0:
168,122,124031,2,0,L|91:114,1,71.9999978027344,10|8,0:1|0:1,0:0:0:0:
229,260,124356,2,0,L|237:183,1,71.9999978027344,10|0,0:0|0:0,0:0:0:0:
322,93,124680,69,14,0:0:0:0:
350,166,124842,1,8,0:1:0:0:
427,178,125004,1,8,0:1:0:0:
355,179,125167,53,14,0:0:0:0:
432,191,125329,1,8,0:1:0:0:
481,130,125491,1,8,0:1:0:0:
445,192,125653,53,14,0:0:0:0:
494,132,125815,1,8,0:1:0:0:
466,59,125977,1,8,0:1:0:0:
501,121,126139,53,14,0:0:0:0:
474,48,126302,1,8,0:1:0:0:
397,36,126464,1,8,0:1:0:0:
307,108,126626,86,0,L|302:167,2,47.9999985351563,8|8|8,0:3|0:3|0:3,0:0:0:0:
263,29,126950,53,4,0:3:0:0:
239,59,127058,1,4,0:3:0:0:
201,68,127167,1,4,0:3:0:0:
163,53,127275,38,0,B|125:18|51:32|51:32|-12:164|74:259,1,360.000013732911,14|0,0:1|0:0,0:0:0:0:
197,205,128410,5,8,0:1:0:0:
173,346,128572,1,12,0:0:0:0:
256,288,128734,1,8,0:1:0:0:
339,230,128896,1,12,0:0:0:0:
315,371,129058,1,0,1:1:0:0:
316,364,129139,1,0,1:1:0:0:
317,357,129221,1,0,1:1:0:0:
318,351,129302,1,0,1:1:0:0:
319,344,129383,1,0,1:1:0:0:
320,338,129464,1,0,1:1:0:0:
321,332,129545,1,0,1:2:0:0:
436,280,129707,86,0,B|493:307|493:307|454:164,1,191.999994140625,14|8,0:1|0:1,0:0:0:0:
248,225,130194,2,0,L|268:131,1,95.9999970703126,10|0,0:0|0:0,0:0:0:0:
459,182,130518,2,0,L|439:88,1,95.9999970703126,10|8,0:1|0:1,0:0:0:0:
207,2,130842,53,10,0:0:0:0:
137,137,131004,2,0,B|80:164|80:164|113:39,1,191.999994140625,2|8,0:0|0:1,0:0:0:0:
240,167,131491,2,0,P|283:147|330:151,1,95.9999970703126,10|0,0:0|0:0,0:0:0:0:
348,157,131734,1,8,0:0:0:0:
364,167,131815,2,0,P|383:210|379:257,1,95.9999970703126,10|8,0:1|0:1,0:0:0:0:
198,250,132139,53,10,0:0:0:0:
133,329,132302,2,0,B|93:362|93:362|7:349|15:260,1,191.999994140625,14|8,0:1|0:1,0:0:0:0:
20,244,132707,1,8,0:1:0:0:
22,226,132788,2,0,B|37:198|37:198|38:172|38:172|60:125,1,95.9999970703126,8|0,0:0|0:0,0:0:0:0:
213,66,133112,53,10,0:1:0:0:
213,66,133275,1,8,0:1:0:0:
142,183,133437,2,0,L|127:81,1,95.9999970703126,8|0,0:0|0:0,0:0:0:0:
298,19,133761,53,10,0:1:0:0:
298,19,133923,1,8,0:1:0:0:
369,136,134085,2,0,L|384:34,1,95.9999970703126,8|0,0:0|0:0,0:0:0:0:
382,41,134329,1,8,0:0:0:0:
382,41,134410,1,10,0:1:0:0:
485,84,134572,1,8,0:1:0:0:
485,84,134653,1,8,0:1:0:0:
485,84,134734,1,8,0:0:0:0:
441,206,134896,53,10,0:1:0:0:
348,160,135058,2,0,B|291:131|238:173|238:173|164:149,1,191.999994140625,14|10,0:1|0:0,0:0:0:0:
301,244,135545,2,0,P|322:282|314:342,1,95.9999970703126,2|8,0:0|0:1,0:0:0:0:
139,384,135869,2,0,P|118:346|126:286,1,95.9999970703126,10|8,0:1|0:0,0:1:0:0:
237,173,136194,54,0,B|258:243|327:251|327:251|397:222,1,191.999994140625,10|8,0:1|0:1,0:0:0:0:
498,263,136680,2,0,P|509:219|485:158,1,95.9999970703126,10|0,0:0|0:0,0:0:0:0:
483,156,136923,1,8,0:0:0:0:
467,144,137004,2,0,L|365:128,1,95.9999970703126,10|8,0:1|0:1,0:0:0:0:
312,267,137329,2,0,L|210:251,1,95.9999970703126,10|8,0:0|0:1,0:0:0:0:
91,174,137653,53,14,0:1:0:0:
91,174,137815,1,8,0:1:0:0:
32,306,137977,2,0,B|8:275|8:275|24:219,1,95.9999970703126,8|0,0:0|0:0,0:0:0:0:
229,125,138302,53,10,0:1:0:0:
173,202,138464,1,8,0:1:0:0:
250,257,138626,1,8,0:0:0:0:
307,181,138788,2,0,B|394:225|394:225|456:144,1,191.999994140625,14|8,0:1|0:1,0:1:0:0:
336,44,139275,2,8,L|235:30,1,95.9999970703126,8|10,3:2|3:1,3:1:0:0:
48,7,139599,5,8,3:3:0:0:
49,18,139680,1,8,3:3:0:0:
51,30,139761,1,4,3:3:0:0:
53,42,139842,1,4,3:3:0:0:
55,54,139923,1,8,3:3:0:0:
56,66,140004,1,8,3:3:0:0:
57,77,140085,102,0,B|40:108|47:136|47:136|69:162|72:199|72:199|88:178|127:163,1,191.999994140625,14|8,0:1|0:1,0:1:0:0:
194,352,140572,2,0,B|160:342|160:342|156:337|156:337|149:339|149:339|89:325,1,95.9999970703126,10|0,0:0|0:0,0:0:0:0:
223,247,140896,2,0,B|229:218|229:218|228:211|228:211|232:207|232:207|248:152,1,95.9999970703126,10|8,0:1|0:1,0:0:0:0:
374,293,141221,53,10,0:0:0:0:
469,235,141383,2,0,P|488:192|437:32,1,191.999994140625,2|0,0:0|0:0,0:0:0:0:
282,69,141869,2,0,L|181:54,1,95.9999970703126,8|0,0:0|0:0,0:0:0:0:
187,54,142112,1,8,0:0:0:0:
187,54,142194,1,8,0:1:0:0:
31,74,142356,53,10,0:1:0:0:
96,0,142518,1,10,0:0:0:0:
123,137,142680,2,0,L|142:341,1,191.999994140625,14|8,0:1|0:1,0:0:0:0:
149,345,143085,1,8,0:1:0:0:
160,360,143167,2,0,B|207:372|207:372|262:350,1,95.9999970703126,10|0,0:0|0:0,0:0:0:0:
351,235,143491,53,10,0:1:0:0:
351,235,143653,1,8,0:1:0:0:
432,340,143815,2,0,L|335:319,1,95.9999970703126,10|0,0:0|0:0,0:0:0:0:
258,165,144139,53,10,0:1:0:0:
258,165,144302,1,8,0:1:0:0:
210,266,144464,2,0,L|355:234,1,143.999995605469,10|8,0:0|0:0,0:0:0:0:
415,190,144788,54,0,P|418:140|374:91,1,95.9999970703126,10|0,0:1|0:0,0:0:0:0:
393,102,145031,1,2,0:0:0:0:
393,102,145112,1,10,0:0:0:0:
295,20,145275,54,0,L|286:80,1,47.9999985351563,10|8,0:3|0:3,0:0:0:0:
228,119,145437,2,0,B|120:111|191:35|65:37,1,191.999994140625,14|10,0:1|0:2,0:0:0:0:
113,179,145923,2,0,P|85:233|83:277,1,95.9999970703126,2|8,0:0|0:1,0:0:0:0:
150,353,146248,2,0,L|252:339,1,95.9999970703126,2|8,0:0|0:0,0:0:0:0:
387,373,146572,53,2,1:0:0:0:
387,373,146653,1,2,1:0:0:0:
387,373,146734,2,0,B|362:312|362:312|376:271|376:271|338:178,1,191.999994140625,10|10,0:1|0:0,0:0:0:0:
212,98,147221,2,0,L|198:196,1,95.9999970703126,2|8,0:0|0:1,0:0:0:0:
82,267,147545,2,0,L|68:171,1,95.9999970703126,2|8,0:0|0:0,0:0:0:0:
219,14,147869,53,2,0:0:0:0:
287,51,148031,2,0,L|390:27,1,95.9999970703126,14|8,0:1|0:1,0:0:0:0:
329,121,148356,2,0,L|432:97,1,95.9999970703126,8|8,0:0|0:1,0:0:0:0:
269,198,148680,54,0,L|166:174,1,95.9999970703126,10|8,0:1|0:1,0:0:0:0:
227,268,149004,2,0,L|124:244,1,95.9999970703126,8|8,0:0|0:1,0:0:0:0:
303,346,149329,53,10,0:1:0:0:
398,381,149491,1,8,0:1:0:0:
398,381,149572,1,8,0:1:0:0:
398,381,149653,2,0,L|419:281,1,95.9999970703126,8|8,0:0|0:3,0:0:0:0:
319,180,149977,53,4,0:3:0:0:
240,264,150139,1,8,0:3:0:0:
155,185,150302,1,4,0:3:0:0:
234,101,150464,1,4,0:3:0:0:
242,184,150626,69,14,0:1:0:0:
242,184,150788,1,8,0:1:0:0:
242,184,150950,1,8,0:1:0:0:
32,192,151275,53,8,0:0:0:0:
151,58,151599,53,8,0:1:0:0:
151,58,151761,1,8,0:1:0:0:
32,192,152085,53,8,0:0:0:0:
99,257,152410,53,8,0:1:0:0:
32,192,152572,1,8,0:0:0:0:
63,116,152734,1,8,0:1:0:0:
256,192,153058,53,8,0:1:0:0:
237,275,153221,53,12,0:1:0:0:
237,275,153383,1,8,0:1:0:0:
237,275,153545,1,8,0:1:0:0:
32,192,153869,53,8,0:0:0:0:
256,192,154194,53,8,0:1:0:0:
256,192,154356,1,8,0:1:0:0:
32,192,154680,53,8,0:0:0:0:
107,135,155004,53,8,0:1:0:0:
32,192,155167,1,8,0:0:0:0:
23,77,155329,1,8,0:1:0:0:
32,192,155491,1,8,0:0:0:0:
256,32,155815,85,14,0:0:0:0:
212,117,155977,1,8,0:1:0:0:
295,176,156139,1,8,0:1:0:0:
209,248,156302,1,8,0:0:0:0:
275,331,156464,69,8,0:3:0:0:
275,331,156572,2,0,L|339:322,1,53.3333333333333,8|8,0:3|0:3,0:0:0:0:
409,363,156788,53,4,0:3:0:0:
409,363,156896,2,0,L|420:299,1,53.3333333333333,4|4,0:3|0:3,0:0:0:0:
439,228,157112,5,10,0:1:0:0:
501,321,157275,1,10,0:1:0:0:
446,159,158410,6,0,L|457:71,2,88.000002685547,14|8|8,0:0|0:1|0:1,0:0:0:0:
356,290,158896,2,0,L|369:392,2,88.000002685547,14|8|8,0:0|0:1|0:1,0:0:0:0:
267,174,159383,53,14,0:0:0:0:
172,215,159545,1,8,0:1:0:0:
163,123,159707,53,14,0:0:0:0:
270,156,159869,1,8,0:1:0:0:
267,59,160031,53,14,0:0:0:0:
162,105,160194,1,8,0:1:0:0:
164,6,160356,37,14,0:0:0:0:
285,53,160518,1,8,1:1:0:0:
302,50,160599,1,8,1:1:0:0:
319,47,160680,1,8,1:1:0:0:
337,44,160761,1,8,1:1:0:0:
354,41,160842,1,8,1:1:0:0:
371,38,160923,1,8,1:1:0:0:
388,35,161004,6,2,B|447:60|447:60|406:219,2,191.999994140625,14|8|8,0:1|0:0|0:1,0:1:0:0:
283,115,161815,53,2,0:0:0:0:
220,10,161977,1,10,0:0:0:0:
146,36,162139,2,2,B|87:61|87:61|128:220,1,191.999994140625,14|10,0:1|0:1,0:1:0:0:
157,324,162626,53,10,0:0:0:0:
263,289,162788,1,14,0:1:0:0:
265,274,162869,1,2,0:0:0:0:
265,259,162950,2,0,L|248:205,3,47.9999985351563,2|2|10|2,0:0|0:0|0:1|0:0,0:1:0:0:
222,144,163275,2,0,L|205:90,3,47.9999985351563,10|2|2|2,0:0|0:0|0:0|0:0,0:1:0:0:
146,36,163599,54,2,B|109:30|109:30|90:35|90:35|51:29,1,95.9999970703126,14|8,0:1|0:1,0:1:0:0:
207,98,163923,2,2,B|244:92|244:92|263:97|263:97|301:91,1,95.9999970703126,8|0,0:0|0:0,0:1:0:0:
301,91,164167,1,8,0:0:0:0:
301,91,164248,1,10,0:1:0:0:
410,40,164410,1,10,0:1:0:0:
469,132,164572,1,10,0:0:0:0:
373,201,164734,54,2,B|337:254|362:326|362:326|374:283,1,143.999995605469,14|0,0:1|0:0,0:1:0:0:
300,275,165058,2,2,P|239:256|179:264,1,95.9999970703126,10|8,0:1|0:0,0:1:0:0:
116,289,165383,53,10,0:1:0:0:
116,289,165464,1,10,0:0:0:0:
116,289,165545,1,10,0:1:0:0:
262,363,165707,2,2,P|309:361|354:344,1,95.9999970703126,10|8,0:1|0:0,0:1:0:0:
443,209,166031,53,2,0:0:0:0:
512,263,166194,2,2,L|317:236,1,191.999994140625,14|8,0:1|0:0,0:1:0:0:
241,246,166680,53,2,0:0:0:0:
272,171,166842,1,10,0:1:0:0:
187,184,167004,1,2,0:0:0:0:
321,236,167167,1,10,0:0:0:0:
303,96,167329,1,14,0:1:0:0:
223,106,167491,53,2,0:0:0:0:
272,171,167653,1,10,0:1:0:0:
357,158,167815,1,10,0:0:0:0:
455,217,167977,54,2,B|485:180|485:180|456:59,1,143.999995605469,14|0,0:1|0:0,0:1:0:0:
413,27,168302,2,2,L|301:15,1,95.9999970703126,10|8,0:1|0:0,0:1:0:0:
134,102,168626,53,2,0:0:0:0:
134,102,168707,1,2,0:0:0:0:
134,102,168788,2,10,B|118:191|189:213|189:213|208:194|251:187,1,191.999994140625,14|8,0:1|0:0,0:1:0:0:
110,314,169275,53,14,0:1:0:0:
247,272,169437,1,2,0:0:0:0:
349,372,169599,1,10,0:1:0:0:
266,352,169761,53,10,0:0:0:0:
417,320,169923,2,2,B|460:281|460:281|457:200|407:142,1,191.999994140625,14|8,0:1|0:1,0:1:0:0:
295,185,170410,2,0,P|249:161|177:147,1,95.9999970703126,10|8,0:0|0:1,0:0:0:0:
35,192,170734,101,8,0:3:0:0:
39,210,170815,1,8,0:3:0:0:
44,228,170896,1,8,0:3:0:0:
49,246,170977,1,8,0:3:0:0:
55,264,171058,101,4,0:3:0:0:
68,233,171139,1,4,0:3:0:0:
81,202,171221,1,4,0:3:0:0:
94,171,171302,1,4,0:3:0:0:
107,140,171383,22,2,B|147:130|187:135|187:135|221:160|221:160|250:166|299:153,1,191.999994140625,14|10,0:1|0:0,0:1:0:0:
453,67,171869,2,2,B|441:85|440:104|440:104|373:118|335:49|375:7,1,191.999994140625,2|8,0:0|0:1,0:1:0:0:
453,67,172356,53,10,0:0:0:0:
424,207,172518,2,2,B|436:225|437:244|437:244|503:258|542:189|502:147,1,191.999994140625,14|8,0:1|0:1,0:1:0:0:
424,207,173004,53,10,0:0:0:0:
363,327,173167,2,0,B|352:344|351:363|351:363|284:377|246:308|282:270,1,191.999994140625,14|8,0:1|0:1,0:0:0:0:
239,159,173653,54,2,P|240:90|205:61,1,90.0000034332277,10|0,0:0|0:0,0:1:0:0:
166,28,173977,54,2,B|113:22|113:22|79:177,1,191.999994140625,14|8,0:1|0:0,0:1:0:0:
63,291,174464,1,10,0:1:0:0:
63,291,174545,1,8,0:0:0:0:
63,291,174626,1,8,0:1:0:0:
6,214,174788,1,8,0:1:0:0:
83,157,174950,1,10,0:0:0:0:
166,239,175112,53,10,0:1:0:0:
166,239,175194,1,10,0:1:0:0:
166,239,175275,2,2,B|211:252|254:278|254:278|282:248|340:214,1,191.999994140625,14|8,0:1|0:0,0:1:0:0:
446,329,175761,53,10,0:1:0:0:
446,329,175842,1,8,0:0:0:0:
446,329,175923,2,2,B|458:357|488:362|488:362|490:336|453:301,1,95.9999970703126,8|8,0:1|0:1,0:1:0:0:
374,236,176248,102,2,L|301:210,3,47.9999985351563,0|0|0|0,1:0|1:0|1:0|1:0,2:1:0:0:
254,242,176572,5,14,0:1:0:0:
254,242,176653,1,8,0:1:0:0:
254,242,176734,1,8,0:1:0:0:
254,242,176815,1,8,0:1:0:0:
254,242,176896,2,0,L|253:188,1,47.9999985351563,10|0,0:0|0:0,0:1:0:0:
190,143,177058,53,10,0:1:0:0:
190,143,177139,1,8,0:1:0:0:
190,143,177221,1,8,0:1:0:0:
190,143,177302,1,8,0:1:0:0:
190,143,177383,2,0,L|189:89,1,47.9999985351563,10|0,0:1|0:0,0:1:0:0:
101,153,177545,2,0,L|47:152,1,47.9999985351563,10|0,0:0|0:0,0:1:0:0:
135,239,177707,53,10,0:1:0:0:
135,239,177788,1,10,0:1:0:0:
135,239,177869,2,0,B|91:315|155:374|155:374|229:350,1,191.999994140625,10|10,0:1|0:0,0:0:0:0:
312,325,178356,101,8,2:3:0:0:
312,325,178437,1,8,2:3:0:0:
312,325,178518,2,0,L|318:267,3,47.9999985351563,8|8|8|8,2:3|2:3|2:3|2:3,0:0:0:0:
392,299,178842,2,0,L|398:241,3,47.9999985351563,4|4|4|4,2:3|2:3|2:3|2:3,0:0:0:0:
474,237,179167,86,0,B|496:199|496:199|499:104|423:63,1,191.999994140625,14|10,2:1|2:2,0:0:0:0:
314,29,179653,53,14,2:1:0:0:
298,53,179734,1,2,2:2:0:0:
273,68,179815,1,2,2:2:0:0:
244,72,179896,1,2,2:2:0:0:
216,62,179977,1,10,2:1:0:0:
195,41,180058,1,2,2:2:0:0:
168,29,180139,2,0,P|147:18|108:22,1,47.9999985351563,10|2,2:2|2:2,0:0:0:0:
50,54,180302,70,0,P|14:106|47:238,1,191.999994140625,14|10,2:1|2:1,0:0:0:0:
111,312,180788,1,10,0:0:0:0:
205,243,180950,1,10,0:2:0:0:
205,243,181031,1,10,0:0:0:0:
205,243,181112,1,10,0:0:0:0:
294,331,181275,1,10,0:1:0:0:
294,331,181356,1,10,0:1:0:0:
294,331,181437,1,10,0:0:0:0:
373,247,181599,1,10,0:1:0:0:
480,346,181761,22,0,B|504:291|504:291|464:219,1,120,14|0,0:1|0:0,0:1:0:0:
430,178,182085,2,0,L|445:85,1,88.000002685547,10|8,0:1|0:1,0:1:0:0:
292,217,182410,2,0,L|322:27,1,191.999994140625,14|8,0:0|0:1,0:0:0:0:
157,92,182896,54,0,B|138:47|82:44|82:44|43:77,1,132.00000402832,14|0,0:1|0:0,0:0:0:0:
94,148,183221,2,0,P|154:150|156:91,1,132.00000402832,10|0,0:0|0:0,0:0:0:0:
77,153,183545,2,0,P|55:190|58:233,1,88.000002685547,14|8,0:1|0:0,0:0:0:0:
112,340,183869,53,10,0:1:0:0:
203,233,184031,1,8,0:1:0:0:
244,384,184194,1,8,0:0:0:0:
319,345,184356,54,0,B|343:311|343:311|312:245,1,107.999996704102,14|0,0:1|0:0,0:0:0:0:
303,241,184680,2,0,P|292:209|304:155,1,71.9999978027344,10|8,0:1|0:1,0:0:0:0:
378,138,185004,2,0,P|431:121|401:38,1,143.999995605469,14|8,0:0|0:1,0:0:0:0:
332,13,185491,2,0,L|175:41,2,143.999995605469,10|8|8,0:1|0:0|0:1,0:0:0:0:
445,60,186302,37,10,0:2:0:0:
449,72,186464,53,10,0:2:0:0:
452,84,186626,53,10,0:2:0:0:
456,97,186788,53,10,0:2:0:0:
404,189,186950,70,0,B|357:177|357:177|343:157|343:157|281:140,1,120,14|0,0:1|0:0,0:0:0:0:
230,104,187275,2,0,L|249:8,1,88.000002685547,10|8,0:1|0:1,0:0:0:0:
150,164,187599,2,0,B|118:38|118:38|106:104,1,191.999994140625,14|8,0:0|0:1,0:0:0:0:
75,271,188085,54,0,P|133:243|225:259,1,132.00000402832,14|0,0:1|0:0,0:0:0:0:
270,275,188410,2,0,P|328:303|394:298,1,132.00000402832,10|0,0:0|0:0,0:0:0:0:
453,249,188734,2,0,L|440:140,1,88.000002685547,14|8,0:1|2:0,0:0:0:0:
338,78,189058,53,10,0:1:0:0:
294,166,189221,1,10,0:0:0:0:
247,29,189383,1,8,0:0:0:0:
294,166,189545,1,14,0:1:0:0:
294,166,189869,70,0,L|406:156,1,107.999996704102,10|0,0:0|0:0,0:0:0:0:
422,161,190194,2,0,P|460:195|448:306,1,143.999995605469,10|10,0:1|0:0,0:0:0:0:
369,353,190680,2,0,L|217:334,1,143.999995605469,10|8,0:1|0:1,0:0:0:0:
119,365,191167,54,0,P|115:331|127:290,1,71.9999978027344,10|0,0:0|0:0,0:0:0:0:
295,236,191491,2,0,P|304:270|300:306,1,71.9999978027344,10|8,0:1|0:1,0:0:0:0:
120,203,191815,2,0,P|116:167|125:132,1,71.9999978027344,10|0,0:0|0:0,0:0:0:0:
249,34,192139,5,14,0:0:0:0:
249,34,192221,1,8,0:0:0:0:
249,34,192302,2,0,L|344:22,1,71.9999978027344,8|8,0:1|0:1,0:0:0:0:
284,200,192626,53,10,0:0:0:0:
284,200,192707,1,8,0:0:0:0:
284,200,192788,2,0,L|200:153,1,71.9999978027344,8|8,0:1|0:1,0:0:0:0:
353,45,193112,53,10,0:0:0:0:
353,45,193194,1,8,0:0:0:0:
353,45,193275,2,0,L|393:131,1,71.9999978027344,8|8,0:1|0:1,0:0:0:0:
206,129,193599,53,10,0:0:0:0:
206,129,193680,1,8,0:0:0:0:
206,129,193761,2,0,L|223:34,1,71.9999978027344,8|8,0:1|0:1,0:0:0:0:
374,147,194085,22,0,L|316:201,2,47.9999985351563,8|8|8,0:3|0:3|0:3,0:0:0:0:
461,97,194410,53,4,0:3:0:0:
474,132,194518,1,4,0:3:0:0:
490,166,194626,1,4,0:3:0:0:
505,201,194734,38,0,B|537:266|498:356|451:378|451:378|396:314|311:342|311:342|439:155|317:17|153:97|180:232|261:260,1,839.999974365235,14|12,0:1|0:1,0:0:0:0:
432,46,199112,1,8,0:1:0:0:
432,46,199194,1,8,0:1:0:0:
432,46,199275,1,8,0:2:0:0:
493,144,199437,54,0,L|481:251,1,90.0000034332277,8|0,0:0|0:0,0:0:0:0:
507,321,199761,70,0,B|398:260|411:340|302:289,1,207.999990478516,14|8,0:1|0:1,0:0:0:0:
285,276,200167,1,8,0:1:0:0:
264,259,200248,2,0,B|250:229|250:229|256:194|256:194|237:142,1,103.999995239258,12|0,0:0|0:0,0:0:0:0:
109,22,200572,53,10,0:1:0:0:
109,22,200734,1,8,0:1:0:0:
79,116,200896,2,0,L|187:95,1,103.999995239258,8|0,0:0|0:0,0:0:0:0:
349,10,201221,53,10,0:1:0:0:
349,10,201383,1,8,0:1:0:0:
381,105,201545,2,0,L|235:76,1,103.999995239258,8|0,0:0|0:0,0:0:0:0:
278,84,201788,1,8,0:0:0:0:
278,84,201869,1,10,0:1:0:0:
237,13,202031,1,8,0:1:0:0:
237,13,202112,1,8,0:1:0:0:
237,13,202194,1,8,0:0:0:0:
108,61,202356,53,0,1:0:0:0:
108,61,202437,1,0,1:0:0:0:
108,61,202518,2,0,B|59:103|59:103|91:269,1,207.999990478516,14|10,0:1|0:0,0:0:0:0:
184,351,203004,2,0,B|149:345|149:345|144:340|144:340|135:343|135:343|66:334,1,103.999995239258,2|8,0:0|0:1,0:0:0:0:
278,223,203329,2,0,B|243:217|243:217|238:212|238:212|229:215|229:215|159:204,1,103.999995239258,10|8,0:1|0:0,0:0:0:0:
344,335,203653,54,0,B|374:404|467:378|467:378|481:341|443:297,1,207.999990478516,10|8,0:1|0:1,0:0:0:0:
382,213,204139,2,0,P|370:160|384:104,1,103.999995239258,10|0,0:0|0:0,0:0:0:0:
380,112,204383,1,8,0:0:0:0:
380,112,204464,1,8,0:1:0:0:
279,21,204626,53,8,2:1:0:0:
279,21,204707,1,8,2:1:0:0:
279,21,204788,2,0,P|291:74|277:130,1,103.999995239258,8|8,2:2|2:1,0:0:0:0:
137,215,205112,53,14,0:1:0:0:
137,215,205275,1,8,0:1:0:0:
52,136,205437,2,0,P|41:85|53:35,1,103.999995239258,8|8,0:0|0:1,0:0:0:0:
207,163,205761,53,10,0:1:0:0:
280,121,205923,1,8,0:1:0:0:
348,252,206085,1,8,0:0:0:0:
275,294,206248,1,8,0:1:0:0:
188,363,206410,54,0,B|150:354|150:354|125:365|125:365|70:357,1,103.999995239258,14|8,2:1|2:0,2:0:0:0:
69,369,206653,1,8,2:0:0:0:
49,375,206734,2,0,P|30:320|52:257,1,103.999995239258,8|8,2:1|2:0,2:0:0:0:
159,182,207058,101,8,3:3:0:0:
160,193,207139,1,8,3:3:0:0:
162,205,207221,1,4,3:3:0:0:
164,217,207302,1,4,3:3:0:0:
166,229,207383,1,4,3:3:0:0:
167,241,207464,1,4,3:3:0:0:
169,252,207545,6,0,B|265:290|265:290|377:226,1,207.999990478516,14|8,0:1|0:1,0:0:0:0:
374,228,207950,1,8,0:1:0:0:
392,217,208031,2,0,P|397:169|363:106,1,103.999995239258,10|0,0:0|0:0,0:0:0:0:
219,47,208356,2,0,L|208:150,1,103.999995239258,10|8,0:1|0:1,0:0:0:0:
98,299,208680,53,10,0:0:0:0:
0,245,208842,2,0,P|-22:142|30:58,1,207.999990478516,2|0,0:0|0:0,0:0:0:0:
105,165,209329,2,0,L|212:149,1,103.999995239258,8|0,0:0|0:0,0:0:0:0:
207,149,209572,1,8,0:0:0:0:
207,149,209653,1,8,0:1:0:0:
355,137,209815,53,10,0:1:0:0:
321,39,209977,1,10,0:0:0:0:
425,13,210139,2,0,P|476:100|454:199,1,207.999990478516,14|8,0:1|0:1,0:0:0:0:
330,286,210626,2,0,L|209:265,1,103.999995239258,10|0,0:0|0:0,0:0:0:0:
68,252,210950,53,10,0:1:0:0:
68,252,211112,1,8,0:1:0:0:
127,384,211275,2,0,L|147:270,1,103.999995239258,10|0,0:0|0:0,0:0:0:0:
301,215,211599,53,10,0:1:0:0:
301,215,211761,1,8,0:1:0:0:
242,347,211923,2,0,L|211:175,1,155.999992858887,10|8,0:0|0:0,0:0:0:0:
167,131,212248,54,0,P|123:108|62:121,1,103.999995239258,10|8,0:1|0:0,0:0:0:0:
70,115,212491,1,10,0:0:0:0:
70,115,212572,1,10,0:0:0:0:
0,224,212734,54,0,L|59:216,1,51.999997619629,10|8,0:1|0:1,0:0:0:0:
107,268,212896,2,0,B|98:358|189:371|189:371|213:350|241:346,1,207.999990478516,14|10,0:1|0:0,0:0:0:0:
414,384,213383,2,0,P|425:330|401:269,1,103.999995239258,2|8,0:0|0:1,0:0:0:0:
241,346,213707,2,0,P|229:295|243:246,1,103.999995239258,2|8,0:0|0:0,0:0:0:0:
393,176,214031,53,2,1:0:0:0:
393,176,214112,1,2,1:0:0:0:
393,176,214194,2,0,B|423:204|463:207|463:207|493:134|455:78,1,207.999990478516,10|10,0:1|0:0,0:0:0:0:
329,0,214680,2,0,B|322:29|322:29|324:55|324:55|310:112,1,103.999995239258,2|8,0:0|0:1,0:0:0:0:
243,246,215004,2,0,B|236:217|236:217|238:191|238:191|224:134,1,103.999995239258,2|8,0:0|0:0,0:0:0:0:
50,77,215329,53,2,0:0:0:0:
40,159,215491,2,0,L|28:277,1,103.999995239258,14|8,0:1|0:1,0:0:0:0:
118,176,215815,2,0,L|106:294,1,103.999995239258,8|8,0:0|0:1,0:0:0:0:
238,128,216139,54,0,L|248:24,1,103.999995239258,10|8,0:1|0:1,0:0:0:0:
316,145,216464,2,0,L|326:41,1,103.999995239258,8|8,0:0|0:1,0:0:0:0:
440,143,216788,53,10,0:1:0:0:
483,231,216950,1,8,0:1:0:0:
483,231,217031,1,8,0:1:0:0:
483,231,217112,2,0,P|487:291|466:332,1,103.999995239258,8|8,0:0|0:3,0:0:0:0:
360,261,217437,53,4,0:3:0:0:
300,371,217599,1,8,0:3:0:0:
248,201,217761,1,4,0:3:0:0:
189,313,217923,1,4,0:3:0:0:
276,289,218085,37,14,0:1:0:0:
276,289,218248,1,8,0:1:0:0:
276,289,218410,1,8,0:1:0:0:
256,32,218734,53,8,0:0:0:0:
359,170,219058,53,8,0:1:0:0:
359,170,219221,1,8,0:1:0:0:
256,32,219545,53,8,0:0:0:0:
175,89,219869,53,8,0:1:0:0:
256,32,220031,1,8,0:0:0:0:
323,86,220194,1,8,0:1:0:0:
172,211,220518,53,8,0:1:0:0:
243,274,220680,53,12,0:1:0:0:
243,274,220842,1,8,0:1:0:0:
243,274,221004,1,8,0:1:0:0:
256,32,221329,53,8,0:0:0:0:
103,144,221653,53,8,0:1:0:0:
103,144,221815,1,8,0:1:0:0:
256,32,222139,53,8,0:0:0:0:
301,106,222464,53,8,0:1:0:0:
256,32,222626,1,8,0:0:0:0:
227,144,222788,1,8,0:1:0:0:
256,32,222950,1,8,0:0:0:0:
28,219,223275,85,14,0:0:0:0:
91,160,223437,1,8,0:1:0:0:
156,239,223599,1,8,0:1:0:0:
227,144,223761,1,8,0:0:0:0:
287,241,223923,69,8,0:3:0:0:
287,241,224031,2,0,L|298:307,1,53.3333333333333,8|8,0:3|0:3,0:0:0:0:
367,336,224248,53,4,0:3:0:0:
367,336,224356,2,0,L|378:270,1,53.3333333333333,4|4,0:3|0:3,0:0:0:0:
429,226,224572,5,10,0:1:0:0:
487,327,224734,1,10,0:1:0:0:
488,121,225869,6,0,B|492:92|492:92|488:69|488:69|497:22,2,88.000002685547,14|8|8,0:0|0:1|0:1,0:0:0:0:
452,279,226356,2,0,B|456:308|456:308|452:331|452:331|461:378,2,88.000002685547,14|8|8,0:0|0:1|0:1,0:0:0:0:
360,122,226842,53,14,0:0:0:0:
335,239,227004,1,8,0:1:0:0:
256,128,227167,53,14,0:0:0:0:
256,256,227329,1,8,0:1:0:0:
152,122,227491,53,14,0:0:0:0:
177,239,227653,1,8,0:1:0:0:
71,216,227815,37,0,1:3:0:0:
71,216,227896,1,0,1:3:0:0:
71,216,227977,1,0,1:3:0:0:
71,216,228058,1,0,1:3:0:0:
71,216,228139,1,8,1:1:0:0:
71,216,228221,1,8,1:1:0:0:
71,216,228302,1,8,1:1:0:0:
71,216,228383,1,8,1:1:0:0:
71,216,228464,102,0,B|116:208|116:208|139:221|139:221|199:212,1,120,14|0,0:1|0:0,0:0:0:0:
201,209,228788,2,0,L|208:105,1,80,10|0,0:0|0:0,0:0:0:0:
359,164,229112,1,10,0:1:0:0:
351,67,229275,2,0,L|357:147,1,80,10|8,0:1|0:0,0:0:0:0:
198,114,229599,54,0,B|169:140|128:138|128:138|123:95|82:68,1,160,14|10,0:1|0:1,0:0:0:0:
133,182,230085,1,10,0:0:0:0:
84,69,230248,2,0,P|47:54|-1:60,1,80,14|0,0:1|0:0,0:0:0:0:
140,189,230572,53,10,0:1:0:0:
140,189,230653,1,10,0:1:0:0:
140,189,230734,1,10,0:0:0:0:
205,235,230896,1,2,0:0:0:0:
274,193,231058,2,0,L|290:113,1,80,14|8,0:1|0:1,0:0:0:0:
477,150,231383,53,10,0:0:0:0:
461,64,231545,1,10,0:1:0:0:
461,64,231626,1,8,0:0:0:0:
461,64,231707,1,8,0:1:0:0:
369,152,231869,53,10,0:1:0:0:
486,162,232031,1,10,0:0:0:0:
356,141,232194,2,0,B|308:120|267:153|267:153|232:152|206:123,1,160,14|10,0:1|0:1,0:0:0:0:
165,67,232680,1,10,0:0:0:0:
194,226,232842,1,10,0:1:0:0:
194,226,232923,1,0,0:0:0:0:
194,226,233004,1,8,0:1:0:0:
206,313,233167,53,10,0:1:0:0:
317,214,233329,1,10,0:0:0:0:
327,305,233491,53,2,1:0:0:0:
327,305,233572,1,2,1:0:0:0:
327,305,233653,2,0,L|331:393,1,80,14|8,0:1|0:1,0:0:0:0:
393,260,233977,2,0,L|516:256,1,120,10|0,0:0|0:0,0:0:0:0:
512,256,234302,1,10,0:1:0:0:
436,166,234464,2,0,L|432:78,1,80,10|8,0:1|0:0,0:0:0:0:
303,154,234788,54,0,B|214:123|243:199|138:159,1,160,14|10,0:1|0:1,0:0:0:0:
86,92,235275,1,10,0:0:0:0:
16,236,235437,2,0,P|8:190|22:148,1,80,14|0,0:1|0:0,0:0:0:0:
16,158,235680,1,2,0:0:0:0:
16,158,235761,1,10,0:1:0:0:
86,92,235923,1,10,0:0:0:0:
149,163,236085,1,10,0:0:0:0:
258,128,236248,53,14,0:1:0:0:
243,224,236410,1,10,0:1:0:0:
339,239,236572,1,10,0:0:0:0:
354,142,236734,1,14,0:1:0:0:
354,142,237058,53,10,0:1:0:0:
339,239,237221,1,10,0:0:0:0:
324,336,237383,1,14,0:1:0:0:
324,336,237707,53,10,0:1:0:0:
227,321,237869,1,10,0:0:0:0:
130,306,238031,1,14,0:1:0:0:
130,306,238356,53,10,0:1:0:0:
145,209,238518,1,10,0:0:0:0:
160,112,238680,1,14,0:1:0:0:
175,15,238842,85,10,0:3:0:0:
202,26,238923,1,8,0:3:0:0:
232,30,239004,1,6,0:3:0:0:
261,24,239085,1,4,0:3:0:0:
288,11,239167,1,10,0:1:0:0:
380,69,239329,2,0,P|397:113|391:168,1,80,10|8,0:0|0:3,0:0:0:0:
270,242,239653,53,6,0:3:0:0:
166,208,239815,1,10,0:0:0:0:
189,316,239977,2,0,L|172:363,2,40,10|8|8,0:0|0:0|0:1,0:0:0:0:
296,224,240302,53,10,0:0:0:0:
399,265,240464,1,10,0:0:0:0:
452,170,240626,1,10,0:1:0:0:
452,170,240707,1,8,0:1:0:0:
452,170,240788,1,8,0:3:0:0:
340,73,240950,21,6,0:3:0:0:
258,149,241112,101,10,0:3:0:0:
173,80,241275,86,0,B|191:190|191:190|192:198|181:232|142:238|121:209|120:201|120:201|100:75|100:75|98:67|84:29|29:37|27:78|28:86|28:86|53:238|53:238|54:246|110:346|245:325|267:212|266:204|266:204|250:102|250:102|248:94|250:53|305:44|320:82|321:90|321:90|337:193|337:193|338:201|352:239|408:230|409:190|408:182|408:182|394:95|394:95|393:87|395:46|450:37|464:76|466:84|466:84|478:163,1,1557.5999453357,14|0,0:1|0:0,0:0:0:0:
