osu file format v14

[General]
AudioFilename: audio.mp3
AudioLeadIn: 0
PreviewTime: 66983
Countdown: 0
SampleSet: Soft
StackLeniency: 0.4
Mode: 0
LetterboxInBreaks: 0
EpilepsyWarning: 1
WidescreenStoryboard: 1

[Editor]
DistanceSpacing: 1.5
BeatDivisor: 6
GridSize: 32
TimelineZoom: 2.9

[Metadata]
Title:Meteora
TitleUnicode:Meteora
Artist:Imy
ArtistUnicode:Imy
Creator:MiyohashiKoori
Version:Riana's Extra
Source:osu!
Tags:japanese rock jrock j-rock みゅー myu アイミー fa featured artist aitsuki nakuru 藍月なくる gfmrt riana - azrael leo16834 loneight KwAIMSuckASFuk ohm002 L18
BeatmapID:2979585
BeatmapSetID:1062770

[Difficulty]
HPDrainRate:5
CircleSize:4
OverallDifficulty:8.5
ApproachRate:9.5
SliderMultiplier:2.99999990463257
SliderTickRate:1

[Events]
//Background and Video events
0,0,"faeZ7w7.jpg",0,0
//Break Periods
2,104035,114532
2,182200,186917
//Storyboard Layer 0 (Background)
//Storyboard Layer 1 (Fail)
//Storyboard Layer 2 (Pass)
//Storyboard Layer 3 (Foreground)
//Storyboard Layer 4 (Overlay)
//Storyboard Sound Samples

[TimingPoints]
1997,454.545454545455,4,2,1,70,1,0
1997,-200,4,2,1,70,0,0
9269,-100,4,2,1,70,0,0
10633,-80,4,2,1,70,0,0
13019,-100,4,2,1,50,0,0
16542,-100,4,2,1,70,0,0
25633,-66.6666666666667,4,2,1,70,0,0
27565,-66.6666666666667,4,2,1,50,0,0
29042,-133.333333333333,4,2,1,50,0,0
38360,-133.333333333333,4,2,1,70,0,0
42451,-133.333333333333,4,2,1,70,0,0
51769,-100,4,2,1,70,0,0
52906,-133.333333333333,4,2,1,50,0,0
60178,-133.333333333333,4,2,1,70,0,0
65633,-400,4,2,1,70,0,0
65690,-400,4,2,1,70,0,0
66997,-400,4,2,1,70,0,0
67451,-83.3333333333333,4,2,1,70,0,1
89269,-133.333333333333,4,2,1,70,0,0
94724,-76.9230769230769,4,2,1,70,0,0
96542,-100,4,2,1,70,0,0
103348,487.80487804878,4,2,1,70,1,0
103348,-400,4,2,1,70,0,0
103835,446.927374301676,4,2,54,50,1,0
103835,-100,4,2,54,50,0,0
105175,-100,4,2,1,50,0,0
105622,465.116279069767,4,2,55,50,1,0
105622,-100,4,2,55,50,0,0
105680,-100,4,2,55,50,0,0
106319,439.560439560439,4,2,51,50,1,0
106319,-100,4,2,51,50,0,0
106758,479.616306954436,4,2,1,50,1,0
106758,-100,4,2,1,50,0,0
106817,-100,4,2,1,50,0,0
107477,447.761194029851,4,2,46,50,1,0
107477,-100,4,2,46,50,0,0
107812,-100,4,2,54,50,0,0
108148,475.247524752475,4,2,51,50,1,0
108148,-100,4,2,51,50,0,0
109039,-100,4,2,51,50,0,0
109098,315.789473684211,4,2,1,50,1,0
109098,-100,4,2,1,50,0,0
109255,463.320463320463,4,2,1,50,1,0
109255,-100,4,2,1,50,0,0
110413,454.545454545455,4,2,1,50,1,0
110413,-100,4,2,1,50,0,0
111094,-100,4,2,55,50,0,0
112685,402.010050251256,4,2,1,50,1,0
112685,-100,4,2,1,50,0,0
112886,463.320463320463,4,2,53,50,1,0
112886,-100,4,2,53,50,0,0
113233,-100,4,2,55,50,0,0
113272,-100,4,2,55,50,0,0
113580,-100,4,2,65,50,0,0
114275,446.927374301676,4,2,1,50,1,0
114275,-100,4,2,1,50,0,0
115057,454.545454545455,4,2,1,70,1,0
115057,-100,4,2,1,70,0,0
116534,460.829493087558,4,2,1,70,1,0
117455,454.545454545455,4,2,1,70,1,0
117909,-200,4,2,1,70,0,0
118364,454.545454545455,4,2,1,70,1,0
118364,-100,4,2,1,70,0,0
119727,-100,4,2,3,70,0,0
119841,-100,4,2,1,70,0,0
123364,-100,4,2,3,70,0,0
123477,-100,4,2,1,70,0,0
131091,-400,4,2,1,70,0,0
132454,-400,4,2,1,70,0,0
132909,-83.3333333333333,4,2,1,70,0,1
154727,-133.333333333333,4,2,1,70,0,0
160182,-76.9230769230769,4,2,1,70,0,0
162000,-133.333333333333,4,2,3,70,0,0
162114,-133.333333333333,4,2,1,70,0,0
162454,-133.333333333333,4,2,2,70,0,0
162568,-133.333333333333,4,2,1,70,0,0
163818,-133.333333333333,4,2,3,70,0,0
163932,-133.333333333333,4,2,1,70,0,0
164273,-133.333333333333,4,2,2,70,0,0
164386,-133.333333333333,4,2,1,70,0,0
165182,-133.333333333333,4,2,2,70,0,0
165295,-133.333333333333,4,2,1,70,0,0
167909,-133.333333333333,4,2,2,70,0,0
168023,-133.333333333333,4,2,1,70,0,0
170977,-133.333333333333,4,2,3,70,0,0
171091,-133.333333333333,4,2,1,70,0,0
171318,-133.333333333333,4,2,3,70,0,0
171432,-133.333333333333,4,2,1,70,0,0
173932,-133.333333333333,4,2,3,70,0,0
174045,-133.333333333333,4,2,1,70,0,0
177454,-133.333333333333,4,2,1,50,0,0
178250,-200,4,2,1,50,0,0
178364,-200,4,2,1,40,0,0
180182,-200,4,2,1,30,0,0
187454,-200,4,2,1,70,0,1
188250,-80,4,2,1,70,0,1
196091,-80,4,2,1,70,0,0
196545,-80,4,2,1,70,0,1
198364,-83.3333333333333,4,2,1,70,0,1
202454,-83.3333333333333,4,2,1,70,0,1
203818,-133.333333333333,4,2,1,70,0,0
209273,-76.9230769230769,4,2,1,70,0,0
211091,-80,4,2,1,70,0,0
220636,-80,4,2,1,30,0,0
221091,-200,4,2,1,30,0,0
222000,-200,4,2,1,70,0,0
225636,-200,4,2,1,70,0,0
227454,-200,4,2,1,70,0,0

[Colours]
Combo1 : 255,128,128
Combo2 : 192,192,192
Combo3 : 0,0,160
Combo4 : 128,0,128

[HitObjects]
0,192,1997,6,0,P|96:160|192:224,1,224.999992847443,4|0,3:1|0:0,0:0:0:0:
260,66,3133,2,0,P|254:134|255:174,2,74.9999976158143,2|2|2,0:0|0:0|0:0,0:0:0:0:
386,260,3815,2,0,P|377:258|281:322,2,112.499996423721,4|0|0,3:2|0:0|0:0,0:0:0:0:
486,335,4724,2,0,P|483:235|471:194,1,112.499996423721,0|4,3:0|3:0,0:0:0:0:
480,223,5633,6,0,P|384:191|288:255,1,224.999992847443,4|0,3:2|0:0,0:0:0:0:
220,97,6769,2,0,P|226:165|225:205,2,74.9999976158143,2|2|2,0:0|0:0|0:0,0:0:0:0:
136,292,7451,2,0,P|145:290|241:354,2,112.499996423721,4|0|0,3:2|0:0|0:0,0:0:0:0:
38,191,8360,2,0,P|38:130|42:93,1,74.9999976158143,0|8,0:0|1:3,0:0:0:0:
111,72,8663,1,8,1:3:0:0:
111,72,8739,1,8,1:3:0:0:
111,72,8815,1,8,1:2:0:0:
111,72,9269,6,0,P|197:75|255:146,1,149.999995231629,0|0,1:0|0:0,0:0:0:0:
319,282,9610,1,8,0:3:0:0:
403,248,9724,2,0,P|316:244|258:173,1,149.999995231629,0|8,1:0|0:3,0:0:0:0:
433,74,10178,5,0,1:0:0:0:
491,160,10292,2,0,P|473:230|366:276,1,149.999995231629,8|0,1:3|1:0,0:0:0:0:
222,360,10633,2,0,P|207:277|275:202,2,187.499994039536,8|8|4,1:3|0:3|1:2,0:0:0:0:
256,192,12906,12,0,16428,0:0:0:0:
248,112,16542,5,12,1:2:0:0:
345,298,16769,5,0,0:0:0:0:
357,221,16883,1,0,0:0:0:0:
371,200,17110,5,0,0:0:0:0:
354,125,17224,1,0,0:0:0:0:
334,107,17451,5,0,0:0:0:0:
244,194,17678,5,0,0:0:0:0:
263,274,17792,1,0,0:0:0:0:
280,353,17906,1,0,0:0:0:0:
88,315,18133,5,0,0:0:0:0:
53,223,18247,1,0,0:0:0:0:
134,167,18360,5,8,1:2:0:0:
167,163,18436,1,8,1:2:0:0:
194,182,18512,1,8,1:3:0:0:
205,213,18587,1,8,1:3:0:0:
196,244,18663,1,8,1:3:0:0:
203,274,18739,1,8,1:3:0:0:
224,288,18815,2,0,P|285:282|304:268,2,49.9999984105428,8|8|8,1:2|1:3|1:3,0:0:0:0:
345,330,19042,2,0,P|370:274|366:251,2,49.9999984105428,8|8|8,1:3|1:3|1:3,0:0:0:0:
415,173,19269,6,0,L|413:118,2,37.4999988079071,8|8|8,1:2|1:2|1:2,0:0:0:0:
512,124,19497,1,8,1:3:0:0:
426,196,19610,1,8,1:2:0:0:
315,223,19724,5,8,1:3:0:0:
271,128,19837,1,8,1:2:0:0:
181,73,19951,1,8,1:2:0:0:
68,93,20065,1,8,1:2:0:0:
0,184,20178,6,0,L|175:195,1,149.999995231629,14|0,3:2|1:0,0:0:0:0:
282,239,20519,1,0,1:0:0:0:
180,105,20633,2,0,B|351:87,1,149.999995231629,10|0,3:2|1:0,0:0:0:0:
440,137,20974,1,0,1:0:0:0:
315,317,21087,6,0,P|311:255|281:222,1,74.9999976158143,10|0,3:2|1:0,0:0:0:0:
418,132,21315,2,0,P|366:166|352:208,1,74.9999976158143,2|0,1:2|1:0,0:0:0:0:
512,270,21542,6,0,P|515:233|502:198,1,74.9999976158143,10|0,3:2|1:0,0:0:0:0:
403,28,21769,2,0,P|434:50|471:55,1,74.9999976158143,2|0,1:2|1:0,0:0:0:0:
280,0,21997,6,0,P|274:104|274:205,1,149.999995231629,10|0,3:2|1:0,0:0:0:0:
347,222,22337,1,0,1:0:0:0:
233,324,22451,2,0,P|296:307|316:257,1,74.9999976158143,10|0,3:2|1:0,0:0:0:0:
167,192,22678,1,2,1:2:0:0:
70,239,22792,1,2,1:2:0:0:
70,239,22906,2,0,P|53:302|88:429,1,149.999995231629,8|0,3:2|1:0,0:0:0:0:
156,281,23247,1,0,1:0:0:0:
249,126,23360,2,0,P|243:59|231:27,1,74.9999976158143,8|0,3:2|1:0,0:0:0:0:
341,199,23587,5,2,1:2:0:0:
422,164,23701,1,0,1:0:0:0:
277,132,23815,2,0,P|186:146|72:173,1,149.999995231629,10|0,3:2|1:0,0:0:0:0:
239,233,24156,1,0,1:0:0:0:
313,36,24269,2,0,P|404:50|518:77,1,149.999995231629,10|0,3:2|1:0,0:0:0:0:
512,167,24610,1,0,1:0:0:0:
361,212,24724,6,0,P|346:246|345:283,1,74.9999976158143,10|0,3:2|1:0,0:0:0:0:
203,301,24951,2,0,P|240:305|272:322,1,74.9999976158143,2|0,1:2|1:0,0:0:0:0:
361,172,25178,6,0,P|335:199|321:233,1,74.9999976158143,10|0,3:2|1:0,0:0:0:0:
168,280,25406,2,0,P|204:271|241:276,1,74.9999976158143,2|0,1:2|1:0,0:0:0:0:
211,190,25633,6,0,P|150:119|155:280,2,337.499989271164,12|4|12,3:2|3:0|3:2,0:0:0:0:
309,29,26656,1,4,3:0:0:0:
368,145,26997,5,12,3:2:0:0:
75,364,27224,1,8,1:3:0:0:
25,8,27451,1,4,3:2:0:0:
256,192,27565,12,0,28474,1:0:0:0:
50,318,28587,5,0,0:0:0:0:
61,339,28815,5,8,1:2:0:0:
157,318,28928,1,8,1:2:0:0:
246,295,29042,2,0,L|265:92,1,168.749994635583,8|0,1:3|0:0,0:0:0:0:
311,57,29497,5,0,1:0:0:0:
426,142,29724,1,8,0:0:0:0:
223,220,29951,5,0,1:0:0:0:
161,152,30065,2,0,P|66:143|-7:225,1,168.749994635583,0|4,1:0|1:3,0:0:0:0:
10,185,30633,5,8,1:2:0:0:
104,239,30747,1,8,1:2:0:0:
161,152,30860,1,8,1:3:0:0:
204,63,30974,6,0,L|341:53,1,112.499996423722,12|0,1:3|0:0,0:0:0:0:
459,169,31315,2,0,L|361:166,1,56.2499982118608,4|0,1:3|0:0,0:0:0:0:
487,198,31542,1,8,0:0:0:0:
487,198,31656,2,0,L|350:192,1,112.499996423722,4|0,1:3|0:0,0:0:0:0:
305,267,31997,5,4,1:3:0:0:
305,267,32451,1,8,0:0:0:0:
213,155,32678,2,0,L|196:82,1,56.2499982118608,4|0,1:3|0:0,0:0:0:0:
128,19,32906,6,0,P|205:69|300:12,1,168.749994635583,4|0,1:3|0:0,0:0:0:0:
351,111,33360,1,8,0:0:0:0:
204,184,33587,1,4,1:3:0:0:
263,338,33815,1,0,0:0:0:0:
338,384,33928,6,0,P|396:339|484:341,1,112.499996423722,4|0,1:3|0:0,0:0:0:0:
508,378,34269,1,8,0:0:0:0:
428,164,34497,1,4,1:3:0:0:
428,164,34951,6,0,P|360:143|296:181,1,112.499996423722,4|8,1:3|0:0,0:0:0:0:
252,98,35292,2,0,P|199:146|193:217,1,112.499996423722,4|0,1:3|0:0,0:0:0:0:
118,253,35633,1,4,1:3:0:0:
79,32,36087,5,8,0:0:0:0:
180,98,36315,1,0,0:0:0:0:
34,166,36542,5,8,1:3:0:0:
81,162,36656,1,8,1:2:0:0:
118,199,36769,1,8,1:2:0:0:
118,253,36883,1,8,1:3:0:0:
82,306,36997,1,0,0:0:0:0:
100,369,37110,1,8,1:3:0:0:
172,374,37224,2,0,P|173:359|163:334,2,37.4999988079072,4|0|0,1:3|0:0|0:0,0:0:0:0:
211,287,37451,5,0,0:0:0:0:
256,255,37565,1,4,1:3:0:0:
297,268,37678,1,0,0:0:0:0:
319,298,37792,1,0,0:0:0:0:
303,379,37906,6,0,P|298:260|309:224,1,112.499996423722,8|0,0:0|0:0,0:0:0:0:
395,136,38360,5,12,1:2:0:0:
411,61,38474,1,8,1:3:0:0:
348,23,38587,1,8,1:3:0:0:
292,71,38701,1,8,1:3:0:0:
320,140,38815,1,8,1:2:0:0:
295,155,39042,5,8,1:3:0:0:
217,117,39156,1,8,1:3:0:0:
212,33,39269,2,0,L|201:-9,2,28.1249991059304,8|8|8,1:3|1:3|1:2,0:0:0:0:
26,178,39497,5,8,1:3:0:0:
114,140,39610,1,8,1:2:0:0:
179,201,39724,2,0,L|228:207,2,37.4999988079072,8|8|8,1:2|1:3|1:3,0:0:0:0:
160,287,39951,2,0,L|119:293,2,37.4999988079072,8|8|8,1:3|1:3|1:3,0:0:0:0:
194,364,40178,6,0,P|238:316|298:310,1,112.499996423722,4|0,3:2|1:0,0:0:0:0:
328,130,40519,2,0,P|347:192|322:247,1,112.499996423722,8|0,3:2|1:0,0:0:0:0:
465,355,40860,2,0,P|401:340|366:291,1,112.499996423722,0|8,3:0|0:0,0:0:0:0:
446,161,41315,6,0,P|316:238|328:129,1,337.499989271165,4|4,1:3|3:2,0:0:0:0:
46,68,42451,6,0,L|68:224,1,112.499996423722,10|0,0:0|1:0,0:0:0:0:
48,343,42906,6,0,P|87:260|152:257,1,112.499996423722,2|2,1:2|1:2,0:0:0:0:
192,262,43247,1,2,1:2:0:0:
235,339,43360,1,8,0:0:0:0:
235,339,43474,1,2,1:2:0:0:
142,121,43701,6,0,P|233:113|268:168,1,112.499996423722,10|0,0:0|1:0,0:0:0:0:
285,205,44042,1,2,1:2:0:0:
338,134,44156,1,0,1:0:0:0:
430,36,44269,2,0,P|419:123|457:169,1,112.499996423722,10|2,0:0|1:2,0:0:0:0:
445,329,44724,5,2,1:2:0:0:
316,384,44837,1,8,0:0:0:0:
264,375,44951,1,2,1:2:0:0:
219,366,45065,1,0,1:0:0:0:
158,293,45178,5,10,0:0:0:0:
209,284,45292,1,0,1:0:0:0:
261,275,45406,1,0,0:0:0:0:
306,266,45519,6,0,L|326:136,1,112.499996423722,4|0,1:3|0:0,0:0:0:0:
378,98,45860,1,2,1:2:0:0:
242,12,46087,2,0,P|157:70|120:58,1,112.499996423722,10|2,0:0|1:2,0:0:0:0:
22,26,46542,1,2,1:2:0:0:
155,70,46769,5,2,1:2:0:0:
99,132,46883,1,2,1:2:0:0:
120,162,46997,1,8,0:0:0:0:
235,162,47110,1,2,1:2:0:0:
275,228,47224,1,0,0:0:0:0:
252,250,47337,6,0,P|309:295|415:302,1,168.749994635583,10|4,0:0|1:3,0:0:0:0:
211,372,47906,2,0,P|274:337|333:347,1,112.499996423722,8|2,0:0|1:2,0:0:0:0:
491,158,48360,6,0,L|495:231,2,56.2499982118608,10|0|0,0:0|1:0|1:0,0:0:0:0:
421,108,48701,2,0,L|425:35,2,56.2499982118608,2|8|0,1:2|0:0|0:0,0:0:0:0:
362,167,49042,1,2,1:2:0:0:
362,275,49269,6,0,P|266:267|237:296,1,112.499996423722,4|2,3:0|0:0,0:0:0:0:
199,344,49610,1,2,1:2:0:0:
123,303,49724,2,0,L|99:152,1,112.499996423722,8|2,0:0|1:2,0:0:0:0:
58,112,50065,1,0,0:0:0:0:
58,112,50178,5,10,0:0:0:0:
199,48,50406,1,2,0:0:0:0:
273,75,50519,1,2,1:2:0:0:
346,102,50633,6,0,P|320:26|353:-23,1,112.499996423722,8|2,0:0|1:2,0:0:0:0:
430,304,51087,5,10,3:2:0:0:
369,189,51201,1,0,0:0:0:0:
503,195,51315,1,0,1:0:0:0:
451,271,51428,5,10,0:0:0:0:
388,224,51542,1,0,0:0:0:0:
464,193,51656,1,0,1:0:0:0:
336,300,51769,6,0,P|263:242|125:284,1,224.999992847443,10|0,0:0|0:0,0:0:0:0:
48,177,52224,2,0,L|-2:164,2,49.9999984105428,12|8|8,1:3|1:3|1:3,0:0:0:0:
111,128,52451,1,8,1:2:0:0:
221,377,52906,6,0,P|280:293|355:315,2,168.749994635583,6|2|2,3:2|1:2|1:2,0:0:0:0:
426,371,53815,2,0,L|406:160,1,168.749994635583,8|0,0:0|1:0,0:0:0:0:
244,40,54497,5,2,1:2:0:0:
225,118,54610,1,0,1:0:0:0:
292,187,54724,2,0,P|182:151|114:196,2,168.749994635583,0|0|0,1:0|1:0|1:0,0:0:0:0:
99,261,55633,1,8,0:0:0:0:
15,53,55860,1,0,1:0:0:0:
99,261,56087,1,8,0:0:0:0:
391,384,56428,5,0,1:0:0:0:
391,384,56542,2,0,P|332:300|257:322,2,168.749994635583,2|2|2,1:2|1:2|1:2,0:0:0:0:
186,378,57451,2,0,L|204:230,1,112.499996423722,8|2,0:0|0:0,0:0:0:0:
163,189,57792,1,0,1:0:0:0:
163,189,57906,1,2,0:0:0:0:
334,117,58133,5,2,1:2:0:0:
353,195,58247,1,0,1:0:0:0:
286,247,58360,2,0,P|361:243|396:270,1,112.499996423722,0|2,1:0|0:0,0:0:0:0:
480,316,58701,2,0,P|400:294|327:332,1,168.749994635583,0|2,1:0|1:2,0:0:0:0:
124,293,59269,1,8,0:0:0:0:
208,85,59497,1,0,1:0:0:0:
124,293,59724,1,8,0:0:0:0:
361,183,60178,6,0,P|249:202|209:143,1,168.749994635583,6|2,3:2|1:2,0:0:0:0:
0,200,60747,1,0,1:0:0:0:
0,200,60860,2,0,P|112:181|152:240,1,168.749994635583,10|2,3:2|1:2,0:0:0:0:
153,298,61315,5,0,0:0:0:0:
242,313,61428,1,0,1:0:0:0:
326,326,61542,2,0,L|478:310,1,112.499996423722,10|2,3:2|1:2,0:0:0:0:
245,187,61997,6,0,P|287:130|397:132,1,168.749994635583,4|2,3:0|1:2,0:0:0:0:
464,298,62565,1,0,1:0:0:0:
464,298,62678,2,0,L|455:138,1,112.499996423722,10|8,3:2|0:0,0:0:0:0:
511,123,63019,1,0,1:0:0:0:
511,123,63133,1,2,0:0:0:0:
345,81,63360,6,0,L|332:28,2,28.1249991059304,10|0|0,3:2|0:0|1:0,0:0:0:0:
271,102,63587,2,0,L|258:155,2,28.1249991059304,2|0|10,1:2|0:0|0:0,0:0:0:0:
165,39,63815,5,4,3:0:0:0:
185,120,63928,1,0,0:0:0:0:
143,191,64042,1,4,1:3:0:0:
64,214,64156,1,0,0:0:0:0:
36,292,64269,2,0,L|-9:300,2,37.4999988079072,8|0|0,0:0|0:0|0:0,0:0:0:0:
82,362,64497,2,0,L|138:379,2,37.4999988079072,4|0|0,1:3|0:0|0:0,0:0:0:0:
204,327,64724,5,8,1:3:0:0:
343,290,64875,1,8,1:3:0:0:
472,372,65027,1,8,1:3:0:0:
312,362,65178,5,8,1:2:0:0:
264,206,65330,1,8,1:2:0:0:
406,118,65481,1,8,1:2:0:0:
343,290,65633,6,0,L|193:278,1,149.999995231629,4|0,3:2|0:0,0:0:0:0:
202,0,66997,5,2,0:0:0:0:
208,47,67110,1,2,0:0:0:0:
188,103,67224,1,2,0:0:0:0:
126,144,67337,1,2,0:0:0:0:
39,141,67451,6,0,P|149:133|216:228,1,179.999994277954,6|0,3:1|1:0,0:0:0:0:
190,276,67792,1,0,1:0:0:0:
299,182,67906,2,0,L|289:83,1,89.9999971389771,10|0,0:0|0:0,0:0:0:0:
434,116,68133,2,0,L|444:17,1,89.9999971389771,0|0,1:0|0:0,0:0:0:0:
512,228,68360,6,0,P|373:236|343:308,1,179.999994277954,10|2,0:0|1:2,0:0:0:0:
342,357,68701,1,8,0:0:0:0:
182,384,68815,2,0,L|75:357,1,89.9999971389771,2|0,1:2|0:0,0:0:0:0:
40,203,69042,5,2,1:2:0:0:
0,115,69156,1,0,1:0:0:0:
70,200,69269,2,0,P|182:137|46:32,1,359.999988555909,2|8,3:2|0:0,0:0:0:0:
50,334,69951,5,2,1:2:0:0:
141,307,70065,1,0,1:0:0:0:
205,373,70178,2,0,P|250:374|319:333,1,89.9999971389771,10|0,0:0|0:0,0:0:0:0:
410,370,70406,2,0,P|433:331|432:251,1,89.9999971389771,2|0,1:2|0:0,0:0:0:0:
375,111,70633,6,0,L|198:70,1,179.999994277954,10|2,0:0|1:2,0:0:0:0:
82,130,70974,1,2,0:0:0:0:
200,99,71087,2,0,L|380:89,1,179.999994277954,4|0,3:0|0:0,0:0:0:0:
285,290,71542,5,0,1:0:0:0:
186,216,71656,1,0,1:0:0:0:
297,165,71769,1,0,1:0:0:0:
297,165,71997,6,0,P|313:92|285:26,1,89.9999971389771,8|0,0:0|0:0,0:0:0:0:
101,118,72224,2,0,P|107:73|129:34,1,89.9999971389771,0|0,1:0|0:0,0:0:0:0:
186,216,72451,1,8,0:0:0:0:
186,216,72527,1,0,0:0:0:0:
186,216,72603,1,0,0:0:0:0:
186,216,72678,1,10,0:0:0:0:
71,238,72792,5,8,0:0:0:0:
241,302,72906,1,14,3:2:0:0:
345,314,73133,5,0,0:0:0:0:
163,364,73247,1,2,1:3:0:0:
345,314,73474,5,2,1:3:0:0:
249,86,73701,2,0,P|334:87|401:205,1,179.999994277954,2|0,1:2|1:0,0:0:0:0:
215,169,74042,5,10,0:0:0:0:
114,79,74156,1,8,0:0:0:0:
12,215,74269,5,14,0:0:0:0:
128,163,74383,1,0,0:0:0:0:
59,9,74497,5,10,0:0:0:0:
43,134,74610,1,0,0:0:0:0:
100,251,74724,6,0,P|180:239|259:317,1,179.999994277954,4|0,3:2|1:0,0:0:0:0:
363,251,75065,1,0,1:0:0:0:
353,125,75178,2,0,P|433:137|512:59,1,179.999994277954,10|2,0:0|1:2,0:0:0:0:
246,130,75633,5,0,1:0:0:0:
99,169,75747,1,8,0:0:0:0:
324,159,75974,5,0,1:0:0:0:
198,56,76087,1,10,0:0:0:0:
241,316,76315,5,2,1:2:0:0:
394,358,76542,6,0,P|307:298|223:332,1,179.999994277954,4|0,3:0|1:0,0:0:0:0:
145,371,76883,1,2,1:2:0:0:
45,252,76997,2,0,P|125:264|204:186,1,179.999994277954,8|2,0:0|1:2,0:0:0:0:
461,48,77451,5,0,1:0:0:0:
500,153,77565,1,8,0:0:0:0:
423,234,77678,1,0,1:0:0:0:
233,204,77906,5,8,0:0:0:0:
449,350,78133,1,10,0:0:0:0:
491,87,78360,6,0,P|415:192|451:276,1,179.999994277954,4|0,3:0|1:0,0:0:0:0:
261,219,78701,2,0,P|390:206|445:280,1,179.999994277954,2|0,1:2|1:0,0:0:0:0:
335,92,79042,6,0,L|325:-28,1,89.9999971389771,2|0,1:2|0:0,0:0:0:0:
226,17,79269,2,0,P|140:68|46:47,1,179.999994277954,8|2,0:0|1:2,0:0:0:0:
120,177,79610,1,0,1:0:0:0:
15,266,79724,2,0,P|30:365|67:388,1,89.9999971389771,10|0,0:0|0:0,0:0:0:0:
141,337,79951,2,0,P|234:373|272:352,1,89.9999971389771,2|2,1:2|0:0,0:0:0:0:
339,328,80178,5,8,3:2:0:0:
370,208,80292,1,0,1:0:0:0:
284,117,80406,1,0,1:0:0:0:
340,221,80519,5,8,0:0:0:0:
422,117,80633,1,0,1:0:0:0:
364,2,80747,1,0,1:0:0:0:
423,146,80860,6,0,L|523:135,1,89.9999971389771,8|0,0:0|1:0,0:0:0:0:
399,291,81087,2,0,P|314:315|245:219,1,179.999994277954,8|0,0:0|1:0,0:0:0:0:
89,22,81542,5,0,1:0:0:0:
161,73,81656,1,8,0:0:0:0:
179,161,81769,1,8,0:0:0:0:
129,249,81883,1,8,0:0:0:0:
15,283,81997,6,0,P|120:298|161:431,1,179.999994277954,14|0,3:2|1:0,0:0:0:0:
278,384,82337,1,0,1:0:0:0:
390,274,82451,2,0,P|377:167|371:59,1,179.999994277954,10|0,3:2|1:0,0:0:0:0:
439,13,82906,5,10,3:2:0:0:
288,53,83019,1,0,1:0:0:0:
127,103,83133,5,2,1:2:0:0:
251,132,83247,1,0,1:0:0:0:
373,197,83360,5,10,3:2:0:0:
281,214,83474,1,0,1:0:0:0:
183,234,83587,6,0,L|171:154,2,44.9999985694886,2|0|0,1:2|0:0|1:0,0:0:0:0:
172,259,83815,2,0,L|157:171,1,89.9999971389771,10|0,3:2|1:0,0:0:0:0:
81,72,84042,5,0,1:0:0:0:
164,70,84156,1,0,1:0:0:0:
273,194,84269,5,8,3:2:0:0:
180,212,84383,1,0,1:0:0:0:
246,335,84497,5,2,1:2:0:0:
355,364,84610,1,2,1:2:0:0:
465,311,84724,6,0,L|476:202,1,89.9999971389771,8|0,3:2|1:0,0:0:0:0:
487,313,84951,2,0,L|498:204,1,89.9999971389771,2|0,1:2|1:0,0:0:0:0:
351,74,85178,6,0,L|373:222,1,89.9999971389771,10|0,3:2|1:0,0:0:0:0:
370,70,85406,2,0,L|392:218,1,89.9999971389771,2|0,1:2|1:0,0:0:0:0:
326,319,85633,6,0,P|259:270|144:271,1,179.999994277954,10|0,3:2|1:0,0:0:0:0:
73,206,85974,1,0,1:0:0:0:
174,150,86087,2,0,L|188:19,1,89.9999971389771,8|0,3:2|1:0,0:0:0:0:
8,8,86315,2,0,L|22:139,1,89.9999971389771,2|0,1:2|1:0,0:0:0:0:
73,206,86542,5,8,3:2:0:0:
172,260,86656,1,0,1:0:0:0:
0,320,86769,2,0,L|115:311,1,89.9999971389771,0|0,1:0|1:0,0:0:0:0:
370,201,86997,5,8,3:2:0:0:
340,110,87110,1,0,1:0:0:0:
470,233,87224,2,0,L|351:222,1,89.9999971389771,2|0,1:2|1:0,0:0:0:0:
414,14,87451,6,0,P|335:70|212:-15,1,179.999994277954,10|0,3:2|1:0,0:0:0:0:
166,0,87792,1,2,1:2:0:0:
29,93,87906,2,0,L|47:244,1,89.9999971389771,8|0,3:2|1:0,0:0:0:0:
82,306,88133,5,2,1:2:0:0:
184,361,88247,1,0,1:0:0:0:
282,317,88360,1,8,3:2:0:0:
319,230,88474,1,0,1:0:0:0:
389,171,88587,1,0,1:0:0:0:
472,196,88701,1,0,1:0:0:0:
503,271,88815,1,10,3:2:0:0:
466,341,88928,1,0,1:0:0:0:
394,366,89042,1,2,1:2:0:0:
333,329,89156,1,2,1:2:0:0:
333,329,89269,6,0,L|327:196,1,112.499996423722,12|0,3:2|1:0,0:0:0:0:
168,32,89724,1,8,0:0:0:0:
406,138,89951,1,8,0:0:0:0:
120,380,90178,5,10,3:2:0:0:
34,268,90292,1,0,1:0:0:0:
84,133,90406,1,0,1:0:0:0:
166,249,90519,1,0,1:0:0:0:
166,249,90860,6,0,P|230:272|344:155,1,224.999992847443,6|2,1:2|0:0,0:0:0:0:
450,152,91428,1,0,1:0:0:0:
512,243,91542,1,8,0:0:0:0:
497,259,91769,5,10,0:0:0:0:
437,329,91883,1,8,0:0:0:0:
343,292,91997,2,0,L|132:312,1,168.749994635583,4|4,3:0|3:0,0:0:0:0:
87,281,92678,6,0,P|83:307|105:373,1,56.2499982118608,4|0,3:0|0:0,0:0:0:0:
161,220,92906,1,14,3:2:0:0:
28,58,93133,5,0,1:0:0:0:
87,132,93247,1,0,1:0:0:0:
172,102,93360,1,8,0:0:0:0:
186,121,93587,5,0,1:0:0:0:
259,84,93701,1,0,1:0:0:0:
318,140,93815,1,8,0:0:0:0:
339,128,94042,5,0,0:0:0:0:
393,182,94156,1,0,1:0:0:0:
465,155,94269,1,8,0:0:0:0:
358,283,94497,5,2,1:2:0:0:
358,283,94610,1,2,0:0:0:0:
358,283,94724,2,0,L|377:415,1,97.4999969005586,4|0,1:3|0:0,0:0:0:0:
28,239,94951,5,8,0:0:0:0:
143,217,95065,2,0,L|279:240,1,97.4999969005586,0|8,0:0|0:0,0:0:0:0:
374,107,95292,5,0,0:0:0:0:
259,85,95406,2,0,L|123:108,1,97.4999969005586,0|0,1:0|1:0,0:0:0:0:
126,233,95633,6,0,L|111:316,2,48.7499984502793,8|8|8,0:0|0:0|0:0,0:0:0:0:
72,148,95860,1,0,1:0:0:0:
136,244,95974,2,0,L|121:327,2,48.7499984502793,8|8|8,0:0|0:0|0:0,0:0:0:0:
239,233,96201,1,0,1:0:0:0:
311,156,96315,1,8,0:0:0:0:
412,131,96428,1,8,0:0:0:0:
504,190,96542,6,0,L|517:357,1,149.999995231629,14|0,3:2|1:0,0:0:0:0:
410,384,96883,1,0,1:0:0:0:
271,308,96997,2,0,L|284:144,1,149.999995231629,10|0,3:2|1:0,0:0:0:0:
178,107,97337,1,0,1:0:0:0:
68,141,97451,6,0,P|72:79|102:46,1,74.9999976158143,10|0,3:2|1:0,0:0:0:0:
175,81,97678,2,0,P|230:53|274:62,1,74.9999976158143,2|0,1:2|1:0,0:0:0:0:
308,178,97906,6,0,P|370:174|403:144,1,74.9999976158143,10|0,3:2|1:0,0:0:0:0:
473,180,98133,2,0,P|500:124|491:80,1,74.9999976158143,2|0,1:2|1:0,0:0:0:0:
373,18,98360,6,0,P|379:122|379:223,1,149.999995231629,10|0,3:2|1:0,0:0:0:0:
412,260,98701,1,0,1:0:0:0:
299,257,98815,2,0,P|282:194|315:151,1,74.9999976158143,10|0,3:2|1:0,0:0:0:0:
398,277,99042,1,2,1:2:0:0:
299,378,99156,1,2,1:2:0:0:
299,378,99269,2,0,P|245:340|114:329,1,149.999995231629,8|0,3:2|1:0,0:0:0:0:
69,268,99610,1,0,1:0:0:0:
128,175,99724,2,0,P|122:108|110:76,1,74.9999976158143,8|0,3:2|1:0,0:0:0:0:
221,66,99951,5,2,1:2:0:0:
302,31,100065,1,0,1:0:0:0:
157,0,100178,2,0,P|66:14|-48:41,1,149.999995231629,10|0,3:2|1:0,0:0:0:0:
119,100,100519,1,0,1:0:0:0:
274,199,100633,2,0,P|365:213|479:240,1,149.999995231629,10|0,3:2|1:0,0:0:0:0:
512,167,100974,1,0,1:0:0:0:
344,247,101087,6,0,P|329:281|328:318,1,74.9999976158143,10|0,3:2|1:0,0:0:0:0:
205,370,101315,2,0,P|220:336|221:299,1,74.9999976158143,2|0,1:2|1:0,0:0:0:0:
363,250,101542,6,0,P|348:284|347:321,1,74.9999976158143,10|0,3:2|1:0,0:0:0:0:
182,370,101769,2,0,P|197:336|198:299,1,74.9999976158143,2|0,1:2|1:0,0:0:0:0:
98,256,101997,5,12,3:2:0:0:
46,119,102148,1,8,1:2:0:0:
189,151,102300,1,8,1:3:0:0:
130,250,102451,5,8,3:2:0:0:
55,159,102603,1,8,1:3:0:0:
167,139,102754,1,8,1:2:0:0:
247,237,102906,5,8,3:0:0:0:
375,235,103057,1,8,1:2:0:0:
472,144,103209,1,8,1:3:0:0:
451,0,103348,6,0,P|444:55|446:80,1,74.9999976158143,12|6,3:2|0:0,0:0:0:0:
68,212,115057,6,0,P|124:184|264:276,1,224.999992847443,12|0,3:2|3:0,0:0:0:0:
421,310,115966,2,0,P|365:282|225:374,1,224.999992847443,12|0,3:2|3:0,0:0:0:0:
295,148,116534,1,0,1:0:0:0:
256,192,116649,12,0,117340,0:0:0:0:
71,137,117455,5,8,1:2:0:0:
197,259,117606,1,8,1:2:0:0:
178,85,117758,1,8,1:2:0:0:
155,175,117909,2,0,L|146:301,1,112.499996423721,4|0,1:3|0:0,0:0:0:0:
198,384,118364,6,0,P|303:327|349:353,1,149.999995231629,6|0,3:2|0:0,0:0:0:0:
457,219,118704,1,2,1:2:0:0:
396,149,118818,1,2,1:3:0:0:
438,72,118932,1,8,0:0:0:0:
438,72,119045,2,0,P|333:129|287:103,1,149.999995231629,2|8,1:2|0:0,0:0:0:0:
254,60,119386,1,0,0:0:0:0:
254,60,119500,2,0,P|267:149|279:224,2,149.999995231629,2|10|2,1:2|0:0|1:2,0:0:0:0:
93,74,120068,5,0,1:0:0:0:
12,107,120182,2,0,P|77:160|159:128,1,149.999995231629,0|2,1:0|0:0,0:0:0:0:
124,234,120523,1,0,1:0:0:0:
124,234,120636,2,0,P|202:204|215:117,1,149.999995231629,2|0,1:3|1:0,0:0:0:0:
299,171,120977,1,0,1:0:0:0:
299,171,121091,5,8,0:0:0:0:
378,156,121204,1,0,0:0:0:0:
360,81,121318,1,0,1:0:0:0:
282,95,121432,1,0,1:0:0:0:
297,172,121545,6,0,L|303:269,1,74.9999976158143,8|0,0:0|1:0,0:0:0:0:
427,370,121773,2,0,L|433:273,1,74.9999976158143,10|8,0:0|0:0,0:0:0:0:
512,203,122000,6,0,P|378:252|295:173,1,224.999992847443,2|2,1:2|1:2,0:0:0:0:
222,147,122454,1,2,1:3:0:0:
149,126,122568,1,0,1:0:0:0:
58,193,122682,2,0,P|106:124|56:22,1,149.999995231629,2|8,1:2|0:0,0:0:0:0:
221,17,123136,5,2,1:2:0:0:
277,70,123250,1,0,1:0:0:0:
330,48,123364,1,10,1:2:0:0:
378,79,123477,1,0,1:0:0:0:
443,41,123591,1,2,1:2:0:0:
470,249,123818,5,0,1:0:0:0:
400,183,123932,1,8,0:0:0:0:
304,202,124045,1,10,0:0:0:0:
247,262,124159,1,0,1:0:0:0:
171,272,124273,1,2,1:3:0:0:
118,223,124386,1,0,1:0:0:0:
54,231,124500,1,2,1:2:0:0:
23,271,124614,1,8,0:0:0:0:
23,315,124727,1,0,1:0:0:0:
48,347,124841,2,0,L|52:384,2,37.4999988079071,8|8|0,0:0|0:0|1:0,0:0:0:0:
126,335,125068,6,0,L|130:298,2,37.4999988079071,0|0|8,1:0|0:0|0:0,0:0:0:0:
204,364,125295,1,8,0:0:0:0:
281,330,125409,1,2,1:2:0:0:
354,372,125523,1,0,1:0:0:0:
425,322,125636,6,0,L|438:146,1,149.999995231629,4|0,3:2|1:0,0:0:0:0:
469,246,125977,2,0,L|482:70,1,149.999995231629,10|0,3:2|1:0,0:0:0:0:
474,203,126318,2,0,P|383:226|357:304,1,149.999995231629,10|0,3:2|0:0,0:0:0:0:
393,348,126659,1,2,1:2:0:0:
284,305,126773,2,0,L|171:291,1,74.9999976158143,8|0,0:0|1:0,0:0:0:0:
64,329,127000,5,10,3:2:0:0:
54,280,127114,1,0,1:0:0:0:
95,208,127227,5,2,1:2:0:0:
99,155,127341,1,0,1:0:0:0:
34,73,127454,6,0,P|112:127|204:90,1,149.999995231629,4|0,3:0|1:0,0:0:0:0:
263,44,127795,2,0,L|267:90,2,37.4999988079071,2|0|8,0:0|0:0|3:2,0:0:0:0:
462,68,128136,5,2,1:2:0:0:
354,0,128250,2,0,L|350:46,2,37.4999988079071,0|0|8,0:0|0:0|3:2,0:0:0:0:
440,191,128591,5,2,0:0:0:0:
366,316,128818,2,0,L|369:218,1,74.9999976158143,10|0,3:2|0:0,0:0:0:0:
299,174,129045,2,0,L|296:76,1,74.9999976158143,10|2,0:0|0:0,0:0:0:0:
165,39,129273,5,4,3:0:0:0:
185,120,129386,1,0,1:0:0:0:
143,191,129500,1,4,1:3:0:0:
64,214,129614,1,0,1:0:0:0:
36,292,129727,2,0,L|-26:308,2,37.4999988079071,8|0|0,0:0|0:0|0:0,0:0:0:0:
82,362,129954,2,0,L|144:378,2,37.4999988079071,4|0|0,1:3|0:0|0:0,0:0:0:0:
204,327,130182,5,8,1:3:0:0:
343,290,130333,1,8,1:3:0:0:
472,372,130485,1,8,1:3:0:0:
312,362,130636,5,8,1:2:0:0:
264,206,130788,1,8,1:2:0:0:
406,118,130939,1,8,1:2:0:0:
343,290,131091,6,0,L|193:278,1,149.999995231629,4|0,3:2|0:0,0:0:0:0:
310,0,132454,5,2,0:0:0:0:
304,47,132568,1,2,0:0:0:0:
324,103,132682,1,2,0:0:0:0:
386,144,132795,1,2,0:0:0:0:
473,141,132909,6,0,P|363:133|296:228,1,179.999994277954,6|0,3:1|1:0,0:0:0:0:
288,275,133250,1,0,1:0:0:0:
204,157,133364,2,0,P|142:248|190:353,1,179.999994277954,10|0,0:0|1:0,0:0:0:0:
227,384,133704,1,0,0:0:0:0:
71,353,133818,6,0,P|210:361|240:433,1,179.999994277954,10|2,0:0|1:2,0:0:0:0:
322,350,134159,1,8,0:0:0:0:
360,212,134273,2,0,P|382:158|425:130,1,89.9999971389771,2|0,1:2|0:0,0:0:0:0:
238,159,134500,5,2,1:2:0:0:
135,214,134614,1,0,1:0:0:0:
245,129,134727,2,0,P|224:2|78:94,1,359.999988555909,2|8,3:2|0:0,0:0:0:0:
405,138,135409,5,2,1:2:0:0:
460,227,135523,1,0,1:0:0:0:
400,305,135636,2,0,P|355:306|286:265,1,89.9999971389771,10|0,0:0|0:0,0:0:0:0:
219,304,135864,2,0,P|196:265|197:185,1,89.9999971389771,2|0,1:2|0:0,0:0:0:0:
107,69,136091,6,0,L|82:248,1,179.999994277954,10|2,0:0|1:2,0:0:0:0:
127,371,136432,1,2,0:0:0:0:
64,244,136545,2,0,L|89:65,1,179.999994277954,4|0,3:0|0:0,0:0:0:0:
219,304,137000,5,0,1:0:0:0:
323,258,137114,1,0,1:0:0:0:
420,325,137227,1,0,1:0:0:0:
420,325,137454,6,0,P|404:252|432:186,1,89.9999971389771,8|0,0:0|0:0,0:0:0:0:
230,111,137682,2,0,P|236:156|258:195,1,89.9999971389771,0|0,1:0|0:0,0:0:0:0:
354,166,137909,1,8,0:0:0:0:
354,166,137985,1,0,0:0:0:0:
354,166,138060,1,0,0:0:0:0:
354,166,138136,1,10,0:0:0:0:
441,238,138250,5,8,0:0:0:0:
271,302,138364,1,14,3:2:0:0:
167,314,138591,5,0,0:0:0:0:
349,364,138704,1,2,1:3:0:0:
167,314,138932,5,2,1:3:0:0:
262,86,139159,2,0,P|274:191|270:292,1,179.999994277954,2|0,1:2|1:0,0:0:0:0:
10,217,139500,5,10,0:0:0:0:
124,127,139614,1,8,0:0:0:0:
181,326,139727,5,14,0:0:0:0:
111,232,139841,1,0,0:0:0:0:
138,22,139954,5,10,0:0:0:0:
16,118,140068,1,0,0:0:0:0:
111,232,140182,6,0,L|308:246,1,179.999994277954,4|0,3:2|1:0,0:0:0:0:
396,198,140523,1,0,1:0:0:0:
316,81,140636,2,0,P|396:93|475:15,1,179.999994277954,10|2,0:0|1:2,0:0:0:0:
235,148,141091,5,0,1:0:0:0:
196,295,141204,1,8,0:0:0:0:
206,70,141432,5,0,1:0:0:0:
309,196,141545,1,10,0:0:0:0:
102,339,141773,5,2,1:2:0:0:
312,372,142000,6,0,P|399:312|483:346,1,179.999994277954,4|0,3:0|1:0,0:0:0:0:
511,220,142341,1,2,1:2:0:0:
454,116,142454,2,0,P|374:128|295:50,1,179.999994277954,8|2,0:0|1:2,0:0:0:0:
89,102,142909,5,0,1:0:0:0:
50,203,143023,1,8,0:0:0:0:
148,243,143136,1,0,1:0:0:0:
127,2,143364,5,8,0:0:0:0:
253,284,143591,1,10,0:0:0:0:
301,67,143818,6,0,P|377:172|341:256,1,179.999994277954,4|0,3:0|1:0,0:0:0:0:
462,80,144159,2,0,P|387:126|369:212,1,179.999994277954,2|0,1:2|1:0,0:0:0:0:
237,250,144500,6,0,L|117:240,1,89.9999971389771,2|0,1:2|0:0,0:0:0:0:
106,104,144727,6,0,P|192:155|286:134,1,179.999994277954,8|2,0:0|1:2,0:0:0:0:
369,212,145068,1,0,1:0:0:0:
461,83,145182,2,0,P|446:182|409:205,1,89.9999971389771,10|0,0:0|0:0,0:0:0:0:
448,274,145409,2,0,P|355:310|317:289,1,89.9999971389771,2|2,1:2|0:0,0:0:0:0:
173,328,145636,5,8,3:2:0:0:
142,205,145750,1,0,1:0:0:0:
228,117,145864,1,0,1:0:0:0:
174,226,145977,5,8,0:0:0:0:
84,127,146091,1,0,1:0:0:0:
135,10,146204,1,0,1:0:0:0:
57,138,146318,6,0,L|64:48,1,89.9999971389771,8|0,0:0|1:0,0:0:0:0:
196,117,146545,2,0,P|257:54|345:57,1,179.999994277954,8|0,0:0|1:0,0:0:0:0:
509,313,147000,5,0,1:0:0:0:
467,228,147114,1,8,0:0:0:0:
369,204,147227,1,8,0:0:0:0:
278,258,147341,1,8,0:0:0:0:
244,372,147454,6,0,P|229:267|96:226,1,179.999994277954,14|0,3:2|1:0,0:0:0:0:
54,249,147795,1,0,1:0:0:0:
196,117,147909,2,0,L|411:135,1,179.999994277954,10|0,3:2|1:0,0:0:0:0:
395,355,148364,5,10,3:2:0:0:
282,302,148477,1,0,1:0:0:0:
146,308,148591,5,2,1:2:0:0:
274,264,148704,1,0,1:0:0:0:
376,265,148818,5,10,3:2:0:0:
265,223,148932,1,0,1:0:0:0:
146,189,149045,6,0,L|158:109,2,44.9999985694886,2|0|0,1:2|0:0|1:0,0:0:0:0:
157,214,149273,2,0,L|172:126,1,89.9999971389771,10|0,3:2|1:0,0:0:0:0:
359,16,149500,5,0,1:0:0:0:
250,59,149614,1,0,1:0:0:0:
349,160,149727,5,8,3:2:0:0:
466,178,149841,1,0,1:0:0:0:
408,279,149954,5,2,1:2:0:0:
296,323,150068,1,2,1:2:0:0:
168,306,150182,6,0,L|157:197,1,89.9999971389771,8|0,3:2|1:0,0:0:0:0:
312,217,150409,2,0,L|301:108,1,89.9999971389771,2|0,1:2|1:0,0:0:0:0:
142,311,150636,6,0,L|131:202,1,89.9999971389771,10|0,3:2|1:0,0:0:0:0:
286,222,150864,2,0,L|275:113,1,89.9999971389771,2|0,1:2|1:0,0:0:0:0:
212,46,151091,6,0,P|291:102|414:17,1,179.999994277954,10|0,3:2|1:0,0:0:0:0:
478,130,151432,1,2,1:2:0:0:
399,252,151545,2,0,L|385:383,1,89.9999971389771,8|0,3:2|1:0,0:0:0:0:
512,219,151773,2,0,L|498:88,1,89.9999971389771,2|0,1:2|1:0,0:0:0:0:
367,85,152000,5,8,3:2:0:0:
276,132,152114,1,0,1:0:0:0:
122,53,152227,2,0,L|237:44,1,89.9999971389771,0|0,1:0|1:0,0:0:0:0:
264,222,152454,5,8,3:2:0:0:
173,269,152568,1,0,1:0:0:0:
19,190,152682,2,0,L|134:181,1,89.9999971389771,2|0,1:2|1:0,0:0:0:0:
276,132,152909,6,0,P|356:193|342:275,1,179.999994277954,10|0,3:2|1:0,0:0:0:0:
265,321,153250,1,2,1:2:0:0:
439,284,153364,2,0,P|435:313|429:391,1,89.9999971389771,8|0,3:2|1:0,0:0:0:0:
469,206,153591,5,2,1:2:0:0:
349,263,153704,1,0,1:0:0:0:
240,212,153818,1,8,3:2:0:0:
201,120,153932,1,0,1:0:0:0:
129,69,154045,1,0,1:0:0:0:
49,96,154159,1,0,1:0:0:0:
10,163,154273,1,10,3:2:0:0:
91,189,154386,1,0,1:0:0:0:
172,163,154500,1,2,1:2:0:0:
223,112,154614,1,2,1:2:0:0:
223,112,154727,6,0,L|229:-21,1,112.499996423722,12|0,3:2|1:0,0:0:0:0:
41,272,155182,1,8,0:0:0:0:
228,0,155409,1,8,0:0:0:0:
420,350,155636,5,10,3:2:0:0:
491,215,155750,1,0,1:0:0:0:
356,145,155864,1,0,1:0:0:0:
284,277,155977,2,0,L|291:347,1,56.2499982118608,0|2,1:0|0:0,0:0:0:0:
348,229,156318,6,0,P|284:252|170:135,1,224.999992847443,6|2,1:2|0:0,0:0:0:0:
62,152,156886,1,0,1:0:0:0:
0,243,157000,1,10,0:0:0:0:
15,259,157227,5,8,0:0:0:0:
38,124,157341,1,8,0:0:0:0:
61,0,157454,2,0,L|272:20,1,168.749994635583,4|4,3:0|3:0,0:0:0:0:
348,229,158136,6,0,P|352:255|330:321,1,56.2499982118608,4|0,3:0|0:0,0:0:0:0:
277,140,158364,1,14,3:2:0:0:
0,346,158591,5,0,1:0:0:0:
114,335,158704,1,0,1:0:0:0:
224,323,158818,1,8,0:0:0:0:
105,177,159045,5,0,1:0:0:0:
196,186,159159,1,0,1:0:0:0:
284,194,159273,1,8,0:0:0:0:
191,64,159500,5,0,0:0:0:0:
263,56,159614,1,0,1:0:0:0:
334,50,159727,1,8,0:0:0:0:
70,186,159954,6,0,L|62:276,1,56.2499982118608,2|2,1:2|0:0,0:0:0:0:
152,315,160182,2,0,L|269:328,1,97.4999969005586,4|0,1:3|0:0,0:0:0:0:
484,239,160409,5,8,0:0:0:0:
369,217,160523,2,0,L|233:240,1,97.4999969005586,0|8,0:0|0:0,0:0:0:0:
138,107,160750,5,0,0:0:0:0:
253,85,160864,2,0,L|389:108,1,97.4999969005586,0|0,1:0|1:0,0:0:0:0:
386,233,161091,6,0,L|401:316,2,48.7499984502793,8|0|0,0:0|0:0|1:0,0:0:0:0:
440,148,161318,1,0,1:0:0:0:
376,244,161432,2,0,L|391:327,2,48.7499984502793,0|0|8,1:0|0:0|0:0,0:0:0:0:
273,233,161659,1,0,0:0:0:0:
201,156,161773,1,0,0:0:0:0:
108,134,161886,1,0,0:0:0:0:
22,184,162000,6,0,P|9:245|12:262,2,56.2499982118608,14|0|0,1:2|1:0|1:0,0:0:0:0:
106,232,162341,1,2,1:2:0:0:
106,232,162454,1,10,1:2:0:0:
239,35,162682,6,0,P|239:72|233:90,2,56.2499982118608,2|0|2,1:2|1:0|1:3,0:0:0:0:
153,48,163023,1,2,1:2:0:0:
332,147,163364,5,2,1:3:0:0:
296,209,163477,1,0,1:0:0:0:
312,279,163591,1,0,1:0:0:0:
371,321,163704,1,0,1:0:0:0:
444,318,163818,6,0,P|457:379|454:396,2,56.2499982118608,10|0|0,1:2|1:0|1:0,0:0:0:0:
495,264,164159,1,2,1:2:0:0:
495,264,164273,1,10,1:2:0:0:
261,44,164500,6,0,P|223:47|206:50,2,56.2499982118608,2|0|2,1:2|1:0|1:3,0:0:0:0:
317,93,164841,1,2,1:2:0:0:
109,188,165068,5,0,1:0:0:0:
109,188,165182,1,10,1:2:0:0:
48,248,165295,1,8,1:2:0:0:
89,322,165409,1,8,1:2:0:0:
171,306,165523,2,0,P|224:251|297:260,1,112.499996423722,4|0,1:2|1:0,0:0:0:0:
336,285,165864,5,0,1:0:0:0:
348,292,165939,1,2,0:0:0:0:
362,295,166015,1,2,0:0:0:0:
374,294,166091,1,10,1:2:0:0:
385,289,166167,1,2,0:0:0:0:
393,282,166242,1,2,0:0:0:0:
398,272,166318,1,2,1:2:0:0:
397,263,166394,1,2,0:0:0:0:
396,255,166470,1,2,0:0:0:0:
396,245,166545,1,2,1:2:0:0:
402,236,166621,1,2,0:0:0:0:
412,231,166697,1,2,0:0:0:0:
423,231,166773,2,0,L|430:269,1,37.4999988079072,2|2,0:0|0:0,0:0:0:0:
306,106,167000,5,10,1:2:0:0:
212,153,167151,1,2,0:0:0:0:
81,120,167303,1,2,0:0:0:0:
0,0,167454,1,2,0:0:0:0:
0,0,167909,6,0,P|8:104|2:146,1,112.499996423722,10|2,1:2|1:2,0:0:0:0:
106,217,168477,2,0,P|0:262|-21:288,1,112.499996423722,0|0,1:0|1:0,0:0:0:0:
181,265,168818,5,10,1:2:0:0:
205,146,168932,1,10,1:2:0:0:
246,214,169045,5,2,1:2:0:0:
195,122,169159,1,2,0:0:0:0:
288,136,169273,6,0,P|357:104|443:149,1,168.749994635583,4|4,3:2|3:2,0:0:0:0:
106,217,169954,2,0,P|168:260|172:357,1,168.749994635583,8|2,1:2|1:3,0:0:0:0:
176,347,170636,2,0,L|257:356,2,56.2499982118608,0|8|8,1:0|1:2|1:2,0:0:0:0:
473,309,170977,5,10,1:2:0:0:
399,305,171091,1,2,0:0:0:0:
378,243,171204,1,2,0:0:0:0:
419,199,171318,1,10,1:2:0:0:
452,165,171432,1,0,0:0:0:0:
443,118,171545,1,0,0:0:0:0:
399,58,171659,5,2,1:2:0:0:
383,40,171773,1,2,0:0:0:0:
400,42,171886,1,2,0:0:0:0:
383,56,172000,1,2,1:2:0:0:
447,197,172227,5,2,1:3:0:0:
407,202,172341,1,8,1:2:0:0:
378,243,172454,1,8,1:2:0:0:
324,267,172568,1,0,1:0:0:0:
266,232,172682,1,0,1:0:0:0:
96,208,172909,5,6,1:2:0:0:
130,104,173023,1,8,1:2:0:0:
234,0,173250,5,0,1:0:0:0:
263,82,173364,1,2,1:3:0:0:
263,82,173591,5,6,1:2:0:0:
282,106,173818,1,8,1:2:0:0:
122,133,173932,1,10,1:2:0:0:
223,203,174273,5,6,1:2:0:0:
226,224,174386,1,0,1:0:0:0:
294,384,174614,5,2,1:2:0:0:
244,296,174727,1,10,1:2:0:0:
160,264,174841,1,10,1:2:0:0:
83,294,174954,1,2,1:2:0:0:
23,176,175068,5,8,1:2:0:0:
80,251,175182,1,0,1:0:0:0:
160,264,175295,1,10,1:2:0:0:
226,224,175409,5,10,1:2:0:0:
157,187,175523,1,10,1:2:0:0:
226,224,175636,2,0,P|315:207|367:254,2,149.999995231629,4|4|4,3:2|3:2|3:2,0:0:0:0:
512,0,176545,5,4,3:2:0:0:
256,192,176659,12,0,178136,0:0:0:0:
215,138,178250,6,0,L|221:169,2,18.7499994039536,0|0|2,0:0|0:0|0:0,0:0:0:0:
256,192,178477,12,2,182000,0:0:0:0:
284,250,187454,5,4,3:2:0:0:
284,250,187682,5,4,1:3:0:0:
234,68,187795,1,4,1:2:0:0:
284,250,188023,5,4,1:2:0:0:
480,160,188250,2,0,P|511:239|393:306,1,187.499994039536,4|0,1:3|1:0,0:0:0:0:
215,169,188591,5,8,0:0:0:0:
114,79,188704,1,8,0:0:0:0:
168,302,188818,5,8,0:0:0:0:
284,250,188932,1,0,0:0:0:0:
79,183,189045,5,8,0:0:0:0:
63,308,189159,1,0,0:0:0:0:
168,302,189273,6,0,L|379:280,1,187.499994039536,4|0,3:2|0:0,0:0:0:0:
456,328,189614,1,8,0:0:0:0:
355,159,189727,2,0,P|435:171|514:93,1,187.499994039536,2|10,1:2|0:0,0:0:0:0:
198,104,190182,5,0,1:0:0:0:
51,143,190295,1,8,0:0:0:0:
276,133,190523,5,0,1:0:0:0:
150,30,190636,1,10,0:0:0:0:
194,291,190864,5,2,1:2:0:0:
468,370,191091,6,0,P|381:310|297:344,1,187.499994039536,4|0,3:0|0:0,0:0:0:0:
194,291,191432,1,10,0:0:0:0:
289,154,191545,2,0,L|298:58,2,93.7499970197678,0|0|10,1:0|0:0|0:0,0:0:0:0:
15,307,192000,5,0,1:0:0:0:
108,312,192114,1,8,0:0:0:0:
202,318,192227,1,0,1:0:0:0:
295,324,192341,1,0,1:0:0:0:
389,377,192454,5,8,0:0:0:0:
346,235,192568,1,0,1:0:0:0:
295,324,192682,1,10,0:0:0:0:
438,285,192795,1,8,0:0:0:0:
295,324,192909,6,0,P|219:219|239:160,1,187.499994039536,4|0,3:0|1:0,0:0:0:0:
77,10,193250,2,0,P|207:16|249:98,1,187.499994039536,10|0,0:0|1:0,0:0:0:0:
430,109,193591,2,0,L|310:119,1,93.7499970197678,10|0,0:0|0:0,0:0:0:0:
295,324,193818,6,0,P|209:375|115:354,1,187.499994039536,0|2,1:0|0:0,0:0:0:0:
41,282,194159,1,0,1:0:0:0:
147,139,194273,2,0,L|155:264,1,93.7499970197678,10|0,0:0|0:0,0:0:0:0:
365,139,194500,2,0,L|357:264,1,93.7499970197678,2|2,1:2|0:0,0:0:0:0:
258,86,194727,5,8,3:2:0:0:
381,56,194841,1,0,0:0:0:0:
458,147,194954,1,0,1:0:0:0:
334,141,195068,5,8,0:0:0:0:
235,168,195182,1,0,0:0:0:0:
155,107,195295,1,0,1:0:0:0:
46,172,195409,6,0,L|34:71,1,93.7499970197678,8|0,0:0|0:0,0:0:0:0:
203,4,195636,5,8,3:2:0:0:
375,270,195788,1,8,3:2:0:0:
466,23,195939,1,8,3:2:0:0:
242,254,196091,1,4,3:0:0:0:
203,4,196545,6,0,P|309:0|372:124,1,187.499994039536,14|0,3:2|1:0,0:0:0:0:
404,141,196886,1,0,1:0:0:0:
322,328,197000,2,0,P|307:216|303:113,1,187.499994039536,10|0,3:2|1:0,0:0:0:0:
21,137,197454,5,10,3:2:0:0:
172,177,197568,1,0,1:0:0:0:
333,227,197682,5,2,1:2:0:0:
209,256,197795,1,0,1:0:0:0:
87,321,197909,5,10,3:2:0:0:
179,338,198023,1,0,1:0:0:0:
277,358,198136,6,0,L|289:278,2,46.8749985098839,2|0|0,1:2|0:0|1:0,0:0:0:0:
288,383,198364,2,0,L|303:295,1,89.9999971389771,10|0,3:2|1:0,0:0:0:0:
309,201,198591,5,0,1:0:0:0:
241,112,198704,1,0,1:0:0:0:
57,206,198818,5,8,3:2:0:0:
168,197,198932,1,0,1:0:0:0:
286,245,199045,5,2,1:2:0:0:
406,201,199159,1,2,1:2:0:0:
477,100,199273,6,0,L|488:-9,1,89.9999971389771,8|0,3:2|1:0,0:0:0:0:
499,102,199500,2,0,L|510:-7,1,89.9999971389771,2|0,1:2|1:0,0:0:0:0:
400,288,199727,6,0,L|422:436,1,89.9999971389771,10|0,3:2|1:0,0:0:0:0:
419,284,199954,2,0,L|441:432,1,89.9999971389771,2|0,1:2|1:0,0:0:0:0:
300,360,200182,6,0,P|221:304|98:389,1,179.999994277954,10|0,3:2|1:0,0:0:0:0:
38,384,200523,1,0,1:0:0:0:
30,217,200636,2,0,L|44:86,1,89.9999971389771,8|0,3:2|1:0,0:0:0:0:
148,0,200864,2,0,L|162:131,1,89.9999971389771,2|0,1:2|1:0,0:0:0:0:
210,248,201091,5,8,3:2:0:0:
118,283,201204,1,0,1:0:0:0:
267,327,201318,2,0,L|382:318,1,89.9999971389771,0|0,1:0|1:0,0:0:0:0:
370,201,201545,5,8,3:2:0:0:
340,110,201659,1,0,1:0:0:0:
470,233,201773,2,0,L|351:222,1,89.9999971389771,2|2,1:2|1:2,0:0:0:0:
272,26,202000,6,0,P|197:81|87:60,1,179.999994277954,10|0,3:2|1:0,0:0:0:0:
2,87,202341,1,2,1:2:0:0:
36,192,202454,2,0,L|54:343,1,89.9999971389771,8|0,3:2|1:0,0:0:0:0:
136,312,202682,5,2,1:2:0:0:
236,346,202795,1,0,1:0:0:0:
324,309,202909,1,8,3:2:0:0:
369,219,203023,1,0,1:0:0:0:
343,132,203136,1,0,1:0:0:0:
270,97,203250,1,0,1:0:0:0:
197,117,203364,1,10,3:2:0:0:
270,173,203477,1,0,1:0:0:0:
355,157,203591,1,2,1:2:0:0:
398,109,203704,1,2,1:2:0:0:
398,109,203818,6,0,L|532:93,1,112.499996423722,12|0,3:2|1:0,0:0:0:0:
186,18,204273,5,8,0:0:0:0:
186,18,204500,1,8,0:0:0:0:
82,178,204727,5,10,3:2:0:0:
178,53,204841,1,0,1:0:0:0:
330,92,204954,1,0,1:0:0:0:
346,249,205068,1,0,1:0:0:0:
346,249,205409,6,0,P|282:272|168:155,1,224.999992847443,6|0,1:2|0:0,0:0:0:0:
62,152,205977,1,0,1:0:0:0:
0,243,206091,1,8,0:0:0:0:
15,259,206318,5,8,0:0:0:0:
108,242,206432,1,8,0:0:0:0:
68,335,206545,2,0,L|279:355,1,168.749994635583,4|4,3:0|3:0,0:0:0:0:
425,281,207227,6,0,P|429:307|407:373,1,56.2499982118608,4|0,3:0|0:0,0:0:0:0:
351,220,207454,1,14,3:2:0:0:
456,61,207682,5,0,1:0:0:0:
385,134,207795,1,0,1:0:0:0:
287,109,207909,1,8,0:0:0:0:
218,159,208023,1,0,1:0:0:0:
146,139,208136,1,0,1:0:0:0:
91,174,208250,1,0,1:0:0:0:
39,161,208364,1,8,0:0:0:0:
241,53,208591,5,0,0:0:0:0:
287,160,208704,1,0,1:0:0:0:
210,241,208818,1,8,0:0:0:0:
39,161,209045,5,2,1:2:0:0:
39,161,209159,1,10,0:0:0:0:
39,161,209273,2,0,L|20:293,1,97.4999969005586,4|0,1:3|0:0,0:0:0:0:
157,330,209500,5,8,0:0:0:0:
272,308,209614,2,0,L|408:331,1,97.4999969005586,0|8,0:0|0:0,0:0:0:0:
153,138,209841,5,0,0:0:0:0:
283,168,209954,2,0,L|419:145,1,97.4999969005586,0|8,1:0|0:0,0:0:0:0:
255,324,210182,6,0,L|240:407,2,48.7499984502793,0|0|0,1:0|0:0|0:0,0:0:0:0:
203,256,210409,1,8,1:3:0:0:
203,256,210485,1,8,1:2:0:0:
203,256,210560,1,8,1:2:0:0:
203,256,210636,1,8,1:2:0:0:
368,324,210750,1,0,0:0:0:0:
345,335,210864,1,8,1:3:0:0:
307,259,210977,5,0,0:0:0:0:
388,146,211091,2,0,P|464:134|500:190,1,93.7499970197678,6|0,3:1|1:0,0:0:0:0:
321,99,211318,1,0,0:0:0:0:
381,227,211432,2,0,P|430:286|399:345,1,93.7499970197678,2|0,1:2|0:0,0:0:0:0:
249,134,211659,1,0,1:0:0:0:
307,259,211773,2,0,P|280:330|161:311,1,187.499994039536,10|0,0:0|0:0,0:0:0:0:
248,132,212227,6,0,L|239:52,2,62.4999980131785,2|0|0,1:2|1:0|1:0,0:0:0:0:
167,170,212454,2,0,P|120:120|-19:148,1,187.499994039536,10|2,1:2|1:2,0:0:0:0:
287,144,212909,5,10,3:2:0:0:
373,41,213023,1,0,1:0:0:0:
411,167,213136,1,0,0:0:0:0:
328,157,213250,5,2,1:2:0:0:
461,110,213364,1,0,1:0:0:0:
439,248,213477,1,0,1:0:0:0:
313,299,213591,5,10,0:0:0:0:
252,368,213704,1,0,1:0:0:0:
171,352,213818,1,0,0:0:0:0:
182,308,213932,1,0,1:0:0:0:
224,290,214045,1,0,0:0:0:0:
345,214,214273,5,8,0:0:0:0:
345,214,214500,1,2,1:2:0:0:
426,101,214727,2,0,P|502:89|538:145,1,93.7499970197678,10|0,3:2|1:0,0:0:0:0:
280,169,214954,1,0,0:0:0:0:
419,182,215068,2,0,P|468:241|437:300,1,93.7499970197678,2|0,1:2|0:0,0:0:0:0:
286,88,215295,1,0,1:0:0:0:
345,214,215409,2,0,P|318:285|199:273,1,187.499994039536,10|0,0:0|0:0,0:0:0:0:
53,149,215864,6,0,P|70:215|99:380,2,187.499994039536,2|10|2,0:0|0:0|1:2,0:0:0:0:
332,153,216545,5,10,3:2:0:0:
369,25,216659,1,0,1:0:0:0:
332,153,216773,1,0,0:0:0:0:
437,212,216886,5,10,1:2:0:0:
394,99,217000,1,0,0:0:0:0:
432,212,217114,1,0,1:0:0:0:
332,153,217227,5,10,0:0:0:0:
259,162,217341,1,0,1:0:0:0:
185,178,217454,1,8,0:0:0:0:
108,190,217568,1,0,1:0:0:0:
187,289,217682,6,0,L|-12:266,2,187.499994039536,0|8|0,1:0|0:0|1:0,0:0:0:0:
290,245,218250,1,0,0:0:0:0:
375,374,218364,2,0,P|437:286|535:303,1,187.499994039536,10|0,3:2|1:0,0:0:0:0:
412,265,218704,5,2,1:2:0:0:
353,175,218818,1,8,1:2:0:0:
412,87,218932,1,0,1:0:0:0:
302,80,219045,5,2,1:2:0:0:
195,108,219159,1,0,1:0:0:0:
102,25,219273,1,8,1:2:0:0:
102,25,219386,6,0,L|126:236,1,187.499994039536,2|0,1:2|1:0,0:0:0:0:
51,317,219727,2,0,P|134:247|237:305,2,187.499994039536,10|10|14,1:2|1:2|3:2,0:0:0:0:
438,149,220636,5,2,0:0:0:0:
468,209,220750,1,2,0:0:0:0:
450,254,220864,1,2,0:0:0:0:
421,270,220977,1,2,0:0:0:0:
399,269,221091,6,0,P|329:185|223:203,1,224.999992847443,2|2,0:0|0:0,0:0:0:0:
85,116,222000,5,8,3:0:0:0:
170,284,222114,1,8,3:0:0:0:
225,32,222227,1,8,3:0:0:0:
124,200,222341,1,4,3:2:0:0:
256,192,222454,12,0,229273,0:0:0:0:
