osu file format v14

[General]
AudioFilename: audio.mp3
AudioLeadIn: 0
PreviewTime: 66983
Countdown: 0
SampleSet: Soft
StackLeniency: 0.4
Mode: 0
LetterboxInBreaks: 0
EpilepsyWarning: 1
WidescreenStoryboard: 1

[Editor]
DistanceSpacing: 1
BeatDivisor: 6
GridSize: 32
TimelineZoom: 3.299999

[Metadata]
Title:Meteora
TitleUnicode:Meteora
Artist:Imy
ArtistUnicode:Imy
Creator:MiyohashiKoori
Version:Kw's Insane
Source:osu!
Tags:japanese rock jrock j-rock みゅー myu アイミー fa featured artist aitsuki nakuru 藍月なくる gfmrt riana - azrael leo16834 loneight KwAIMSuckASFuk ohm002 L18
BeatmapID:2973848
BeatmapSetID:1062770

[Difficulty]
HPDrainRate:5
CircleSize:4
OverallDifficulty:8
ApproachRate:9.1
SliderMultiplier:3.29999990463257
SliderTickRate:1

[Events]
//Background and Video events
0,0,"faeZ7w7.jpg",0,0
//Break Periods
2,104035,110500
2,182200,186631
//Storyboard Layer 0 (Background)
//Storyboard Layer 1 (Fail)
//Storyboard Layer 2 (Pass)
//Storyboard Layer 3 (Foreground)
//Storyboard Layer 4 (Overlay)
//Storyboard Sound Samples

[TimingPoints]
1997,454.545454545455,4,2,1,70,1,0
1997,-200,4,2,1,70,0,0
8815,-133.333333333333,4,2,1,70,0,0
9269,-125,4,2,1,70,0,0
10633,-100,4,2,1,70,0,0
13019,-100,4,2,1,50,0,0
16542,-100,4,2,1,70,0,0
20178,-100,4,2,1,70,0,0
26315,-76.9230769230769,4,2,1,70,0,0
26656,-125,4,2,1,70,0,0
26997,-100,4,2,1,70,0,0
27565,-100,4,2,1,50,0,0
29156,-166.666666666667,4,2,1,50,0,0
32451,-250.000000000001,4,2,1,50,0,0
32906,-166.666666666667,4,2,1,50,0,0
38360,-125,4,2,1,70,0,0
39781,-100,4,2,1,70,0,0
41315,-200,4,2,1,70,0,0
42451,-125,4,2,1,70,0,0
51087,-100,4,2,1,70,0,0
51769,-166.666666666667,4,2,1,70,0,0
52906,-166.666666666667,4,2,1,50,0,0
60178,-166.666666666667,4,2,1,70,0,0
60860,-125,4,2,1,70,0,0
63360,-100,4,2,1,70,0,0
65633,-200,4,2,1,70,0,0
66997,-166.666666666667,4,2,1,70,0,0
67451,-100,4,2,1,70,0,1
75178,-125,4,2,1,70,0,1
79724,-166.666666666667,4,2,1,70,0,1
80178,-100,4,2,1,70,0,1
89269,-125,4,2,1,70,0,0
91997,-100,4,2,1,70,0,0
92906,-125,4,2,1,70,0,0
94951,-100,4,2,1,70,0,0
102451,-125,4,2,1,70,0,0
103348,487.80487804878,4,2,1,70,1,0
103348,-200,4,2,1,70,0,0
103835,446.927374301676,4,2,54,50,1,0
103835,-100,4,2,54,50,0,0
105175,-100,4,2,1,50,0,0
105622,465.116279069767,4,2,55,50,1,0
105622,-100,4,2,55,50,0,0
105680,-100,4,2,55,50,0,0
106319,439.560439560439,4,2,51,50,1,0
106319,-100,4,2,51,50,0,0
106758,479.616306954436,4,2,1,50,1,0
106758,-100,4,2,1,50,0,0
106817,-100,4,2,1,50,0,0
107477,447.761194029851,4,2,46,50,1,0
107477,-100,4,2,46,50,0,0
107812,-100,4,2,54,50,0,0
108148,475.247524752475,4,2,51,50,1,0
108148,-100,4,2,51,50,0,0
109039,-100,4,2,51,50,0,0
109098,315.789473684211,4,2,1,50,1,0
109098,-100,4,2,1,50,0,0
109255,463.320463320463,4,2,1,50,1,0
109255,-100,4,2,1,50,0,0
110413,454.545454545455,4,2,1,50,1,0
110413,-100,4,2,1,50,0,0
111094,-100,4,2,55,50,0,0
111776,-333.333333333333,4,2,55,50,0,0
112685,402.010050251256,4,2,1,50,1,0
112685,-333.333333333333,4,2,1,50,0,0
112886,463.320463320463,4,2,53,50,1,0
112886,-333.333333333333,4,2,53,50,0,0
113233,-333.333333333333,4,2,55,50,0,0
113580,-330.128205128205,4,2,65,50,0,0
114275,446.927374301676,4,2,1,50,1,0
114275,-100,4,2,1,50,0,0
115057,454.545454545455,4,2,1,70,1,0
115057,-125,4,2,1,70,0,0
116534,460.829493087558,4,2,1,70,1,0
116534,-200,4,2,1,70,0,0
117455,454.545454545455,4,2,1,70,1,0
118364,454.545454545455,4,2,1,70,1,0
118364,-125,4,2,1,70,0,0
119727,-125,4,2,3,70,0,0
119841,-125,4,2,1,70,0,0
123364,-125,4,2,3,70,0,0
123477,-125,4,2,1,70,0,0
127454,-100,4,2,1,70,0,0
131091,-200,4,2,1,70,0,0
132454,-166.666666666667,4,2,1,70,0,0
132909,-100,4,2,1,70,0,1
140636,-125,4,2,1,70,0,1
145182,-166.666666666667,4,2,1,70,0,1
145636,-100,4,2,1,70,0,1
154727,-125,4,2,1,70,0,0
157454,-100,4,2,1,70,0,0
158364,-125,4,2,1,70,0,0
160409,-100,4,2,1,70,0,0
162000,-100,4,2,3,70,0,0
162114,-100,4,2,1,70,0,0
162454,-100,4,2,2,70,0,0
162568,-100,4,2,1,70,0,0
162682,-125,4,2,1,70,0,0
163818,-125,4,2,3,70,0,0
163932,-125,4,2,1,70,0,0
164273,-125,4,2,2,70,0,0
164386,-125,4,2,1,70,0,0
165182,-125,4,2,2,70,0,0
165295,-125,4,2,1,70,0,0
166091,-125,4,2,2,70,0,0
166204,-125,4,2,1,70,0,0
167000,-125,4,2,2,70,0,0
167114,-125,4,2,1,70,0,0
167909,-125,4,2,2,70,0,0
168023,-125,4,2,1,70,0,0
169273,-100,4,2,1,70,0,0
170295,-125,4,2,1,70,0,0
170977,-125,4,2,3,70,0,0
171091,-125,4,2,1,70,0,0
171318,-125,4,2,3,70,0,0
171432,-125,4,2,1,70,0,0
172000,-166.666666666667,4,2,1,70,0,0
173932,-166.666666666667,4,2,3,70,0,0
174045,-166.666666666667,4,2,1,70,0,0
174727,-100,4,2,1,70,0,0
175636,-166.666666666667,4,2,1,70,0,0
176545,-200,4,2,1,70,0,0
177454,-200,4,2,1,50,0,0
178364,-200,4,2,1,40,0,0
180182,-200,4,2,1,30,0,0
181545,-200,4,2,1,30,0,0
187227,-166.666666666667,4,2,1,30,0,0
187454,-100,4,2,1,70,0,1
189727,-125,4,2,1,70,0,1
192909,-100,4,2,1,70,0,1
196091,-100,4,2,1,70,0,0
196545,-100,4,2,1,70,0,1
203818,-125,4,2,1,70,0,0
206545,-100,4,2,1,70,0,0
211659,-166.666666666667,4,2,1,70,0,0
216545,-133.333333333333,4,2,1,70,0,0
218364,-133.333333333333,4,2,1,70,0,1
218591,-90.9090909090909,4,2,1,70,0,1
220182,-100,4,2,1,70,0,0
220636,-100,4,2,1,30,0,0
222000,-100,4,2,1,70,0,0
229273,-100,4,2,1,70,0,0

[Colours]
Combo1 : 255,128,128
Combo2 : 192,192,192
Combo3 : 0,0,160
Combo4 : 128,0,128

[HitObjects]
170,186,1997,6,0,B|236:174|269:104|269:104|372:157|352:317|310:374|310:374|315:273|227:256,1,577.4999833107,4|2,3:1|0:0,0:0:0:0:
43,366,3815,2,0,B|38:324|76:242|207:232|202:359|127:353,1,247.499992847443,4|0,3:2|0:0,0:0:0:0:
33,216,4724,2,0,P|5:152|25:84,2,123.749996423721,0|4|0,3:0|3:0|3:0,0:0:0:0:
331,71,5633,6,0,B|322:97|287:121|287:121|249:96|218:9|218:9|158:21|113:57|77:116|106:217|160:210|160:210|191:179|167:127,1,577.4999833107,4|2,3:2|0:0,0:0:0:0:
241,248,7451,2,0,B|285:194|370:243|370:243|317:280|311:356|311:356|334:317|379:315,1,329.999990463257,4|0,3:2|0:0,0:0:0:0:
507,285,8587,6,0,L|511:240,2,27.4999992052714,8|8|8,1:3|1:3|1:3,0:0:0:0:
490,307,8815,2,0,L|467:114,1,185.624994635583,8|0,1:2|0:0,0:0:0:0:
410,36,9269,6,0,P|334:58|315:124,1,131.999996185303,0|0,1:0|0:0,0:0:0:0:
370,223,9610,2,0,L|382:136,2,65.9999980926514,8|0|0,0:3|1:0|0:0,0:0:0:0:
277,192,9951,2,0,P|216:169|148:215,1,131.999996185303,8|0,0:3|1:0,0:0:0:0:
54,236,10292,2,0,B|68:182|68:182|44:97,1,131.999996185303,8|0,1:3|1:0,0:0:0:0:
0,0,10633,2,0,L|103:12,1,82.4999976158143,8|0,1:3|0:0,0:0:0:0:
235,61,10860,2,0,L|125:78,1,82.4999976158143,8|0,0:3|0:0,0:0:0:0:
33,100,11087,5,4,1:2:0:0:
256,191,12906,5,4,0:0:0:0:
256,192,13019,12,2,16087,0:3:0:0:
188,149,16315,6,0,L|181:81,3,54.9999984105428,8|8|8|12,1:3|1:3|1:3|1:2,0:0:0:0:
332,93,18360,6,0,L|327:147,5,54.9999984105428,8|8|8|8|8|8,1:2|1:2|1:3|1:3|1:3|1:3,0:0:0:0:
387,212,18815,2,0,L|391:266,5,54.9999984105428,8|8|8|8|8|8,1:2|1:3|1:3|1:3|1:3|1:3,0:0:0:0:
300,231,19269,6,0,L|259:229,2,41.2499988079071,8|8|8,1:2|1:2|1:2,0:0:0:0:
307,270,19497,2,0,L|296:373,1,82.4999976158143,8|8,1:3|1:2,0:0:0:0:
213,378,19724,1,8,1:3:0:0:
136,380,19837,1,8,1:2:0:0:
90,321,19951,1,8,1:2:0:0:
107,247,20065,1,8,1:2:0:0:
177,218,20178,6,0,B|222:190|222:190|235:48,1,164.999995231629,14|0,3:2|1:0,0:0:0:0:
179,14,20519,1,0,1:0:0:0:
179,14,20633,2,0,B|142:17|142:17|109:47|109:47|71:35|71:35|30:51,1,164.999995231629,10|0,3:2|1:0,0:0:0:0:
0,121,20974,1,0,1:0:0:0:
19,193,21087,6,0,P|58:215|114:205,1,82.4999976158143,10|0,3:2|1:0,0:0:0:0:
259,315,21315,2,0,P|243:277|209:253,1,82.4999976158143,2|0,1:2|1:0,0:0:0:0:
93,348,21542,2,0,P|123:321|136:282,1,82.4999976158143,10|0,3:2|1:0,0:0:0:0:
275,148,21769,2,0,P|230:153|191:194,1,82.4999976158143,2|0,1:2|1:0,0:0:0:0:
339,208,21997,6,0,P|357:121|296:61,1,164.999995231629,10|0,3:2|1:0,0:0:0:0:
232,48,22337,1,0,1:0:0:0:
232,48,22451,2,0,L|132:52,1,82.4999976158143,10|0,3:2|1:0,0:0:0:0:
71,55,22678,1,2,1:2:0:0:
35,122,22792,1,2,1:2:0:0:
78,185,22906,6,0,B|94:222|94:222|87:272,1,82.4999976158143,8|0,3:2|1:0,0:0:0:0:
152,383,23133,2,0,B|146:341|146:341|162:304,1,82.4999976158143,0|0,1:0|1:0,0:0:0:0:
239,149,23360,2,0,B|255:186|255:186|248:236,1,82.4999976158143,8|0,3:2|1:0,0:0:0:0:
45,324,23587,1,2,1:2:0:0:
88,263,23701,1,0,1:0:0:0:
164,263,23815,6,0,L|370:281,1,164.999995231629,10|0,3:2|1:0,0:0:0:0:
414,258,24156,1,0,1:0:0:0:
414,258,24269,2,0,B|413:198|413:198|380:158|380:158|374:83,1,164.999995231629,10|0,3:2|1:0,0:0:0:0:
424,39,24610,1,0,1:0:0:0:
494,75,24724,6,0,P|503:108|485:160,1,82.4999976158143,10|0,3:2|1:0,0:0:0:0:
305,140,24951,2,0,P|329:115|383:105,1,82.4999976158143,2|0,1:2|1:0,0:0:0:0:
489,237,25178,2,0,P|460:255|405:254,1,82.4999976158143,10|0,3:2|1:0,0:0:0:0:
249,84,25406,2,0,P|279:99|306:147,1,82.4999976158143,2|0,1:2|1:0,0:0:0:0:
52,253,25633,6,0,P|32:164|101:102,1,164.999995231629,12|0,3:2|0:0,0:0:0:0:
170,133,25974,2,0,B|213:179|213:179|90:192,1,164.999995231629,4|0,3:0|0:0,0:0:0:0:
76,112,26315,6,0,B|129:25|211:53|211:53|242:49|260:17,1,214.499993801117,12|0,3:2|0:0,0:0:0:0:
254,25,26656,6,0,P|256:67|328:107,1,131.999996185303,4|0,3:0|0:0,0:0:0:0:
356,86,26997,6,0,L|346:199,1,82.4999976158143,12|0,3:2|0:0,0:0:0:0:
269,283,27224,2,0,L|260:200,1,82.4999976158143,8|0,1:3|0:0,0:0:0:0:
330,350,27451,6,0,B|257:375|257:375|177:330|177:330|77:362,1,247.499992847443,4|0,3:2|0:0,0:0:0:0:
19,381,27906,2,0,L|24:270,1,82.4999976158143,8|0,0:0|0:0,0:0:0:0:
28,199,28133,1,0,1:0:0:0:
132,35,28474,1,0,1:0:0:0:
132,35,28815,1,8,1:2:0:0:
79,94,28928,1,8,1:2:0:0:
108,162,29042,1,8,1:3:0:0:
184,164,29156,6,0,P|239:118|294:117,1,98.9999971389769,8|0,1:3|0:0,0:0:0:0:
352,140,29497,2,0,L|363:33,2,98.9999971389769,0|8|0,1:0|0:0|1:0,0:0:0:0:
431,169,30065,2,0,B|415:218|353:226|353:226|332:255|342:297,1,148.499995708465,0|4,1:0|1:3,0:0:0:0:
338,268,30633,1,8,1:2:0:0:
334,340,30747,1,8,1:2:0:0:
396,383,30860,1,8,1:3:0:0:
468,368,30974,6,0,P|485:320|455:260,1,98.9999971389769,12|0,1:3|0:0,0:0:0:0:
408,232,31315,1,4,1:3:0:0:
408,232,31542,1,8,0:0:0:0:
339,189,31656,2,0,P|319:125|349:77,1,98.9999971389769,4|0,1:3|0:0,0:0:0:0:
408,66,31997,2,0,L|239:52,1,148.499995708465,4|0,1:3|0:0,0:0:0:0:
180,49,32451,6,0,P|168:70|164:106,1,32.9999990463256,8|0,0:0|0:0,0:0:0:0:
172,125,32678,2,0,P|184:146|188:182,1,32.9999990463256,4|0,1:3|0:0,0:0:0:0:
145,219,32906,6,0,P|94:188|179:131,1,197.999994277954,4|8,1:3|0:0,0:0:0:0:
197,379,33587,2,0,P|202:329|205:277,1,98.9999971389769,4|0,1:3|0:0,0:0:0:0:
145,219,33928,2,0,P|108:188|46:188,1,98.9999971389769,4|0,1:3|0:0,0:0:0:0:
0,241,34269,2,0,P|-11:288|11:332,1,98.9999971389769,8|4,0:0|1:3,0:0:0:0:
10,331,34724,5,0,0:0:0:0:
204,280,34951,2,0,P|271:270|335:261,1,98.9999971389769,4|8,1:3|0:0,0:0:0:0:
349,338,35292,2,0,P|416:348|479:356,1,98.9999971389769,4|0,1:3|0:0,0:0:0:0:
503,297,35633,2,0,B|513:256|513:256|496:212|486:124,1,148.499995708465,4|0,1:3|0:0,0:0:0:0:
495,75,36087,1,8,0:0:0:0:
301,265,36315,2,0,P|300:240|309:216,1,49.4999985694884
415,127,36542,5,8,1:3:0:0:
347,153,36656,1,8,1:2:0:0:
278,131,36769,1,8,1:2:0:0:
254,62,36883,2,0,P|205:22|159:28,1,98.9999971389769,8|8,1:3|1:3,0:0:0:0:
52,105,37224,2,0,B|88:93|90:35|90:35|97:82|146:98,1,148.499995708465,4|4,1:3|1:3,0:0:0:0:
344,57,37906,1,8,0:0:0:0:
196,123,38133,1,0,0:0:0:0:
420,61,38360,6,0,L|413:148,1,65.9999980926514,12|8,1:2|1:3,0:0:0:0:
474,275,38587,1,8,1:3:0:0:
415,232,38701,1,8,1:3:0:0:
344,246,38815,2,0,P|313:255|293:281,1,65.9999980926514,8|8,1:2|1:3,0:0:0:0:
213,368,39042,2,0,P|169:365|137:339,1,65.9999980926514,8|8,1:3|1:3,0:0:0:0:
107,231,39269,2,0,L|119:174,2,32.9999990463257,8|8|8,1:3|1:3|1:2,0:0:0:0:
138,260,39497,2,0,P|175:265|215:239,1,65.9999980926514,8|8,1:3|1:2,0:0:0:0:
287,163,39724,5,8,1:2:0:0:
287,163,39800,2,0,L|276:7,1,109.999996821086,8|8,1:3|1:3,0:0:0:0:
287,12,40027,2,0,L|375:19,1,54.9999984105428,8|8,1:3|1:3,0:0:0:0:
471,28,40178,6,0,P|485:106|427:162,1,164.999995231629,4|0,3:2|1:0,0:0:0:0:
360,217,40519,2,0,P|350:273|449:340,1,164.999995231629,8|0,3:2|1:0,0:0:0:0:
435,259,40860,2,0,P|333:265|251:280,1,164.999995231629,0|8,3:0|0:0,0:0:0:0:
271,275,41315,6,0,B|255:177|197:228|190:119,1,164.999995231629,4|0,1:3|0:0,0:0:0:0:
244,34,41997,5,4,3:2:0:0:
395,95,42337,1,0,1:0:0:0:
395,95,42451,2,0,P|309:98|276:164,1,131.999996185303,10|0,0:0|1:0,0:0:0:0:
85,182,42906,2,0,P|146:185|195:118,1,131.999996185303,2|2,1:2|1:2,0:0:0:0:
129,37,43247,1,2,1:2:0:0:
129,37,43360,1,8,0:0:0:0:
129,37,43474,2,0,P|113:92|105:141,1,65.9999980926514,2|0,1:2|0:0,0:0:0:0:
12,212,43701,6,0,P|29:298|32:366,1,131.999996185303,10|0,0:0|1:0,0:0:0:0:
124,375,44042,1,2,1:2:0:0:
124,375,44156,1,0,1:0:0:0:
124,375,44269,2,0,P|169:352|214:358,1,65.9999980926514,10|0,0:0|0:0,0:0:0:0:
306,301,44497,2,0,P|273:295|246:277,1,65.9999980926514,2|0,1:2|1:0,0:0:0:0:
115,152,44724,5,2,1:2:0:0:
115,152,44837,2,0,P|154:202|151:282,1,131.999996185303,8|0,0:0|1:0,0:0:0:0:
47,326,45178,1,10,0:0:0:0:
47,326,45292,2,0,P|66:276|101:251,1,65.9999980926514,0|0,1:0|0:0,0:0:0:0:
246,277,45519,6,0,P|330:287|407:291,1,131.999996185303,4|0,1:3|0:0,0:0:0:0:
466,299,45860,2,0,P|502:246|460:166,2,131.999996185303,2|10|2,1:2|0:0|1:2,0:0:0:0:
388,201,46542,2,0,P|394:139|397:61,1,131.999996185303,2|2,1:2|1:2,0:0:0:0:
300,59,46883,1,2,1:2:0:0:
300,59,46997,1,8,0:0:0:0:
300,59,47110,2,0,P|243:88|177:53,1,131.999996185303,2|10,1:2|0:0,0:0:0:0:
119,2,47451,6,0,P|140:76|149:153,2,131.999996185303,0|4|8,3:0|1:3|0:0,0:0:0:0:
61,160,48133,1,2,1:2:0:0:
61,160,48247,1,0,1:0:0:0:
61,160,48360,2,0,P|109:215|186:212,1,131.999996185303,10|0,0:0|1:0,0:0:0:0:
235,169,48701,1,2,1:2:0:0:
235,169,48815,2,0,P|264:147|326:145,1,65.9999980926514,8|0,0:0|0:0,0:0:0:0:
408,242,49042,2,0,P|360:225|346:201,1,65.9999980926514,2|0,1:2|0:0,0:0:0:0:
397,32,49269,6,0,P|413:118|422:194,1,131.999996185303,4|2,3:0|0:0,0:0:0:0:
408,242,49610,1,2,1:2:0:0:
408,242,49724,2,0,P|366:276|357:311,1,65.9999980926514,8|0,0:0|0:0,0:0:0:0:
476,374,49951,2,0,P|446:328|411:315,1,65.9999980926514,2|0,1:2|0:0,0:0:0:0:
237,384,50178,6,0,P|334:368|379:360,1,131.999996185303,10|2,0:0|0:0,0:0:0:0:
437,323,50519,1,2,1:2:0:0:
437,323,50633,2,0,P|478:296|490:268,1,65.9999980926514,8|0,0:0|0:0,0:0:0:0:
361,197,50860,2,0,P|386:230|424:245,1,65.9999980926514,2|0,1:2|0:0,0:0:0:0:
502,96,51087,6,0,B|426:62|426:62|330:107,1,164.999995231629,10|0,3:2|1:0,0:0:0:0:
289,152,51428,2,0,B|214:186|214:186|138:152,1,164.999995231629,10|0,0:0|1:0,0:0:0:0:
83,89,51769,6,0,P|102:170|106:259,1,148.499995708465,10|0,0:0|0:0,0:0:0:0:
50,303,52224,2,0,L|-3:297,3,32.9999990463256,12|8|8|8,1:3|1:3|1:3|1:2,0:0:0:0:
142,371,52678,1,2,0:0:0:0:
142,371,52906,6,0,P|196:325|256:333,1,98.9999971389769,6|0,3:2|0:0,0:0:0:0:
301,355,53247,2,0,P|360:356|402:309,1,98.9999971389769,2|0,1:2|0:0,0:0:0:0:
314,176,53587,2,0,P|320:225|326:274,2,98.9999971389769,2|8|2,1:2|0:0|0:0,0:0:0:0:
372,111,54156,2,0,P|418:125|449:163,1,98.9999971389769,0|0,1:0|0:0,0:0:0:0:
498,251,54497,1,2,1:2:0:0:
498,251,54610,1,0,1:0:0:0:
498,251,54724,6,0,P|459:237|403:258,1,98.9999971389769,0|2,1:0|0:0,0:0:0:0:
326,274,55065,2,0,P|264:277|224:243,1,98.9999971389769,0|0,1:0|0:0,0:0:0:0:
221,179,55406,1,0,1:0:0:0:
313,372,55633,2,0,P|318:322|326:274,2,98.9999971389769,8|0|8,0:0|1:0|0:0,0:0:0:0:
168,379,56315,1,2,0:0:0:0:
168,379,56428,1,0,1:0:0:0:
168,379,56542,6,0,P|124:351|71:356,1,98.9999971389769,2|0,1:2|0:0,0:0:0:0:
25,286,56883,2,0,P|3:232|16:188,1,98.9999971389769,2|0,1:2|0:0,0:0:0:0:
188,225,57224,2,0,P|127:230|74:230,2,98.9999971389769,2|8|2,1:2|0:0|0:0,0:0:0:0:
255,177,57792,2,0,P|267:128|240:71,1,98.9999971389769,0|0,1:0|0:0,0:0:0:0:
181,45,58133,1,2,1:2:0:0:
188,225,58360,6,0,P|241:259|293:252,1,98.9999971389769,0|2,1:0|0:0,0:0:0:0:
346,215,58701,2,0,P|397:194|461:208,1,98.9999971389769,0|0,1:0|0:0,0:0:0:0:
495,257,59042,1,2,1:2:0:0:
268,356,59269,2,0,P|273:291|275:256,1,98.9999971389769,8|0,0:0|1:0,0:0:0:0:
255,177,59610,1,0,1:0:0:0:
255,177,59724,2,0,P|249:115|245:59,1,98.9999971389769,8|2,0:0|0:0,0:0:0:0:
414,33,60178,6,0,P|346:22|309:48,1,98.9999971389769,6|0,3:2|0:0,0:0:0:0:
246,78,60519,2,0,P|185:92|141:71,1,98.9999971389769,2|0,1:2|1:0,0:0:0:0:
103,14,60860,2,0,P|121:87|133:195,1,131.999996185303,10|0,3:2|0:0,0:0:0:0:
29,268,61201,2,0,P|92:223|162:240,1,131.999996185303,2|0,1:2|1:0,0:0:0:0:
202,286,61542,2,0,P|242:294|286:279,1,65.9999980926514,10|0,3:2|0:0,0:0:0:0:
356,175,61769,2,0,P|319:181|294:208,1,65.9999980926514,2|0,1:2|0:0,0:0:0:0:
391,381,61997,6,0,P|388:296|343:240,1,131.999996185303,4|0,3:0|0:0,0:0:0:0:
298,199,62337,2,0,P|278:133|313:56,1,131.999996185303,2|0,1:2|1:0,0:0:0:0:
395,0,62678,2,0,P|390:40|371:76,1,65.9999980926514,10|0,3:2|0:0,0:0:0:0:
198,107,62906,1,8,0:0:0:0:
198,107,63019,2,0,P|143:111|77:63,1,131.999996185303,0|0,1:0|1:0,0:0:0:0:
21,10,63360,6,0,P|39:49|54:131,1,82.4999976158143,10|0,3:2|1:0,0:0:0:0:
79,231,63587,1,2,1:2:0:0:
63,304,63701,1,10,0:0:0:0:
0,347,63815,6,0,B|36:323|36:323|112:325|165:366,1,164.999995231629,4|4,3:0|1:3,0:0:0:0:
243,384,64156,1,0,0:0:0:0:
243,384,64269,2,0,L|253:290,1,82.4999976158143,8|0,0:0|0:0,0:0:0:0:
263,183,64497,2,0,P|230:182|199:203,2,54.9999984105428,4|0|0,1:3|0:0|0:0,0:0:0:0:
310,198,64724,6,0,L|298:82,2,109.999996821086,8|8|8,1:3|1:3|1:3,0:0:0:0:
385,363,65178,1,8,1:2:0:0:
474,304,65330,1,8,1:2:0:0:
377,260,65481,1,8,1:2:0:0:
482,316,65633,6,0,B|514:259|498:202|439:179|395:121|419:39|489:29|499:90|454:123,1,329.999990463257,4|0,3:2|0:0,0:0:0:0:
287,243,66997,6,0,P|292:216|305:195,1,49.4999985694884,2|2,0:0|0:0,0:0:0:0:
335,174,67224,2,0,P|330:149|317:121,1,49.4999985694884,2|2,0:0|0:0,0:0:0:0:
263,53,67451,6,0,B|188:70|227:135|119:143,1,164.999995231629,6|0,3:1|1:0,0:0:0:0:
47,120,67792,1,0,1:0:0:0:
47,120,67906,2,0,P|38:83|13:42,1,82.4999976158143,10|0,0:0|0:0,0:0:0:0:
177,218,68133,2,0,P|157:272|148:324,1,82.4999976158143,0|0,1:0|0:0,0:0:0:0:
4,222,68360,6,0,P|52:224|78:271,1,82.4999976158143,10|0,0:0|0:0,0:0:0:0:
162,370,68587,1,2,1:2:0:0:
235,381,68701,1,8,0:0:0:0:
301,353,68815,2,0,P|296:267|324:177,1,164.999995231629,2|2,1:2|1:2,0:0:0:0:
397,179,69156,1,0,1:0:0:0:
468,198,69269,6,0,B|451:247|471:322|471:322|427:252|368:250,1,247.499992847443,2|0,3:2|0:0,0:0:0:0:
316,191,69724,2,0,P|296:136|369:58,1,164.999995231629,8|2,0:0|1:2,0:0:0:0:
478,29,70065,1,0,1:0:0:0:
434,89,70178,6,0,P|373:63|334:55,1,82.4999976158143,10|0,0:0|0:0,0:0:0:0:
190,131,70406,2,0,P|229:119|266:101,1,82.4999976158143,2|0,1:2|0:0,0:0:0:0:
87,13,70633,2,0,B|71:92|143:88|87:192,1,164.999995231629,10|2,0:0|1:2,0:0:0:0:
2,206,70974,1,2,0:0:0:0:
2,206,71087,6,0,P|108:223|158:352,1,247.499992847443,4|0,3:0|0:0,0:0:0:0:
30,367,71542,1,0,1:0:0:0:
46,296,71656,1,0,1:0:0:0:
103,246,71769,1,0,1:0:0:0:
177,235,71883,1,0,1:0:0:0:
247,269,71997,6,0,L|360:283,1,82.4999976158143,8|0,0:0|0:0,0:0:0:0:
371,132,72224,2,0,L|302:222,1,82.4999976158143,0|0,1:0|0:0,0:0:0:0:
431,309,72451,2,0,L|386:204,1,82.4999976158143,8|0,0:0|0:0,0:0:0:0:
288,54,72678,1,10,0:0:0:0:
288,54,72792,1,8,0:0:0:0:
288,54,72906,6,0,P|330:99|466:81,1,164.999995231629,14|0,3:2|0:0,0:0:0:0:
456,29,73247,2,0,P|437:63|429:121,1,82.4999976158143,2|0,1:3|0:0,0:0:0:0:
489,205,73474,2,0,P|506:263|497:319,1,82.4999976158143,2|0,1:3|0:0,0:0:0:0:
336,324,73701,2,0,B|385:306|382:255|382:255|394:301|464:321,1,164.999995231629,2|0,1:2|1:0,0:0:0:0:
398,384,74042,2,0,P|302:360|227:351,2,164.999995231629,10|14|10,0:0|0:0|0:0,0:0:0:0:
260,257,74724,5,4,3:2:0:0:
109,384,74951,1,0,1:0:0:0:
109,384,75065,1,0,1:0:0:0:
109,384,75178,2,0,P|129:325|200:287,1,131.999996185303,10|2,0:0|1:2,0:0:0:0:
219,83,75633,1,0,1:0:0:0:
219,83,75747,2,0,P|150:92|88:93,1,131.999996185303,8|0,0:0|1:0,0:0:0:0:
17,56,76087,1,10,0:0:0:0:
89,190,76315,1,2,1:2:0:0:
277,181,76542,6,0,P|353:200|403:168,1,131.999996185303,4|0,3:0|1:0,0:0:0:0:
364,65,76883,1,2,1:2:0:0:
364,65,76997,2,0,P|337:103|340:156,1,65.9999980926514,8|0,0:0|0:0,0:0:0:0:
422,265,77224,2,0,P|436:304|434:347,1,65.9999980926514,2|0,1:2|0:0,0:0:0:0:
346,369,77451,1,0,1:0:0:0:
346,369,77565,2,0,P|268:355|200:349,1,131.999996185303,8|0,0:0|1:0,0:0:0:0:
142,377,77906,1,8,0:0:0:0:
258,267,78133,1,10,0:0:0:0:
57,148,78360,6,0,P|21:204|43:287,1,131.999996185303,4|0,3:0|1:0,0:0:0:0:
69,335,78701,2,0,B|111:312|126:248|126:248|147:296|201:315,1,197.999994277954,2|2,1:2|1:2,0:0:0:0:
409,303,79269,1,8,0:0:0:0:
258,267,79497,1,2,1:2:0:0:
258,267,79610,1,0,1:0:0:0:
258,267,79724,2,0,P|268:341|282:391,1,98.9999971389769,10|2,0:0|1:2,0:0:0:0:
428,138,80178,6,0,P|470:144|519:158,2,82.4999976158143,8|0|0,3:2|1:0|1:0,0:0:0:0:
356,200,80519,1,8,0:0:0:0:
356,200,80633,2,0,P|342:111|329:34,1,164.999995231629,0|8,1:0|0:0,0:0:0:0:
247,15,80974,1,0,1:0:0:0:
247,15,81087,6,0,P|205:54|211:115,1,82.4999976158143,8|0,0:0|0:0,0:0:0:0:
258,198,81315,2,0,P|203:156|167:162,1,82.4999976158143,0|0,1:0|0:0,0:0:0:0:
17,216,81542,1,0,1:0:0:0:
17,290,81656,1,8,0:0:0:0:
69,345,81769,1,8,0:0:0:0:
141,346,81883,1,8,0:0:0:0:
205,304,81997,6,0,P|262:275|360:306,1,164.999995231629,14|0,3:2|1:0,0:0:0:0:
438,324,82337,1,0,1:0:0:0:
438,324,82451,2,0,P|450:283|442:227,1,82.4999976158143,10|0,3:2|1:0,0:0:0:0:
337,112,82678,2,0,P|366:142|419:163,1,82.4999976158143,0|0,1:0|1:0,0:0:0:0:
504,69,82906,6,0,P|456:70|405:80,1,82.4999976158143,10|0,3:2|1:0,0:0:0:0:
325,206,83133,1,2,1:2:0:0:
325,206,83247,1,0,1:0:0:0:
325,206,83360,2,0,P|277:205|226:195,1,82.4999976158143,10|0,3:2|1:0,0:0:0:0:
153,112,83587,2,0,P|112:118|71:118,1,82.4999976158143,2|0,1:2|1:0,0:0:0:0:
275,15,83815,6,0,B|319:0|319:0|366:65|330:124,1,164.999995231629,10|0,3:2|1:0,0:0:0:0:
243,199,84156,1,0,1:0:0:0:
243,199,84269,2,0,P|230:249|253:298,1,82.4999976158143,8|0,3:2|1:0,0:0:0:0:
427,341,84497,1,2,1:2:0:0:
390,276,84610,1,2,1:2:0:0:
319,265,84724,6,0,L|223:279,1,82.4999976158143,8|0,3:2|1:0,0:0:0:0:
198,361,84951,2,0,L|102:347,1,82.4999976158143,2|0,1:2|1:0,0:0:0:0:
131,183,85178,2,0,P|128:223|104:256,1,82.4999976158143,10|0,3:2|1:0,0:0:0:0:
26,146,85406,1,2,1:2:0:0:
26,146,85519,1,0,1:0:0:0:
26,146,85633,6,0,B|31:112|57:92|57:92|105:106|172:79,1,164.999995231629,10|0,3:2|1:0,0:0:0:0:
217,20,85974,1,0,1:0:0:0:
217,20,86087,2,0,P|241:60|239:113,1,82.4999976158143,8|0,3:2|1:0,0:0:0:0:
306,194,86315,2,0,P|259:194|214:166,1,82.4999976158143,2|0,1:2|1:0,0:0:0:0:
156,84,86542,5,8,3:2:0:0:
156,84,86656,1,0,1:0:0:0:
156,84,86769,1,0,1:0:0:0:
319,34,86997,2,0,P|382:37|456:118,1,164.999995231629,8|2,3:2|1:2,0:0:0:0:
458,180,87337,1,0,1:0:0:0:
418,245,87451,6,0,P|387:216|379:174,1,82.4999976158143,10|0,3:2|1:0,0:0:0:0:
496,298,87678,1,0,1:0:0:0:
496,298,87792,2,0,P|446:321|426:354,1,82.4999976158143,2|8,1:2|3:2,0:0:0:0:
326,368,88019,1,0,1:0:0:0:
326,368,88133,2,0,L|326:278,1,82.4999976158143,2|0,1:2|1:0,0:0:0:0:
94,213,88360,5,8,3:2:0:0:
168,199,88474,1,0,1:0:0:0:
234,238,88587,1,0,1:0:0:0:
250,310,88701,1,0,1:0:0:0:
222,379,88815,2,0,P|183:356|125:359,1,82.4999976158143,10|0,3:2|1:0,0:0:0:0:
0,321,89042,2,0,P|40:316|75:295,1,82.4999976158143,2|2,1:2|1:2,0:0:0:0:
0,103,89269,6,0,P|12:193|13:257,1,131.999996185303,12|0,3:2|1:0,0:0:0:0:
0,321,89610,1,0,1:0:0:0:
0,321,89724,1,8,0:0:0:0:
168,199,89951,1,8,0:0:0:0:
84,16,90178,1,10,3:2:0:0:
109,85,90292,1,0,1:0:0:0:
179,108,90406,1,0,1:0:0:0:
250,82,90519,2,0,P|304:53|393:93,1,131.999996185303,0|0,1:0|0:0,0:0:0:0:
361,179,90860,6,0,B|366:118|267:136|255:211|255:211|273:263,1,197.999994277954,6|0,1:2|1:0,0:0:0:0:
511,275,91428,1,0,1:0:0:0:
511,275,91542,2,0,P|435:264|401:314,1,131.999996185303,8|10,0:0|0:0,0:0:0:0:
405,377,91883,1,8,0:0:0:0:
332,367,91997,6,0,B|306:346|254:351|254:351|304:339|321:290,1,164.999995231629,4|0,3:0|1:0,0:0:0:0:
361,179,92337,2,0,B|356:211|386:254|386:254|351:216|310:224,1,164.999995231629,4|0,3:0|0:0,0:0:0:0:
240,271,92678,2,0,P|205:282|160:260,1,82.4999976158143,4|0,3:0|0:0,0:0:0:0:
210,62,92906,6,0,P|214:113|211:202,1,131.999996185303,14|0,3:2|1:0,0:0:0:0:
164,264,93247,1,0,1:0:0:0:
164,264,93360,1,8,0:0:0:0:
28,95,93587,1,0,1:0:0:0:
71,34,93701,1,0,1:0:0:0:
145,23,93815,1,8,0:0:0:0:
210,62,93928,2,0,P|256:86|341:54,1,131.999996185303,0|0,1:0|1:0,0:0:0:0:
399,26,94269,2,0,P|440:43|468:146,1,131.999996185303,8|2,0:0|1:2,0:0:0:0:
321,320,94724,5,4,1:3:0:0:
321,320,94837,1,0,0:0:0:0:
321,320,94951,2,0,P|321:268|328:209,1,82.4999976158143,8|0,0:0|0:0,0:0:0:0:
478,236,95178,1,8,0:0:0:0:
478,236,95292,2,0,P|435:234|397:264,1,82.4999976158143,0|0,0:0|1:0,0:0:0:0:
259,371,95519,1,0,1:0:0:0:
259,371,95633,6,0,L|193:361,2,41.2499988079071,8|8|8,0:0|0:0|0:0,0:0:0:0:
233,334,95860,2,0,P|224:288|209:244,1,82.4999976158143,0|8,1:0|0:0,0:0:0:0:
71,193,96087,1,8,0:0:0:0:
139,226,96201,1,0,1:0:0:0:
202,184,96315,1,8,0:0:0:0:
190,111,96428,1,8,0:0:0:0:
122,74,96542,6,0,B|76:87|76:87|40:226,1,164.999995231629,14|0,3:2|1:0,0:0:0:0:
4,305,96883,1,0,1:0:0:0:
4,305,96997,2,0,B|43:293|43:293|82:315|82:315|129:303|129:303|171:334|171:334,1,164.999995231629,10|0,3:2|1:0,0:0:0:0:
257,365,97337,1,0,1:0:0:0:
316,314,97451,6,0,P|276:289|227:296,1,82.4999976158143,10|0,3:2|1:0,0:0:0:0:
93,162,97678,2,0,P|106:200|138:225,1,82.4999976158143,2|0,1:2|1:0,0:0:0:0:
263,148,97906,2,0,P|230:172|217:211,1,82.4999976158143,10|0,3:2|1:0,0:0:0:0:
362,246,98133,1,2,1:2:0:0:
362,246,98247,1,0,1:0:0:0:
362,246,98360,6,0,B|386:211|386:211|370:81,1,164.999995231629,10|0,3:2|1:0,0:0:0:0:
306,13,98701,1,0,1:0:0:0:
306,13,98815,2,0,B|260:19|260:19|224:77|224:77|150:87,1,164.999995231629,10|2,3:2|1:2,0:0:0:0:
111,36,99156,1,2,1:2:0:0:
37,57,99269,6,0,B|22:87|22:87|31:140,1,82.4999976158143,8|0,3:2|1:0,0:0:0:0:
172,234,99497,2,0,B|169:200|169:200|135:159,1,82.4999976158143,0|0,1:0|1:0,0:0:0:0:
34,269,99724,2,0,B|7:294|7:294|-2:349,1,82.4999976158143,8|0,3:2|1:0,0:0:0:0:
208,380,99951,1,2,1:2:0:0:
257,322,100065,1,0,1:0:0:0:
252,249,100178,6,0,P|240:196|138:163,1,164.999995231629,10|0,3:2|1:0,0:0:0:0:
113,285,100519,1,0,1:0:0:0:
113,285,100633,2,0,B|137:336|137:336|182:202,1,164.999995231629,10|0,3:2|1:0,0:0:0:0:
144,160,100974,1,0,1:0:0:0:
70,181,101087,2,0,P|38:210|34:266,1,82.4999976158143,10|0,3:2|1:0,0:0:0:0:
222,141,101315,2,0,P|212:98|166:67,1,82.4999976158143,2|0,1:2|1:0,0:0:0:0:
71,103,101542,2,0,P|57:144|82:194,1,82.4999976158143,10|0,3:2|1:0,0:0:0:0:
272,200,101769,2,0,P|243:151|205:137,1,82.4999976158143,2|0,1:2|1:0,0:0:0:0:
257,281,101997,6,0,P|311:279|350:219,2,109.999996821086,12|8|8,3:2|1:2|1:3,0:0:0:0:
244,382,102451,2,0,P|207:347|149:350,2,87.9999974568685,8|8|8,3:2|1:3|1:2,0:0:0:0:
336,376,102906,1,8,3:0:0:0:
413,314,103057,1,8,1:2:0:0:
496,361,103209,1,8,1:3:0:0:
485,230,103348,6,0,P|473:163|461:30,1,164.999995231629,12|6,3:2|0:0,0:0:0:0:
194,314,111094,5,2,1:2:0:0:
176,235,111776,2,0,B|256:222|274:258|258:358|353:353|362:251|294:267,1,241.777785459711,2|2,1:2|0:0,0:0:0:0:
176,235,113233,1,2,1:2:0:0:
133,73,113580,2,0,B|127:48|176:25|176:25|238:110|158:154,1,222.413386774635,2|0,1:2|0:0,0:0:0:0:
134,74,115057,6,0,P|191:118|314:81,1,197.999994277954,12|0,3:2|3:0,0:0:0:0:
305,90,115966,2,0,B|280:77|259:54|259:54|276:125|270:222,1,197.999994277954,12|0,3:2|3:0,0:0:0:0:
384,244,116534,6,0,B|269:281|286:164|147:206,1,247.499992847443,0|0,1:0|0:0,0:0:0:0:
151,204,117455,2,0,P|140:144|128:96,2,109.999996821086,8|8|8,1:2|1:2|1:2,0:0:0:0:
216,92,117909,1,4,1:3:0:0:
83,258,118364,6,0,P|129:288|211:264,1,131.999996185303,6|0,3:2|0:0,0:0:0:0:
351,159,118818,1,2,1:3:0:0:
351,159,118932,2,0,P|315:216|336:292,1,131.999996185303,8|0,0:0|1:0,0:0:0:0:
460,262,119273,2,0,B|472:235|484:216|484:216|398:236,1,131.999996185303,8|2,0:0|1:2,0:0:0:0:
333,360,119727,1,10,0:0:0:0:
333,360,119841,1,0,0:0:0:0:
333,360,119954,2,0,P|292:348|262:348,1,65.9999980926514,2|0,1:2|1:0,0:0:0:0:
138,359,120182,6,0,P|104:299|127:232,1,131.999996185303,0|2,1:0|0:0,0:0:0:0:
326,230,120636,1,2,1:3:0:0:
326,230,120750,2,0,P|269:267|189:233,1,131.999996185303,0|0,0:0|1:0,0:0:0:0:
163,179,121091,1,8,0:0:0:0:
331,42,121318,1,0,1:0:0:0:
331,42,121432,2,0,P|403:42|476:48,1,131.999996185303,0|0,1:0|1:0,0:0:0:0:
491,116,121773,1,10,0:0:0:0:
476,188,121886,1,8,0:0:0:0:
407,220,122000,6,0,P|343:150|289:160,1,131.999996185303,2|0,1:2|0:0,0:0:0:0:
243,220,122341,1,2,1:2:0:0:
243,220,122454,2,0,P|253:262|255:303,1,65.9999980926514,2|0,1:3|1:0,0:0:0:0:
88,360,122682,1,2,1:2:0:0:
88,360,122795,1,0,1:0:0:0:
88,360,122909,2,0,P|57:316|95:239,1,131.999996185303,8|2,0:0|1:2,0:0:0:0:
145,191,123250,1,0,1:0:0:0:
145,191,123364,2,0,P|156:159|147:115,1,65.9999980926514,10|0,1:2|1:0,0:0:0:0:
118,28,123591,1,2,1:2:0:0:
52,178,123818,5,0,1:0:0:0:
81,247,123932,1,8,0:0:0:0:
155,270,124045,1,10,0:0:0:0:
218,227,124159,2,0,P|275:222|336:268,1,131.999996185303,0|0,1:0|1:0,0:0:0:0:
512,323,124614,5,8,0:0:0:0:
449,361,124727,1,0,1:0:0:0:
379,329,124841,2,0,L|373:270,2,32.9999990463257,8|8|0,0:0|0:0|1:0,0:0:0:0:
406,257,125068,2,0,L|413:167,1,65.9999980926514,0|8,1:0|0:0,0:0:0:0:
491,125,125295,1,8,0:0:0:0:
491,125,125409,2,0,L|484:35,1,65.9999980926514,2|0,1:2|1:0,0:0:0:0:
382,58,125636,6,0,L|244:42,1,131.999996185303,4|0,3:2|1:0,0:0:0:0:
163,39,125977,2,0,P|140:106|187:161,1,131.999996185303,10|0,3:2|1:0,0:0:0:0:
307,186,126318,2,0,B|276:180|256:147|256:147|257:188|224:212,1,131.999996185303,10|0,3:2|0:0,0:0:0:0:
183,270,126659,1,2,1:2:0:0:
183,270,126773,2,0,P|139:243|102:242,1,65.9999980926514,8|0,0:0|1:0,0:0:0:0:
46,382,127000,2,0,P|61:346|66:301,1,65.9999980926514,10|0,3:2|1:0,0:0:0:0:
29,189,127227,2,0,P|13:152|13:106,1,65.9999980926514,2|0,1:2|1:0,0:0:0:0:
17,0,127454,6,0,P|70:60|169:56,1,164.999995231629,4|0,3:0|1:0,0:0:0:0:
225,29,127795,1,2,0:0:0:0:
308,32,127909,2,0,P|344:112|287:187,1,164.999995231629,8|2,3:2|1:2,0:0:0:0:
241,126,128250,1,0,0:0:0:0:
210,203,128364,5,8,3:2:0:0:
122,193,128477,2,0,B|118:278|189:277|177:369,1,164.999995231629,0|0,1:0|1:0,0:0:0:0:
92,380,128818,2,0,P|58:357|11:362,1,82.4999976158143,10|0,3:2|0:0,0:0:0:0:
178,344,129045,2,0,P|217:334|247:306,1,82.4999976158143,10|2,0:0|0:0,0:0:0:0:
331,152,129273,5,4,3:0:0:0:
406,157,129386,1,0,1:0:0:0:
462,206,129500,1,4,1:3:0:0:
463,278,129614,1,0,1:0:0:0:
417,337,129727,2,0,P|356:348|307:321,1,82.4999976158143,8|0,0:0|0:0,0:0:0:0:
170,264,129954,2,0,L|99:274,2,54.9999984105428,4|0|0,1:3|0:0|0:0,0:0:0:0:
208,239,130182,6,0,P|211:175|215:120,2,109.999996821086,8|8|8,1:3|1:3|1:3,0:0:0:0:
60,201,130636,1,8,1:2:0:0:
126,128,130788,1,8,1:2:0:0:
53,63,130939,1,8,1:2:0:0:
236,44,131091,6,0,B|302:13|360:50|360:50|280:129|282:217|372:205|339:140,1,329.999990463257,4|0,3:2|0:0,0:0:0:0:
487,370,132454,6,0,P|458:352|435:349,1,49.4999985694884,2|2,0:0|0:0,0:0:0:0:
405,316,132682,2,0,P|376:334|353:337,1,49.4999985694884,2|2,0:0|0:0,0:0:0:0:
170,351,132909,6,0,B|250:371|286:308|286:308|258:261,1,164.999995231629,6|0,3:1|1:0,0:0:0:0:
203,208,133250,1,0,1:0:0:0:
203,208,133364,2,0,P|153:225|114:260,1,82.4999976158143,10|0,0:0|0:0,0:0:0:0:
283,146,133591,2,0,P|311:165|375:171,1,82.4999976158143,0|0,1:0|0:0,0:0:0:0:
355,6,133818,6,0,L|348:101,1,82.4999976158143,10|0,0:0|0:0,0:0:0:0:
404,315,134045,1,2,1:2:0:0:
404,315,134159,1,8,0:0:0:0:
404,315,134273,2,0,B|453:223|453:223|438:164,1,164.999995231629,2|2,1:2|1:2,0:0:0:0:
425,86,134614,1,0,1:0:0:0:
348,88,134727,6,0,B|266:89|290:178|206:174|206:174|200:135|166:117,1,247.499992847443,2|0,3:2|0:0,0:0:0:0:
93,78,135182,2,0,B|38:74|16:139|16:139|65:136|98:205,1,164.999995231629,8|2,0:0|1:2,0:0:0:0:
97,241,135523,1,0,1:0:0:0:
97,241,135636,6,0,P|92:297|63:347,1,82.4999976158143,10|0,0:0|0:0,0:0:0:0:
212,384,135864,2,0,P|201:339|172:304,1,82.4999976158143,2|0,1:2|0:0,0:0:0:0:
166,117,136091,2,0,P|200:188|306:187,1,164.999995231629,10|2,0:0|1:2,0:0:0:0:
351,156,136432,1,2,0:0:0:0:
351,156,136545,6,0,B|376:108|460:120|467:182|432:242|365:246|399:331,1,247.499992847443,4|0,3:0|0:0,0:0:0:0:
441,350,137000,1,0,1:0:0:0:
391,292,137114,1,0,1:0:0:0:
315,285,137227,1,0,1:0:0:0:
247,319,137341,1,0,1:0:0:0:
212,384,137454,6,0,P|178:369|103:361,1,82.4999976158143,8|0,0:0|0:0,0:0:0:0:
14,310,137682,2,0,P|54:302|92:286,1,82.4999976158143,0|0,1:0|0:0,0:0:0:0:
222,238,137909,2,0,P|188:223|113:215,1,82.4999976158143,8|0,0:0|0:0,0:0:0:0:
44,72,138136,1,10,0:0:0:0:
44,72,138250,1,8,0:0:0:0:
44,72,138364,6,0,B|33:157|33:157|130:119,1,164.999995231629,14|0,3:2|0:0,0:0:0:0:
158,70,138704,2,0,P|202:49|254:57,1,82.4999976158143,2|0,1:3|0:0,0:0:0:0:
279,180,138932,2,0,P|317:219|361:229,1,82.4999976158143,2|0,1:3|0:0,0:0:0:0:
382,0,139159,6,0,B|346:34|346:34|340:88|358:166,1,164.999995231629,2|0,1:2|1:0,0:0:0:0:
375,223,139500,1,10,0:0:0:0:
444,245,139614,1,8,0:0:0:0:
512,211,139727,2,0,P|508:156|489:121,1,82.4999976158143,14|0,0:0|0:0,0:0:0:0:
375,223,139954,2,0,P|359:275|333:305,1,82.4999976158143,10|0,0:0|0:0,0:0:0:0:
224,298,140182,5,4,3:2:0:0:
241,103,140409,1,0,1:0:0:0:
241,103,140523,1,0,1:0:0:0:
241,103,140636,2,0,P|325:116|363:173,1,131.999996185303,10|2,0:0|1:2,0:0:0:0:
139,198,141091,1,0,1:0:0:0:
139,198,141204,2,0,P|138:126|122:44,1,131.999996185303,8|0,0:0|1:0,0:0:0:0:
79,9,141545,1,10,0:0:0:0:
0,132,141773,1,2,1:2:0:0:
72,251,142000,6,0,P|112:282|206:250,1,131.999996185303,4|0,3:0|1:0,0:0:0:0:
250,197,142341,1,2,1:2:0:0:
250,197,142454,2,0,P|294:202|332:221,1,65.9999980926514,8|0,0:0|0:0,0:0:0:0:
406,289,142682,2,0,P|454:290|486:271,1,65.9999980926514,2|0,1:2|0:0,0:0:0:0:
470,134,142909,1,0,1:0:0:0:
470,134,143023,2,0,B|447:110|447:110|430:254,1,131.999996185303,8|0,0:0|1:0,0:0:0:0:
469,283,143364,1,8,0:0:0:0:
324,335,143591,1,10,0:0:0:0:
250,197,143818,6,0,P|184:199|139:274,1,131.999996185303,4|0,3:0|1:0,0:0:0:0:
131,323,144159,2,0,B|77:362|77:362|47:305|47:305|67:270|55:212,1,197.999994277954,2|2,1:2|1:2,0:0:0:0:
4,48,144727,1,8,0:0:0:0:
200,110,144954,1,2,1:2:0:0:
200,110,145068,1,0,1:0:0:0:
200,110,145182,2,0,P|121:110|82:115,1,98.9999971389769,10|2,0:0|1:2,0:0:0:0:
371,127,145636,6,0,P|374:94|351:52,2,82.4999976158143,8|0|0,3:2|1:0|1:0,0:0:0:0:
299,193,145977,1,8,0:0:0:0:
299,193,146091,2,0,P|355:232|359:276,1,82.4999976158143,0|0,1:0|1:0,0:0:0:0:
289,379,146318,1,8,0:0:0:0:
289,379,146432,1,0,1:0:0:0:
289,379,146545,6,0,P|249:355|199:338,1,82.4999976158143,8|0,0:0|0:0,0:0:0:0:
378,324,146773,2,0,P|428:300|501:283,1,82.4999976158143,0|0,1:0|0:0,0:0:0:0:
434,87,147000,1,0,1:0:0:0:
465,157,147114,1,8,0:0:0:0:
429,224,147227,1,8,0:0:0:0:
358,242,147341,1,8,0:0:0:0:
299,193,147454,6,0,B|214:172|232:252|126:234,1,164.999995231629,14|0,3:2|1:0,0:0:0:0:
74,193,147795,1,0,1:0:0:0:
74,193,147909,2,0,P|53:160|56:108,1,82.4999976158143,10|0,3:2|1:0,0:0:0:0:
203,61,148136,2,0,P|184:95|138:119,1,82.4999976158143,0|0,1:0|1:0,0:0:0:0:
37,13,148364,6,0,P|92:30|140:47,1,82.4999976158143,10|0,3:2|1:0,0:0:0:0:
266,112,148591,1,2,1:2:0:0:
266,112,148704,1,0,1:0:0:0:
266,112,148818,2,0,P|311:103|380:83,1,82.4999976158143,10|0,3:2|1:0,0:0:0:0:
358,10,149045,2,0,P|411:24|468:34,1,82.4999976158143,2|0,1:2|1:0,0:0:0:0:
511,186,149273,6,0,B|495:124|441:109|441:109|396:166,1,164.999995231629,10|0,3:2|1:0,0:0:0:0:
372,235,149614,1,0,1:0:0:0:
372,235,149727,2,0,L|386:333,1,82.4999976158143,8|0,3:2|1:0,0:0:0:0:
263,372,149954,1,2,1:2:0:0:
188,360,150068,1,2,1:2:0:0:
159,290,150182,6,0,P|199:271|247:279,1,82.4999976158143,8|0,3:2|1:0,0:0:0:0:
383,316,150409,2,0,P|342:318|305:300,1,82.4999976158143,2|0,1:2|1:0,0:0:0:0:
184,199,150636,2,0,P|129:215|94:252,1,82.4999976158143,10|0,3:2|1:0,0:0:0:0:
32,377,150864,1,2,1:2:0:0:
32,377,150977,1,0,1:0:0:0:
32,377,151091,6,0,B|23:321|-8:268|-8:268|11:215|34:194,1,164.999995231629,10|0,3:2|1:0,0:0:0:0:
51,146,151432,1,2,1:2:0:0:
51,146,151545,2,0,P|89:102|89:60,1,82.4999976158143,8|0,3:2|1:0,0:0:0:0:
184,199,151773,2,0,P|222:243|271:246,1,82.4999976158143,2|0,1:2|1:0,0:0:0:0:
348,61,152000,6,0,P|277:85|263:178,1,164.999995231629,8|0,3:2|1:0,0:0:0:0:
315,220,152341,1,0,1:0:0:0:
393,198,152454,2,0,P|408:158|400:113,1,82.4999976158143,8|0,3:2|1:0,0:0:0:0:
488,323,152682,1,2,1:2:0:0:
422,291,152795,1,0,1:0:0:0:
352,318,152909,6,0,B|306:346|306:346|181:320,1,164.999995231629,10|0,3:2|1:0,0:0:0:0:
115,305,153250,1,2,1:2:0:0:
115,305,153364,2,0,L|110:203,1,82.4999976158143,8|0,3:2|1:0,0:0:0:0:
209,127,153591,2,0,L|204:229,1,82.4999976158143,2|0,1:2|1:0,0:0:0:0:
127,90,153818,5,8,3:2:0:0:
188,47,153932,1,0,1:0:0:0:
261,58,154045,1,0,1:0:0:0:
292,125,154159,1,0,1:0:0:0:
277,197,154273,2,0,P|250:225|181:227,1,82.4999976158143,10|0,3:2|1:0,0:0:0:0:
51,173,154500,2,0,P|90:181|119:210,1,82.4999976158143,2|2,1:2|1:2,0:0:0:0:
31,370,154727,6,0,B|12:304|12:304|61:237,1,131.999996185303,12|0,3:2|1:0,0:0:0:0:
119,210,155068,1,0,1:0:0:0:
119,210,155182,1,8,0:0:0:0:
212,327,155409,1,8,0:0:0:0:
379,293,155636,1,10,3:2:0:0:
401,223,155750,1,0,1:0:0:0:
353,165,155864,1,0,1:0:0:0:
278,164,155977,2,0,P|281:235|289:324,1,131.999996185303,0|0,1:0|0:0,0:0:0:0:
323,373,156318,6,0,B|285:313|222:293|222:293|177:324|141:359,1,197.999994277954,6|0,1:2|1:0,0:0:0:0:
9,182,156886,1,0,1:0:0:0:
9,182,157000,2,0,P|58:226|137:217,1,131.999996185303,10|8,0:0|0:0,0:0:0:0:
161,156,157341,1,8,0:0:0:0:
185,82,157454,6,0,B|160:51|146:10|146:10|143:54|116:99,1,164.999995231629,4|0,3:0|1:0,0:0:0:0:
239,145,157795,2,0,B|278:138|320:147|320:147|284:122|258:76,1,164.999995231629,4|0,3:0|0:0,0:0:0:0:
161,156,158136,2,0,P|167:209|210:248,1,82.4999976158143,4|0,3:0|0:0,0:0:0:0:
305,321,158364,6,0,P|243:308|163:317,1,131.999996185303,14|0,3:2|1:0,0:0:0:0:
108,357,158704,1,0,1:0:0:0:
108,357,158818,1,8,0:0:0:0:
0,163,159045,1,0,1:0:0:0:
45,222,159159,1,0,1:0:0:0:
119,220,159273,1,8,0:0:0:0:
161,156,159386,2,0,P|213:126|292:147,1,131.999996185303,0|0,1:0|1:0,0:0:0:0:
301,219,159727,2,0,B|290:247|251:266|251:266|246:220|225:189,1,131.999996185303,8|2,0:0|1:2,0:0:0:0:
458,49,160182,5,4,1:3:0:0:
458,49,160295,1,0,0:0:0:0:
458,49,160409,2,0,L|451:154,1,82.4999976158143,8|0,0:0|0:0,0:0:0:0:
463,277,160636,2,0,P|440:230|390:210,1,82.4999976158143,8|0,0:0|0:0,0:0:0:0:
315,312,160864,2,0,P|291:350|231:368,1,82.4999976158143,0|0,1:0|1:0,0:0:0:0:
67,350,161091,5,8,0:0:0:0:
99,281,161204,1,0,1:0:0:0:
169,261,161318,1,0,1:0:0:0:
238,290,161432,1,0,1:0:0:0:
258,366,161545,2,0,L|155:358,1,82.4999976158143,8|0,0:0|0:0,0:0:0:0:
16,273,161773,2,0,L|97:280,1,82.4999976158143
241,205,162000,5,14,1:2:0:0:
241,205,162114,1,0,1:0:0:0:
241,205,162227,1,0,1:0:0:0:
241,205,162341,1,2,1:2:0:0:
241,205,162454,1,10,1:2:0:0:
355,102,162682,2,0,L|346:173,1,65.9999980926514,2|0,1:2|1:0,0:0:0:0:
264,102,162909,2,0,L|255:31,1,65.9999980926514,2|2,1:3|1:2,0:0:0:0:
417,222,163364,6,0,P|369:248|339:245,1,65.9999980926514,2|0,1:3|1:0,0:0:0:0:
305,320,163591,2,0,P|257:294|227:297,1,65.9999980926514,0|0,1:0|1:0,0:0:0:0:
149,368,163818,5,10,1:2:0:0:
149,368,163932,1,0,1:0:0:0:
149,368,164045,1,0,1:0:0:0:
149,368,164159,1,2,1:2:0:0:
149,368,164273,1,10,1:2:0:0:
23,133,164500,2,0,L|31:198,1,65.9999980926514,2|0,1:2|1:0,0:0:0:0:
114,264,164727,2,0,L|122:198,1,65.9999980926514,2|2,1:3|1:2,0:0:0:0:
372,76,165068,5,0,1:0:0:0:
321,24,165182,1,10,1:2:0:0:
248,29,165295,1,8,1:2:0:0:
203,89,165409,1,8,1:2:0:0:
203,164,165523,6,0,B|193:247|193:247|223:313,1,131.999996185303,4|0,1:2|1:0,0:0:0:0:
290,310,165864,1,0,1:0:0:0:
290,310,165977,1,0,1:0:0:0:
290,310,166091,2,0,L|380:298,1,65.9999980926514,10|0,1:2|0:0,0:0:0:0:
419,226,166318,2,0,L|507:234,1,65.9999980926514,0|0,1:0|1:0,0:0:0:0:
491,376,166545,5,2,1:3:0:0:
491,376,166659,2,0,P|425:327|353:338,1,131.999996185303,8|0,1:2|1:0,0:0:0:0:
290,310,167000,2,0,P|226:344|156:315,1,131.999996185303,10|0,1:2|1:0,0:0:0:0:
205,138,167341,6,0,B|237:177|237:177|217:287,1,131.999996185303,12|0,1:2|1:0,0:0:0:0:
141,207,167682,2,0,L|-11:225,2,131.999996185303,0|10|2,1:0|1:2|1:2,0:0:0:0:
182,49,168364,1,2,1:3:0:0:
182,49,168477,1,0,1:0:0:0:
182,49,168591,2,0,L|267:62,1,65.9999980926514,0|0,1:0|1:0,0:0:0:0:
446,75,168818,1,10,1:2:0:0:
376,51,168932,1,10,1:2:0:0:
313,97,169045,1,2,1:2:0:0:
315,283,169273,6,0,B|337:301|349:326|349:326|368:251|396:187,1,164.999995231629,4|0,3:2|0:0,0:0:0:0:
421,148,169614,2,0,B|457:162|483:195|483:195|454:263|454:306,1,164.999995231629,4|0,3:2|0:0,0:0:0:0:
470,384,169954,6,0,P|355:352|290:381,1,164.999995231629,8|0,1:2|0:0,0:0:0:0:
246,323,170295,2,0,P|188:364|124:365,1,131.999996185303,2|0,1:3|0:0,0:0:0:0:
65,322,170636,1,0,1:0:0:0:
48,250,170750,1,8,1:2:0:0:
90,187,170864,1,8,1:2:0:0:
164,167,170977,6,0,P|215:182|254:255,1,131.999996185303,10|2,1:2|0:0,0:0:0:0:
170,269,171318,2,0,P|106:272|62:331,1,131.999996185303,10|0,1:2|0:0,0:0:0:0:
128,366,171659,2,0,L|266:349,1,131.999996185303,2|2,1:2|0:0,0:0:0:0:
322,299,172000,2,0,L|440:312,1,98.9999971389769,2|2,1:2|1:3,0:0:0:0:
486,271,172341,1,8,1:2:0:0:
486,271,172454,1,8,1:2:0:0:
486,271,172568,1,0,1:0:0:0:
486,271,172682,1,0,1:0:0:0:
424,58,172909,5,6,1:2:0:0:
424,58,173023,2,0,P|397:137|388:183,1,98.9999971389769,8|0,1:2|1:0,0:0:0:0:
413,230,173364,1,2,1:3:0:0:
281,91,173591,1,6,1:2:0:0:
281,91,173704,1,0,1:0:0:0:
281,91,173818,5,8,1:2:0:0:
281,91,173932,2,0,P|205:65|174:70,1,98.9999971389769,10|0,1:2|0:0,0:0:0:0:
113,95,174273,2,0,P|124:124|129:159,1,49.4999985694884,6|0,1:2|1:0,0:0:0:0:
171,210,174500,2,0,P|150:250|144:267,1,49.4999985694884,0|2,1:0|1:2,0:0:0:0:
136,327,174727,6,0,P|185:296|215:298,1,82.4999976158143,10|10,1:2|1:2,0:0:0:0:
346,369,174954,2,0,P|305:364|274:338,1,82.4999976158143,2|8,1:2|1:2,0:0:0:0:
334,209,175182,1,0,1:0:0:0:
406,180,175295,1,10,1:2:0:0:
448,241,175409,1,10,1:2:0:0:
410,304,175523,1,10,1:2:0:0:
339,286,175636,6,0,L|168:299,2,131.999996185303,4|4|4,3:2|3:2|3:2,0:0:0:0:
382,84,176545,6,0,B|404:58|440:60|440:60|394:24|310:54|293:112|304:179|378:214|378:214|406:188|457:187|457:187|414:244|409:296|459:380,1,618.749982118607,4|0,3:2|0:0,0:0:0:0:
512,304,178364,6,0,B|511:284|494:254|494:254|404:273|339:350|339:350|280:350|227:326,2,329.999990463257,2|2|2,0:0|0:0|0:0,0:0:0:0:
161,54,181545,6,0,P|175:79|181:107,1,41.2499988079071
225,110,181773,2,0,P|211:135|205:163,1,41.2499988079071
200,222,182000,1,2,0:0:0:0:
216,97,187227,6,0,P|226:125|229:160,1,49.4999985694884,2|0,0:0|0:0,0:0:0:0:
137,75,187454,6,0,P|161:35|231:20,1,82.4999976158143,4|0,3:2|0:0,0:0:0:0:
340,57,187682,1,4,1:3:0:0:
340,57,187795,2,0,P|320:102|308:160,1,82.4999976158143,4|0,1:2|0:0,0:0:0:0:
147,180,188023,2,0,P|181:221|202:270,1,82.4999976158143,4|0,1:2|0:0,0:0:0:0:
353,368,188250,6,0,P|325:324|206:357,1,164.999995231629,4|0,1:3|1:0,0:0:0:0:
143,373,188591,1,8,0:0:0:0:
143,373,188704,1,8,0:0:0:0:
143,373,188818,2,0,P|121:343|67:337,1,82.4999976158143,8|0,0:0|0:0,0:0:0:0:
194,246,189045,2,0,P|239:216|292:220,1,82.4999976158143,8|0,0:0|0:0,0:0:0:0:
60,231,189273,5,4,3:2:0:0:
131,22,189614,1,8,0:0:0:0:
131,22,189727,2,0,P|151:81|170:161,1,131.999996185303,2|10,1:2|0:0,0:0:0:0:
369,103,190182,1,0,1:0:0:0:
369,103,190295,2,0,P|306:139|235:118,1,131.999996185303,8|0,0:0|1:0,0:0:0:0:
235,39,190636,2,0,P|290:12|370:34,1,131.999996185303,10|2,0:0|1:2,0:0:0:0:
448,152,191091,6,0,P|453:119|460:87,1,65.9999980926514,4|0,3:0|0:0,0:0:0:0:
380,210,191318,2,0,P|390:242|394:296,1,65.9999980926514,0|10,0:0|0:0,0:0:0:0:
340,349,191545,1,0,1:0:0:0:
153,308,191773,1,10,0:0:0:0:
153,308,191886,1,0,1:0:0:0:
153,308,192000,6,0,P|140:265|151:226,1,65.9999980926514,0|8,1:0|0:0,0:0:0:0:
260,232,192227,2,0,P|273:275|262:314,1,65.9999980926514,0|0,1:0|1:0,0:0:0:0:
75,188,192454,1,8,0:0:0:0:
120,126,192568,1,0,1:0:0:0:
192,103,192682,1,10,0:0:0:0:
267,123,192795,1,8,0:0:0:0:
317,177,192909,6,0,P|386:191|464:130,1,164.999995231629,4|0,3:0|1:0,0:0:0:0:
467,59,193250,2,0,P|475:131|487:257,1,164.999995231629,10|0,0:0|1:0,0:0:0:0:
505,300,193591,1,10,0:0:0:0:
301,367,193818,1,0,1:0:0:0:
301,367,193932,2,0,B|257:340|247:301|247:301|239:346|194:380,1,164.999995231629,8|0,0:0|1:0,0:0:0:0:
128,367,194273,2,0,P|83:340|33:347,1,82.4999976158143,10|0,0:0|0:0,0:0:0:0:
0,252,194500,2,0,P|40:248|73:224,1,82.4999976158143,2|2,1:2|0:0,0:0:0:0:
66,71,194727,6,0,P|43:141|91:241,1,164.999995231629,8|0,3:2|1:0,0:0:0:0:
145,173,195068,2,0,P|201:158|310:181,1,164.999995231629,8|0,0:0|1:0,0:0:0:0:
380,218,195409,2,0,P|409:142|397:98,1,82.4999976158143,8|0,0:0|0:0,0:0:0:0:
370,4,195636,5,8,3:2:0:0:
261,37,195788,5,8,3:2:0:0:
341,112,195939,5,8,3:2:0:0:
352,0,196091,5,4,3:0:0:0:
449,348,196545,6,0,P|395:297|293:303,1,164.999995231629,14|0,3:2|1:0,0:0:0:0:
230,344,196886,1,0,1:0:0:0:
230,344,197000,2,0,P|220:292|201:255,1,82.4999976158143,10|0,3:2|1:0,0:0:0:0:
305,132,197227,2,0,P|288:169|282:210,1,82.4999976158143,0|0,1:0|1:0,0:0:0:0:
442,227,197454,5,10,3:2:0:0:
442,227,197568,1,0,1:0:0:0:
442,227,197682,2,0,P|410:202|357:206,1,82.4999976158143,2|0,1:2|1:0,0:0:0:0:
207,265,197909,1,10,3:2:0:0:
207,265,198023,1,0,1:0:0:0:
207,265,198136,2,0,P|239:247|262:187,1,82.4999976158143,2|0,1:2|1:0,0:0:0:0:
235,3,198364,6,0,B|201:20|201:20|179:82|204:155,1,164.999995231629,10|0,3:2|1:0,0:0:0:0:
260,207,198704,1,0,1:0:0:0:
260,207,198818,2,0,P|316:218|356:199,1,82.4999976158143,8|0,3:2|1:0,0:0:0:0:
366,55,199045,1,2,1:2:0:0:
366,55,199159,1,2,1:2:0:0:
366,55,199273,6,0,L|356:141,1,82.4999976158143,8|0,3:2|1:0,0:0:0:0:
408,317,199500,2,0,L|418:231,1,82.4999976158143,2|0,1:2|1:0,0:0:0:0:
260,207,199727,2,0,L|345:217,1,82.4999976158143,10|0,3:2|1:0,0:0:0:0:
512,169,199954,2,0,L|426:159,1,82.4999976158143,2|0,1:2|1:0,0:0:0:0:
179,197,200182,6,0,P|203:272|281:286,1,164.999995231629,10|0,3:2|1:0,0:0:0:0:
341,216,200523,1,0,1:0:0:0:
341,216,200636,2,0,P|345:175|326:106,1,82.4999976158143,8|0,3:2|1:0,0:0:0:0:
235,73,200864,1,2,1:2:0:0:
235,73,200977,1,0,1:0:0:0:
235,73,201091,6,0,B|149:68|177:137|67:119,2,164.999995231629,8|0|8,3:2|1:0|3:2,0:0:0:0:
37,240,201773,1,2,1:2:0:0:
37,240,201886,1,2,1:2:0:0:
37,240,202000,6,0,B|114:203|114:203|217:250,1,164.999995231629,10|0,3:2|1:0,0:0:0:0:
238,296,202341,1,2,1:2:0:0:
238,296,202454,2,0,L|229:389,1,82.4999976158143,8|0,3:2|1:0,0:0:0:0:
311,210,202682,2,0,L|302:117,1,82.4999976158143,2|0,1:2|1:0,0:0:0:0:
501,150,202909,5,8,3:2:0:0:
498,226,203023,1,0,1:0:0:0:
439,274,203136,1,0,1:0:0:0:
365,268,203250,1,0,1:0:0:0:
311,210,203364,2,0,P|296:166|313:113,1,82.4999976158143,10|0,3:2|1:0,0:0:0:0:
450,60,203591,2,0,P|419:94|364:106,1,82.4999976158143,2|2,1:2|1:2,0:0:0:0:
277,46,203818,6,0,L|131:55,1,131.999996185303,12|0,3:2|1:0,0:0:0:0:
68,56,204159,1,0,1:0:0:0:
68,56,204273,1,8,0:0:0:0:
22,204,204500,1,8,0:0:0:0:
164,320,204727,1,10,3:2:0:0:
227,279,204841,1,0,1:0:0:0:
230,205,204954,1,0,1:0:0:0:
180,154,205068,2,0,P|110:192|101:271,1,131.999996185303,0|0,1:0|0:0,0:0:0:0:
164,320,205409,6,0,B|249:319|273:239|273:239|259:207|266:167,1,197.999994277954,6|0,1:2|1:0,0:0:0:0:
438,44,205977,1,0,1:0:0:0:
438,44,206091,2,0,P|421:118|414:185,1,131.999996185303,8|8,0:0|0:0,0:0:0:0:
444,243,206432,1,8,0:0:0:0:
381,291,206545,6,0,B|339:254|337:217|337:217|337:259|310:301,1,164.999995231629,4|0,3:0|1:0,0:0:0:0:
209,373,206886,2,0,B|262:355|295:371|295:371|258:350|235:306,1,164.999995231629,4|0,3:0|0:0,0:0:0:0:
214,244,207227,2,0,P|212:209|252:154,1,82.4999976158143,4|0,3:0|0:0,0:0:0:0:
335,105,207454,5,14,3:2:0:0:
335,105,207568,2,0,P|245:118|158:113,1,164.999995231629,8|0,0:0|1:0,0:0:0:0:
89,107,207909,2,0,P|65:79|56:32,1,82.4999976158143,8|0,0:0|1:0,0:0:0:0:
105,211,208136,2,0,P|81:236|22:247,1,82.4999976158143,0|0,1:0|1:0,0:0:0:0:
216,196,208364,1,8,0:0:0:0:
216,196,208477,2,0,P|222:280|223:371,1,164.999995231629,0|0,1:0|1:0,0:0:0:0:
148,375,208818,1,8,0:0:0:0:
316,332,209045,1,2,1:2:0:0:
316,332,209159,1,10,0:0:0:0:
316,332,209273,6,0,L|409:312,1,82.4999976158143,4|0,1:3|0:0,0:0:0:0:
483,240,209500,2,0,L|402:222,1,82.4999976158143,8|0,0:0|0:0,0:0:0:0:
281,139,209727,2,0,L|374:119,1,82.4999976158143,8|0,0:0|0:0,0:0:0:0:
481,26,209954,1,0,1:0:0:0:
481,26,210068,1,8,0:0:0:0:
481,26,210182,1,0,1:0:0:0:
271,53,210409,6,0,L|209:43,3,54.9999984105428,8|8|8|8,1:3|1:2|1:2|1:2,0:0:0:0:
100,171,210864,2,0,L|154:162,2,54.9999984105428,8|8|8,1:3|1:2|1:2,0:0:0:0:
69,144,211091,5,6,3:1:0:0:
49,278,211318,1,0,0:0:0:0:
49,278,211432,1,2,1:2:0:0:
159,350,211659,2,0,L|167:278,2,49.4999985694884,0|10|0,1:0|0:0|1:0,0:0:0:0:
275,303,212114,1,0,1:0:0:0:
275,303,212227,2,0,L|334:313,3,32.9999990463256,2|0|0|10,1:2|1:0|1:0|1:2,0:0:0:0:
297,178,212682,1,2,1:2:0:0:
189,91,212909,5,10,3:2:0:0:
189,91,213023,1,0,1:0:0:0:
319,28,213250,1,2,1:2:0:0:
319,28,213364,1,0,1:0:0:0:
441,94,213591,1,10,0:0:0:0:
441,94,213704,2,0,L|436:227,2,98.9999971389769,0|0|0,1:0|1:0|1:0,0:0:0:0:
482,27,214273,1,8,0:0:0:0:
372,241,214500,1,2,1:2:0:0:
372,241,214614,1,0,0:0:0:0:
372,241,214727,5,10,3:2:0:0:
261,326,214954,1,0,0:0:0:0:
261,326,215068,1,2,1:2:0:0:
127,268,215295,2,0,L|66:262,2,49.4999985694884,0|10|0,1:0|0:0|1:0,0:0:0:0:
123,114,215750,1,0,1:0:0:0:
123,114,215864,2,0,L|257:93,2,98.9999971389769,2|10|2,0:0|0:0|1:2,0:0:0:0:
27,273,216545,6,0,B|5:219|5:219|31:68,2,185.624994635583,10|10|10,3:2|1:2|0:0,0:0:0:0:
147,337,217454,1,8,0:0:0:0:
147,337,217568,2,0,L|286:319,1,123.749996423722,0|0,1:0|1:0,0:0:0:0:
328,264,217909,2,0,B|280:223|280:223|204:251,1,123.749996423722,8|0,0:0|1:0,0:0:0:0:
469,89,218364,5,10,3:2:0:0:
469,89,218477,1,0,1:0:0:0:
469,89,218591,2,0,L|459:194,1,90.7499973773957,0|2,1:0|1:2,0:0:0:0:
348,137,218818,1,8,1:2:0:0:
348,137,218932,1,0,1:0:0:0:
348,137,219045,2,0,L|338:32,1,90.7499973773957,2|0,1:2|1:0,0:0:0:0:
137,162,219273,5,8,1:2:0:0:
173,230,219386,2,0,P|259:260|332:209,1,181.499994754791,2|0,1:2|1:0,0:0:0:0:
348,137,219727,2,0,P|307:126|253:147,1,90.7499973773957,10|0,1:2|1:0,0:0:0:0:
416,258,219954,2,0,P|458:271|502:260,1,90.7499973773957,10|0,1:2|1:0,0:0:0:0:
472,15,220182,6,0,P|459:110|462:206,1,164.999995231629,14|0,3:2|0:0,0:0:0:0:
193,267,222000,5,8,3:0:0:0:
269,281,222114,1,8,3:0:0:0:
323,229,222227,1,8,3:0:0:0:
312,154,222341,1,4,3:2:0:0:
256,192,222454,12,0,229273,0:0:0:0:
