osu file format v14

[General]
AudioFilename: audio.mp3
AudioLeadIn: 0
PreviewTime: 66983
Countdown: 0
SampleSet: Soft
StackLeniency: 0.4
Mode: 0
LetterboxInBreaks: 0
EpilepsyWarning: 1
WidescreenStoryboard: 1

[Editor]
DistanceSpacing: 1.5
BeatDivisor: 6
GridSize: 32
TimelineZoom: 2.200001

[Metadata]
Title:Meteora
TitleUnicode:Meteora
Artist:Imy
ArtistUnicode:Imy
Creator:MiyohashiKoori
Version:GfMRT's Expert
Source:osu!
Tags:japanese rock jrock j-rock みゅー myu アイミー fa featured artist aitsuki nakuru 藍月なくる gfmrt riana - azrael leo16834 loneight KwAIMSuckASFuk ohm002 L18
BeatmapID:2669841
BeatmapSetID:1062770

[Difficulty]
HPDrainRate:5
CircleSize:4
OverallDifficulty:8.5
ApproachRate:9.3
SliderMultiplier:3.29999990463257
SliderTickRate:1

[Events]
//Background and Video events
0,0,"faeZ7w7.jpg",0,0
//Break Periods
//Storyboard Layer 0 (Background)
//Storyboard Layer 1 (Fail)
//Storyboard Layer 2 (Pass)
//Storyboard Layer 3 (Foreground)
//Storyboard Layer 4 (Overlay)
//Storyboard Sound Samples

[TimingPoints]
1997,454.545454545455,4,2,1,70,1,0
1997,-200,4,2,1,70,0,0
9269,-100,4,2,1,70,0,0
10178,-90.9090909090909,4,2,1,70,0,0
13019,-90.9090909090909,4,2,1,50,0,0
16542,-90.9090909090909,4,2,1,70,0,0
20178,-100,4,2,1,70,0,0
27565,-100,4,2,1,50,0,0
29042,-100,4,2,1,50,0,0
29497,-133.333333333333,4,2,1,50,0,0
31315,-117.647058823529,4,2,1,50,0,0
32337,-133.333333333333,4,2,1,50,0,0
34610,-200,4,2,1,50,0,0
34951,-117.647058823529,4,2,1,50,0,0
38360,-133.333333333333,4,2,1,70,0,0
40178,-117.647058823529,4,2,1,70,0,0
41997,-133.333333333333,4,2,1,70,0,0
42451,-133.333333333333,4,2,1,70,0,0
51087,-153.846153846153,4,2,1,70,0,0
52281,-117.647058823529,4,2,1,70,0,0
52906,-100,4,2,1,50,0,0
53587,-133.333333333333,4,2,1,50,0,0
54724,-100,4,2,1,50,0,0
55633,-133.333333333333,4,2,1,50,0,0
56542,-100,4,2,1,50,0,0
57451,-133.333333333333,4,2,1,50,0,0
58360,-100,4,2,1,50,0,0
59269,-133.333333333333,4,2,1,50,0,0
60178,-100,4,2,1,70,0,0
65633,-166.666666666667,4,2,1,70,0,0
66997,-166.666666666667,4,2,1,70,0,0
67224,-100,4,2,1,70,0,0
67451,-111.111111111111,4,2,1,70,0,1
72906,-100,4,2,1,70,0,1
74724,-125,4,2,1,70,0,1
78360,-100,4,2,1,70,0,1
81997,-111.111111111111,4,2,1,70,0,1
87451,-66.6666666666667,4,2,1,70,0,1
88133,-142.857142857143,4,2,1,70,0,1
89269,-100,4,2,1,70,0,0
91315,-200,4,2,1,70,0,0
91997,-76.9230769230769,4,2,1,70,0,0
92906,-100,4,2,1,70,0,0
103348,487.80487804878,4,2,1,70,1,0
103348,-142.857142857143,4,2,1,70,0,0
103835,446.927374301676,4,2,54,50,1,0
103835,-142.857142857143,4,2,54,50,0,0
104505,-100,4,2,54,40,0,0
105175,-142.857142857143,4,2,1,40,0,0
105622,465.116279069767,4,2,55,50,1,0
105622,-142.857142857143,4,2,55,50,0,0
106319,439.560439560439,4,2,51,50,1,0
106319,-142.857142857143,4,2,51,50,0,0
106758,479.616306954436,4,2,1,50,1,0
106758,-142.857142857143,4,2,1,50,0,0
107477,447.761194029851,4,2,46,50,1,0
107477,-294.117647058824,4,2,46,50,0,0
107812,-294.117647058824,4,2,54,50,0,0
108148,475.247524752475,4,2,51,50,1,0
108148,-294.117647058824,4,2,51,50,0,0
109098,315.789473684211,4,2,1,50,1,0
109098,-294.117647058824,4,2,1,50,0,0
109255,463.320463320463,4,2,1,50,1,0
109255,-294.117647058824,4,2,1,50,0,0
110413,454.545454545455,4,2,1,40,1,0
110413,-100,4,2,1,40,0,0
111094,-294.117647058824,4,2,55,50,0,0
112685,402.010050251256,4,2,1,50,1,0
112685,-294.117647058824,4,2,1,50,0,0
112886,463.320463320463,4,2,53,50,1,0
112886,-294.117647058824,4,2,53,50,0,0
113233,-294.117647058824,4,2,55,50,0,0
113580,-294.117647058824,4,2,65,50,0,0
114275,446.927374301676,4,2,1,40,1,0
114275,-100,4,2,1,40,0,0
115057,454.545454545455,4,2,1,70,1,0
115057,-111.111111111111,4,2,1,70,0,0
115397,-133.333333333333,4,2,1,70,0,0
115966,-111.111111111111,4,2,1,70,0,0
116307,-133.333333333333,4,2,1,70,0,0
116534,460.829493087558,4,2,1,70,1,0
116534,-151.515151515152,4,2,1,70,0,0
117455,454.545454545455,4,2,1,70,1,0
117455,-100,4,2,1,70,0,0
118364,454.545454545455,4,2,1,70,1,0
118364,-125,4,2,1,70,0,0
118704,-100,4,2,1,70,0,0
119727,-100,4,2,3,70,0,0
119841,-100,4,2,1,70,0,0
123364,-100,4,2,3,70,0,0
123477,-100,4,2,1,70,0,0
123818,-100,4,2,1,70,0,0
131091,-166.666666666667,4,2,1,70,0,0
132454,-166.666666666667,4,2,1,70,0,0
132909,-111.111111111111,4,2,1,70,0,1
138364,-90.9090909090909,4,2,1,70,0,1
140182,-100,4,2,1,70,0,1
143818,-90.9090909090909,4,2,1,70,0,1
146545,-200,4,2,1,70,0,1
147454,-100,4,2,1,70,0,1
152909,-66.6666666666667,4,2,1,70,0,1
153591,-100,4,2,1,70,0,1
154273,-100,4,2,1,70,0,1
154727,-100,4,2,1,70,0,0
162000,-133.333333333333,4,2,3,70,0,0
162114,-133.333333333333,4,2,1,70,0,0
162454,-133.333333333333,4,2,2,70,0,0
162568,-133.333333333333,4,2,1,70,0,0
163818,-133.333333333333,4,2,3,70,0,0
163932,-133.333333333333,4,2,1,70,0,0
164273,-133.333333333333,4,2,2,70,0,0
164386,-133.333333333333,4,2,1,70,0,0
165182,-133.333333333333,4,2,2,70,0,0
165295,-133.333333333333,4,2,1,70,0,0
165523,-100,4,2,1,70,0,0
167909,-100,4,2,2,70,0,0
168023,-100,4,2,1,70,0,0
169273,-83.3333333333333,4,2,1,70,0,0
170636,-100,4,2,1,70,0,0
170977,-100,4,2,3,70,0,0
171091,-100,4,2,1,70,0,0
171318,-100,4,2,3,70,0,0
171432,-100,4,2,1,70,0,0
172909,-90.9090909090909,4,2,1,70,0,0
173932,-90.9090909090909,4,2,3,70,0,0
174045,-90.9090909090909,4,2,1,70,0,0
174273,-100,4,2,1,70,0,0
176545,-133.333333333333,4,2,1,70,0,0
177454,-133.333333333333,4,2,1,50,0,0
178364,-181.818181818181,4,2,1,40,0,0
180182,-232.558139534884,4,2,1,30,0,0
187454,-83.3333333333333,4,2,1,70,0,1
189273,-100,4,2,1,70,0,1
193023,-90.9090909090909,4,2,1,70,0,1
194727,-83.3333333333333,4,2,1,70,0,1
196091,-133.333333333333,4,2,1,70,0,1
196545,-90.9090909090909,4,2,1,70,0,1
202000,-66.6666666666667,4,2,1,70,0,1
202682,-100,4,2,1,70,0,1
203818,-100,4,2,1,70,0,0
211091,-111.111111111111,4,2,1,70,0,1
216545,-86.9565217391303,4,2,1,70,0,1
217909,-111.111111111111,4,2,1,70,0,1
218364,-100,4,2,1,70,0,1
220182,-100,4,2,1,70,0,0
220636,-100,4,2,1,30,0,0
222000,-100,4,2,1,70,0,0

[Colours]
Combo1 : 255,128,128
Combo2 : 192,192,192
Combo3 : 0,0,160
Combo4 : 128,0,128

[HitObjects]
114,125,1997,6,0,B|135:177|130:234|130:234|201:129|346:28|419:128|445:206|350:312|261:203,1,618.749982118607,4|0,3:1|0:0,0:0:0:0:
179,83,3815,2,0,B|196:56|191:15|191:15|137:63|42:43|42:43|76:41|82:9,1,247.499992847443,4|0,3:2|0:0,0:0:0:0:
19,198,4724,2,0,L|39:118,1,82.4999976158142,0|0,3:0|0:0,0:0:0:0:
101,207,5065,2,0,L|81:287,1,82.4999976158142,4|0,3:0|0:0,0:0:0:0:
7,237,5406,2,0,L|27:165,1,41.2499988079071,0|0,3:0|0:0,0:0:0:0:
0,329,5633,6,0,B|68:380|124:355|124:355|204:261|298:240|354:288|354:288|341:343|263:382|212:377,1,577.4999833107,4|2,3:2|0:0,0:0:0:0:
81,287,7451,2,0,B|7:269|10:205|55:173|105:201|105:201|151:217|227:196|244:176|244:176|223:188|171:189,1,371.249989271164,4|0,3:2|0:0,0:0:0:0:
208,102,8587,2,0,L|203:74,2,27.4999992052714,8|8|8,1:3|1:3|1:3,0:0:0:0:
289,110,8815,2,0,L|266:221,1,82.4999976158142,8|0,1:2|0:0,0:0:0:0:
270,203,9156,1,0,0:0:0:0:
257,300,9269,5,0,1:0:0:0:
336,277,9383,1,0,0:0:0:0:
413,307,9497,1,0,0:0:0:0:
421,330,9610,2,0,B|444:204|444:204|466:242,1,164.999995231628,8|0,0:3|0:0,0:0:0:0:
457,88,9951,2,0,P|427:108|380:104,1,82.4999976158142,8|0,0:3|0:0,0:0:0:0:
141,49,10178,5,0,1:0:0:0:
141,49,10292,1,8,1:3:0:0:
141,49,10406,2,0,L|127:138,1,90.7499973773957,0|0,1:0|1:0,0:0:0:0:
336,277,10633,2,0,L|322:187,1,90.7499973773957,8|0,1:3|0:0,0:0:0:0:
157,258,10860,2,0,L|170:347,1,90.7499973773957,8|0,0:3|0:0,0:0:0:0:
236,113,11087,5,4,1:2:0:0:
236,113,12906,5,4,0:0:0:0:
256,192,13019,12,2,16087,0:3:0:0:
70,255,16315,5,8,1:3:0:0:
100,235,16390,1,8,1:3:0:0:
136,229,16466,1,8,1:3:0:0:
172,233,16542,6,0,P|191:257|193:229,1,60.4999982515971,12|0,1:2|0:0,0:0:0:0:
453,285,18360,5,8,1:2:0:0:
441,263,18436,1,8,1:2:0:0:
445,232,18512,1,8,1:3:0:0:
464,201,18587,5,8,1:3:0:0:
481,162,18663,1,8,1:3:0:0:
484,114,18739,1,8,1:3:0:0:
439,73,18815,5,8,1:2:0:0:
391,76,18890,1,8,1:3:0:0:
352,93,18966,1,8,1:3:0:0:
321,112,19042,5,8,1:3:0:0:
290,116,19118,1,8,1:3:0:0:
268,104,19193,1,8,1:3:0:0:
253,93,19269,6,0,L|234:148,2,45.3749986886978,8|8|8,1:2|1:2|1:2,0:0:0:0:
144,67,19497,5,8,1:3:0:0:
140,45,19610,1,8,1:2:0:0:
99,141,19724,5,8,1:3:0:0:
95,167,19837,1,8,1:2:0:0:
190,207,19951,5,8,1:2:0:0:
202,287,20065,1,8,1:2:0:0:
115,258,20178,6,0,P|64:319|37:198,1,247.499992847443,14|0,3:2|1:0,0:0:0:0:
115,153,20633,2,0,P|119:110|116:69,1,82.4999976158142,10|0,3:2|1:0,0:0:0:0:
327,39,20860,1,0,1:0:0:0:
312,19,20974,1,0,1:0:0:0:
231,34,21087,6,0,L|244:141,1,82.4999976158142,10|0,3:2|1:0,0:0:0:0:
370,238,21315,2,0,L|383:131,1,82.4999976158142,2|0,1:2|1:0,0:0:0:0:
115,153,21542,2,0,L|128:260,1,82.4999976158142,10|0,3:2|1:0,0:0:0:0:
267,342,21769,2,0,L|280:235,1,82.4999976158142,2|0,1:2|1:0,0:0:0:0:
101,334,21997,6,0,P|-8:344|58:266,1,247.499992847443,10|0,3:2|1:0,0:0:0:0:
267,342,22451,2,0,P|317:341|376:322,1,82.4999976158142,10|0,3:2|1:0,0:0:0:0:
450,277,22678,1,2,1:2:0:0:
434,180,22792,1,2,1:2:0:0:
474,273,22906,6,0,L|465:355,1,82.4999976158142,8|0,3:2|1:0,0:0:0:0:
300,210,23133,2,0,L|287:103,1,82.4999976158142,0|0,1:0|1:0,0:0:0:0:
348,333,23360,1,8,3:2:0:0:
332,234,23474,1,0,1:0:0:0:
256,201,23587,1,2,1:2:0:0:
191,238,23701,1,0,1:0:0:0:
187,270,23815,6,0,P|281:281|232:152,1,247.499992847443,10|0,3:2|1:0,0:0:0:0:
167,32,24269,2,0,B|170:74|170:74|188:111,1,82.4999976158142,10|0,3:2|1:0,0:0:0:0:
268,51,24497,1,0,1:0:0:0:
299,43,24610,1,0,1:0:0:0:
396,62,24724,6,0,L|381:161,1,82.4999976158142,10|0,3:2|1:0,0:0:0:0:
203,319,24951,2,0,L|188:220,1,82.4999976158142,2|0,1:2|1:0,0:0:0:0:
438,230,25178,1,10,3:2:0:0:
406,240,25292,1,0,1:0:0:0:
335,283,25406,1,2,1:2:0:0:
267,259,25519,1,0,1:0:0:0:
167,158,25633,6,0,P|180:196|190:237,1,82.4999976158142,12|0,3:2|0:0,0:0:0:0:
203,319,25860,1,0,1:0:0:0:
126,350,25974,2,0,B|47:332|47:332|107:219,1,164.999995231628,4|0,3:0|0:0,0:0:0:0:
309,127,26315,6,0,P|273:147|235:163,1,82.4999976158142,12|0,3:2|0:0,0:0:0:0:
139,187,26542,1,0,1:0:0:0:
336,209,26656,2,0,L|172:189,1,164.999995231628,4|0,3:0|0:0,0:0:0:0:
399,353,26997,6,0,L|412:272,1,82.4999976158142,12|0,3:2|0:0,0:0:0:0:
235,163,27224,2,0,L|256:261,1,82.4999976158142,8|0,1:3|0:0,0:0:0:0:
307,354,27451,6,0,B|266:327|216:313|131:322|131:322|161:348|188:352,1,247.499992847443,4|0,3:2|0:0,0:0:0:0:
188,352,27906,1,8,0:0:0:0:
465,372,28133,2,0,B|492:331|506:281|497:196|497:196|471:226|467:253,1,247.499992847443,0|0,1:0|1:0,0:0:0:0:
466,253,28587,1,0,0:0:0:0:
368,95,28815,1,8,1:2:0:0:
348,174,28928,1,8,1:2:0:0:
385,247,29042,1,8,1:3:0:0:
382,271,29156,6,0,P|358:207|279:256,1,164.999995231628,8|0,1:3|0:0,0:0:0:0:
310,384,29497,2,0,P|306:335|295:301,1,61.8749982118608,0|0,1:0|0:0,0:0:0:0:
218,367,29724,1,8,0:0:0:0:
15,291,29951,1,0,1:0:0:0:
15,291,30065,2,0,P|28:341|66:306,1,123.749996423722,0|0,1:0|0:0,0:0:0:0:
78,184,30406,1,4,1:3:0:0:
309,317,30633,2,0,P|320:284|329:246,1,61.8749982118608,8|8,1:2|1:2,0:0:0:0:
342,172,30860,1,8,1:3:0:0:
255,165,30974,2,0,P|286:170|317:173,1,61.8749982118608,12|0,1:3|0:0,0:0:0:0:
65,146,31315,6,0,P|51:78|50:8,1,140.249995946885,4|8,1:3|0:0,0:0:0:0:
148,0,31656,2,0,P|160:68|162:139,1,140.249995946885,4|0,1:3|0:0,0:0:0:0:
102,230,31997,2,0,P|132:222|181:227,1,70.1249979734424,4|0,1:3|0:0,0:0:0:0:
300,338,32337,1,0,0:0:0:0:
292,355,32451,2,0,B|303:294,2,61.8749982118608,8|0|4,0:0|0:0|1:3,0:0:0:0:
453,337,32792,1,0,0:0:0:0:
461,357,32906,6,0,L|449:191,1,123.749996423722,4|0,1:3|0:0,0:0:0:0:
442,130,33247,1,0,0:0:0:0:
455,150,33360,2,0,L|467:87,1,61.8749982118608,8|0,0:0|0:0,0:0:0:0:
488,10,33587,2,0,P|455:58|370:63,1,123.749996423722,4|0,1:3|0:0,0:0:0:0:
299,132,33928,2,0,P|332:84|417:79,1,123.749996423722,4|0,1:3|0:0,0:0:0:0:
477,144,34269,1,8,0:0:0:0:
474,174,34383,1,0,1:0:0:0:
472,192,34497,1,4,1:3:0:0:
471,204,34610,2,0,B|432:226|432:226|390:219,1,82.4999976158142,0|0,1:0|0:0,0:0:0:0:
169,152,34951,6,0,B|232:115|232:115|298:126,1,140.249995946885,4|8,1:3|0:0,0:0:0:0:
107,24,35292,2,0,B|180:33|180:33|227:81,1,140.249995946885,4|0,1:3|0:0,0:0:0:0:
22,25,35633,2,0,L|31:108,1,70.1249979734424,4|0,1:3|0:0,0:0:0:0:
55,257,35860,1,0,0:0:0:0:
25,179,35974,2,0,B|93:200|93:200|55:256,1,140.249995946885
14,346,36315,1,0,0:0:0:0:
41,353,36428,1,0,0:0:0:0:
127,367,36542,5,8,1:3:0:0:
167,301,36656,1,8,1:2:0:0:
243,306,36769,1,8,1:2:0:0:
359,244,36883,2,0,P|353:279|349:314,1,70.1249979734424,8|0,1:3|0:0,0:0:0:0:
283,240,37110,1,8,1:3:0:0:
258,80,37224,2,0,L|280:219,1,140.249995946885,4|0,1:3|0:0,0:0:0:0:
342,23,37565,2,0,L|320:161,1,140.249995946885,4|0,1:3|0:0,0:0:0:0:
418,313,37906,2,0,P|381:319|333:306,1,70.1249979734424,8|0,0:0|0:0,0:0:0:0:
195,262,38133,2,0,P|158:255|110:269,1,70.1249979734424
1,331,38360,5,12,1:2:0:0:
46,195,38474,2,0,P|54:164|56:134,1,61.8749982118608,8|8,1:3|1:3,0:0:0:0:
51,270,38701,1,8,1:3:0:0:
149,166,38815,1,8,1:2:0:0:
178,173,38928,1,8,1:3:0:0:
208,171,39042,1,8,1:3:0:0:
238,164,39156,1,8,1:3:0:0:
311,131,39269,6,0,B|307:87,2,30.9374991059304,8|8|8,1:3|1:3|1:2,0:0:0:0:
352,200,39497,1,8,1:3:0:0:
382,205,39610,1,8,1:2:0:0:
447,158,39724,6,0,L|457:90,2,41.2499988079072,8|8|8,1:2|1:3|1:3,0:0:0:0:
506,215,39951,2,0,L|512:255,2,41.2499988079072,8|8|8,1:3|1:3|1:3,0:0:0:0:
448,308,40178,6,0,P|379:315|313:339,1,140.249995946885,4|0,3:2|1:0,0:0:0:0:
509,368,40519,2,0,P|484:294|479:222,1,140.249995946885,8|0,3:2|1:0,0:0:0:0:
336,124,40860,2,0,P|383:163|410:108,1,140.249995946885,0|8,3:0|0:0,0:0:0:0:
141,24,41315,6,0,B|139:89|90:87|100:141|127:192|127:192|210:170|209:94,1,280.499991893769,4|0,1:3|0:0,0:0:0:0:
401,17,41997,6,0,P|331:28|258:10,2,123.749996423722,4|0|10,3:2|0:0|0:0,0:0:0:0:
400,168,42678,1,0,1:0:0:0:
400,168,42792,1,0,0:0:0:0:
399,168,42906,2,0,P|408:138|409:107,1,61.8749982118608,2|0,1:2|0:0,0:0:0:0:
361,301,43133,1,2,1:2:0:0:
361,301,43247,2,0,P|352:248|359:206,1,61.8749982118608,2|8,1:2|0:0,0:0:0:0:
501,228,43474,2,0,P|472:240|442:247,1,61.8749982118608,2|0,1:2|0:0,0:0:0:0:
310,154,43701,6,0,P|253:128|193:115,1,123.749996423722,10|0,0:0|1:0,0:0:0:0:
108,134,44042,1,2,1:2:0:0:
122,219,44156,1,0,1:0:0:0:
40,191,44269,1,10,0:0:0:0:
35,215,44383,1,0,0:0:0:0:
46,301,44497,2,0,P|49:331|58:361,1,61.8749982118608,2|0,1:2|1:0,0:0:0:0:
248,163,44724,2,0,L|309:153,1,61.8749982118608,2|8,1:2|0:0,0:0:0:0:
213,336,44951,2,0,L|152:327,1,61.8749982118608,2|0,1:2|1:0,0:0:0:0:
389,343,45178,1,10,0:0:0:0:
400,269,45292,1,0,1:0:0:0:
413,195,45406,1,0,0:0:0:0:
399,182,45519,6,0,L|442:351,1,123.749996423722,4|0,1:3|0:0,0:0:0:0:
274,344,45860,2,0,L|177:330,1,61.8749982118608,2|0,1:2|0:0,0:0:0:0:
186,173,46087,2,0,L|247:163,1,61.8749982118608,10|0,0:0|0:0,0:0:0:0:
68,341,46315,1,2,1:2:0:0:
37,260,46428,1,0,0:0:0:0:
82,355,46542,2,0,B|120:318|120:318|140:227,1,123.749996423722,2|2,1:2|1:2,0:0:0:0:
57,80,46883,1,2,1:2:0:0:
29,168,46997,2,0,L|90:158,1,61.8749982118608,8|2,0:0|1:2,0:0:0:0:
186,173,47224,1,0,0:0:0:0:
135,248,47337,6,0,P|267:270|261:133,1,309.374991059304,10|8,0:0|0:0,0:0:0:0:
261,133,48133,1,2,1:2:0:0:
109,152,48247,1,0,1:0:0:0:
157,37,48360,2,0,P|171:61|186:102,1,61.8749982118608,10|0,0:0|1:0,0:0:0:0:
209,202,48587,1,0,1:0:0:0:
281,118,48701,2,0,P|310:106|341:100,2,61.8749982118608,2|8|0,1:2|0:0|0:0,0:0:0:0:
421,133,49042,1,2,1:2:0:0:
374,206,49156,1,0,0:0:0:0:
341,100,49269,6,0,L|357:14,1,61.8749982118608,4|0,3:0|0:0,0:0:0:0:
187,189,49497,1,2,0:0:0:0:
234,262,49610,1,2,1:2:0:0:
267,156,49724,2,0,L|251:70,1,61.8749982118608,8|0,0:0|0:0,0:0:0:0:
388,239,49951,1,2,1:2:0:0:
341,312,50065,1,0,0:0:0:0:
308,206,50178,6,0,L|324:120,1,61.8749982118608,10|0,0:0|1:0,0:0:0:0:
154,295,50406,1,2,0:0:0:0:
201,368,50519,1,2,1:2:0:0:
234,262,50633,2,0,L|218:176,1,61.8749982118608,8|0,0:0|0:0,0:0:0:0:
141,171,50860,1,2,1:2:0:0:
137,193,50974,1,0,0:0:0:0:
221,201,51087,6,0,P|282:187|344:194,1,107.249996900559,10|0,3:2|1:0,0:0:0:0:
430,174,51428,2,0,L|414:280,1,107.249996900559,10|0,0:0|1:0,0:0:0:0:
248,314,51769,2,0,P|163:274|221:201,1,214.499993801118,10|12,0:0|1:3,0:0:0:0:
253,207,52300,1,8,1:3:0:0:
282,219,52375,1,8,1:3:0:0:
314,221,52451,2,0,B|361:186|361:186|375:76,1,140.249995946885,8|2,1:2|0:0,0:0:0:0:
267,105,52792,1,0,0:0:0:0:
237,221,52906,6,0,P|204:284|117:265,1,164.999995231628,6|0,3:2|0:0,0:0:0:0:
19,129,53247,2,0,P|58:194|132:173,1,164.999995231628,2|0,1:2|0:0,0:0:0:0:
113,88,53587,1,2,1:2:0:0:
113,88,53701,1,0,0:0:0:0:
113,88,53815,2,0,B|102:143|102:143|126:297,2,185.624994635583,8|0|2,0:0|1:0|1:2,0:0:0:0:
207,87,54610,1,0,1:0:0:0:
234,208,54724,6,0,P|255:282|331:281,1,164.999995231628,0|2,1:0|0:0,0:0:0:0:
456,134,55065,2,0,P|417:199|343:178,1,164.999995231628,0|0,1:0|0:0,0:0:0:0:
340,95,55406,2,0,P|342:189|339:211,1,82.4999976158142,0|0,1:0|0:0,0:0:0:0:
240,307,55633,2,0,B|234:209|234:209|235:94,1,185.624994635583,8|0,0:0|1:0,0:0:0:0:
411,51,56087,1,8,0:0:0:0:
340,95,56201,1,0,0:0:0:0:
275,47,56315,1,2,0:0:0:0:
194,26,56428,1,0,1:0:0:0:
93,47,56542,6,0,B|77:124|70:173|70:173|58:137,1,164.999995231628,2|0,1:2|0:0,0:0:0:0:
155,173,56883,2,0,B|171:250|178:299|178:299|196:246,1,164.999995231628,2|0,1:2|0:0,0:0:0:0:
283,211,57224,1,2,1:2:0:0:
358,178,57337,1,0,0:0:0:0:
422,226,57451,2,0,B|416:297|430:378|430:378|411:360|377:335,2,185.624994635583,8|0|2,0:0|1:0|1:2,0:0:0:0:
289,129,58247,1,0,1:0:0:0:
283,211,58360,6,0,L|306:402,1,164.999995231628,0|2,1:0|0:0,0:0:0:0:
152,169,58701,2,0,L|129:360,1,164.999995231628,0|0,1:0|0:0,0:0:0:0:
24,267,59042,2,0,L|136:246,1,82.4999976158142,2|0,1:2|0:0,0:0:0:0:
362,166,59269,2,0,L|219:137,1,123.749996423722,8|0,0:0|1:0,0:0:0:0:
68,114,59610,1,0,1:0:0:0:
38,123,59724,2,0,L|58:221,1,61.8749982118608,8|0,0:0|0:0,0:0:0:0:
70,268,59951,1,2,0:0:0:0:
138,214,60065,1,0,1:0:0:0:
196,293,60178,6,0,P|124:323|69:267,1,164.999995231628,6|0,3:2|0:0,0:0:0:0:
207,272,60519,2,0,P|279:301|334:245,1,164.999995231628,2|0,1:2|1:0,0:0:0:0:
220,251,60860,2,0,P|201:172|136:124,1,164.999995231628,10|0,3:2|0:0,0:0:0:0:
232,228,61201,2,0,P|252:150|263:80,1,82.4999976158142,2|0,1:2|0:0,0:0:0:0:
259,73,61428,1,0,1:0:0:0:
163,39,61542,6,0,P|203:47|239:63,1,82.4999976158142,10|0,3:2|0:0,0:0:0:0:
357,55,61769,2,0,P|319:70|279:76,1,82.4999976158142,2|0,1:2|0:0,0:0:0:0:
135,123,61997,6,0,P|141:205|160:285,1,164.999995231628,4|0,3:0|0:0,0:0:0:0:
278,271,62337,2,0,P|272:229|265:189,1,82.4999976158142,2|0,1:2|0:0,0:0:0:0:
259,165,62565,1,0,1:0:0:0:
239,67,62678,6,0,P|244:108|251:148,1,82.4999976158142,10|0,3:2|0:0,0:0:0:0:
334,154,62906,1,8,0:0:0:0:
402,108,63019,1,0,1:0:0:0:
340,51,63133,2,0,L|259:67,1,82.4999976158142,2|0,0:0|1:0,0:0:0:0:
239,67,63303,1,0,1:0:0:0:
218,67,63360,2,0,B|178:96|171:127|171:127|119:125|76:91,1,164.999995231628,10|2,3:2|1:2,0:0:0:0:
30,42,63701,1,10,0:0:0:0:
113,24,63815,5,4,3:0:0:0:
125,34,63928,1,0,0:0:0:0:
140,63,64042,1,4,1:3:0:0:
140,145,64156,1,0,0:0:0:0:
121,225,64269,2,0,P|188:243|231:238,1,82.4999976158142,8|0,0:0|0:0,0:0:0:0:
265,297,64497,1,4,1:3:0:0:
342,269,64610,1,0,0:0:0:0:
370,191,64724,5,8,1:3:0:0:
458,355,64875,1,8,1:3:0:0:
451,167,65027,1,8,1:3:0:0:
380,339,65178,5,8,1:2:0:0:
349,177,65330,1,8,1:2:0:0:
269,213,65481,1,8,1:2:0:0:
184,220,65633,6,0,B|182:171|170:121|151:75|151:75|213:23|290:81|235:190|92:136,1,395.999988555908,4|0,3:2|0:0,0:0:0:0:
127,146,66997,5,2,0:0:0:0:
205,169,67110,1,2,0:0:0:0:
51,180,67224,2,0,L|67:279,1,82.4999976158142,2|2,0:0|0:0,0:0:0:0:
166,360,67451,6,0,B|239:357|233:332|218:280|177:357|22:376|105:331,1,222.749993562699,6|0,3:1|1:0,0:0:0:0:
60,98,67906,2,0,P|162:173|121:276,1,222.749993562699,10|0,0:0|0:0,0:0:0:0:
1,296,68360,2,0,P|51:263|84:263,1,74.2499978542329,10|0,0:0|0:0,0:0:0:0:
228,325,68587,2,0,P|178:358|145:358,1,74.2499978542329,2|8,1:2|0:0,0:0:0:0:
137,164,68815,1,2,1:2:0:0:
203,132,68928,1,0,0:0:0:0:
276,145,69042,1,2,1:2:0:0:
284,133,69156,1,0,1:0:0:0:
352,176,69269,6,0,B|399:167|509:192|509:192|489:136|508:70,1,222.749993562699,2|0,3:2|0:0,0:0:0:0:
417,89,69724,1,8,0:0:0:0:
378,339,69951,1,2,1:2:0:0:
378,339,70065,1,0,1:0:0:0:
378,339,70178,2,0,P|386:281|398:228,1,74.2499978542329,10|0,0:0|0:0,0:0:0:0:
512,384,70406,2,0,P|504:326|492:273,1,74.2499978542329,2|0,1:2|0:0,0:0:0:0:
236,199,70633,1,10,0:0:0:0:
223,279,70747,1,0,0:0:0:0:
208,358,70860,1,2,1:2:0:0:
193,355,70974,1,2,0:0:0:0:
125,383,71087,6,0,P|65:371|133:243,1,222.749993562699,4|0,3:0|0:0,0:0:0:0:
295,294,71542,2,0,L|170:267,1,74.2499978542329,0|0,1:0|1:0,0:0:0:0:
98,153,71769,2,0,L|223:126,1,74.2499978542329,0|0,1:0|1:0,0:0:0:0:
399,384,71997,2,0,L|375:148,1,222.749993562699,8|0,0:0|0:0,0:0:0:0:
287,17,72451,2,0,L|294:90,1,74.2499978542329,8|0,0:0|0:0,0:0:0:0:
387,45,72678,1,10,0:0:0:0:
377,127,72792,1,8,0:0:0:0:
408,50,72906,6,0,P|411:109|420:166,1,82.4999976158142,14|0,3:2|0:0,0:0:0:0:
421,296,73133,1,0,0:0:0:0:
421,296,73247,2,0,P|420:254|416:214,1,82.4999976158142,2|0,1:3|0:0,0:0:0:0:
250,215,73474,2,0,P|292:214|333:210,1,82.4999976158142,2|0,1:3|0:0,0:0:0:0:
494,178,73701,6,0,P|417:190|328:211,1,164.999995231628,2|0,1:2|1:0,0:0:0:0:
279,303,74042,1,10,0:0:0:0:
198,285,74156,1,8,0:0:0:0:
162,211,74269,1,14,0:0:0:0:
130,221,74383,1,0,0:0:0:0:
51,279,74497,1,10,0:0:0:0:
59,265,74610,1,0,0:0:0:0:
102,347,74724,6,0,P|100:298|82:184,1,131.999996185303,4|0,3:2|1:0,0:0:0:0:
50,378,75065,1,0,1:0:0:0:
83,380,75178,1,10,0:0:0:0:
242,333,75406,1,2,1:2:0:0:
178,384,75519,2,0,L|357:358,1,131.999996185303,2|8,0:0|0:0,0:0:0:0:
428,301,75860,1,2,1:2:0:0:
420,380,75974,1,0,1:0:0:0:
398,297,76087,2,0,P|388:266|379:211,1,65.9999980926514,10|0,0:0|0:0,0:0:0:0:
353,102,76315,1,2,1:2:0:0:
328,176,76428,1,0,0:0:0:0:
273,116,76542,6,0,P|184:100|131:50,1,131.999996185303,4|0,3:0|1:0,0:0:0:0:
191,238,76883,2,0,P|188:151|159:85,1,131.999996185303,2|0,1:2|0:0,0:0:0:0:
39,196,77224,2,0,L|117:179,1,65.9999980926514,2|0,1:2|0:0,0:0:0:0:
355,154,77451,1,0,1:0:0:0:
355,154,77565,2,0,P|326:218|280:171,1,131.999996185303,8|0,0:0|1:0,0:0:0:0:
259,51,77906,2,0,P|270:97|271:152,1,65.9999980926514,8|0,0:0|0:0,0:0:0:0:
189,306,78133,1,10,0:0:0:0:
208,227,78247,1,0,0:0:0:0:
120,250,78360,6,0,P|74:250|30:227,1,82.4999976158142,4|0,3:0|0:0,0:0:0:0:
305,295,78587,1,0,1:0:0:0:
304,293,78701,2,0,B|291:256|279:249|266:272|288:286|321:312|313:385,1,164.999995231628,2|0,1:2|1:0,0:0:0:0:
476,316,79042,6,0,P|441:337|379:341,1,82.4999976158142,2|0,1:2|0:0,0:0:0:0:
208,227,79269,2,0,P|197:188|210:126,1,82.4999976158142,8|0,0:0|0:0,0:0:0:0:
349,55,79497,1,2,1:2:0:0:
392,210,79610,1,0,1:0:0:0:
392,210,79724,2,0,B|393:250|402:260|421:242|405:222|381:187|418:105,1,164.999995231628,10|2,0:0|1:2,0:0:0:0:
304,293,80065,1,2,0:0:0:0:
237,245,80178,5,8,3:2:0:0:
155,256,80292,2,0,L|74:269,1,82.4999976158142,0|0,1:0|1:0,0:0:0:0:
244,219,80519,1,8,0:0:0:0:
141,236,80633,2,0,L|54:248,1,82.4999976158142,0|0,1:0|1:0,0:0:0:0:
180,139,80860,2,0,L|198:58,1,82.4999976158142,8|0,0:0|1:0,0:0:0:0:
62,70,81087,6,0,L|80:151,1,82.4999976158142,8|0,0:0|0:0,0:0:0:0:
107,314,81315,1,0,1:0:0:0:
113,339,81428,1,0,0:0:0:0:
103,328,81542,5,0,1:0:0:0:
119,327,81656,1,8,0:0:0:0:
201,325,81769,1,8,0:0:0:0:
245,255,81883,1,8,0:0:0:0:
223,157,81997,6,0,P|272:217|329:122,1,222.749993562699,14|0,3:2|1:0,0:0:0:0:
346,306,82451,2,0,P|339:262|326:141,1,148.499995708466,10|0,3:2|1:0,0:0:0:0:
419,375,82792,1,0,1:0:0:0:
419,374,82906,6,0,P|446:308|445:272,1,74.2499978542329,10|0,3:2|1:0,0:0:0:0:
250,88,83133,2,0,P|223:154|224:190,1,74.2499978542329,2|0,1:2|1:0,0:0:0:0:
303,331,83360,1,10,3:2:0:0:
323,259,83474,1,0,1:0:0:0:
344,188,83587,1,2,1:2:0:0:
352,167,83701,1,0,1:0:0:0:
327,158,83815,6,0,P|335:232|346:306,1,148.499995708466,10|0,3:2|1:0,0:0:0:0:
323,75,84156,1,0,1:0:0:0:
323,75,84269,2,0,L|241:89,1,74.2499978542329,8|0,3:2|1:0,0:0:0:0:
198,275,84497,1,2,1:2:0:0:
198,275,84610,1,2,1:2:0:0:
145,338,84724,6,0,B|99:351|99:351|111:246,1,148.499995708466,8|2,3:2|1:2,0:0:0:0:
168,110,85065,1,0,1:0:0:0:
168,110,85178,2,0,L|183:214,1,74.2499978542329,10|0,3:2|1:0,0:0:0:0:
292,318,85406,1,2,1:2:0:0:
355,265,85519,1,0,1:0:0:0:
362,251,85633,6,0,B|375:205|375:205|270:217,1,148.499995708466,10|0,3:2|1:0,0:0:0:0:
38,239,85974,1,0,1:0:0:0:
38,239,86087,2,0,B|76:253|76:253|117:250,1,74.2499978542329,8|0,3:2|1:0,0:0:0:0:
280,193,86315,1,2,1:2:0:0:
245,118,86428,1,0,1:0:0:0:
257,225,86542,6,0,B|327:201|327:201|420:216,1,148.499995708466,8|0,3:2|1:0,0:0:0:0:
357,366,86883,1,0,1:0:0:0:
357,366,86997,2,0,P|338:319|336:240,1,74.2499978542329,8|0,3:2|1:0,0:0:0:0:
497,252,87224,1,2,1:2:0:0:
488,332,87337,1,0,1:0:0:0:
475,236,87451,6,0,P|373:192|333:295,1,247.499992847443,10|0,3:2|1:0,0:0:0:0:
512,349,87792,2,0,P|419:323|265:353,1,247.499992847443,2|0,1:2|1:0,0:0:0:0:
185,384,88133,1,2,1:2:0:0:
101,361,88247,1,0,1:0:0:0:
101,361,88360,6,0,L|116:266,3,57.7499983310699,8|0|0|0,3:2|1:0|1:0|1:0,0:0:0:0:
136,154,88815,5,10,3:2:0:0:
55,139,88928,1,0,1:0:0:0:
2,203,89042,1,2,1:2:0:0:
30,280,89156,1,2,1:2:0:0:
165,231,89269,6,0,P|229:216|335:212,1,164.999995231628,12|0,3:2|1:0,0:0:0:0:
329,194,89724,1,8,0:0:0:0:
330,177,89951,1,8,0:0:0:0:
249,84,90178,6,0,P|290:89|330:101,2,82.4999976158142,10|0|0,3:2|1:0|1:0,0:0:0:0:
161,123,90519,1,0,1:0:0:0:
167,41,90633,2,0,L|170:-16,1,41.2499988079071,2|0,1:0|1:0,0:0:0:0:
223,202,90860,6,0,P|287:187|473:191,1,247.499992847443,6|0,1:2|1:0,0:0:0:0:
223,162,91315,2,0,P|179:150|114:146,1,82.4999976158142,2|8,0:0|0:0,0:0:0:0:
223,122,91769,1,10,0:0:0:0:
371,48,91997,2,0,B|390:108|390:108|368:271|368:271|449:212,2,321.749990701676,4|4|4,3:0|3:0|3:0,0:0:0:0:
317,347,92906,6,0,L|399:358,1,82.4999976158142,14|0,3:2|0:0,0:0:0:0:
266,182,93133,1,0,1:0:0:0:
225,254,93247,1,0,1:0:0:0:
179,158,93360,2,0,L|301:142,1,82.4999976158142,8|0,0:0|0:0,0:0:0:0:
120,243,93587,1,0,1:0:0:0:
79,171,93701,1,0,1:0:0:0:
33,267,93815,6,0,L|155:283,1,82.4999976158142,8|0,0:0|1:0,0:0:0:0:
272,332,94042,1,0,0:0:0:0:
313,260,94156,1,0,1:0:0:0:
359,356,94269,2,0,L|237:372,1,82.4999976158142,8|0,0:0|0:0,0:0:0:0:
104,359,94497,1,2,1:2:0:0:
104,359,94610,1,2,0:0:0:0:
104,359,94724,6,0,L|120:237,1,82.4999976158142,4|0,1:3|0:0,0:0:0:0:
172,92,94951,1,8,0:0:0:0:
185,113,95065,6,0,L|169:235,1,82.4999976158142,0|8,0:0|0:0,0:0:0:0:
209,281,95292,1,0,0:0:0:0:
290,294,95406,1,0,1:0:0:0:
371,307,95519,1,0,1:0:0:0:
452,292,95633,6,0,L|492:283,2,41.2499988079071,8|8|8,0:0|0:0|0:0,0:0:0:0:
444,184,95860,5,0,1:0:0:0:
424,169,95974,1,8,0:0:0:0:
375,176,96087,5,8,0:0:0:0:
334,145,96201,1,0,1:0:0:0:
260,154,96315,5,8,0:0:0:0:
198,107,96428,1,8,0:0:0:0:
140,49,96542,6,0,B|112:69|89:77|49:81|49:81|197:106,1,247.499992847443,14|0,3:2|1:0,0:0:0:0:
346,63,96997,2,0,P|336:103|336:180,1,82.4999976158142,10|0,3:2|1:0,0:0:0:0:
383,209,97224,1,0,1:0:0:0:
383,209,97337,1,0,1:0:0:0:
480,179,97451,6,0,P|448:149|383:110,1,82.4999976158142,10|0,3:2|1:0,0:0:0:0:
233,169,97678,2,0,P|264:197|330:236,1,82.4999976158142,2|0,1:2|1:0,0:0:0:0:
359,44,97906,2,0,P|329:74|290:140,1,82.4999976158142,10|0,3:2|1:0,0:0:0:0:
352,295,98133,2,0,P|381:263|420:197,1,82.4999976158142,2|0,1:2|1:0,0:0:0:0:
179,284,98360,6,0,B|110:306|110:306|93:112,1,247.499992847443,10|0,3:2|1:0,0:0:0:0:
317,168,98815,2,0,P|276:175|235:178,1,82.4999976158142,10|0,3:2|1:0,0:0:0:0:
114,113,99042,1,2,1:2:0:0:
165,19,99156,1,2,1:2:0:0:
204,182,99269,6,0,L|197:266,1,82.4999976158142,8|0,3:2|1:0,0:0:0:0:
424,224,99497,2,0,L|433:113,1,82.4999976158142,0|0,1:0|1:0,0:0:0:0:
294,97,99724,1,8,3:2:0:0:
304,178,99837,1,0,1:0:0:0:
320,259,99951,1,2,1:2:0:0:
341,339,100065,1,0,1:0:0:0:
260,325,100178,6,0,P|309:222|399:97,1,247.499992847443,10|0,3:2|1:0,0:0:0:0:
449,303,100633,2,0,P|430:256|430:166,1,82.4999976158142,10|0,3:2|1:0,0:0:0:0:
458,73,100860,1,0,1:0:0:0:
469,154,100974,1,0,1:0:0:0:
425,224,101087,6,0,P|384:219|347:204,1,82.4999976158142,10|0,3:2|1:0,0:0:0:0:
215,118,101315,2,0,P|252:102|293:97,1,82.4999976158142,2|0,1:2|1:0,0:0:0:0:
260,325,101542,1,10,3:2:0:0:
179,317,101656,1,0,1:0:0:0:
130,251,101769,1,2,1:2:0:0:
147,171,101883,1,0,1:0:0:0:
215,118,101997,5,12,3:2:0:0:
302,257,102148,1,8,1:2:0:0:
359,150,102300,1,8,1:3:0:0:
466,126,102451,1,8,3:2:0:0:
474,146,102603,1,8,1:3:0:0:
410,235,102754,1,8,1:2:0:0:
277,180,102906,1,8,3:0:0:0:
169,205,103057,1,8,1:2:0:0:
131,284,103209,1,8,1:3:0:0:
137,305,103348,6,0,P|146:219|140:108,1,192.4999944369,12|0,3:2|0:0,0:0:0:0:
51,209,103835,6,0,L|2:216,1,38.4999988873799,6|0,0:0|0:0,0:0:0:0:
390,270,105622,1,2,1:2:0:0:
362,104,106319,1,2,1:2:0:0:
203,152,106758,1,2,0:0:0:0:
254,80,106997,2,0,L|240:215,1,115.49999666214,2|2,0:0|0:0,0:0:0:0:
197,344,107477,6,0,P|135:344|96:338,2,84.1032480830926,2|2|2,1:2|0:0|1:2,0:0:0:0:
284,244,109098,2,0,P|297:244|315:238,2,28.0499993605805,2|2|2,0:0|0:0|0:0,0:0:0:0:
203,152,109602,2,0,P|161:147|106:151,1,84.1499975681304,2|2,0:0|0:0,0:0:0:0:
119,148,111094,5,2,1:2:0:0:
300,232,111776,2,0,P|406:209|387:104,1,224.399994884644,2|2,1:2|0:0,0:0:0:0:
384,84,112752,2,0,L|381:57,2,18.6999995737203,2|2|2,0:0|0:0|0:0,0:0:0:0:
253,85,113233,2,0,L|243:174,1,84.1499975681304,2|2,1:2|1:2,0:0:0:0:
136,262,115057,6,0,L|284:243,1,148.499995708466,12|0,3:2|0:0,0:0:0:0:
283,243,115397,2,0,L|208:221,1,61.8749982118608,0|0,3:0|0:0,0:0:0:0:
57,38,115966,6,0,P|50:111|80:178,1,148.499995708466,12|0,3:2|0:0,0:0:0:0:
80,177,116307,2,0,L|115:102,1,61.8749982118608,0|0,3:0|0:0,0:0:0:0:
214,137,116534,2,0,P|260:72|124:18,1,272.249992132186,0|0,1:0|0:0,0:0:0:0:
214,137,117455,5,8,1:2:0:0:
361,133,117606,1,8,1:2:0:0:
218,114,117758,1,8,1:2:0:0:
449,130,117909,2,0,P|477:65|406:54,1,164.999995231628,4|2,1:3|0:0,0:0:0:0:
427,225,118250,1,0,0:0:0:0:
429,250,118364,6,0,L|438:323,2,65.9999980926514,6|0|0,3:2|0:0|0:0,0:0:0:0:
340,189,118704,2,0,B|273:191|273:191|239:209|239:209|148:206,1,164.999995231628,2|8,1:2|0:0,0:0:0:0:
114,155,119045,1,2,1:2:0:0:
100,236,119159,1,0,1:0:0:0:
74,314,119273,5,8,0:0:0:0:
57,314,119386,2,0,L|26:130,1,164.999995231628,0|0,0:0|1:0,0:0:0:0:
156,351,119727,2,0,L|182:220,1,82.4999976158142,10|0,0:0|0:0,0:0:0:0:
383,290,119954,1,2,1:2:0:0:
383,290,120068,1,0,1:0:0:0:
383,290,120182,6,0,P|328:348|249:341,1,164.999995231628,0|2,1:0|0:0,0:0:0:0:
172,108,120636,1,2,1:3:0:0:
155,189,120750,2,0,L|172:273,1,82.4999976158142,0|0,0:0|1:0,0:0:0:0:
303,121,120977,1,0,1:0:0:0:
319,202,121091,5,8,0:0:0:0:
342,208,121204,1,0,0:0:0:0:
430,184,121318,2,0,L|444:101,1,82.4999976158142,0|0,1:0|1:0,0:0:0:0:
452,347,121545,2,0,L|423:136,1,164.999995231628,8|10,0:0|0:0,0:0:0:0:
363,324,121886,1,8,0:0:0:0:
291,364,122000,6,0,L|107:386,1,164.999995231628,2|0,1:2|0:0,0:0:0:0:
86,219,122341,1,2,1:2:0:0:
86,219,122454,1,2,1:3:0:0:
57,298,122568,2,0,P|99:297|137:284,1,82.4999976158142,0|2,1:0|1:2,0:0:0:0:
302,160,122795,1,0,1:0:0:0:
269,245,122909,6,0,B|234:265|234:265|204:91,1,164.999995231628,8|2,0:0|1:2,0:0:0:0:
424,80,123250,1,0,1:0:0:0:
482,149,123364,2,0,L|370:168,1,82.4999976158142,10|0,1:2|1:0,0:0:0:0:
269,245,123591,2,0,L|187:229,1,82.4999976158142,2|0,1:2|1:0,0:0:0:0:
11,241,123818,5,0,1:0:0:0:
25,322,123932,1,8,0:0:0:0:
49,324,124045,1,10,0:0:0:0:
106,264,124159,2,0,B|84:185|115:128|71:94|167:118|100:161,1,164.999995231628,0|0,1:0|1:0,0:0:0:0:
183,346,124500,2,0,L|263:330,1,82.4999976158142,2|8,1:2|0:0,0:0:0:0:
363,341,124727,5,0,1:0:0:0:
468,359,124841,2,0,L|464:318,2,41.2499988079071,8|8|0,0:0|0:0|1:0,0:0:0:0:
373,246,125068,1,0,1:0:0:0:
373,246,125182,2,0,L|387:115,1,82.4999976158142,8|8,0:0|0:0,0:0:0:0:
391,73,125409,1,2,1:2:0:0:
218,92,125636,6,0,L|237:266,1,164.999995231628,4|0,3:2|1:0,0:0:0:0:
195,336,125977,2,0,L|215:163,1,164.999995231628,10|0,3:2|1:0,0:0:0:0:
102,292,126318,1,10,3:2:0:0:
78,298,126432,2,0,L|69:215,1,82.4999976158142
36,67,126659,1,2,1:2:0:0:
0,151,126773,2,0,L|81:137,1,82.4999976158142,8|0,0:0|1:0,0:0:0:0:
212,51,127000,1,10,3:2:0:0:
263,114,127114,1,0,1:0:0:0:
266,196,127227,1,2,1:2:0:0:
261,220,127341,1,0,1:0:0:0:
179,227,127454,6,0,P|177:186|170:146,1,82.4999976158142,4|0,3:0|0:0,0:0:0:0:
138,68,127682,1,0,1:0:0:0:
36,67,127795,2,0,P|28:37|25:18,1,41.2499988079071,2|0,0:0|0:0,0:0:0:0:
64,11,127909,2,0,P|58:93|38:173,1,164.999995231628,8|2,3:2|1:2,0:0:0:0:
30,202,128193,1,2,0:0:0:0:
18,228,128250,6,0,L|106:237,1,82.4999976158142,2|8,0:0|3:2,0:0:0:0:
188,309,128477,2,0,P|176:218|115:227,1,164.999995231628,0|0,1:0|1:0,0:0:0:0:
29,344,128818,2,0,L|21:260,1,82.4999976158142,10|0,3:2|0:0,0:0:0:0:
1,97,129045,1,10,0:0:0:0:
81,137,129159,1,2,0:0:0:0:
160,64,129273,5,4,3:0:0:0:
185,66,129386,1,0,1:0:0:0:
209,69,129500,1,4,1:3:0:0:
233,71,129614,1,0,1:0:0:0:
403,91,129727,5,8,0:0:0:0:
362,158,129841,1,0,0:0:0:0:
284,147,129954,1,4,1:3:0:0:
257,73,130068,1,0,0:0:0:0:
338,21,130182,5,8,1:3:0:0:
327,130,130333,1,8,1:3:0:0:
317,239,130485,1,8,1:3:0:0:
200,181,130636,5,8,1:2:0:0:
101,227,130788,1,8,1:2:0:0:
251,278,130939,1,8,1:2:0:0:
196,206,131091,6,0,B|146:380|213:385|267:377|292:348|299:283|299:283|273:274|256:283|256:283|239:279|239:279|215:284|187:267,1,395.999988555908,4|0,3:2|0:0,0:0:0:0:
214,278,132454,5,2,0:0:0:0:
243,277,132568,1,2,0:0:0:0:
313,240,132682,1,2,0:0:0:0:
338,160,132795,1,2,0:0:0:0:
408,184,132909,6,0,B|481:181|475:156|460:104|419:181|264:200|347:155,1,222.749993562699,6|0,3:1|1:0,0:0:0:0:
233,183,133364,2,0,P|281:94|337:168,1,222.749993562699,10|0,0:0|0:0,0:0:0:0:
307,314,133818,2,0,P|305:277|300:241,1,74.2499978542329,10|0,0:0|0:0,0:0:0:0:
89,242,134045,2,0,P|126:239|162:234,1,74.2499978542329,2|8,1:2|0:0,0:0:0:0:
233,183,134273,1,2,1:2:0:0:
227,108,134386,1,0,0:0:0:0:
154,92,134500,1,2,1:2:0:0:
118,158,134614,1,0,1:0:0:0:
63,52,134727,6,0,B|34:45|15:24|15:24|-6:80|14:141|30:160|60:186|-17:174|33:112,1,222.749993562699,2|0,3:2|0:0,0:0:0:0:
137,12,135182,1,8,0:0:0:0:
164,233,135409,1,2,1:2:0:0:
164,233,135523,1,0,1:0:0:0:
164,233,135636,2,0,B|198:260|121:272|151:246|166:228|187:166|165:110|165:110|142:119|116:121,1,222.749993562699,10|0,0:0|0:0,0:0:0:0:
17,146,136091,2,0,B|14:186|14:186|33:243,1,74.2499978542329,10|0,0:0|0:0,0:0:0:0:
269,190,136318,2,0,B|272:150|272:150|253:93,1,74.2499978542329,2|2,1:2|0:0,0:0:0:0:
105,340,136545,6,0,B|115:326|139:338|128:359|90:367|72:350|90:313|96:296|96:296|118:282|119:254|119:254|111:233|111:233|104:217|124:167,1,222.749993562699,4|0,3:0|0:0,0:0:0:0:
158,43,137000,2,0,L|170:116,1,74.2499978542329,0|0,1:0|1:0,0:0:0:0:
256,263,137227,2,0,L|268:189,1,74.2499978542329,0|0,1:0|1:0,0:0:0:0:
429,117,137454,2,0,B|473:120|473:120|488:76|428:-1|356:-1|350:81,1,222.749993562699,8|0,0:0|0:0,0:0:0:0:
256,263,137909,2,0,L|384:246,1,74.2499978542329,8|0,0:0|0:0,0:0:0:0:
503,243,138136,1,10,0:0:0:0:
420,232,138250,1,8,0:0:0:0:
355,164,138364,6,0,L|345:73,1,90.7499973773957,14|0,3:2|0:0,0:0:0:0:
501,108,138591,1,0,0:0:0:0:
512,0,138704,2,0,L|502:90,1,90.7499973773957,2|0,1:3|0:0,0:0:0:0:
336,170,138932,2,0,L|326:79,1,90.7499973773957,2|0,1:3|0:0,0:0:0:0:
150,39,139159,6,0,B|141:113|141:113|162:238,1,181.499994754791,2|0,1:2|1:0,0:0:0:0:
176,316,139500,1,10,0:0:0:0:
182,217,139614,1,8,0:0:0:0:
264,272,139727,1,14,0:0:0:0:
341,245,139841,1,0,0:0:0:0:
352,164,139954,1,10,0:0:0:0:
339,140,140068,1,0,0:0:0:0:
325,129,140182,5,4,3:2:0:0:
184,124,140409,1,0,1:0:0:0:
187,107,140523,1,0,1:0:0:0:
169,116,140636,2,0,L|185:248,1,82.4999976158142,10|0,0:0|0:0,0:0:0:0:
115,264,140864,1,2,1:2:0:0:
190,296,140977,2,0,L|67:243,1,82.4999976158142,2|0,0:0|1:0,0:0:0:0:
99,179,141204,1,8,0:0:0:0:
34,230,141318,1,2,1:2:0:0:
28,245,141432,1,0,1:0:0:0:
14,147,141545,6,0,L|5:66,1,82.4999976158142,10|0,0:0|0:0,0:0:0:0:
178,34,141773,2,0,L|168:115,1,82.4999976158142,2|0,1:2|0:0,0:0:0:0:
427,138,142000,6,0,P|315:142|311:217,1,164.999995231628,4|0,3:0|1:0,0:0:0:0:
278,70,142341,2,0,P|291:109|300:150,1,82.4999976158142,2|8,1:2|0:0,0:0:0:0:
199,45,142568,1,0,0:0:0:0:
178,58,142682,1,2,1:2:0:0:
165,139,142795,1,0,0:0:0:0:
81,72,142909,5,0,1:0:0:0:
50,175,143023,2,0,L|66:351,1,164.999995231628,8|0,0:0|1:0,0:0:0:0:
64,339,143364,2,0,L|80:235,1,82.4999976158142,8|0,0:0|0:0,0:0:0:0:
176,223,143591,1,10,0:0:0:0:
188,304,143704,1,0,0:0:0:0:
305,203,143818,6,0,L|288:384,1,181.499994754791,4|0,3:0|1:0,0:0:0:0:
265,121,144159,2,0,L|282:302,1,181.499994754791,2|0,1:2|1:0,0:0:0:0:
394,75,144500,2,0,P|348:81|303:79,1,90.7499973773957,2|0,1:2|0:0,0:0:0:0:
255,71,144727,5,8,0:0:0:0:
115,70,144841,2,0,P|160:63|205:65,1,90.7499973773957,0|2,0:0|1:2,0:0:0:0:
165,245,145068,1,0,1:0:0:0:
165,245,145182,2,0,P|166:199|165:152,1,90.7499973773957,10|0,0:0|0:0,0:0:0:0:
211,339,145409,1,2,1:2:0:0:
300,325,145523,1,2,0:0:0:0:
308,297,145636,5,8,3:2:0:0:
324,318,145750,1,0,1:0:0:0:
390,348,145864,1,0,1:0:0:0:
465,317,145977,5,8,0:0:0:0:
487,238,146091,1,0,1:0:0:0:
436,174,146204,1,0,1:0:0:0:
354,168,146318,5,8,0:0:0:0:
356,140,146432,1,0,1:0:0:0:
268,155,146545,2,0,L|271:211,3,41.2499988079071,8|0|0|0,0:0|0:0|1:0|0:0,0:0:0:0:
251,228,147000,5,0,1:0:0:0:
166,240,147114,1,8,0:0:0:0:
117,163,147227,1,8,0:0:0:0:
177,95,147341,1,8,0:0:0:0:
268,155,147454,6,0,P|309:157|350:154,1,82.4999976158142,14|0,3:2|1:0,0:0:0:0:
344,12,147682,2,0,P|303:11|262:13,1,82.4999976158142,0|0,1:0|1:0,0:0:0:0:
397,220,147909,2,0,P|438:222|479:219,1,82.4999976158142,10|0,3:2|1:0,0:0:0:0:
473,77,148136,2,0,P|432:76|391:78,1,82.4999976158142,0|0,1:0|1:0,0:0:0:0:
279,236,148364,6,0,P|272:196|268:155,1,82.4999976158142,10|0,3:2|1:0,0:0:0:0:
397,220,148591,2,0,P|404:260|409:301,1,82.4999976158142,2|0,1:2|1:0,0:0:0:0:
252,316,148818,1,10,3:2:0:0:
167,315,148932,1,0,1:0:0:0:
131,238,149045,1,2,1:2:0:0:
183,171,149159,1,0,1:0:0:0:
198,177,149273,6,0,P|105:157|151:88,1,164.999995231628,10|0,3:2|1:0,0:0:0:0:
287,91,149614,1,0,1:0:0:0:
210,5,149727,2,0,L|201:114,1,82.4999976158142,8|0,3:2|1:0,0:0:0:0:
183,193,149954,1,2,1:2:0:0:
105,164,150068,2,0,P|64:166|24:176,2,82.4999976158142,2|8|0,1:2|3:2|1:0,0:0:0:0:
198,279,150409,1,2,1:2:0:0:
221,289,150523,1,0,1:0:0:0:
297,275,150636,5,10,3:2:0:0:
374,289,150750,1,0,1:0:0:0:
439,238,150864,5,2,1:2:0:0:
430,156,150977,1,0,1:0:0:0:
457,74,151091,6,0,L|448:156,1,82.4999976158142,10|0,3:2|1:0,0:0:0:0:
420,0,151318,1,0,1:0:0:0:
354,50,151432,2,0,L|344:131,1,82.4999976158142,2|8,1:2|3:2,0:0:0:0:
271,40,151659,1,0,1:0:0:0:
213,99,151773,2,0,P|189:65|186:24,1,82.4999976158142,2|0,1:2|1:0,0:0:0:0:
96,92,152000,6,0,P|131:192|215:127,1,247.499992847443,8|0,3:2|1:0,0:0:0:0:
228,344,152454,2,0,L|121:337,1,82.4999976158142,8|0,3:2|1:0,0:0:0:0:
63,334,152682,1,2,1:2:0:0:
63,334,152795,1,0,1:0:0:0:
2,224,152909,6,0,P|86:159|122:259,1,247.499992847443,10|0,3:2|1:0,0:0:0:0:
63,334,153250,2,0,L|319:353,1,247.499992847443,2|0,1:2|1:0,0:0:0:0:
319,270,153591,6,0,L|185:260,1,82.4999976158142,2|0,1:2|1:0,0:0:0:0:
117,217,153818,1,8,3:2:0:0:
121,134,153932,1,0,1:0:0:0:
201,119,154045,1,0,1:0:0:0:
218,136,154159,1,0,1:0:0:0:
246,213,154273,6,0,P|249:180|276:121,1,82.4999976158142,10|0,3:2|1:0,0:0:0:0:
408,273,154500,1,2,1:2:0:0:
408,273,154614,1,2,1:2:0:0:
408,273,154727,6,0,P|344:258|238:254,1,164.999995231628,12|0,3:2|1:0,0:0:0:0:
245,236,155182,1,8,0:0:0:0:
245,219,155409,1,8,0:0:0:0:
246,133,155636,6,0,P|310:118|369:118,2,82.4999976158142,10|0|0,3:2|1:0|1:0,0:0:0:0:
415,153,155977,1,0,1:0:0:0:
410,70,156091,2,0,L|407:13,1,41.2499988079071,2|0,1:2|0:0,0:0:0:0:
164,260,156318,6,0,P|287:251|408:273,1,247.499992847443,6|0,1:2|1:0,0:0:0:0:
438,287,156773,1,2,0:0:0:0:
385,85,157000,1,10,0:0:0:0:
141,98,157227,1,8,0:0:0:0:
249,25,157454,2,0,B|281:52|281:52|255:118|255:118|264:261,2,247.499992847443,4|4|4,3:0|3:0|3:0,0:0:0:0:
82,271,158364,6,0,L|191:256,1,82.4999976158142,14|0,3:2|0:0,0:0:0:0:
347,146,158591,1,0,1:0:0:0:
354,169,158704,1,0,1:0:0:0:
454,163,158818,2,0,L|372:151,1,82.4999976158142,8|0,0:0|0:0,0:0:0:0:
255,121,159045,1,0,1:0:0:0:
248,144,159159,1,0,1:0:0:0:
148,138,159273,6,0,L|229:126,1,82.4999976158142,8|0,0:0|1:0,0:0:0:0:
275,333,159500,1,0,0:0:0:0:
275,333,159614,1,0,1:0:0:0:
275,333,159727,2,0,L|260:224,1,82.4999976158142,8|0,0:0|0:0,0:0:0:0:
423,293,159954,1,2,1:2:0:0:
404,373,160068,1,2,0:0:0:0:
345,261,160182,6,0,L|223:245,1,82.4999976158142,4|0,1:3|0:0,0:0:0:0:
130,340,160409,1,8,0:0:0:0:
126,316,160523,2,0,L|147:199,1,82.4999976158142,0|8,0:0|0:0,0:0:0:0:
291,148,160750,1,0,0:0:0:0:
295,124,160864,2,0,L|274:7,1,82.4999976158142,0|0,1:0|1:0,0:0:0:0:
111,51,161091,5,8,0:0:0:0:
108,75,161204,1,0,1:0:0:0:
105,99,161318,1,0,1:0:0:0:
103,123,161432,1,0,1:0:0:0:
55,188,161545,5,8,0:0:0:0:
35,171,161659,1,0,0:0:0:0:
25,95,161773,1,0,0:0:0:0:
20,17,161886,1,0,0:0:0:0:
111,51,162000,6,0,L|116:156,2,61.8749982118608,14|0|0,1:2|1:0|1:0,0:0:0:0:
230,83,162341,2,0,L|227:144,2,61.8749982118608,2|10|0,1:2|1:2|0:0,0:0:0:0:
336,48,162682,1,2,1:2:0:0:
336,48,162795,2,0,L|341:153,1,61.8749982118608,0|2,1:0|1:3,0:0:0:0:
455,80,163023,2,0,L|449:217,1,123.749996423722,2|0,1:2|0:0,0:0:0:0:
407,286,163364,1,2,1:3:0:0:
320,282,163477,1,0,1:0:0:0:
250,229,163591,1,0,1:0:0:0:
252,204,163704,1,0,1:0:0:0:
366,135,163818,6,0,L|363:196,2,61.8749982118608,10|0|0,1:2|1:0|1:0,0:0:0:0:
247,167,164159,2,0,L|249:228,2,61.8749982118608,2|10|0,1:2|1:2|0:0,0:0:0:0:
141,132,164500,1,2,1:2:0:0:
141,132,164614,2,0,L|138:193,1,61.8749982118608,0|2,1:0|1:3,0:0:0:0:
22,164,164841,2,0,L|27:287,1,123.749996423722,2|0,1:2|1:0,0:0:0:0:
158,365,165182,5,10,1:2:0:0:
176,274,165295,1,8,1:2:0:0:
193,182,165409,1,8,1:2:0:0:
296,210,165523,6,0,B|348:95|264:63|280:133,1,164.999995231628,4|0,1:2|1:0,0:0:0:0:
313,226,165864,1,2,1:2:0:0:
331,236,165939,2,0,P|371:238|393:234,1,54.9999984105428,2|2,0:0|0:0,0:0:0:0:
466,212,166091,1,10,1:2:0:0:
463,190,166167,1,2,0:0:0:0:
466,168,166242,1,2,0:0:0:0:
474,141,166318,1,2,1:2:0:0:
482,114,166394,1,2,0:0:0:0:
476,75,166470,1,2,0:0:0:0:
443,38,166545,6,0,P|470:38|497:32,2,54.9999984105428,2|2|2,1:2|0:0|0:0,0:0:0:0:
371,20,166773,1,2,0:0:0:0:
355,23,166848,2,0,L|359:97,1,54.9999984105428,2|0,0:0|0:0,0:0:0:0:
357,274,167000,2,0,P|349:225|343:117,2,109.999996821086,10|2|2,1:2|0:0|0:0,0:0:0:0:
262,16,167454,5,2,1:2:0:0:
155,274,167909,2,0,P|163:225|169:117,1,109.999996821086,10|0,1:2|0:0,0:0:0:0:
156,137,168136,2,0,L|167:348,1,164.999995231628,2|2,1:2|1:3,0:0:0:0:
88,355,168515,2,0,P|166:332|246:352,1,164.999995231628,2|2,1:2|0:0,0:0:0:0:
258,362,168818,1,10,1:2:0:0:
338,341,168932,1,10,1:2:0:0:
373,267,169045,1,2,1:2:0:0:
368,242,169159,1,2,0:0:0:0:
282,267,169273,6,0,P|237:293|252:194,1,197.999994277954,4|0,3:2|0:0,0:0:0:0:
322,181,169614,2,0,P|367:207|352:108,1,197.999994277954,4|0,3:2|0:0,0:0:0:0:
282,92,169954,2,0,L|69:76,1,197.999994277954,8|0,1:2|0:0,0:0:0:0:
124,195,170295,2,0,L|321:180,1,197.999994277954,2|0,1:3|0:0,0:0:0:0:
391,224,170636,6,0,B|396:272|396:272|390:323,2,82.4999976158142,0|8|8,1:0|1:2|1:2,0:0:0:0:
396,141,170977,1,10,1:2:0:0:
312,143,171091,1,2,1:2:0:0:
312,143,171204,1,2,0:0:0:0:
228,106,171318,1,10,1:2:0:0:
221,138,171432,1,2,0:0:0:0:
227,170,171545,1,0,1:0:0:0:
244,198,171659,5,2,1:2:0:0:
161,193,171773,1,2,0:0:0:0:
146,112,171886,1,2,1:2:0:0:
209,58,172000,2,0,L|191:151,1,82.4999976158142,2|0,1:2|0:0,0:0:0:0:
75,67,172227,5,2,1:3:0:0:
53,54,172341,2,0,L|71:147,1,82.4999976158142,8|8,1:2|1:2,0:0:0:0:
81,216,172568,1,0,1:0:0:0:
28,280,172682,2,0,P|-11:273|14:238,1,82.4999976158142,0|0,1:0|0:0,0:0:0:0:
231,342,172909,5,6,1:2:0:0:
231,342,173023,2,0,P|211:217|211:203,1,90.7499973773957,8|0,1:2|0:0,0:0:0:0:
475,241,173250,2,0,P|495:116|485:39,1,181.499994754791,0|0,1:0|0:0,0:0:0:0:
316,157,173591,2,0,P|367:97|283:78,1,181.499994754791,6|8,1:2|1:2,0:0:0:0:
61,107,173932,2,0,P|135:141|234:127,1,181.499994754791,10|0,1:2|0:0,0:0:0:0:
405,6,174273,6,0,L|393:170,1,164.999995231628,6|0,1:2|1:0,0:0:0:0:
376,277,174614,1,2,1:2:0:0:
361,272,174727,5,10,1:2:0:0:
316,350,174841,1,10,1:2:0:0:
265,284,174954,1,2,1:2:0:0:
218,330,175068,1,8,1:2:0:0:
183,308,175182,1,0,1:0:0:0:
161,319,175295,1,10,1:2:0:0:
144,318,175409,1,10,1:2:0:0:
144,318,175523,1,10,1:2:0:0:
70,356,175636,6,0,P|30:260|61:258,1,164.999995231628,4|0,3:2|0:0,0:0:0:0:
66,143,175939,2,0,P|38:212|108:239,1,164.999995231628,4|0,3:2|0:0,0:0:0:0:
186,359,176242,2,0,P|186:317|177:221,1,109.999996821086,4|0,3:2|0:0,0:0:0:0:
177,113,176545,6,0,B|190:98|192:67|192:67|205:74|230:126|217:199|199:278|199:278|276:197|276:197|291:317|376:318|432:316|464:112|368:140|350:162|330:162|340:292|472:264|472:264|445:298|441:325|459:348,1,928.124973177913,4|0,3:2|0:0,0:0:0:0:
456,345,178364,2,0,B|496:287|446:274|496:210|496:210|492:177|477:160|477:160|483:135|489:113|489:113|471:69|491:38|490:-12,2,362.999989509584,2|2|2,0:0|0:0|0:0,0:0:0:0:
438,350,180295,2,0,P|328:87|266:58,1,354.749989748001
204,75,181545,2,0,B|187:87|187:87|165:94,3,35.4749989748001
234,151,182000,6,0,L|238:183,1,23.6499996774038,2|0,0:0|0:0,0:0:0:0:
243,294,183818,6,0,L|240:327,1,23.6499996774038,2|0,0:0|0:0,0:0:0:0:
145,151,184727,1,2,0:0:0:0:
344,170,185579,2,0,L|366:168,2,17.7374997580528,2|0|0,0:0|0:0|0:0,0:0:0:0:
218,92,186432,5,2,0:0:0:0:
218,92,186489,1,2,0:0:0:0:
218,92,186545,1,2,0:0:0:0:
47,299,187454,6,0,L|59:180,1,98.9999971389771,4|0,3:2|0:0,0:0:0:0:
160,328,187682,1,4,1:3:0:0:
160,328,187795,2,0,B|152:277|152:277|161:191,1,98.9999971389771,4|0,1:2|0:0,0:0:0:0:
171,148,188023,2,0,P|219:155|268:149,1,98.9999971389771,4|0,1:2|0:0,0:0:0:0:
296,337,188250,6,0,L|311:123,1,197.999994277954,4|0,1:3|1:0,0:0:0:0:
415,210,188591,1,8,0:0:0:0:
486,142,188704,1,8,0:0:0:0:
451,49,188818,1,8,0:0:0:0:
367,45,188932,1,0,0:0:0:0:
335,68,189045,1,8,0:0:0:0:
317,106,189159,1,0,0:0:0:0:
395,130,189273,6,0,B|401:220|396:317,1,164.999995231628,4|0,3:2|0:0,0:0:0:0:
347,139,189614,1,8,0:0:0:0:
357,107,189727,1,2,1:2:0:0:
245,273,189954,1,10,0:0:0:0:
296,337,190068,2,0,P|287:255|257:174,1,164.999995231628,2|8,0:0|0:0,0:0:0:0:
132,172,190409,1,2,1:2:0:0:
192,115,190523,1,0,1:0:0:0:
115,167,190636,2,0,P|105:136|96:72,1,82.4999976158142,10|0,0:0|0:0,0:0:0:0:
338,163,190864,1,2,1:2:0:0:
313,237,190977,1,0,0:0:0:0:
258,177,191091,6,0,P|204:128|176:225,1,164.999995231628,4|0,3:0|0:0,0:0:0:0:
104,35,191432,2,0,P|108:149|137:215,1,164.999995231628,10|0,0:0|0:0,0:0:0:0:
155,290,191773,2,0,P|154:241|139:202,1,82.4999976158142,10|0,0:0|1:0,0:0:0:0:
0,384,192000,1,0,1:0:0:0:
0,384,192114,2,0,P|20:286|136:288,1,164.999995231628,8|0,0:0|1:0,0:0:0:0:
181,381,192454,2,0,P|221:362|242:327,1,82.4999976158142,8|0,0:0|1:0,0:0:0:0:
114,167,192682,1,10,0:0:0:0:
84,352,192795,1,8,0:0:0:0:
21,187,192909,5,4,3:0:0:0:
18,177,193023,2,0,P|6:132|0:88,1,90.7499973773957,8|0,0:0|1:0,0:0:0:0:
71,263,193250,2,0,L|252:285,1,181.499994754791,10|0,0:0|1:0,0:0:0:0:
332,342,193591,2,0,P|343:297|350:252,1,90.7499973773957,10|0,0:0|0:0,0:0:0:0:
352,148,193818,5,0,1:0:0:0:
184,363,193932,2,0,P|199:263|239:158,1,181.499994754791,8|0,0:0|1:0,0:0:0:0:
352,148,194273,2,0,P|308:161|264:170,1,90.7499973773957,10|0,0:0|0:0,0:0:0:0:
431,103,194500,1,2,1:2:0:0:
470,21,194614,1,2,0:0:0:0:
401,84,194727,5,8,3:2:0:0:
374,71,194841,1,0,0:0:0:0:
344,69,194954,1,0,1:0:0:0:
259,132,195068,2,0,L|250:34,1,98.9999971389771,8|0,0:0|0:0,0:0:0:0:
260,152,195295,1,0,1:0:0:0:
401,84,195409,2,0,L|390:182,1,98.9999971389771,8|0,0:0|0:0,0:0:0:0:
273,337,195636,5,8,3:2:0:0:
59,299,195788,5,8,3:2:0:0:
286,323,195939,5,8,3:2:0:0:
175,384,196091,6,0,P|172:280|157:171,1,123.749996423722,4|0,3:0|0:0,0:0:0:0:
82,77,196545,6,0,P|142:128|170:55,1,181.499994754791,14|0,3:2|1:0,0:0:0:0:
79,53,196886,1,0,1:0:0:0:
134,249,197000,2,0,P|126:158|97:72,1,181.499994754791,10|0,3:2|1:0,0:0:0:0:
43,181,197341,1,0,1:0:0:0:
25,274,197454,2,0,P|94:258|150:247,1,90.7499973773957,10|0,3:2|1:0,0:0:0:0:
217,192,197682,2,0,P|286:208|342:219,1,90.7499973773957,2|0,1:2|1:0,0:0:0:0:
512,290,197909,1,10,3:2:0:0:
472,213,198023,1,0,1:0:0:0:
388,181,198136,1,2,1:2:0:0:
391,158,198250,1,0,1:0:0:0:
348,292,198364,6,0,P|336:196|321:108,1,181.499994754791,10|0,3:2|1:0,0:0:0:0:
238,210,198704,1,0,1:0:0:0:
208,296,198818,2,0,P|220:200|235:112,1,181.499994754791,8|2,3:2|1:2,0:0:0:0:
121,334,199159,1,2,1:2:0:0:
19,358,199273,6,0,P|88:342|144:331,1,90.7499973773957,8|0,3:2|1:0,0:0:0:0:
316,321,199500,2,0,P|271:311|227:300,1,90.7499973773957,2|0,1:2|1:0,0:0:0:0:
27,244,199727,1,10,3:2:0:0:
50,156,199841,1,0,1:0:0:0:
135,119,199954,1,2,1:2:0:0:
154,244,200068,1,0,1:0:0:0:
253,167,200182,6,0,P|289:164|344:153,1,90.7499973773957,10|0,3:2|1:0,0:0:0:0:
512,135,200409,1,0,1:0:0:0:
512,135,200523,1,0,1:0:0:0:
512,135,200636,2,0,P|466:129|422:120,1,90.7499973773957,8|0,3:2|1:0,0:0:0:0:
283,52,200864,1,2,1:2:0:0:
129,107,200977,1,0,1:0:0:0:
43,143,201091,6,0,P|46:34|128:106,1,272.249992132187,8|0,3:2|1:0,0:0:0:0:
106,238,201545,2,0,P|150:228|194:223,1,90.7499973773957,8|0,3:2|1:0,0:0:0:0:
282,346,201773,1,2,1:2:0:0:
282,346,201886,1,2,1:2:0:0:
401,307,202000,6,0,P|375:203|285:259,1,247.499992847443,10|0,3:2|1:0,0:0:0:0:
401,307,202341,1,2,1:2:0:0:
282,346,202454,2,0,P|220:341|158:336,1,123.749996423721,8|0,3:2|1:0,0:0:0:0:
82,159,202682,1,2,1:2:0:0:
82,159,202795,1,0,1:0:0:0:
82,159,202909,6,0,L|91:263,1,82.4999976158142,8|0,3:2|1:0,0:0:0:0:
2,359,203136,2,0,L|12:230,1,82.4999976158142,0|0,1:0|1:0,0:0:0:0:
160,206,203364,1,10,3:2:0:0:
242,138,203477,1,0,1:0:0:0:
143,95,203591,1,2,1:2:0:0:
173,197,203704,1,2,1:2:0:0:
259,132,203818,6,0,P|323:117|429:113,1,164.999995231628,12|0,3:2|1:0,0:0:0:0:
421,112,204273,1,8,0:0:0:0:
391,316,204500,1,8,0:0:0:0:
153,185,204727,1,10,3:2:0:0:
194,266,204841,1,0,1:0:0:0:
317,205,204954,2,0,P|253:190|183:183,1,82.4999976158142,0|0,1:0|1:0,0:0:0:0:
136,190,205182,1,2,1:2:0:0:
150,80,205409,6,0,P|225:53|396:33,1,247.499992847443,6|0,1:2|1:0,0:0:0:0:
432,39,205864,1,0,0:0:0:0:
416,298,206091,2,0,P|402:251|400:107,1,164.999995231628,8|8,0:0|0:0,0:0:0:0:
486,132,206432,1,8,0:0:0:0:
477,221,206545,6,0,P|393:209|291:208,1,164.999995231628,4|0,3:0|1:0,0:0:0:0:
64,215,206886,2,0,P|148:227|250:228,1,164.999995231628,4|0,3:0|0:0,0:0:0:0:
287,367,207227,2,0,P|290:326|288:285,1,82.4999976158142,4|0,3:0|0:0,0:0:0:0:
248,110,207454,5,14,3:2:0:0:
167,91,207568,1,8,0:0:0:0:
117,157,207682,1,0,1:0:0:0:
150,222,207795,1,0,1:0:0:0:
224,228,207909,1,8,0:0:0:0:
260,194,208023,1,0,1:0:0:0:
287,176,208136,1,0,1:0:0:0:
311,171,208250,1,0,1:0:0:0:
327,172,208364,5,8,0:0:0:0:
342,177,208477,1,0,1:0:0:0:
363,189,208591,1,0,0:0:0:0:
383,215,208704,1,0,1:0:0:0:
386,264,208818,1,8,0:0:0:0:
358,305,208932,1,0,0:0:0:0:
284,314,209045,1,2,1:2:0:0:
241,252,209159,1,10,0:0:0:0:
287,175,209273,6,0,P|300:137|302:95,1,82.4999976158142,4|0,1:3|0:0,0:0:0:0:
244,40,209500,2,0,L|251:0,2,41.2499988079071,8|0|0,0:0|0:0|0:0,0:0:0:0:
194,177,209727,2,0,P|181:139|179:97,1,82.4999976158142,8|0,0:0|0:0,0:0:0:0:
90,91,209954,2,0,L|82:50,2,41.2499988079071,0|0|8,1:0|0:0|0:0,0:0:0:0:
0,268,210182,6,0,P|28:195|106:196,1,164.999995231628,0|8,1:0|1:3,0:0:0:0:
116,207,210485,1,8,1:2:0:0:
121,222,210560,1,8,1:2:0:0:
119,238,210636,2,0,P|67:173|99:57,1,164.999995231628,8|8,1:2|1:3,0:0:0:0:
158,43,210939,1,8,1:2:0:0:
171,52,211015,1,8,1:2:0:0:
188,57,211091,6,0,L|261:50,1,74.2499978542329,6|0,3:1|1:0,0:0:0:0:
392,146,211318,1,0,0:0:0:0:
399,175,211432,2,0,L|326:166,1,74.2499978542329,2|0,1:2|0:0,0:0:0:0:
215,250,211659,1,0,1:0:0:0:
244,319,211773,2,0,L|224:112,1,148.499995708466,10|0,0:0|0:0,0:0:0:0:
360,52,212227,1,2,1:2:0:0:
375,51,212303,1,0,1:0:0:0:
386,63,212379,1,0,1:0:0:0:
381,77,212454,2,0,L|306:71,1,74.2499978542329,10|0,1:2|0:0,0:0:0:0:
64,140,212682,2,0,L|167:148,1,74.2499978542329,2|0,1:2|0:0,0:0:0:0:
238,336,212909,6,0,L|252:186,1,148.499995708466,10|0,3:2|0:0,0:0:0:0:
51,247,213250,1,2,1:2:0:0:
20,315,213364,2,0,L|76:322,2,37.1249989271165,0|0|0,1:0|0:0|1:0,0:0:0:0:
165,255,213591,1,10,0:0:0:0:
155,329,213704,2,0,L|138:181,1,148.499995708466,0|0,1:0|1:0,0:0:0:0:
14,118,214045,1,0,1:2:0:0:
88,127,214159,1,0,1:0:0:0:
121,59,214273,2,0,L|217:50,1,74.2499978542329,8|0,0:0|0:0,0:0:0:0:
308,107,214500,1,2,1:2:0:0:
292,187,214614,1,0,0:0:0:0:
259,261,214727,6,0,L|245:127,1,74.2499978542329,10|0,3:2|1:0,0:0:0:0:
55,156,214954,1,0,0:0:0:0:
41,173,215068,2,0,L|50:246,1,74.2499978542329,2|0,1:2|0:0,0:0:0:0:
251,353,215295,1,0,1:0:0:0:
354,333,215409,2,0,L|337:145,1,148.499995708466,10|0,0:0|0:0,0:0:0:0:
431,16,215864,1,2,1:2:0:0:
440,106,215977,1,0,1:0:0:0:
459,95,216091,2,0,L|356:87,1,74.2499978542329,10|0,0:0|0:0,0:0:0:0:
142,143,216318,2,0,L|245:151,1,74.2499978542329,2|0,1:2|0:0,0:0:0:0:
428,204,216545,6,0,L|415:298,1,94.8749972581865,10|0,3:2|1:0,0:0:0:0:
323,213,216773,1,0,0:0:0:0:
286,294,216886,2,0,L|312:66,1,189.749994516373,10|0,1:2|1:0,0:0:0:0:
116,140,217227,1,10,0:0:0:0:
145,230,217341,1,0,1:0:0:0:
215,165,217454,5,8,0:0:0:0:
244,141,217568,1,0,1:0:0:0:
280,133,217682,1,0,1:0:0:0:
348,165,217795,1,0,1:0:0:0:
289,213,217909,2,0,L|306:313,1,74.2499978542329,8|0,0:0|0:0,0:0:0:0:
398,320,218136,2,0,L|385:246,1,74.2499978542329,0|0,1:0|0:0,0:0:0:0:
212,332,218364,5,10,3:2:0:0:
188,337,218477,1,0,1:0:0:0:
106,334,218591,1,0,1:0:0:0:
83,326,218704,2,0,P|87:284|90:167,1,82.4999976158142,2|8,1:2|1:2,0:0:0:0:
100,161,218932,1,0,1:0:0:0:
77,55,219045,5,2,1:2:0:0:
82,79,219159,1,0,1:0:0:0:
155,11,219273,1,8,1:2:0:0:
162,92,219386,2,0,L|347:104,1,164.999995231628,2|0,1:2|1:0,0:0:0:0:
409,173,219727,5,10,1:2:0:0:
327,185,219841,5,0,1:0:0:0:
246,198,219954,5,10,1:2:0:0:
164,211,220068,5,0,1:0:0:0:
83,224,220182,5,14,3:2:0:0:
235,279,222000,5,8,3:0:0:0:
246,198,222114,1,8,3:0:0:0:
246,198,222227,1,8,3:0:0:0:
409,173,222341,5,4,3:2:0:0:
256,192,222454,12,0,229273,0:0:0:0:
