osu file format v14

[General]
AudioFilename: audio.mp3
AudioLeadIn: 0
PreviewTime: 114180
Countdown: 0
SampleSet: Soft
StackLeniency: 0.7
Mode: 0
LetterboxInBreaks: 0
WidescreenStoryboard: 0

[Editor]
DistanceSpacing: 0.8
BeatDivisor: 4
GridSize: 32
TimelineZoom: 2.4

[Metadata]
Title:Just believe
TitleUnicode:Just believe
Artist:Imy
ArtistUnicode:Imy
Creator:Agatsu
Version:Resolve
Source:
Tags:akito japanese rock jrock j-rock female vocals vocalist full version size beyond the despair みゅー miyu myu mirin
BeatmapID:2573909
BeatmapSetID:1237988

[Difficulty]
HPDrainRate:6
CircleSize:4
OverallDifficulty:8.8
ApproachRate:9.2
SliderMultiplier:1.8
SliderTickRate:1

[Events]
//Background and Video events
0,0,"bg.jpg",0,0
//Break Periods
//Storyboard Layer 0 (Background)
//Storyboard Layer 1 (Fail)
//Storyboard Layer 2 (Pass)
//Storyboard Layer 3 (Foreground)
//Storyboard Layer 4 (Overlay)
//Storyboard Sound Samples

[TimingPoints]
812,315.78947368421,4,2,1,60,1,0
5548,-100,4,2,1,80,0,0
15811,-100,4,2,1,55,0,0
17548,-125,4,2,1,55,0,0
20864,-100,4,2,1,80,0,0
25917,-111.111111111111,4,2,1,60,0,0
36180,-111.111111111111,4,2,1,65,0,0
40601,-99.9999999999999,4,2,1,65,0,0
41233,-111.111111111111,4,2,1,65,0,0
43759,-100,4,2,1,65,0,0
48811,-100,4,2,1,80,0,1
69022,-200,4,2,1,80,0,1
70285,-100,4,2,1,80,0,0
81496,-125,4,2,1,55,0,0
81654,-125,4,2,1,55,0,0
86548,-100,4,2,1,80,0,0
91601,-111.111111111111,4,2,1,60,0,0
101864,-111.111111111111,4,2,1,65,0,0
106285,-100,4,2,1,65,0,0
109443,-100,4,2,1,65,0,0
114496,-100,4,2,1,80,0,1
134706,-200,4,2,1,80,0,1
135969,-100,4,2,1,60,0,0
142127,-90.9090909090909,4,2,1,80,0,0
142443,-90.9090909090909,4,2,1,80,0,0
142496,-90.9090909090909,4,2,1,50,0,0
142601,-90.9090909090909,4,2,1,80,0,0
142969,-90.9090909090909,4,2,1,80,0,0
143022,-90.9090909090909,4,2,1,50,0,0
143233,-90.9090909090909,4,2,1,80,0,0
144022,-90.9090909090909,4,2,1,80,0,0
144075,-90.9090909090909,4,2,1,50,0,0
144180,-90.9090909090909,4,2,1,80,0,0
147338,-90.9090909090909,4,2,1,60,0,0
147496,-111.111111111111,4,2,1,60,0,0
152233,-99.9999999999999,4,2,1,80,0,0
159969,-90.9090909090909,4,2,1,80,0,0
162338,-100,4,2,1,60,0,0
162811,-111.111111111111,4,2,1,60,0,0
172917,-111.111111111111,4,2,1,70,0,0
177654,-90.9090909090909,4,2,1,80,0,1
197864,-166.666666666667,4,2,1,80,0,1
199127,-166.666666666667,4,2,1,80,0,0
200390,-100,4,2,1,80,0,0

[Colours]
Combo1 : 98,126,223
Combo2 : 157,201,244
Combo3 : 232,192,134
Combo4 : 209,159,236

[HitObjects]
50,197,812,5,8,1:0:0:0:
242,140,969,1,8,1:0:0:0:
259,215,2233,5,8,1:0:0:0:
447,279,2390,1,8,1:0:0:0:
261,374,2548,1,8,1:0:0:0:
353,344,2864,5,8,1:0:0:0:
229,294,3180,5,4,1:2:0:0:
347,228,3496,5,4,1:2:0:0:
0,2,4443,6,0,B|95:14|65:74|158:91,1,180,12|8,1:0|1:0,0:0:0:0:
237,52,4838,1,0,1:0:0:0:
243,43,4917,2,0,L|224:-24,1,45,8|0,0:3|1:0,0:0:0:0:
394,113,5075,2,0,L|406:69,1,45,4|0,0:3|1:0,0:0:0:0:
215,180,5233,1,8,1:0:0:0:
207,187,5311,1,0,1:0:0:0:
198,195,5390,2,0,L|132:178,1,45,0|0,1:0|1:0,0:0:0:0:
304,341,5548,6,0,P|346:298|428:304,1,135,8|0,1:0|0:0,0:0:0:0:
494,360,5864,6,0,P|505:307|517:252,1,90,6|0,1:0|0:0,0:0:0:0:
315,86,6180,2,0,B|254:96|265:142|185:162,1,135,8|0,1:0|0:0,0:0:0:0:
127,234,6496,2,0,P|84:238|41:209,1,90,2|0,1:0|0:0,0:0:0:0:
290,369,6811,2,0,P|308:293|329:218,1,135,8|0,1:0|0:0,0:0:0:0:
346,216,7127,5,2,1:0:0:0:
196,313,7285,1,0,0:0:0:0:
85,142,7443,2,0,P|34:140|-5:174,1,90,8|0,1:0|0:0,0:0:0:0:
130,377,7759,2,0,P|142:318|81:261,1,135,2|0,1:0|0:0,0:0:0:0:
68,257,8075,1,8,1:0:0:0:
27,348,8233,1,0,0:0:0:0:
216,226,8390,6,0,P|257:237|315:252,1,90,2|0,1:0|0:0,0:0:0:0:
500,16,8706,2,0,B|453:29|453:29|432:55|432:55|365:75,1,135,8|0,1:0|0:0,0:0:0:0:
287,118,9022,2,0,B|273:77|273:77|289:30,1,90,2|0,1:0|0:0,0:0:0:0:
476,192,9338,2,0,P|461:260|447:330,1,135,8|0,1:0|0:0,0:0:0:0:
438,353,9654,5,2,1:0:0:0:
322,220,9811,1,0,0:0:0:0:
169,310,9969,2,0,P|124:313|78:283,1,90,8|0,1:0|0:0,0:0:0:0:
288,129,10285,2,0,P|271:78|318:14,1,135,2|0,1:0|0:0,0:0:0:0:
341,6,10601,1,8,1:0:0:0:
512,175,10759,1,0,1:0:0:0:
506,183,10838,1,8,1:0:0:0:
499,192,10917,6,0,P|459:182|400:170,1,90,6|0,1:0|0:0,0:0:0:0:
193,384,11233,2,0,P|243:332|316:345,1,135,8|0,1:0|0:0,0:0:0:0:
372,273,11548,2,0,P|402:311|402:351,1,90,2|0,1:0|0:0,0:0:0:0:
198,218,11864,2,0,B|133:204|147:163|70:153,1,135,8|0,1:0|0:0,0:0:0:0:
56,166,12180,5,2,1:0:0:0:
204,89,12338,1,0,0:0:0:0:
345,192,12496,2,0,P|354:153|369:90,1,90,8|0,1:0|0:0,0:0:0:0:
193,349,12811,2,0,P|176:270|162:212,1,135,2|0,1:0|0:0,0:0:0:0:
151,194,13127,1,8,1:0:0:0:
288,284,13285,1,0,0:0:0:0:
23,276,13443,6,0,B|39:228|39:228|29:192|29:192|50:134,1,135,6|0,1:0|0:0,0:0:0:0:
57,124,13759,1,8,1:0:0:0:
148,78,13917,1,2,0:0:0:0:
214,231,14075,5,0,1:0:0:0:
252,53,14233,1,2,0:0:0:0:
412,188,14390,5,8,1:0:0:0:
337,117,14548,1,2,0:0:0:0:
174,339,14706,5,2,1:0:0:0:
376,270,14864,1,8,1:0:0:0:
387,276,14943,1,8,1:0:0:0:
399,283,15022,1,8,1:0:0:0:
239,96,15180,6,0,L|254:46,1,45,2|0,1:0|0:0,0:0:0:0:
225,103,15496,6,0,L|175:88,1,45,2|0,1:0|0:0,0:0:0:0:
241,114,15811,6,0,B|323:136|302:193|381:220,1,180,6|0,1:0|0:0,0:0:0:0:
244,309,16285,1,10,1:0:0:0:
240,321,16917,1,8,1:0:0:0:
128,272,17075,1,2,1:0:0:0:
160,349,17233,1,0,1:0:0:0:
208,235,17390,1,0,1:0:0:0:
337,297,17548,6,0,P|399:309|487:329,1,144,10|0,1:0|0:0,0:0:0:0:
397,185,18022,1,0,1:0:0:0:
471,136,18180,1,10,1:0:0:0:
352,32,18338,6,0,B|338:67|338:67|344:113,1,72,0|2,1:0|0:0,0:0:0:0:
256,151,18654,1,0,1:0:0:0:
189,84,18811,1,8,1:0:0:0:
179,76,19443,1,8,1:0:0:0:
98,129,19601,1,2,1:0:0:0:
93,44,19759,1,0,1:0:0:0:
181,161,19917,1,0,1:0:0:0:
0,277,20075,6,0,P|54:235|139:255,1,144,10|2,1:0|0:0,0:0:0:0:
281,144,20548,1,0,1:0:0:0:
381,283,20706,1,8,1:0:0:0:
181,161,20864,6,0,B|263:140|236:78|332:60,1,180,6|0,1:0|1:0,0:0:0:0:
502,276,21338,2,0,P|507:231|474:180,1,90,8|0,1:0|1:0,0:0:0:0:
259,284,21654,2,0,P|254:329|287:380,1,90,8|0,1:0|1:0,0:0:0:0:
273,367,21890,1,0,1:0:0:0:
273,367,21969,1,8,1:0:0:0:
376,272,22127,1,0,1:0:0:0:
84,239,22285,6,0,P|154:233|194:173,1,135,8|0,1:0|0:0,0:0:0:0:
198,155,22601,1,10,1:0:0:0:
416,30,22759,1,0,1:0:0:0:
429,36,22838,1,0,1:0:0:0:
442,42,22917,1,10,1:0:0:0:
349,183,23075,1,0,1:0:0:0:
266,10,23233,1,8,1:0:0:0:
450,168,23390,6,0,B|367:186|385:246|289:272,1,180,6|0,1:0|1:0,1:1:0:0:
127,369,23864,1,8,1:0:0:0:
189,226,24022,1,0,1:0:0:0:
285,349,24180,5,8,1:0:0:0:
239,140,24338,1,0,1:0:0:0:
243,128,24417,1,0,1:0:0:0:
247,115,24496,1,8,1:0:0:0:
72,218,24654,1,0,1:0:0:0:
239,24,24811,6,0,P|291:28|330:67,1,90,8|2,1:0|1:0,0:0:0:0:
189,226,25127,2,0,P|210:264|206:309,1,90,8|2,1:0|1:0,0:0:0:0:
23,384,25443,1,8,1:0:0:0:
106,291,25601,1,2,1:0:0:0:
93,295,25680,1,8,1:0:0:0:
81,299,25759,1,8,1:0:0:0:
205,109,25917,6,0,B|262:128|262:128|285:162|285:162|348:185,1,161.999995056153,4|0,1:0|1:0,0:0:0:0:
429,118,26390,2,0,B|470:116|470:116|510:140,1,80.9999975280763,10|0,1:0|0:0,0:0:0:0:
418,291,26706,1,2,1:2:0:0:
487,361,26864,1,0,1:0:0:0:
510,273,27022,1,8,1:0:0:0:
392,383,27180,6,0,P|323:368|224:350,1,161.999995056153,2|0,1:2|1:0,0:0:0:0:
112,246,27654,2,0,P|72:248|36:279,1,80.9999975280763,10|0,1:0|0:0,0:0:0:0:
40,272,27890,1,8,1:0:0:0:
40,272,27969,1,0,1:0:0:0:
96,104,28127,2,0,P|132:119|154:153,1,80.9999975280763,2|8,1:2|1:0,0:0:0:0:
251,163,28443,1,0,1:0:0:0:
0,69,28601,6,0,P|78:70|127:9,1,161.999995056153,2|8,0:0|1:0,0:0:0:0:
339,141,29075,2,0,P|344:100|308:49,1,80.9999975280763,2|0,1:2|0:0,0:0:0:0:
154,153,29390,2,0,P|149:194|185:245,1,80.9999975280763,2|8,1:2|1:0,0:0:0:0:
138,375,29706,6,0,B|214:355|201:312|280:297,1,161.999995056153,2|0,1:2|1:0,0:0:0:0:
435,123,30180,2,0,P|476:137|532:153,1,80.9999975280763,10|0,1:0|0:0,0:0:0:0:
400,222,30496,1,2,1:2:0:0:
280,100,30654,1,0,1:0:0:0:
428,24,30811,1,8,1:0:0:0:
246,191,30969,6,0,P|234:116|216:22,1,161.999995056153,6|0,1:2|1:0,0:0:0:0:
139,232,31443,2,0,P|97:219|70:187,1,80.9999975280763,8|0,1:0|0:0,0:0:0:0:
83,101,31759,1,2,1:2:0:0:
245,268,31917,2,0,P|234:226|248:186,1,80.9999975280763,0|8,1:0|1:0,0:0:0:0:
468,365,32233,6,0,P|416:305|338:307,1,161.999995056153,2|0,1:2|1:0,0:0:0:0:
137,378,32706,2,0,P|132:340|124:293,1,80.9999975280763,10|0,1:0|0:0,0:0:0:0:
124,297,32943,1,8,1:0:0:0:
124,297,33022,1,2,1:2:0:0:
275,194,33180,1,0,1:0:0:0:
106,115,33338,1,8,1:0:0:0:
318,270,33496,6,0,B|260:249|260:249|237:215|237:215|180:196,1,161.999995056153,6|0,1:2|1:0,0:0:0:0:
96,38,33969,2,0,B|113:76|113:76|106:114,1,80.9999975280763,8|0,1:0|0:0,0:0:0:0:
36,178,34285,1,2,1:2:0:0:
212,72,34443,2,0,P|252:81|302:92,1,80.9999975280763,0|8,1:0|1:0,0:0:0:0:
486,240,34759,6,0,B|478:198|478:198|489:166|489:166|476:102,1,121.499996292114,6|0,1:2|0:0,0:0:0:0:
429,41,35075,1,8,1:0:0:0:
434,33,35154,1,8,1:0:0:0:
441,25,35233,2,0,L|505:37,1,40.4999987640381,8|8,1:0|1:0,0:0:0:0:
352,150,35390,2,0,L|373:211,1,40.4999987640381,10|8,1:0|1:0,0:0:0:0:
185,279,35548,5,8,1:0:0:0:
254,53,35706,1,8,1:0:0:0:
480,121,35864,1,8,1:0:0:0:
411,347,36022,1,8,1:0:0:0:
220,164,36180,6,0,P|180:171|125:179,1,80.9999975280763,4|0,1:0|1:0,0:0:0:0:
315,372,36496,2,0,P|248:355|189:341,1,121.499996292114,2|0,1:2|0:0,0:0:0:0:
169,339,36811,1,10,1:0:0:0:
290,218,36969,1,0,1:0:0:0:
166,90,37127,1,0,1:0:0:0:
239,19,37285,6,0,P|278:22|317:55,1,80.9999975280763,2|0,1:2|1:0,0:0:0:0:
345,139,37601,1,0,1:0:0:0:
166,90,37759,2,0,P|183:126|178:165,1,80.9999975280763,2|0,1:2|1:0,0:0:0:0:
28,307,38075,1,8,1:0:0:0:
103,243,38233,1,0,1:0:0:0:
14,217,38390,1,2,1:2:0:0:
118,333,38548,1,0,1:0:0:0:
240,221,38706,6,0,B|319:206|311:161|383:149,1,161.999995056153,2|0,1:2|1:0,0:0:0:0:
484,203,39180,2,0,P|492:162|502:118,1,80.9999975280763,2|8,1:2|1:0,0:0:0:0:
383,260,39496,1,2,1:2:0:0:
289,74,39654,1,0,1:0:0:0:
382,149,39811,6,0,P|341:161|291:176,1,80.9999975280763,2|0,1:2|1:0,0:0:0:0:
122,333,40127,1,0,1:0:0:0:
94,243,40285,2,0,P|164:246|207:296,1,121.499996292114,2|0,1:2|0:0,0:0:0:0:
286,357,40601,6,0,P|326:347|385:332,1,90,8|0,1:0|0:0,0:0:0:0:
459,280,40838,2,0,B|482:318|482:318|472:362,1,90,8|0,1:0|0:0,0:0:0:0:
373,335,41075,2,0,L|315:327,1,45,8|0,1:0|0:0,0:0:0:0:
186,366,41233,5,4,1:0:0:0:
284,246,41390,1,0,1:0:0:0:
164,135,41548,2,0,P|102:148|26:165,1,121.499996292114,2|0,1:2|0:0,0:0:0:0:
28,178,41864,1,10,1:0:0:0:
111,239,42022,1,0,1:0:0:0:
18,276,42180,1,0,1:0:0:0:
134,143,42338,6,0,B|212:163|193:210|270:235,1,161.999995056153,2|0,1:2|1:0,0:0:0:0:
376,315,42811,2,0,P|386:273|398:226,1,80.9999975280763,2|0,1:2|0:0,0:0:0:0:
262,38,43127,1,8,1:0:0:0:
306,18,43206,1,8,1:0:0:0:
352,25,43285,1,8,3:0:0:0:
386,59,43364,1,4,3:0:0:0:
391,79,43443,6,0,P|378:104|372:130,1,40.4999987640381,4|0,3:0|1:0,0:0:0:0:
287,215,43601,2,0,P|274:189|268:164,1,40.4999987640381,8|8,1:0|1:0,0:0:0:0:
81,74,43759,6,0,P|128:76|166:113,1,90,14|0,1:0|1:0,0:0:0:0:
96,306,44075,2,0,P|94:259|57:221,1,90,8|2,1:0|1:0,0:0:0:0:
228,368,44390,1,8,1:0:0:0:
361,200,44548,1,0,1:0:0:0:
210,259,44706,2,0,P|275:261|320:309,1,135,10|0,1:0|0:0,0:0:0:0:
325,332,45022,5,8,1:0:0:0:
241,146,45180,1,0,1:0:0:0:
382,35,45338,2,0,P|426:50|480:66,1,90,10|0,1:0|1:0,0:0:0:0:
397,144,45654,1,10,1:0:0:0:
242,42,45811,1,0,1:0:0:0:
123,179,45969,2,0,P|80:192|25:210,1,90,10|0,1:0|1:0,0:0:0:0:
281,382,46285,6,0,B|219:367|232:325|145:312,1,135,10|0,1:0|0:0,0:0:0:0:
141,320,46601,1,8,1:0:0:0:
295,179,46759,2,0,P|316:221|309:266,1,90,2|8,1:2|1:0,0:0:0:0:
60,375,47075,2,0,P|39:333|46:288,1,90,2|8,1:2|1:0,0:0:0:0:
206,121,47390,6,0,P|276:142|357:165,1,135,8|0,3:0|0:0,0:0:0:0:
391,84,47706,2,0,P|364:75|338:69,1,45,8|0,1:0|0:0,0:0:0:0:
155,207,47864,1,10,1:0:0:0:
316,352,48022,5,0,1:0:0:0:
323,344,48101,1,0,1:0:0:0:
330,337,48180,2,0,P|326:304|316:282,1,45,8|8,1:0|1:0,0:0:0:0:
368,208,48338,2,0,P|337:194|313:192,1,45,8|8,1:0|1:0,0:0:0:0:
111,73,48496,2,0,P|156:25|221:26,1,135,10|0,1:0|0:0,0:0:0:0:
318,91,48811,6,0,P|327:47|340:-3,1,90,6|0,1:2|1:0,0:0:0:0:
198,122,49127,1,8,1:0:0:0:
296,331,49285,2,0,B|361:319|352:277|429:265,1,135,2|0,1:2|0:0,0:0:0:0:
486,202,49601,2,0,P|515:246|510:288,1,90,2|8,1:2|1:0,0:0:0:0:
284,147,49917,6,0,P|244:134|190:119,1,90,2|0,1:2|0:0,0:0:0:0:
47,298,50233,1,0,1:0:0:0:
183,383,50390,2,0,P|197:321|145:268,1,135,10|0,1:0|0:0,0:0:0:0:
87,182,50706,2,0,P|43:194|-7:206,1,90,2|0,1:2|1:0,0:0:0:0:
190,0,51022,2,0,P|216:41|203:92,1,90,10|0,1:0|0:0,0:0:0:0:
407,288,51338,5,2,1:2:0:0:
255,170,51496,1,0,1:0:0:0:
409,34,51654,1,8,1:0:0:0:
215,244,51811,2,0,B|279:231|275:193|347:184,1,135,2|0,1:2|0:0,0:0:0:0:
414,128,52127,2,0,P|467:136|495:168,1,90,2|8,1:2|1:0,0:0:0:0:
334,298,52443,6,0,P|320:340|308:384,1,90,2|0,1:2|0:0,0:0:0:0:
184,199,52759,1,2,1:2:0:0:
327,26,52917,1,8,1:0:0:0:
263,107,53075,1,0,1:0:0:0:
231,21,53233,1,0,1:0:0:0:
359,114,53390,1,0,1:0:0:0:
88,134,53548,2,0,P|89:94|119:45,1,90,10|0,1:0|0:0,0:0:0:0:
365,206,53864,6,0,B|451:226|433:276|514:304,1,180,6|8,1:2|1:0,0:0:0:0:
262,265,54338,2,0,P|219:277|162:294,1,90,2|0,1:2|1:0,0:0:0:0:
292,357,54654,1,0,1:0:0:0:
191,185,54811,1,10,1:0:0:0:
419,63,54969,6,0,P|397:149|378:243,1,180,0|0,1:0|1:0,0:0:0:0:
225,93,55443,2,0,P|185:83|128:65,1,90,10|0,1:0|0:0,0:0:0:0:
35,342,55759,1,2,1:2:0:0:
93,261,55917,1,0,1:0:0:0:
132,351,56075,1,10,1:0:0:0:
0,254,56233,1,0,1:0:0:0:
171,52,56390,6,0,P|123:56|89:85,1,90,14|0,1:0|1:0,0:0:0:0:
55,173,56706,1,0,1:0:0:0:
311,336,56864,6,0,P|331:292|323:248,1,90,10|0,1:0|1:0,0:0:0:0:
230,241,57180,2,0,P|209:284|217:328,1,90,2|8,1:2|1:0,0:0:0:0:
511,117,57496,6,0,B|445:106|456:63|373:53,1,135,2|0,1:2|0:0,0:0:0:0:
317,0,57811,2,0,P|301:34|297:59,1,45,8|0,1:0|0:0,0:0:0:0:
71,217,57969,2,0,P|115:174|190:185,1,135,8|0,1:0|0:0,0:0:0:0:
282,266,58285,5,8,1:0:0:0:
334,281,58364,1,8,1:0:0:0:
384,260,58443,1,8,3:0:0:0:
409,215,58522,1,8,3:0:0:0:
410,197,58601,2,0,P|397:164|373:144,1,45,4|4,3:0|3:0,0:0:0:0:
414,69,58759,2,0,P|378:63|349:74,1,45,0|0,1:0|1:0,0:0:0:0:
184,181,58917,6,0,P|145:170|88:157,1,90,6|0,1:2|1:0,0:0:0:0:
238,72,59233,1,8,1:0:0:0:
75,364,59390,2,0,P|121:321|198:338,1,135,2|0,1:2|0:0,0:0:0:0:
284,359,59706,2,0,P|289:315|257:271,1,90,2|8,1:2|1:0,0:0:0:0:
103,104,60022,6,0,P|72:113|8:130,1,90,2|0,1:2|0:0,0:0:0:0:
179,225,60338,1,2,1:2:0:0:
325,82,60496,1,8,1:0:0:0:
241,0,60654,2,0,P|214:40|221:86,1,90,0|0,1:0|0:0,0:0:0:0:
415,216,60969,1,0,1:0:0:0:
459,128,61127,1,10,1:0:0:0:
316,201,61285,1,0,1:0:0:0:
488,384,61443,6,0,B|406:374|418:316|324:304,1,180,2|8,1:2|1:0,0:0:0:0:
154,148,61917,2,0,P|111:159|54:171,1,90,2|0,1:2|0:0,0:0:0:0:
191,42,62233,1,2,1:2:0:0:
325,173,62390,1,8,1:0:0:0:
476,30,62548,6,0,B|498:70|498:70|480:123,1,90,2|0,1:2|0:0,0:0:0:0:
368,291,62864,1,0,1:0:0:0:
233,133,63022,1,10,1:0:0:0:
312,79,63180,1,0,1:0:0:0:
325,173,63338,1,0,1:0:0:0:
226,40,63496,1,0,1:0:0:0:
116,160,63654,2,0,P|73:169|11:185,1,90,10|0,1:0|0:0,0:0:0:0:
308,377,63969,6,0,B|258:364|258:364|238:338|238:338|176:320,1,135,6|0,1:2|0:0,0:0:0:0:
164,328,64285,1,8,1:0:0:0:
366,174,64443,2,0,P|374:217|383:274,1,90,2|0,1:2|0:0,0:0:0:0:
427,75,64759,1,0,1:0:0:0:
254,199,64917,1,10,1:0:0:0:
155,0,65075,6,0,B|240:20|223:76|307:100,1,180,0|0,1:0|1:0,0:0:0:0:
41,233,65548,1,10,1:0:0:0:
91,147,65706,1,0,1:0:0:0:
220,285,65864,1,2,1:2:0:0:
177,96,66022,1,0,1:0:0:0:
341,175,66180,2,0,P|383:164|440:152,1,90,10|0,1:0|0:0,0:0:0:0:
356,382,66496,6,0,P|364:340|336:292,1,90,6|0,1:2|1:0,0:0:0:0:
97,384,66811,1,8,1:0:0:0:
83,269,66969,2,0,P|148:263|193:317,1,135,2|0,1:2|0:0,0:0:0:0:
199,338,67285,1,2,1:2:0:0:
59,155,67443,1,8,1:0:0:0:
294,94,67601,6,0,B|213:74|228:21|137:1,1,180,2|0,1:2|1:0,0:0:0:0:
233,180,68075,1,8,1:0:0:0:
393,85,68233,1,0,1:0:0:0:
244,5,68390,1,0,1:0:0:0:
294,94,68548,1,0,1:0:0:0:
75,205,68706,2,0,B|64:163|64:163|95:112,1,90,10|0,1:0|0:0,0:0:0:0:
332,277,69022,6,0,B|283:255|220:274|249:367|163:412|93:355|80:268|182:237|215:296,1,360,4|8,1:0|1:0,0:0:0:0:
42,13,71548,6,0,P|32:53|20:106,1,90,6|0,1:0|0:0,0:0:0:0:
190,244,71864,2,0,P|237:201|324:218,1,135,8|0,1:0|0:0,0:0:0:0:
383,144,72180,2,0,P|408:182|399:234,1,90,2|0,1:0|0:0,0:0:0:0:
173,359,72496,2,0,B|113:344|121:304|54:290,1,135,8|0,1:0|0:0,0:0:0:0:
34,297,72811,5,2,1:0:0:0:
174,186,72969,1,0,0:0:0:0:
62,29,73127,2,0,P|17:38|-37:50,1,90,8|0,1:0|0:0,0:0:0:0:
209,264,73443,2,0,B|216:213|216:213|239:187|239:187|248:117,1,135,2|0,1:0|0:0,0:0:0:0:
212,48,73759,2,0,B|257:38|257:38|312:65,1,90,8|0,1:0|0:0,0:0:0:0:
445,228,74075,6,0,P|490:217|543:206,1,90,2|0,1:0|0:0,0:0:0:0:
255,368,74390,2,0,P|238:317|296:250,1,135,8|0,1:0|0:0,0:0:0:0:
303,242,74706,1,2,1:0:0:0:
416,355,74864,1,0,0:0:0:0:
449,126,75022,2,0,P|405:124|367:148,1,90,8|0,1:0|0:0,0:0:0:0:
127,290,75338,6,0,P|140:207|153:132,1,135,2|0,1:0|0:0,0:0:0:0:
222,91,75654,2,0,P|248:134|236:186,1,90,8|0,1:0|0:0,0:0:0:0:
87,360,75969,2,0,B|151:352|144:306|229:299,1,135,2|0,1:0|0:0,0:0:0:0:
230,311,76285,1,8,1:0:0:0:
104,160,76443,1,0,1:0:0:0:
96,156,76522,1,8,1:0:0:0:
88,151,76601,6,0,P|43:160|-5:172,1,90,6|0,1:0|0:0,0:0:0:0:
188,6,76917,2,0,P|261:0|303:50,1,135,8|0,1:0|0:0,0:0:0:0:
393,5,77233,2,0,P|418:54|404:96,1,90,2|0,1:0|0:0,0:0:0:0:
484,277,77548,2,0,P|430:264|339:245,1,135,8|0,1:0|0:0,0:0:0:0:
332,230,77864,5,2,1:0:0:0:
143,340,78022,1,0,0:0:0:0:
249,384,78180,2,0,B|262:341|262:341|235:286,1,90,8|0,1:0|0:0,0:0:0:0:
34,152,78496,2,0,B|86:142|86:142|108:119|108:119|180:106,1,135,2|0,1:0|0:0,0:0:0:0:
252,158,78811,2,0,P|261:112|271:70,1,90,8|0,1:0|0:0,0:0:0:0:
454,314,79127,6,0,B|451:239|491:260|479:172,1,135,2|0,1:0|0:0,0:0:0:0:
466,156,79443,5,8,1:0:0:0:
369,212,79601,1,2,0:0:0:0:
298,99,79759,5,0,1:0:0:0:
283,263,79917,1,2,0:0:0:0:
128,257,80075,5,8,1:0:0:0:
227,340,80233,1,2,0:0:0:0:
0,280,80390,5,0,1:0:0:0:
144,102,80548,1,8,1:0:0:0:
134,106,80627,1,8,1:0:0:0:
122,110,80706,1,8,1:0:0:0:
318,249,80864,6,0,L|305:309,1,45,2|0,1:0|0:0,0:0:0:0:
305,236,81180,6,0,L|245:223,1,45,2|0,1:0|0:0,0:0:0:0:
325,236,81496,6,0,B|426:230|397:138|511:139,1,216,6|10,1:0|0:0,0:0:0:0:
298,59,82285,6,0,P|230:75|150:92,1,144,2|8,0:0|0:0,0:0:0:0:
0,156,82759,2,0,P|64:151|114:223,1,144,2|0,0:0|0:0,0:0:0:0:
34,280,83233,1,10,0:2:0:0:
246,361,83548,6,0,P|254:323|266:272,1,72,8|0,0:0|0:0,0:0:0:0:
348,196,83864,1,10,0:0:0:0:
424,277,84022,1,0,1:0:0:0:
430,163,84180,6,0,B|357:173|360:123|285:133,1,144,2|8,1:2|0:0,0:0:0:0:
175,176,84654,2,0,P|164:103|152:27,1,144,2|2,0:0|0:0,0:0:0:0:
71,100,85127,1,8,0:0:0:0:
135,289,85285,6,0,B|62:275|77:215|3:198,1,162,2|0,1:2|0:0,0:0:0:0:
135,289,85798,1,2,0:0:0:0:
224,244,85956,1,2,0:0:0:0:
298,309,86114,2,0,L|349:322,3,36,2|2|2|2,0:0|0:0|0:0|0:0,0:0:0:0:
209,355,86430,1,2,0:0:0:0:
346,190,86548,6,0,B|397:177|397:177|419:152|419:152|482:137,1,135,4|0,1:0|0:0,0:0:0:0:
494,153,86864,1,0,1:0:0:0:
279,0,87022,2,0,B|294:44|294:44|280:104,1,90,8|0,1:0|1:0,0:0:0:0:
47,165,87338,2,0,B|37:122|37:122|52:78,1,90,8|0,1:0|1:0,0:0:0:0:
53,79,87575,1,0,1:0:0:0:
53,79,87654,1,8,1:0:0:0:
217,168,87811,1,0,1:0:0:0:
2,279,87969,6,0,P|67:293|133:311,1,135,8|0,1:0|0:0,0:0:0:0:
157,326,88285,1,10,1:0:0:0:
344,229,88443,1,0,1:0:0:0:
347,216,88522,1,0,1:0:0:0:
350,204,88601,1,10,1:0:0:0:
417,330,88759,1,0,1:0:0:0:
227,224,88917,1,8,1:0:0:0:
409,33,89075,6,0,P|350:92|250:72,1,180,6|0,1:0|1:0,0:0:0:0:
456,254,89548,1,8,1:0:0:0:
261,355,89706,1,0,1:0:0:0:
460,374,89864,5,8,1:0:0:0:
296,237,90022,1,0,1:0:0:0:
283,240,90101,1,0,1:0:0:0:
270,243,90180,1,8,1:0:0:0:
130,363,90338,1,0,1:0:0:0:
0,164,90496,5,10,1:0:0:0:
42,141,90575,1,0,1:0:0:0:
94,147,90654,1,8,3:0:0:0:
133,182,90733,1,4,3:0:0:0:
138,203,90811,6,0,P|118:240|111:272,1,45,4|4,3:0|3:0,0:0:0:0:
212,315,90969,2,0,P|234:350|258:372,1,45,4|0,3:0|1:0,0:0:0:0:
395,113,91127,6,0,P|352:121|284:137,1,90,8|2,1:0|1:0,0:0:0:0:
306,131,91364,1,8,1:0:0:0:
306,131,91443,1,8,1:0:0:0:
512,256,91601,6,0,B|469:239|430:270|430:270|413:319|361:325,1,161.999995056153,4|0,1:0|1:0,0:0:0:0:
234,232,92075,2,0,P|192:242|144:256,1,80.9999975280763,10|0,1:0|0:0,0:0:0:0:
36,68,92390,1,2,1:2:0:0:
115,110,92548,1,0,1:0:0:0:
7,154,92706,1,8,1:0:0:0:
159,26,92864,6,0,P|243:43|323:60,1,161.999995056153,2|0,1:2|1:0,0:0:0:0:
498,175,93338,2,0,B|509:138|509:138|491:92,1,80.9999975280763,10|0,1:0|0:0,0:0:0:0:
493,98,93575,1,8,1:0:0:0:
493,98,93654,1,0,1:0:0:0:
365,254,93811,2,0,P|371:299|377:354,1,80.9999975280763,2|8,1:2|1:0,0:0:0:0:
476,281,94127,1,0,1:0:0:0:
288,175,94285,6,0,B|215:183|220:233|145:248,1,161.999995056153,2|8,0:0|1:0,0:0:0:0:
263,0,94759,2,0,P|242:38|252:87,1,80.9999975280763,2|0,1:2|0:0,0:0:0:0:
409,108,95075,2,0,P|373:90|353:55,1,80.9999975280763,2|8,1:2|1:0,0:0:0:0:
158,121,95390,6,0,P|236:117|289:182,1,161.999995056153,2|0,1:2|1:0,0:0:0:0:
60,47,95864,2,0,P|51:87|43:127,1,80.9999975280763,10|0,1:0|0:0,0:0:0:0:
148,321,96180,1,2,1:2:0:0:
287,176,96338,1,0,1:0:0:0:
353,362,96496,1,8,1:0:0:0:
145,215,96654,6,0,B|208:231|208:231|231:261|231:261|307:280,1,161.999995056153,6|0,1:2|1:0,0:0:0:0:
476,169,97127,2,0,P|501:205|492:254,1,80.9999975280763,8|0,1:0|0:0,0:0:0:0:
445,323,97443,1,2,1:2:0:0:
475,71,97601,2,0,P|436:73|401:105,1,80.9999975280763,0|8,1:0|1:0,0:0:0:0:
187,94,97917,6,0,B|266:110|254:160|325:180,1,161.999995056153,2|0,1:2|1:0,0:0:0:0:
114,289,98390,1,10,1:0:0:0:
189,364,98548,1,0,1:0:0:0:
197,357,98627,1,8,1:0:0:0:
206,349,98706,2,0,P|216:305|229:259,1,80.9999975280763,2|0,1:2|1:0,0:0:0:0:
53,373,99022,1,8,1:0:0:0:
157,173,99180,6,0,P|85:183|32:113,1,161.999995056153,6|0,1:2|1:0,0:0:0:0:
270,52,99654,2,0,P|226:51|190:75,1,80.9999975280763,8|0,1:0|0:0,0:0:0:0:
325,289,99969,1,2,1:2:0:0:
252,224,100127,2,0,P|229:261|231:304,1,80.9999975280763,0|8,1:0|1:0,0:0:0:0:
446,117,100443,6,0,B|439:77|439:77|457:41|457:41|440:-22,1,121.499996292114,6|0,1:2|0:0,0:0:0:0:
349,35,100759,1,8,1:0:0:0:
340,41,100838,1,8,1:0:0:0:
330,47,100917,2,0,L|279:37,1,40.4999987640381,8|8,1:0|1:0,0:0:0:0:
197,165,101075,2,0,L|180:115,1,40.4999987640381,10|8,1:0|1:0,0:0:0:0:
100,301,101233,5,8,1:0:0:0:
31,75,101391,1,8,1:0:0:0:
257,7,101549,1,8,1:0:0:0:
326,233,101707,1,8,1:0:0:0:
154,10,101864,6,0,B|137:49|137:49|147:98,1,80.9999975280763,4|0,1:0|1:0,0:0:0:0:
349,132,102180,2,0,P|411:118|491:102,1,121.499996292114,2|0,1:2|0:0,0:0:0:0:
490,120,102496,2,0,P|480:159|471:198,1,80.9999975280763,10|0,1:0|1:0,0:0:0:0:
357,383,102811,1,0,1:0:0:0:
499,310,102969,6,0,B|421:320|430:367|350:384,1,161.999995056153,2|0,1:2|1:0,0:0:0:0:
170,287,103443,2,0,B|154:325|154:325|163:382,1,80.9999975280763,2|0,1:2|1:0,0:0:0:0:
314,235,103759,2,0,P|323:173|337:97,1,121.499996292114,8|0,1:0|0:0,0:0:0:0:
339,87,104075,1,2,1:2:0:0:
218,162,104233,1,0,1:0:0:0:
89,2,104390,6,0,P|147:56|231:40,1,161.999995056153,2|0,1:2|1:0,0:0:0:0:
59,139,104864,2,0,P|38:172|41:212,1,80.9999975280763,2|8,1:2|1:0,0:0:0:0:
252,299,105180,1,2,1:2:0:0:
161,229,105338,1,0,1:0:0:0:
195,374,105496,6,0,B|272:365|268:316|344:311,1,161.999995056153,2|0,1:2|1:0,0:0:0:0:
493,69,105969,2,0,P|479:127|464:193,1,121.499996292114,2|0,1:2|0:0,0:0:0:0:
358,209,106285,6,0,B|353:165|353:165|381:123,1,90,8|0,1:0|0:0,0:0:0:0:
464,187,106522,2,0,P|452:234|438:288,1,90,8|0,1:0|0:0,0:0:0:0:
341,311,106759,2,0,L|282:298,1,45,8|0,1:0|0:0,0:0:0:0:
112,353,106917,5,4,1:0:0:0:
244,190,107075,1,0,1:0:0:0:
122,147,107233,2,0,P|133:191|143:241,1,90,2|0,1:2|0:0,0:0:0:0:
438,150,107548,2,0,P|376:160|323:107,1,135,10|0,1:0|0:0,0:0:0:0:
316,89,107864,1,0,1:0:0:0:
217,0,108022,6,0,P|193:37|194:82,1,90,2|0,1:2|0:0,0:0:0:0:
86,261,108338,1,0,1:0:0:0:
12,197,108496,2,0,P|48:171|92:166,1,90,2|0,1:2|0:0,0:0:0:0:
294,380,108811,5,8,1:0:0:0:
317,335,108890,1,8,1:0:0:0:
307,285,108969,1,8,3:0:0:0:
266,258,109048,1,4,3:0:0:0:
244,256,109127,6,0,P|229:285|222:317,1,45,4|0,3:0|0:0,0:0:0:0:
154,372,109285,2,0,P|139:354|128:335,1,45,8|0,1:0|0:0,0:0:0:0:
264,119,109443,6,0,P|222:115|173:149,1,90,14|0,1:0|1:0,0:0:0:0:
402,302,109759,1,8,1:0:0:0:
331,366,109917,2,0,P|306:327|307:283,1,90,2|8,1:2|1:0,0:0:0:0:
428,68,110233,1,0,1:0:0:0:
497,188,110390,2,0,P|439:175|350:158,1,135,10|0,1:0|0:0,0:0:0:0:
339,157,110706,5,8,1:0:0:0:
178,241,110864,1,0,1:0:0:0:
50,120,111022,2,0,P|38:168|24:233,1,90,10|0,1:0|1:0,0:0:0:0:
317,105,111338,2,0,P|260:121|200:75,1,135,10|0,1:0|0:0,0:0:0:0:
137,5,111654,2,0,P|94:16|37:28,1,90,10|0,1:0|1:0,0:0:0:0:
269,203,111969,5,10,1:0:0:0:
317,105,112127,1,0,0:0:0:0:
158,200,112285,1,8,1:0:0:0:
392,280,112443,2,0,P|399:240|374:196,1,90,2|8,1:2|1:0,0:0:0:0:
168,303,112759,2,0,P|161:343|186:387,1,90,2|8,1:2|1:0,0:0:0:0:
261,324,112996,1,0,1:0:0:0:
266,317,113075,6,0,B|254:241|297:258|279:166,1,135,8|0,3:0|0:0,0:0:0:0:
261,94,113390,2,0,P|229:105|204:128,1,45,8|0,1:0|0:0,0:0:0:0:
27,292,113548,5,10,1:0:0:0:
2,244,113627,1,0,1:0:0:0:
15,194,113706,1,0,1:0:0:0:
59,167,113785,1,0,1:0:0:0:
79,166,113864,6,0,P|100:202|104:236,1,45,8|8,1:0|1:0,0:0:0:0:
170,285,114022,2,0,P|183:267|192:246,1,45,8|8,1:0|1:0,0:0:0:0:
50,0,114180,6,0,B|137:30|137:30|93:43|85:83,1,135,10|0,1:0|0:0,0:0:0:0:
173,115,114496,6,0,P|218:103|276:91,1,90,6|0,1:2|1:0,0:0:0:0:
357,362,114811,1,8,1:0:0:0:
500,301,114969,2,0,P|454:252|376:264,1,135,2|0,1:2|0:0,0:0:0:0:
313,191,115285,2,0,P|285:237|294:282,1,90,2|8,1:2|1:0,0:0:0:0:
95,90,115601,6,0,P|50:99|-2:109,1,90,2|0,1:2|0:0,0:0:0:0:
118,303,115917,1,0,1:0:0:0:
23,329,116075,2,0,B|13:287|13:287|38:242,1,90,10|0,1:0|0:0,0:0:0:0:
234,126,116390,2,0,P|279:135|331:145,1,90,2|0,1:2|1:0,0:0:0:0:
303,365,116706,2,0,B|313:323|313:323|288:278,1,90,10|0,1:0|0:0,0:0:0:0:
491,127,117022,6,0,P|477:192|462:266,1,135,2|0,1:2|0:0,0:0:0:0:
457,286,117338,1,8,1:0:0:0:
322,143,117496,2,0,P|279:152|219:166,1,90,2|0,1:2|0:0,0:0:0:0:
14,360,117811,1,2,1:2:0:0:
163,257,117969,1,8,1:0:0:0:
82,118,118127,6,0,P|56:158|64:210,1,90,2|0,1:2|0:0,0:0:0:0:
217,347,118443,1,2,1:2:0:0:
337,161,118601,1,8,1:0:0:0:
244,202,118759,1,0,1:0:0:0:
358,254,118917,1,0,1:0:0:0:
233,114,119075,1,0,1:0:0:0:
453,0,119233,2,0,P|411:-4|371:32,1,90,10|0,1:0|0:0,0:0:0:0:
505,283,119548,6,0,P|517:217|458:171,1,135,6|0,1:2|0:0,0:0:0:0:
444,167,119864,1,8,1:0:0:0:
275,324,120022,2,0,P|319:337|381:358,1,90,2|0,1:2|1:0,0:0:0:0:
289,227,120338,1,0,1:0:0:0:
126,364,120496,1,10,1:0:0:0:
19,187,120654,1,0,1:0:0:0:
153,264,120811,6,0,P|165:196|181:114,1,135,0|0,1:0|0:0,0:0:0:0:
192,100,121127,1,10,1:0:0:0:
289,227,121285,1,0,0:0:0:0:
512,78,121443,2,0,P|461:33|391:48,1,135,2|0,1:2|0:0,0:0:0:0:
308,111,121759,2,0,P|297:65|280:1,1,90,10|0,1:0|1:0,0:0:0:0:
92,222,122075,6,0,P|44:222|5:194,1,90,14|0,1:0|1:0,0:0:0:0:
75,130,122390,1,0,1:0:0:0:
218,344,122548,6,0,P|229:303|249:236,1,90,10|0,1:0|1:0,0:0:0:0:
340,291,122864,2,0,P|328:334|315:377,1,90,2|8,1:2|1:0,0:0:0:0:
75,130,123180,6,0,P|151:136|197:84,1,135,2|0,1:2|0:0,0:0:0:0:
198,4,123496,2,0,P|232:12|263:31,1,45,8|0,1:0|0:0,0:0:0:0:
447,40,123654,2,0,B|383:55|393:99|312:119,1,135,8|0,1:0|0:0,0:0:0:0:
252,237,123969,5,8,1:0:0:0:
299,218,124048,1,8,1:0:0:0:
351,224,124127,1,8,3:0:0:0:
386,261,124206,1,8,3:0:0:0:
393,281,124285,6,0,P|373:310|364:347,1,45,4|4,3:0|3:0,0:0:0:0:
474,345,124443,2,0,P|489:376|516:403,1,45,0|0,1:0|1:0,0:0:0:0:
248,325,124601,6,0,P|186:312|137:365,1,135,6|0,1:2|0:0,0:0:0:0:
132,382,124917,1,8,1:0:0:0:
187,177,125075,2,0,P|176:133|157:78,1,90,2|0,1:2|0:0,0:0:0:0:
348,252,125390,1,2,1:2:0:0:
413,51,125548,1,8,1:0:0:0:
287,170,125706,6,0,B|201:183|217:240|119:262,1,180,2|2,1:2|1:2,0:0:0:0:
44,196,126180,1,8,1:0:0:0:
167,21,126338,2,0,P|214:35|276:47,1,90,0|0,1:0|0:0,0:0:0:0:
430,206,126654,1,0,1:0:0:0:
481,120,126811,1,10,1:0:0:0:
326,206,126969,1,0,1:0:0:0:
491,383,127127,6,0,P|450:313|339:325,1,180,2|8,1:2|1:0,0:0:0:0:
191,128,127601,2,0,P|141:142|49:163,1,135,2|0,1:2|0:0,0:0:0:0:
32,167,127917,1,2,1:2:0:0:
165,313,128075,1,8,1:0:0:0:
20,384,128233,6,0,P|18:343|47:303,1,90,2|0,1:2|0:0,0:0:0:0:
270,212,128548,1,0,1:0:0:0:
362,262,128706,1,10,1:0:0:0:
292,126,128864,1,0,1:0:0:0:
152,195,129022,1,0,1:0:0:0:
272,38,129180,1,0,1:0:0:0:
435,156,129338,2,0,P|478:146|542:133,1,90,10|0,1:0|0:0,0:0:0:0:
246,276,129654,6,0,B|332:295|318:354|400:378,1,180,6|8,1:2|1:0,0:0:0:0:
217,147,130127,2,0,P|171:162|116:176,1,90,2|0,1:2|0:0,0:0:0:0:
300,358,130443,1,0,1:0:0:0:
336,267,130601,2,0,P|351:180|378:66,1,180,10|0,1:0|0:0,0:0:0:0:
217,228,131075,5,0,1:0:0:0:
84,81,131233,2,0,P|28:80|-12:109,1,90,10|0,1:0|1:0,0:0:0:0:
94,216,131548,1,2,1:2:0:0:
257,114,131706,1,0,1:0:0:0:
384,252,131864,2,0,P|440:251|480:280,1,90,10|0,1:0|0:0,0:0:0:0:
150,378,132180,6,0,P|141:316|207:262,1,135,6|0,1:2|0:0,0:0:0:0:
213,257,132496,1,8,1:0:0:0:
0,83,132654,2,0,B|82:55|82:55|61:96|80:132,1,135,2|0,1:2|0:0,0:0:0:0:
85,123,132969,1,2,1:2:0:0:
241,24,133127,1,8,1:0:0:0:
444,106,133285,6,0,B|390:82|352:122|352:122|338:173|290:184,1,180,2|0,1:2|1:0,0:0:0:0:
94,355,133759,1,8,1:0:0:0:
241,260,133917,1,0,1:0:0:0:
148,142,134075,2,0,P|120:183|129:231,1,90,0|0,1:0|1:0,0:0:0:0:
283,355,134390,1,10,1:0:0:0:
449,225,134548,1,0,0:0:0:0:
277,140,134706,6,0,B|217:199|253:274|386:272|375:150|329:131|264:127|261:59|279:20,1,360,4|8,1:0|1:0,0:0:0:0:
462,197,137233,5,8,1:0:0:0:
270,140,137390,1,8,1:0:0:0:
253,215,138654,5,8,1:0:0:0:
65,279,138811,1,8,1:0:0:0:
251,374,138969,1,8,1:0:0:0:
159,344,139285,5,8,1:0:0:0:
283,294,139601,5,4,1:2:0:0:
165,228,139917,5,4,1:2:0:0:
448,67,140864,6,0,B|408:64|355:34|355:34|376:89|361:124,1,180,6|8,1:0|1:0,0:0:0:0:
194,216,141338,1,8,1:0:0:0:
365,113,141496,1,8,1:0:0:0:
201,20,141654,5,8,1:0:0:0:
152,0,141733,1,8,1:0:0:0:
99,9,141811,1,8,1:0:0:0:
65,48,141890,1,8,1:0:0:0:
63,97,141969,2,0,P|81:130|89:162,1,45,8|8,1:0|1:0,0:0:0:0:
285,279,142127,6,0,B|200:243|200:243|209:297|190:323,1,165.000005035401,6|0,1:0|0:0,0:0:0:0:
106,271,142443,2,0,L|64:283,3,33.0000010070801,2|2|2|10,1:2|0:0|0:0|1:0,0:0:0:0:
246,91,142706,6,0,B|289:86|320:118|320:118|320:160|348:180,1,132.00000402832,2|0,0:0|1:0,0:0:0:0:
418,218,142969,2,0,L|433:168,3,33.0000010070801,2|2|2|2,0:0|0:0|1:0|0:0,0:0:0:0:
280,376,143233,6,0,P|265:311|333:260,1,148.50000453186,10|0,1:0|0:0,0:0:0:0:
251,157,143548,5,2,1:0:0:0:
199,160,143627,1,2,0:0:0:0:
152,135,143706,1,2,1:0:0:0:
137,86,143785,1,2,0:0:0:0:
147,63,143864,2,0,P|140:28|126:3,1,49.5000015106202,10|2,1:0|0:0,0:0:0:0:
251,157,144022,2,0,P|244:192|238:207,1,49.5000015106202,2|10,0:0|1:0,0:0:0:0:
382,62,144180,5,2,1:0:0:0:
432,42,144259,1,2,0:0:0:0:
484,56,144338,1,2,1:0:0:0:
511,100,144417,1,2,0:0:0:0:
511,127,144496,2,0,P|501:154|495:185,1,49.5000015106202,10|2,1:0|0:0,0:0:0:0:
503,359,144654,6,0,B|414:337|435:273|329:253,1,198.000006042481,6|0,1:0|1:0,0:0:0:0:
164,112,145127,2,0,P|91:101|49:159,1,148.50000453186,8|0,1:0|0:0,0:0:0:0:
47,182,145443,1,2,1:0:0:0:
158,283,145601,1,0,1:0:0:0:
15,340,145759,1,8,1:0:0:0:
237,255,145917,6,0,B|158:221|158:221|167:270|151:300,1,148.50000453186,2|0,1:0|0:0,0:0:0:0:
68,255,146233,1,0,1:0:0:0:
243,113,146390,5,8,1:0:0:0:
68,255,146548,1,2,1:0:0:0:
164,35,146706,5,8,1:0:0:0:
157,282,146864,1,0,1:0:0:0:
161,271,146943,1,0,1:0:0:0:
163,259,147022,1,8,1:0:0:0:
17,69,147180,2,0,P|53:80|96:108,1,49.5000015106202,2|0,1:0|0:0,0:0:0:0:
216,175,147338,5,4,1:0:0:0:
350,88,147496,2,0,B|272:105|292:154|200:179,1,161.999995056153,0|0,1:0|0:0,0:0:0:0:
431,376,147969,2,0,B|423:335|423:335|392:309|392:309|382:247,1,121.499996292114,10|0,1:0|0:0,0:0:0:0:
410,157,148285,1,0,1:0:0:0:
372,168,148364,1,0,1:0:0:0:
325,167,148443,1,0,1:0:0:0:
293,142,148522,1,0,1:0:0:0:
281,102,148601,5,0,1:0:0:0:
151,199,148759,1,0,1:0:0:0:
5,69,148917,2,0,P|70:58|117:122,1,121.499996292114,10|0,1:0|0:0,0:0:0:0:
165,170,149233,2,0,L|228:189,2,40.4999987640381,2|0|0,1:0|1:0|1:0,0:0:0:0:
69,219,149469,1,2,1:0:0:0:
59,228,149548,1,8,1:0:0:0:
186,376,149706,2,0,P|177:342|159:307,1,40.4999987640381,2|0,1:0|1:0,0:0:0:0:
453,218,149864,5,2,1:0:0:0:
408,197,149943,1,0,1:0:0:0:
359,202,150022,1,0,1:0:0:0:
327,235,150101,1,0,1:0:0:0:
319,259,150180,6,0,P|326:279|328:312,1,40.4999987640381,2|0,1:0|1:0,0:0:0:0:
223,192,150338,2,0,P|232:169|234:132,1,40.4999987640381,2|0,1:0|1:0,0:0:0:0:
110,244,150496,1,10,1:0:0:0:
352,30,150811,5,2,1:0:0:0:
472,123,150969,1,0,1:0:0:0:
475,113,151048,1,0,1:0:0:0:
477,101,151127,1,2,1:0:0:0:
355,139,151285,1,0,1:0:0:0:
511,284,151443,6,0,P|443:300|361:320,1,121.499996292114,8|0,1:0|0:0,0:0:0:0:
238,378,151759,1,8,1:0:0:0:
265,333,151838,1,8,1:0:0:0:
260,281,151917,1,8,1:0:0:0:
221,246,151996,1,8,1:0:0:0:
196,241,152075,2,0,P|184:269|180:305,1,40.4999987640381,8|8,1:0|1:0,0:0:0:0:
0,105,152233,6,0,P|102:109|139:44,1,180,6|0,1:0|1:0,0:0:0:0:
314,184,152706,1,10,1:0:0:0:
422,68,152864,1,0,1:0:0:0:
290,103,153022,5,10,1:0:0:0:
445,164,153180,1,0,1:0:0:0:
263,283,153338,5,8,1:0:0:0:
54,251,153496,2,0,B|137:238|126:182|216:175,1,180,2|0,1:0|1:0,0:0:0:0:
359,353,153969,2,0,P|369:305|383:249,1,90,10|0,1:0|1:0,0:0:0:0:
378,265,154206,1,8,1:0:0:0:
378,265,154285,1,10,1:0:0:0:
460,354,154443,1,0,1:0:0:0:
281,254,154601,1,8,1:0:0:0:
495,154,154759,6,0,P|403:154|357:69,1,180,6|0,1:0|1:0,0:0:0:0:
113,222,155233,2,0,P|112:178|153:138,1,90,10|0,1:0|1:0,0:0:0:0:
385,268,155548,1,2,1:0:0:0:
287,154,155706,1,0,1:0:0:0:
233,290,155864,1,8,1:0:0:0:
389,144,156022,6,0,B|325:131|325:131|298:96|298:96|201:77,1,180,2|0,1:0|1:0,0:0:0:0:
299,238,156496,1,8,1:0:0:0:
40,93,156654,2,0,B|76:74|76:74|130:108|101:162,1,135,2|0,1:0|0:0,0:0:0:0:
54,229,156969,1,0,1:0:0:0:
227,158,157127,1,8,1:0:0:0:
305,329,157285,2,0,P|345:348|376:368,1,45,2|0,1:0|0:0,0:0:0:0:
200,248,157443,5,0,1:0:0:0:
411,152,157601,1,2,0:0:0:0:
423,159,157680,1,2,0:0:0:0:
435,170,157759,1,10,1:0:0:0:
309,31,157917,1,2,0:0:0:0:
294,37,157996,1,2,0:0:0:0:
280,46,158075,5,10,1:0:0:0:
242,19,158154,1,2,0:0:0:0:
189,9,158233,1,2,1:0:0:0:
139,29,158311,1,2,0:0:0:0:
117,74,158390,6,0,P|131:109|137:144,1,45,10|2,1:0|0:0,0:0:0:0:
29,139,158548,2,0,P|5:168|-21:191,1,45,2|2,1:0|1:0,0:0:0:0:
90,305,158706,6,0,P|117:296|168:290,1,45,10|2,1:0|0:0,0:0:0:0:
206,222,158864,2,0,P|227:240|257:282,1,45,2|2,0:0|0:0,0:0:0:0:
381,384,159022,5,10,1:0:0:0:
359,345,159100,1,2,0:0:0:0:
359,300,159179,1,2,1:0:0:0:
380,261,159258,1,2,0:0:0:0:
418,237,159338,6,0,P|449:248|489:269,1,45,10|2,1:0|0:0,0:0:0:0:
361,101,159496,2,0,P|386:79|424:55,1,45,2|2,1:0|0:0,0:0:0:0:
189,41,159654,5,10,1:0:0:0:
197,90,159733,1,2,0:0:0:0:
208,139,159811,1,2,1:0:0:0:
219,188,159890,1,2,1:0:0:0:
230,237,159969,6,0,B|164:255|172:307|109:326,1,148.50000453186,14|0,1:0|0:0,0:0:0:0:
28,371,160285,5,8,1:0:0:0:
119,201,160443,1,0,1:0:0:0:
237,356,160601,5,10,1:0:0:0:
119,201,160759,1,0,1:0:0:0:
334,174,160917,5,10,1:0:0:0:
119,201,161075,1,0,1:0:0:0:
337,71,161233,6,0,P|378:80|416:97,1,49.5000015106202,10|0,1:0|1:0,0:0:0:0:
115,96,161390,2,0,P|74:105|36:122,1,49.5000015106202,0|0,1:0|1:0,0:0:0:0:
357,219,161548,5,10,1:0:0:0:
308,210,161627,1,0,1:0:0:0:
259,220,161706,1,0,1:0:0:0:
218,245,161785,1,0,1:0:0:0:
187,284,161865,1,10,1:0:0:0:
162,327,161944,1,0,1:0:0:0:
124,358,162023,1,0,1:0:0:0:
78,374,162102,1,0,1:0:0:0:
28,371,162180,2,0,L|15:297,1,49.5000015106202,10|0,1:0|1:0,0:0:0:0:
137,67,162338,6,0,B|121:113|121:113|139:152|139:152|124:208,1,135,6|0,1:0|0:0,0:0:0:0:
110,218,162654,1,0,1:0:0:0:
267,348,162811,2,0,P|332:333|448:313,1,161.999995056153,10|2,1:0|1:0,0:0:0:0:
278,224,163285,1,0,1:0:0:0:
430,112,163443,1,8,1:0:0:0:
512,263,163601,6,0,P|465:211|373:225,1,161.999995056153,2|0,1:0|1:0,0:0:0:0:
253,106,164075,2,0,P|217:116|160:131,1,80.9999975280763,10|0,1:0|0:0,0:0:0:0:
74,334,164390,1,2,1:0:0:0:
192,241,164548,1,0,1:0:0:0:
63,190,164706,1,8,1:0:0:0:
289,274,164864,6,0,B|241:254|201:287|201:287|189:334|143:351,1,161.999995056153,6|0,1:0|1:0,0:0:0:0:
269,153,165338,2,0,P|260:108|247:52,1,80.9999975280763,8|0,1:0|2:0,2:2:0:0:
92,163,165654,1,2,1:0:0:0:
9,62,165811,2,0,P|65:63|99:37,1,80.9999975280763,0|8,1:0|1:0,0:0:0:0:
236,180,166127,6,0,B|311:196|296:245|372:265,1,161.999995056153,0|0,1:0|1:0,0:0:0:0:
484,372,166601,2,0,P|494:330|510:273,1,80.9999975280763,8|0,1:0|0:0,0:0:0:0:
290,359,166917,1,2,1:0:0:0:
409,282,167075,1,0,1:0:0:0:
292,215,167233,1,8,1:0:0:0:
480,80,167390,6,0,B|422:68|422:68|400:38|400:38|309:20,1,161.999995056153,6|0,1:0|1:0,0:0:0:0:
119,166,167864,2,0,P|107:113|163:63,1,121.499996292114,8|0,1:0|0:0,0:0:0:0:
178,56,168180,1,0,1:0:0:0:
266,181,168338,1,0,1:0:0:0:
308,40,168496,1,8,1:0:0:0:
150,196,168654,6,0,B|71:214|84:260|-1:286,1,161.999995056153,6|0,1:0|1:0,0:0:0:0:
253,379,169127,2,0,P|266:333|240:293,1,80.9999975280763,10|0,1:0|0:0,0:0:0:0:
96,155,169443,2,0,P|166:170|241:188,1,121.499996292114,2|0,1:0|0:0,0:0:0:0:
241,192,169759,1,8,1:0:0:0:
434,52,169917,6,0,B|390:42|352:18|352:18|366:65|350:116,1,161.999995056153,4|0,1:0|1:0,0:0:0:0:
221,50,170390,2,0,P|180:62|130:75,1,80.9999975280763,8|0,1:0|0:0,0:0:0:0:
292,201,170706,2,0,B|343:211|343:211|365:230|365:230|431:244,1,121.499996292114,2|0,1:0|0:0,0:0:0:0:
430,253,171022,1,8,1:0:0:0:
196,349,171180,6,0,P|182:258|165:168,1,161.999995056153,6|0,1:0|1:0,0:0:0:0:
50,282,171654,2,0,P|30:316|44:367,1,80.9999975280763,8|0,1:0|0:0,0:0:0:0:
231,259,171969,1,2,1:0:0:0:
81,142,172127,2,0,P|38:159|-2:151,1,80.9999975280763,0|8,1:0|1:0,0:0:0:0:
219,281,172443,6,0,B|271:275|302:315|302:315|306:365|342:381,1,161.999995056153,6|0,1:0|1:0,0:0:0:0:
193,174,172917,5,8,1:0:0:0:
71,307,173075,1,0,1:0:0:0:
131,88,173233,5,8,1:0:0:0:
71,307,173390,1,0,1:0:0:0:
31,57,173548,5,8,1:0:0:0:
197,278,173706,1,0,1:0:0:0:
208,275,173785,1,0,1:0:0:0:
219,271,173864,5,10,1:0:0:0:
396,161,174022,1,0,1:0:0:0:
512,362,174180,5,8,1:0:0:0:
347,233,174338,1,0,1:0:0:0:
186,372,174496,5,10,1:0:0:0:
403,312,174654,1,0,1:0:0:0:
407,323,174733,1,0,1:0:0:0:
411,333,174811,6,0,P|378:355|347:363,1,40.4999987640381,8|0,1:0|1:0,0:0:0:0:
347,233,174969,2,0,P|311:215|289:192,1,40.4999987640381,0|0,1:0|1:0,0:0:0:0:
248,7,175127,6,0,B|215:-10|154:-5|118:6|152:216|13:212|-128:99|-38:-59|151:-122|111:145|179:144|242:124,1,566.999982696534,14|0,1:0|0:0,0:0:0:0:
494,225,176390,5,8,1:0:0:0:
466,182,176469,1,8,1:0:0:0:
419,165,176548,1,0,1:0:0:0:
368,172,176627,1,0,1:0:0:0:
347,190,176706,6,0,P|359:219|364:256,1,40.4999987640381,8|4,3:0|3:0,0:0:0:0:
232,355,176864,2,0,P|220:326|215:289,1,40.4999987640381,4|0,3:0|1:0,0:0:0:0:
0,242,177022,5,8,1:0:0:0:
43,247,177100,1,0,1:0:0:0:
77,221,177179,1,0,1:0:0:0:
82,178,177258,1,0,1:0:0:0:
56,144,177337,1,8,1:0:0:0:
29,110,177417,1,0,1:0:0:0:
35,67,177496,1,0,1:0:0:0:
69,40,177575,1,0,1:0:0:0:
113,47,177654,6,0,P|181:35|270:20,1,148.50000453186,6|0,1:2|0:0,0:0:0:0:
295,31,177969,1,8,1:0:0:0:
472,218,178127,1,2,1:2:0:0:
475,206,178206,1,8,1:0:0:0:
479,193,178285,1,0,1:0:0:0:
298,244,178443,1,2,1:2:0:0:
458,355,178601,1,8,1:0:0:0:
340,171,178759,6,0,B|270:181|275:230|188:245,1,148.50000453186,2|0,1:2|0:0,0:0:0:0:
189,262,179075,1,0,1:0:0:0:
26,154,179233,2,0,P|14:198|0:252,1,99.0000030212403,10|0,1:0|0:0,0:0:0:0:
0,249,179469,1,8,1:0:0:0:
0,249,179548,1,2,1:2:0:0:
199,145,179706,1,0,1:0:0:0:
358,363,179864,5,10,1:0:0:0:
385,322,179943,1,0,1:0:0:0:
376,273,180022,1,0,1:0:0:0:
334,246,180101,1,0,1:0:0:0:
304,246,180180,6,0,P|259:257|199:272,1,99.0000030212403,2|0,1:2|1:0,0:0:0:0:
248,365,180496,1,8,1:0:0:0:
52,141,180654,2,0,P|0:185|4:268,1,148.50000453186,2|0,1:2|0:0,0:0:0:0:
86,339,180969,2,0,P|93:295|109:224,1,99.0000030212403,2|8,1:2|1:0,0:0:0:0:
270,92,181285,6,0,B|326:78|326:78|348:47|348:47|431:27,1,148.50000453186,2|0,1:2|0:0,0:0:0:0:
428,47,181601,1,2,1:2:0:0:
286,202,181759,1,8,1:0:0:0:
437,338,181917,1,0,1:0:0:0:
441,325,181996,1,8,1:0:0:0:
445,311,182075,1,0,1:0:0:0:
277,384,182233,1,0,1:0:0:0:
426,205,182390,2,0,P|477:205|515:238,1,99.0000030212403,10|0,1:0|0:0,0:0:0:0:
226,294,182706,6,0,P|242:229|177:160,1,148.50000453186,6|0,1:2|0:0,0:0:0:0:
171,153,183022,1,8,1:0:0:0:
97,280,183180,1,2,1:2:0:0:
84,284,183259,1,8,1:0:0:0:
71,288,183338,1,0,1:0:0:0:
245,384,183496,1,0,1:0:0:0:
377,235,183654,2,0,P|425:250|480:264,1,99.0000030212403,10|0,1:0|0:0,0:0:0:0:
227,17,183969,6,0,P|239:96|254:193,1,148.50000453186,0|0,1:0|0:0,0:0:0:0:
243,191,184285,1,10,1:0:0:0:
12,106,184443,1,0,0:0:0:0:
97,46,184601,2,0,B|123:89|123:89|110:135,1,99.0000030212403,2|0,1:2|1:0,0:0:0:0:
1,315,184917,1,10,1:0:0:0:
162,224,185075,1,0,1:0:0:0:
275,353,185233,5,14,1:0:0:0:
61,224,185390,1,0,1:0:0:0:
64,237,185469,1,0,1:0:0:0:
67,250,185548,1,0,1:0:0:0:
292,166,185706,5,10,1:0:0:0:
143,376,185863,1,0,1:0:0:0:
146,363,185943,1,0,1:0:0:0:
149,350,186021,1,2,1:2:0:0:
408,332,186180,5,8,1:0:0:0:
187,196,186337,1,2,1:2:0:0:
190,209,186416,1,0,1:0:0:0:
193,222,186495,1,0,1:0:0:0:
447,141,186654,5,8,1:0:0:0:
302,369,186811,2,0,B|291:321|291:321|318:271,1,99.0000030212403,8|0,1:0|0:0,0:0:0:0:
196,91,187127,5,8,1:0:0:0:
148,69,187206,1,8,1:0:0:0:
97,78,187285,1,8,3:0:0:0:
65,117,187364,1,8,3:0:0:0:
58,141,187443,6,0,P|76:171|86:213,1,49.5000015106202,4|4,3:0|3:0,0:0:0:0:
160,237,187601,2,0,P|149:258|134:278,1,49.5000015106202,0|0,1:0|1:0,0:0:0:0:
355,168,187759,6,0,P|423:165|472:227,1,148.50000453186,6|0,1:2|0:0,0:0:0:0:
475,252,188075,1,8,1:0:0:0:
271,380,188233,1,2,1:2:0:0:
274,368,188311,1,8,1:0:0:0:
280,356,188390,1,0,1:0:0:0:
408,370,188548,1,2,1:2:0:0:
256,224,188706,1,8,1:0:0:0:
412,104,188864,6,0,P|462:120|511:135,1,99.0000030212403,2|0,1:2|0:0,0:0:0:0:
357,252,189180,1,2,1:2:0:0:
189,137,189338,1,8,1:0:0:0:
269,0,189496,2,0,P|301:46|286:100,1,99.0000030212403,0|0,1:0|0:0,0:0:0:0:
144,23,189811,1,0,1:0:0:0:
0,219,189969,1,10,1:0:0:0:
30,179,190048,1,0,1:0:0:0:
80,167,190127,1,0,1:0:0:0:
130,180,190206,1,0,1:0:0:0:
148,201,190285,6,0,P|136:247|113:352,1,148.50000453186,2|0,1:2|0:0,0:0:0:0:
105,374,190601,1,8,1:0:0:0:
281,233,190759,2,0,B|292:185|292:185|270:135,1,99.0000030212403,2|0,1:2|1:0,0:0:0:0:
272,140,190996,1,8,1:0:0:0:
272,140,191075,1,2,1:2:0:0:
397,294,191233,1,8,1:0:0:0:
512,122,191390,6,0,B|442:110|456:64|372:56,1,148.50000453186,2|0,1:2|0:0,0:0:0:0:
351,61,191706,1,0,1:0:0:0:
156,177,191864,2,0,P|154:133|191:92,1,99.0000030212403,10|0,1:0|1:0,0:0:0:0:
24,181,192180,1,0,1:0:0:0:
189,94,192338,1,0,1:0:0:0:
269,248,192496,2,0,P|325:270|368:253,1,99.0000030212403,10|0,1:0|0:0,0:0:0:0:
118,377,192811,6,0,P|137:297|77:244,1,148.50000453186,6|0,1:2|0:0,0:0:0:0:
75,237,193127,1,8,1:0:0:0:
237,95,193285,1,2,1:2:0:0:
240,84,193364,1,8,1:0:0:0:
244,71,193443,1,0,1:0:0:0:
305,187,193601,1,0,1:0:0:0:
464,0,193759,2,0,P|427:10|361:25,1,99.0000030212403,10|0,1:0|1:0,0:0:0:0:
193,206,194075,6,0,B|117:193|135:144|46:129,1,148.50000453186,0|0,1:0|0:0,0:0:0:0:
37,137,194390,1,10,1:0:0:0:
177,80,194548,1,0,1:0:0:0:
105,267,194706,1,2,1:2:0:0:
177,80,194864,1,0,1:0:0:0:
318,206,195022,2,0,P|370:194|434:179,1,99.0000030212403,10|0,1:0|0:0,0:0:0:0:
228,384,195338,6,0,P|212:346|228:292,1,99.0000030212403,6|0,1:2|1:0,0:0:0:0:
318,340,195654,1,8,1:0:0:0:
135,122,195811,2,0,P|88:114|39:141,1,99.0000030212403,2|0,1:2|0:0,0:0:0:0:
139,222,196127,1,2,1:2:0:0:
247,64,196285,1,8,1:0:0:0:
436,188,196443,6,0,B|354:157|354:157|366:205|358:231,1,148.50000453186,2|0,1:2|0:0,0:0:0:0:
343,239,196759,1,0,1:0:0:0:
182,128,196917,1,8,1:0:0:0:
361,9,197075,1,0,1:0:0:0:
367,21,197154,1,8,1:0:0:0:
368,33,197233,1,0,1:0:0:0:
247,207,197390,1,0,1:0:0:0:
132,32,197548,2,0,P|85:22|29:8,1,99.0000030212403,10|0,1:0|0:0,0:0:0:0:
240,318,197864,6,0,B|258:262|209:216|209:216|139:188|139:105|224:79|291:144|227:208|209:215|209:215|165:249|170:286,1,431.999986816407,4|8,1:0|1:0,0:0:0:0:
3,38,200390,6,0,P|48:28|104:17,1,90,6|0,1:0|0:0,0:0:0:0:
249,184,200706,2,0,P|268:122|219:69,1,135,8|0,1:0|0:0,0:0:0:0:
200,61,201022,1,2,1:0:0:0:
366,148,201180,1,0,0:0:0:0:
186,265,201338,2,0,P|223:289|267:287,1,90,8|0,1:0|0:0,0:0:0:0:
483,122,201654,6,0,P|469:171|455:229,1,90,2|0,1:0|0:0,0:0:0:0:
288,64,201969,2,0,B|227:79|232:122|150:143,1,135,8|0,1:0|0:0,0:0:0:0:
64,156,202285,2,0,P|74:112|85:69,1,90,2|0,1:0|0:0,0:0:0:0:
264,255,202601,2,0,P|323:248|377:302,1,135,8|0,1:0|0:0,0:0:0:0:
383,327,202917,5,2,1:0:0:0:
306,160,203075,1,0,0:0:0:0:
128,268,203233,2,0,P|115:190|103:127,1,135,8|0,1:0|0:0,0:0:0:0:
24,66,203548,2,0,P|-1:108|5:155,1,90,2|0,1:0|0:0,0:0:0:0:
211,81,203864,2,0,B|268:71|268:71|290:48|290:48|364:31,1,135,8|0,1:0|0:0,0:0:0:0:
424,91,204180,6,0,P|436:52|457:-7,1,90,2|0,1:0|0:0,0:0:0:0:
481,286,204496,2,0,P|451:243|364:239,1,135,8|0,1:0|0:0,0:0:0:0:
346,251,204811,1,2,1:0:0:0:
202,356,204969,1,0,0:0:0:0:
114,210,205127,1,8,1:0:0:0:
218,259,205285,1,0,1:0:0:0:
221,247,205364,1,8,1:0:0:0:
225,234,205443,5,6,1:0:0:0:
60,284,205601,1,0,1:0:0:0:
212,131,205759,2,0,P|260:129|300:158,1,90,8|0,1:0|0:0,0:0:0:0:
314,357,206075,5,2,1:0:0:0:
225,234,206233,1,0,1:0:0:0:
405,83,206390,2,0,P|392:130|375:192,1,90,8|0,1:0|0:0,0:0:0:0:
355,249,206627,1,0,1:0:0:0:
353,261,206706,5,2,1:0:0:0:
237,139,206864,1,0,1:0:0:0:
67,219,207022,2,0,B|60:175|60:175|87:127,1,90,8|0,1:0|0:0,0:0:0:0:
140,69,207259,1,0,1:0:0:0:
149,58,207338,1,2,1:0:0:0:
220,239,207496,5,0,1:0:0:0:
232,242,207575,1,0,1:0:0:0:
244,245,207654,1,8,1:0:0:0:
463,178,207811,2,0,P|481:224|483:253,1,45,0|0,1:0|1:0,0:0:0:0:
414,297,207969,5,12,1:0:0:0:
292,119,208127,1,2,1:0:0:0:
472,76,208285,5,8,1:0:0:0:
304,209,208443,1,2,1:0:0:0:
179,108,208601,5,8,1:0:0:0:
1,33,208759,1,2,1:0:0:0:
196,2,208917,5,8,1:0:0:0:
5,139,209075,1,2,1:0:0:0:
213,243,209233,5,8,1:0:0:0:
99,44,209390,1,8,1:0:0:0:
96,57,209469,1,8,1:0:0:0:
94,70,209548,1,8,1:0:0:0:
47,288,209706,6,0,L|3:296,1,45,2|0,1:0|0:0,0:0:0:0:
62,281,210022,6,0,L|77:238,1,45,2|0,1:0|0:0,0:0:0:0:
61,297,210338,6,0,L|89:331,1,45,2|0,1:0|0:0,0:0:0:0:
