osu file format v14

[General]
AudioFilename: audio.mp3
AudioLeadIn: 0
PreviewTime: 114180
Countdown: 0
SampleSet: Soft
StackLeniency: 0.7
Mode: 0
LetterboxInBreaks: 0
WidescreenStoryboard: 1

[Editor]
DistanceSpacing: 1
BeatDivisor: 2
GridSize: 32
TimelineZoom: 2.4

[Metadata]
Title:Just believe
TitleUnicode:Just believe
Artist:Imy
ArtistUnicode:Imy
Creator:Agatsu
Version:Normal
Source:
Tags:akito japanese rock jrock j-rock female vocals vocalist full version size beyond the despair みゅー miyu myu mirin
BeatmapID:2573908
BeatmapSetID:1237988

[Difficulty]
HPDrainRate:3
CircleSize:3.5
OverallDifficulty:4
ApproachRate:5
SliderMultiplier:0.999999999999999
SliderTickRate:1

[Events]
//Background and Video events
0,0,"bg.jpg",0,0
//Break Periods
//Storyboard Layer 0 (Background)
//Storyboard Layer 1 (Fail)
//Storyboard Layer 2 (Pass)
//Storyboard Layer 3 (Foreground)
//Storyboard Layer 4 (Overlay)
//Storyboard Sound Samples

[TimingPoints]
812,315.78947368421,4,2,1,60,1,0
5548,-100,4,2,1,80,0,0
15811,-111.111111111111,4,2,1,55,0,0
17548,-111.111111111111,4,2,1,55,0,0
20864,-100,4,2,1,80,0,0
25917,-100,4,2,1,60,0,0
36180,-100,4,2,1,65,0,0
40601,-100,4,2,1,65,0,0
41233,-100,4,2,1,65,0,0
43759,-100,4,2,1,65,0,0
48811,-100,4,2,1,80,0,1
69022,-100,4,2,1,80,0,1
70285,-100,4,2,1,80,0,0
81496,-111.111111111111,4,2,1,55,0,0
81654,-111.111111111111,4,2,1,55,0,0
86548,-100,4,2,1,80,0,0
91601,-100,4,2,1,60,0,0
101864,-100,4,2,1,65,0,0
106285,-100,4,2,1,65,0,0
109443,-100,4,2,1,65,0,0
114496,-100,4,2,1,80,0,1
134706,-100,4,2,1,80,0,1
135969,-100,4,2,1,60,0,0
142127,-100,4,2,1,80,0,0
142443,-100,4,2,1,80,0,0
142496,-100,4,2,1,50,0,0
142601,-100,4,2,1,80,0,0
142969,-100,4,2,1,80,0,0
143022,-100,4,2,1,50,0,0
143233,-100,4,2,1,80,0,0
144022,-100,4,2,1,80,0,0
144075,-100,4,2,1,50,0,0
144180,-100,4,2,1,80,0,0
147338,-100,4,2,1,60,0,0
147496,-100,4,2,1,60,0,0
152233,-100,4,2,1,80,0,0
159969,-100,4,2,1,80,0,0
162338,-100,4,2,1,60,0,0
162811,-100,4,2,1,60,0,0
172917,-100,4,2,1,70,0,0
177654,-100,4,2,1,80,0,1
197864,-100,4,2,1,80,0,1
199127,-100,4,2,1,80,0,0
200390,-100,4,2,1,80,0,0

[Colours]
Combo1 : 98,126,223
Combo2 : 157,201,244
Combo3 : 232,192,134
Combo4 : 209,159,236

[HitObjects]
15,48,812,6,0,L|76:42,1,50,8|8,1:0|1:0,0:0:0:0:
443,172,2233,6,0,L|434:223,2,50,8|8|8,1:0|1:0|1:0,0:0:0:0:
372,100,2864,1,8,1:0:0:0:
280,140,3180,1,4,1:2:0:0:
300,237,3496,1,4,1:2:0:0:
106,360,4443,6,0,P|35:355|3:319,1,99.9999999999999,12|8,1:0|1:0,0:0:0:0:
6,288,4917,1,8,0:3:0:0:
62,205,5233,2,0,L|57:149,1,50,8|0,1:0|1:0,0:0:0:0:
52,105,5548,1,8,1:0:0:0:
117,29,5864,6,0,P|181:24|222:51,1,99.9999999999999,6|8,1:0|1:0,0:0:0:0:
282,111,6496,2,0,L|273:169,1,50,2|0,1:0|0:0,0:0:0:0:
267,210,6811,1,8,1:0:0:0:
204,287,7127,1,2,1:0:0:0:
261,368,7443,1,8,1:0:0:0:
353,330,7759,2,0,P|407:323|457:347,1,99.9999999999999,2|8,1:0|1:0,0:0:0:0:
509,260,8390,6,0,L|500:154,1,99.9999999999999,2|8,1:0|1:0,0:0:0:0:
424,94,9022,2,0,L|347:103,1,50,2|0,1:0|0:0,0:0:0:0:
325,113,9338,1,8,1:0:0:0:
259,188,9654,2,0,P|280:236|266:293,1,99.9999999999999,2|8,1:0|1:0,0:0:0:0:
199,350,10285,1,2,1:0:0:0:
112,299,10601,2,0,L|38:306,1,50,8|0,1:0|1:0,0:0:0:0:
15,323,10917,6,0,L|1:209,1,99.9999999999999,6|8,1:0|1:0,0:0:0:0:
53,137,11548,2,0,L|44:75,1,50,2|0,1:0|0:0,0:0:0:0:
35,38,11864,1,8,1:0:0:0:
128,2,12180,1,2,1:0:0:0:
203,67,12496,1,8,1:0:0:0:
299,40,12811,2,0,L|412:50,1,99.9999999999999,2|8,1:0|1:0,0:0:0:0:
485,98,13443,6,0,P|503:150|485:206,1,99.9999999999999,6|8,1:0|1:0,0:0:0:0:
413,253,14075,1,0,1:0:0:0:
331,195,14390,1,8,1:0:0:0:
235,224,14706,2,0,L|230:164,2,50,2|8|8,1:0|1:0|1:0,0:0:0:0:
240,274,15180,1,2,1:0:0:0:
295,357,15496,1,2,1:0:0:0:
381,334,15811,6,0,L|498:344,1,89.999997253418,6|0,1:0|0:0,0:0:0:0:
508,316,16285,1,10,1:0:0:0:
499,226,16601,2,0,L|508:130,1,89.999997253418,0|8,0:0|1:0,0:0:0:0:
475,104,17075,2,0,P|415:85|335:109,1,134.999995880127,2|0,1:0|0:0,0:0:0:0:
257,203,18022,2,0,L|245:296,1,89.999997253418,0|0,1:0|0:0,0:0:0:0:
226,333,18496,6,0,P|171:336|96:282,1,134.999995880127,2|2,0:0|0:0,0:0:0:0:
21,262,19285,1,2,0:0:0:0:
44,174,19601,2,0,L|32:27,1,134.999995880127,2|8,1:0|1:0,0:0:0:0:
117,7,20390,1,2,0:0:0:0:
205,42,20706,1,8,1:0:0:0:
205,42,20864,6,0,L|365:56,1,150,6|8,1:0|1:0,0:0:0:0:
451,31,21654,2,0,L|456:102,1,50,8|0,1:0|1:0,0:0:0:0:
463,130,21969,1,8,1:0:0:0:
401,205,22285,1,8,1:0:0:0:
313,156,22601,1,10,1:0:0:0:
221,194,22917,2,0,L|114:182,1,99.9999999999999,10|8,1:0|1:0,0:0:0:0:
72,175,23390,6,0,P|46:220|53:280,1,99.9999999999999,6|0,1:0|1:0,1:1:0:0:
63,314,23864,1,8,1:0:0:0:
145,370,24180,2,0,L|255:358,1,99.9999999999999,8|8,1:0|1:0,0:0:0:0:
348,362,24811,1,8,1:0:0:0:
348,362,24969,1,2,1:0:0:0:
395,273,25285,1,2,1:0:0:0:
330,196,25601,2,0,L|341:138,1,50,2|8,1:0|1:0,0:0:0:0:
351,98,25917,6,0,P|401:82|458:103,1,99.9999999999999,4|0,1:0|1:0,0:0:0:0:
483,126,26390,1,10,1:0:0:0:
502,224,26706,2,0,L|493:332,1,99.9999999999999,2|8,1:2|1:0,0:0:0:0:
488,373,27180,2,0,P|425:337|335:349,1,150,2|10,1:2|1:0,0:0:0:0:
208,291,28127,2,0,L|104:302,1,99.9999999999999,2|0,1:2|1:0,0:0:0:0:
59,311,28601,5,2,0:0:0:0:
7,231,28917,1,8,1:0:0:0:
7,231,29075,1,2,1:2:0:0:
66,150,29390,1,2,1:2:0:0:
159,186,29706,2,0,P|231:187|296:243,1,150,2|10,1:2|1:0,0:0:0:0:
372,291,30496,2,0,L|481:281,1,99.9999999999999,2|8,1:2|1:0,0:0:0:0:
505,244,30969,6,0,P|520:175|491:91,1,150,6|8,1:2|1:0,0:0:0:0:
422,42,31759,1,2,1:2:0:0:
422,42,31917,1,0,1:0:0:0:
329,80,32233,2,0,L|158:68,1,150,2|10,1:2|1:0,0:0:0:0:
93,120,33022,2,0,P|74:181|89:228,1,99.9999999999999,2|8,1:2|1:0,0:0:0:0:
103,260,33496,6,0,P|175:250|249:296,1,150,6|8,1:2|1:0,0:0:0:0:
311,364,34285,1,2,1:2:0:0:
311,364,34443,1,0,1:0:0:0:
406,335,34759,2,0,B|396:252|448:278|424:170,1,150,6|8,1:2|1:0,0:0:0:0:
340,141,35548,2,0,L|262:133,1,50,8|8,1:0|1:0,0:0:0:0:
250,167,35864,2,0,L|200:172,1,50,8|8,1:0|1:0,0:0:0:0:
150,181,36180,6,0,P|134:117|152:76,1,99.9999999999999,4|2,1:0|1:2,0:0:0:0:
211,12,36811,2,0,L|327:22,1,99.9999999999999,10|0,1:0|1:0,0:0:0:0:
360,15,37285,2,0,P|413:16|481:96,1,150,2|2,1:2|1:2,0:0:0:0:
490,181,38075,1,8,1:0:0:0:
401,230,38390,1,2,1:2:0:0:
313,181,38706,6,0,L|203:191,1,99.9999999999999,2|0,1:2|1:0,0:0:0:0:
163,197,39180,1,2,1:2:0:0:
78,143,39496,1,2,1:2:0:0:
8,214,39811,2,0,P|-11:264|9:323,1,99.9999999999999,2|0,1:2|1:0,0:0:0:0:
28,349,40285,1,2,1:2:0:0:
127,354,40601,2,0,L|137:259,2,75,8|8|8,1:0|1:0|1:0,0:0:0:0:
171,377,41233,5,4,1:0:0:0:
262,336,41548,1,2,1:2:0:0:
356,367,41864,2,0,P|405:370|451:338,1,99.9999999999999,10|0,1:0|1:0,0:0:0:0:
465,297,42338,2,0,L|450:137,1,150,2|2,1:2|1:2,0:0:0:0:
368,90,43127,1,8,1:0:0:0:
285,146,43443,2,0,L|275:218,1,50,4|8,3:0|1:0,0:0:0:0:
269,245,43759,6,0,P|215:237|165:264,1,99.9999999999999,14|8,1:0|1:0,0:0:0:0:
137,288,44233,1,2,1:2:0:0:
137,288,44390,1,8,1:0:0:0:
45,247,44706,2,0,L|55:129,1,99.9999999999999,10|8,1:0|1:0,0:0:0:0:
61,47,45338,1,10,1:0:0:0:
156,15,45654,1,10,1:0:0:0:
213,96,45969,1,10,1:0:0:0:
151,174,46285,6,0,P|127:229|140:285,1,99.9999999999999,10|8,1:0|1:0,0:0:0:0:
158,309,46759,1,2,1:2:0:0:
248,351,47075,1,2,1:2:0:0:
336,304,47390,2,0,L|330:189,1,99.9999999999999,8|8,3:0|1:0,0:0:0:0:
322,154,47864,2,0,L|257:158,1,50,10|0,1:0|1:0,0:0:0:0:
221,159,48180,1,8,1:0:0:0:
160,79,48496,1,10,1:0:0:0:
233,11,48811,6,0,P|297:11|345:43,1,99.9999999999999,6|8,1:2|1:0,0:0:0:0:
357,68,49285,1,2,1:2:0:0:
404,156,49601,1,2,1:2:0:0:
338,232,49917,2,0,L|322:340,1,99.9999999999999,2|0,1:2|1:0,0:0:0:0:
288,366,50390,1,10,1:0:0:0:
205,309,50706,1,2,1:2:0:0:
116,354,51022,1,10,1:0:0:0:
42,286,51338,6,0,P|34:236|57:187,1,99.9999999999999,2|8,1:2|1:0,0:0:0:0:
92,160,51811,1,2,1:2:0:0:
182,201,52127,1,2,1:2:0:0:
265,145,52443,1,2,1:2:0:0:
358,179,52759,2,0,L|470:166,1,99.9999999999999,2|0,1:2|1:0,0:0:0:0:
507,160,53233,1,0,1:0:0:0:
506,60,53548,1,10,1:0:0:0:
420,8,53864,6,0,L|299:20,1,99.9999999999999,6|8,1:2|1:0,0:0:0:0:
271,30,54338,2,0,P|252:96|266:134,1,99.9999999999999,2|0,1:2|1:0,0:0:0:0:
287,166,54811,2,0,L|270:287,1,99.9999999999999,10|0,1:0|0:0,0:0:0:0:
249,362,55443,1,10,1:0:0:0:
157,320,55759,1,2,1:2:0:0:
61,351,56075,1,10,1:0:0:0:
5,268,56390,6,0,P|-1:215|25:164,1,99.9999999999999,14|0,1:0|1:0,0:0:0:0:
54,139,56864,1,10,1:0:0:0:
135,196,57180,1,2,1:2:0:0:
221,145,57496,2,0,L|234:39,1,99.9999999999999,2|8,1:2|1:0,0:0:0:0:
259,2,57969,1,8,1:0:0:0:
345,52,58285,2,0,L|401:46,1,50,8|8,1:0|3:0,0:0:0:0:
431,12,58601,2,0,L|481:48,1,50,4|0,3:0|1:0,0:0:0:0:
510,72,58917,6,0,L|489:208,1,99.9999999999999,6|8,1:2|1:0,0:0:0:0:
483,219,59390,1,2,1:2:0:0:
497,318,59706,1,2,1:2:0:0:
407,363,60022,1,2,1:2:0:0:
325,305,60338,2,0,P|261:293|219:315,1,99.9999999999999,2|0,1:2|1:0,0:0:0:0:
195,341,60811,1,0,0:0:0:0:
98,369,61127,1,10,1:0:0:0:
21,304,61443,6,0,L|35:186,1,99.9999999999999,2|8,1:2|1:0,0:0:0:0:
40,154,61917,1,2,1:2:0:0:
7,59,62233,2,0,L|78:51,1,50,2|8,1:2|1:0,0:0:0:0:
94,20,62548,2,0,L|206:32,1,99.9999999999999,2|0,1:2|1:0,0:0:0:0:
242,40,63022,1,10,1:0:0:0:
340,57,63338,2,0,P|354:119|338:160,1,99.9999999999999,0|10,1:0|1:0,0:0:0:0:
250,191,63969,6,0,L|142:178,1,99.9999999999999,6|8,1:2|1:0,0:0:0:0:
100,186,64443,2,0,P|74:243|87:297,1,99.9999999999999,2|0,1:2|1:0,0:0:0:0:
93,326,64917,2,0,L|210:314,1,99.9999999999999,10|0,1:0|0:0,0:0:0:0:
279,365,65548,1,10,1:0:0:0:
358,304,65864,1,2,1:2:0:0:
443,356,66180,1,10,1:0:0:0:
503,276,66496,6,0,P|517:220|492:173,1,99.9999999999999,6|8,1:2|1:0,0:0:0:0:
460,153,66969,1,2,1:2:0:0:
374,205,67285,1,2,1:2:0:0:
284,159,67601,2,0,L|163:171,1,99.9999999999999,2|0,1:2|1:0,0:0:0:0:
134,171,68075,1,8,1:0:0:0:
64,99,68390,1,0,1:0:0:0:
114,12,68706,1,10,1:0:0:0:
213,19,69022,6,0,P|279:6|369:26,2,150,4|0|0,1:0|0:0|0:0,0:0:0:0:
155,101,70285,5,8,1:0:0:0:
462,356,71548,6,0,L|475:244,1,99.9999999999999,6|8,1:0|1:0,0:0:0:0:
424,168,72180,2,0,L|433:95,1,50,2|0,1:0|0:0,0:0:0:0:
437,68,72496,1,8,1:0:0:0:
356,9,72811,1,2,1:0:0:0:
282,76,73127,1,8,1:0:0:0:
321,167,73443,2,0,P|337:218|321:273,1,99.9999999999999,2|8,1:0|1:0,0:0:0:0:
280,351,74075,5,2,1:0:0:0:
194,299,74390,1,8,1:0:0:0:
109,352,74706,2,0,L|54:342,1,50,2|0,1:0|0:0,0:0:0:0:
11,330,75022,1,8,1:0:0:0:
42,235,75338,2,0,L|35:121,1,99.9999999999999,2|8,1:0|1:0,0:0:0:0:
107,65,75969,1,2,1:0:0:0:
198,106,76285,2,0,L|265:98,1,50,8|0,1:0|1:0,0:0:0:0:
297,102,76601,6,0,P|315:143|304:207,1,99.9999999999999,6|8,1:0|1:0,0:0:0:0:
254,281,77233,2,0,L|244:362,1,50,2|0,1:0|0:0,0:0:0:0:
241,380,77548,1,8,1:0:0:0:
337,353,77864,1,2,1:0:0:0:
434,375,78180,1,8,1:0:0:0:
502,302,78496,2,0,P|512:242|481:193,1,99.9999999999999,2|8,1:0|1:0,0:0:0:0:
409,157,79127,6,0,L|274:175,1,99.9999999999999,2|8,1:0|1:0,0:0:0:0:
233,234,79759,1,0,1:0:0:0:
138,201,80075,1,8,1:0:0:0:
120,102,80390,2,0,L|59:98,2,50,0|8|8,1:0|1:0|1:0,0:0:0:0:
160,72,80864,1,2,1:0:0:0:
245,19,81180,1,2,1:0:0:0:
336,59,81496,6,0,P|408:86|424:155,1,134.999995880127,6|0,1:0|0:0,0:0:0:0:
421,226,82285,1,2,0:0:0:0:
349,340,82759,2,0,L|192:319,1,134.999995880127,2|8,0:0|0:0,0:0:0:0:
130,351,83548,1,8,0:0:0:0:
49,309,83864,1,10,0:0:0:0:
36,219,84180,6,0,P|30:154|45:76,1,134.999995880127,2|0,1:2|0:0,0:0:0:0:
107,23,84969,1,2,0:0:0:0:
193,48,85285,2,0,B|272:40|252:68|327:62,1,134.999995880127,2|0,1:2|0:0,0:0:0:0:
379,134,86075,1,0,0:0:0:0:
321,202,86390,1,0,0:0:0:0:
321,202,86548,6,0,L|159:191,1,150,4|8,1:0|1:0,0:0:0:0:
71,178,87338,2,0,L|62:241,1,50,8|0,1:0|1:0,0:0:0:0:
54,276,87654,1,8,1:0:0:0:
115,354,87969,1,8,1:0:0:0:
214,345,88285,1,10,1:0:0:0:
262,257,88601,2,0,L|255:155,1,99.9999999999999,10|8,1:0|1:0,0:0:0:0:
219,122,89075,6,0,P|220:52|243:21,1,99.9999999999999,6|0,1:0|1:0,0:0:0:0:
276,0,89548,1,8,1:0:0:0:
375,3,89864,2,0,P|413:40|422:97,1,99.9999999999999,8|8,1:0|1:0,0:0:0:0:
428,184,90496,2,0,L|495:195,2,50,10|8|4,1:0|3:0|3:0,0:0:0:0:
380,199,90969,1,4,3:0:0:0:
289,241,91285,1,2,1:0:0:0:
216,172,91601,6,0,P|154:160|71:202,1,150,4|10,1:0|1:0,0:0:0:0:
0,262,92390,2,0,P|4:322|31:357,1,99.9999999999999,2|8,1:2|1:0,0:0:0:0:
74,367,92864,2,0,L|227:377,1,150,2|10,1:2|1:0,0:0:0:0:
310,327,93654,1,0,1:0:0:0:
405,356,93969,1,8,1:0:0:0:
487,299,94285,6,0,P|502:243|479:182,1,99.9999999999999,2|8,0:0|1:0,0:0:0:0:
463,161,94759,1,2,1:2:0:0:
378,107,95075,1,2,1:2:0:0:
297,165,95390,2,0,L|141:176,1,150,2|10,1:2|1:0,0:0:0:0:
56,218,96180,1,2,1:2:0:0:
6,130,96496,1,8,1:0:0:0:
6,130,96654,6,0,P|10:75|35:30,1,99.9999999999999,6|0,1:2|1:0,0:0:0:0:
73,10,97127,1,8,1:0:0:0:
165,48,97443,2,0,L|286:55,1,99.9999999999999,2|8,1:2|1:0,0:0:0:0:
315,54,97917,2,0,P|330:111|312:206,1,150,2|10,1:2|1:0,0:0:0:0:
234,258,98706,1,2,1:2:0:0:
270,351,99022,1,8,1:0:0:0:
270,351,99180,6,0,P|353:372|432:336,1,150,6|8,1:2|1:0,0:0:0:0:
482,281,99969,2,0,L|474:165,1,99.9999999999999,2|8,1:2|1:0,0:0:0:0:
470,131,100443,2,0,B|417:121|417:121|384:132|384:132|296:114,1,150,6|8,1:2|1:0,0:0:0:0:
252,50,101233,2,0,L|187:63,1,50,8|8,1:0|1:0,0:0:0:0:
166,94,101548,2,0,L|103:85,1,50,8|8,1:0|1:0,0:0:0:0:
72,112,101864,6,0,P|43:174|59:221,1,99.9999999999999,4|2,1:0|1:2,0:0:0:0:
98,289,102496,2,0,L|206:285,1,99.9999999999999,10|0,1:0|1:0,0:0:0:0:
245,299,102969,2,0,L|263:137,1,150,2|2,1:2|1:2,0:0:0:0:
264,49,103759,1,8,1:0:0:0:
356,9,104075,1,2,1:2:0:0:
450,41,104390,6,0,P|476:92|460:147,1,99.9999999999999,2|0,1:2|1:0,0:0:0:0:
443,175,104864,1,2,1:2:0:0:
351,135,105180,1,2,1:2:0:0:
263,183,105496,2,0,P|206:197|152:175,1,99.9999999999999,2|0,1:2|1:0,0:0:0:0:
125,158,105969,1,2,1:2:0:0:
42,101,106285,2,0,L|54:22,2,74.9999999999999,8|8|8,1:0|1:0|1:0,0:0:0:0:
1,130,106917,6,0,L|14:267,1,99.9999999999999,4|2,1:0|1:2,0:0:0:0:
20,329,107548,1,10,1:0:0:0:
116,303,107864,1,0,1:0:0:0:
116,303,108022,2,0,L|277:322,1,150,2|2,1:2|1:2,0:0:0:0:
352,369,108811,1,8,1:0:0:0:
442,325,109127,2,0,L|437:257,1,50,4|8,3:0|1:0,0:0:0:0:
470,236,109443,6,0,L|488:125,1,99.9999999999999,14|8,1:0|1:0,0:0:0:0:
497,88,109917,1,2,1:2:0:0:
414,31,110233,1,0,1:0:0:0:
414,31,110390,2,0,P|359:19|309:44,1,99.9999999999999,10|8,1:0|1:0,0:0:0:0:
245,101,111022,1,10,1:0:0:0:
319,167,111338,1,10,1:0:0:0:
298,264,111654,1,10,1:0:0:0:
199,279,111969,6,0,L|189:355,2,50,10|0|8,1:0|0:0|1:0,0:0:0:0:
180,232,112443,1,2,1:2:0:0:
84,260,112759,1,2,1:2:0:0:
5,197,113075,2,0,L|18:89,1,99.9999999999999,8|8,3:0|1:0,0:0:0:0:
23,49,113548,2,0,L|96:54,1,50,10|0,1:0|1:0,0:0:0:0:
122,59,113864,1,8,1:0:0:0:
194,128,114180,1,10,1:0:0:0:
132,207,114496,6,0,P|111:268|125:318,1,99.9999999999999,6|8,1:2|1:0,0:0:0:0:
141,345,114969,1,2,1:2:0:0:
235,311,115285,1,2,1:2:0:0:
325,352,115601,2,0,P|377:353|425:321,1,99.9999999999999,2|0,1:2|1:0,0:0:0:0:
452,293,116075,1,10,1:0:0:0:
488,200,116390,1,2,1:2:0:0:
414,132,116706,1,10,1:0:0:0:
323,175,117022,6,0,L|207:159,1,99.9999999999999,2|8,1:2|1:0,0:0:0:0:
174,154,117496,1,2,1:2:0:0:
90,208,117811,1,2,1:2:0:0:
23,133,118127,2,0,P|15:72|43:27,1,99.9999999999999,2|2,1:2|1:2,0:0:0:0:
72,9,118601,1,8,1:0:0:0:
164,46,118917,2,0,L|274:35,1,99.9999999999999,0|10,1:0|1:0,0:0:0:0:
348,88,119548,6,0,P|369:136|354:199,1,99.9999999999999,6|8,1:2|1:0,0:0:0:0:
317,203,120022,2,0,L|302:329,1,99.9999999999999,2|0,1:2|1:0,0:0:0:0:
288,349,120496,2,0,P|368:344|413:360,1,99.9999999999999,10|0,1:0|1:0,0:0:0:0:
482,374,121127,1,10,1:0:0:0:
511,278,121443,1,2,1:2:0:0:
455,194,121759,1,10,1:0:0:0:
359,163,122075,6,0,L|244:173,1,99.9999999999999,14|0,1:0|1:0,0:0:0:0:
210,180,122548,1,10,1:0:0:0:
131,242,122864,1,2,1:2:0:0:
43,193,123180,2,0,P|38:137|59:81,1,99.9999999999999,2|8,1:2|1:0,0:0:0:0:
79,54,123654,1,8,1:0:0:0:
173,22,123969,2,0,L|246:33,1,50,8|8,1:0|3:0,0:0:0:0:
260,61,124285,2,0,L|333:50,1,50,4|0,3:0|1:0,0:0:0:0:
350,24,124601,6,0,P|415:14|465:31,1,99.9999999999999,6|8,1:2|1:0,0:0:0:0:
485,55,125075,1,2,1:2:0:0:
502,153,125390,1,2,1:2:0:0:
424,216,125706,2,0,L|412:331,1,99.9999999999999,2|2,1:2|1:2,0:0:0:0:
402,364,126180,1,8,1:0:0:0:
302,371,126496,1,0,0:0:0:0:
233,298,126811,1,10,1:0:0:0:
260,201,127127,6,0,P|274:149|263:95,1,99.9999999999999,2|8,1:2|1:0,0:0:0:0:
227,72,127601,1,2,1:2:0:0:
133,36,127917,1,2,1:2:0:0:
45,84,128233,1,2,1:2:0:0:
11,178,128548,2,0,L|24:295,1,99.9999999999999,0|0,1:0|1:0,0:0:0:0:
30,326,129022,1,0,1:0:0:0:
120,367,129338,1,10,1:0:0:0:
203,311,129654,6,0,P|217:255|195:200,1,99.9999999999999,6|8,1:2|1:0,0:0:0:0:
172,178,130127,2,0,L|182:65,1,99.9999999999999,2|0,1:2|1:0,0:0:0:0:
173,28,130601,2,0,P|227:45|288:37,1,99.9999999999999,10|0,1:0|0:0,0:0:0:0:
365,10,131233,1,10,1:0:0:0:
452,57,131548,1,2,1:2:0:0:
448,156,131864,1,10,1:0:0:0:
351,183,132180,6,0,P|285:165|237:173,1,99.9999999999999,6|8,1:2|1:0,0:0:0:0:
209,190,132654,1,2,1:2:0:0:
147,268,132969,1,2,1:2:0:0:
192,357,133285,2,0,L|301:367,1,99.9999999999999,2|0,1:2|1:0,0:0:0:0:
341,370,133759,1,8,1:0:0:0:
426,317,134075,1,0,1:0:0:0:
418,217,134390,1,10,1:0:0:0:
335,160,134706,6,0,P|326:89|354:3,2,150,4|0|0,1:0|0:0|0:0,0:0:0:0:
261,227,135969,1,8,1:0:0:0:
7,371,137233,6,0,L|18:293,1,50,8|8,1:0|1:0,0:0:0:0:
349,102,138654,6,0,L|358:153,2,50,8|8|8,1:0|1:0|1:0,0:0:0:0:
420,31,139285,1,8,1:0:0:0:
512,70,139601,1,4,1:2:0:0:
492,167,139917,1,4,1:2:0:0:
210,64,140864,6,0,L|100:50,1,99.9999999999999,6|8,1:0|1:0,0:0:0:0:
62,38,141338,1,8,1:0:0:0:
7,121,141654,1,8,1:0:0:0:
23,223,141969,1,8,1:0:0:0:
23,223,142127,6,0,P|73:206|145:219,1,99.9999999999999,6|2,1:0|1:2,0:0:0:0:
162,235,142601,1,8,1:0:0:0:
162,235,142759,2,0,P|225:251|272:236,1,99.9999999999999,2|2,0:0|1:0,0:0:0:0:
299,215,143233,1,10,1:0:0:0:
255,125,143548,1,0,1:0:0:0:
291,31,143864,1,10,1:0:0:0:
395,13,144180,2,0,P|461:23|496:57,1,99.9999999999999,2|10,1:0|1:0,0:0:0:0:
502,90,144654,6,0,L|490:203,1,99.9999999999999,6|0,1:0|1:0,0:0:0:0:
480,238,145127,1,8,1:0:0:0:
406,305,145443,1,2,1:0:0:0:
316,260,145759,1,8,1:0:0:0:
316,260,145917,2,0,L|191:279,1,99.9999999999999,2|0,1:0|1:0,0:0:0:0:
148,347,146548,2,0,P|94:323|28:329,1,99.9999999999999,2|0,1:0|1:0,0:0:0:0:
4,331,147022,2,0,L|18:252,1,50,8|2,1:0|1:0,0:0:0:0:
17,231,147338,5,4,1:0:0:0:
7,81,147811,1,2,0:0:0:0:
7,81,147969,2,0,B|54:76|54:76|64:79|64:79|131:71,1,99.9999999999999,10|0,1:0|1:0,0:0:0:0:
146,103,148443,2,0,L|257:90,1,99.9999999999999,0|0,1:0|1:0,0:0:0:0:
295,88,148917,1,10,1:0:0:0:
394,99,149233,2,0,P|401:55|394:16,2,74.9999999999999,2|2|2,1:0|1:0|1:0,0:0:0:0:
367,141,149864,5,2,1:0:0:0:
278,188,150180,1,2,1:0:0:0:
269,287,150496,1,10,1:0:0:0:
355,336,150811,2,0,L|422:327,1,50,2|0,1:0|1:0,0:0:0:0:
453,318,151127,2,0,P|467:263|449:213,1,99.9999999999999,2|8,1:0|1:0,0:0:0:0:
389,146,151759,1,8,1:0:0:0:
292,144,152075,1,8,1:0:0:0:
292,144,152233,6,0,L|150:136,1,99.9999999999999,6|0,1:0|1:0,0:0:0:0:
142,138,152706,1,10,1:0:0:0:
51,180,153022,1,10,1:0:0:0:
27,280,153338,1,8,1:0:0:0:
27,280,153496,2,0,P|80:302|152:283,1,99.9999999999999,2|0,1:0|1:0,0:0:0:0:
170,286,153969,1,10,1:0:0:0:
246,350,154285,2,0,L|362:360,1,99.9999999999999,10|8,1:0|1:0,0:0:0:0:
395,365,154759,6,0,P|455:363|500:331,1,99.9999999999999,6|0,1:0|1:0,0:0:0:0:
510,298,155233,1,10,1:0:0:0:
463,209,155548,2,0,L|479:107,1,99.9999999999999,2|8,1:0|1:0,0:0:0:0:
502,66,156022,2,0,P|485:14|415:-8,1,99.9999999999999,2|0,1:0|1:0,0:0:0:0:
354,27,156654,2,0,B|308:33|308:33|298:40|298:40|227:49,1,99.9999999999999,2|0,1:0|1:0,0:0:0:0:
169,94,157285,1,2,1:0:0:0:
169,94,157443,5,0,1:0:0:0:
75,58,157759,1,10,1:0:0:0:
10,134,158075,1,10,1:0:0:0:
42,228,158390,2,0,L|34:291,1,50,10|2,1:0|1:0,0:0:0:0:
27,327,158706,1,10,1:0:0:0:
117,369,159022,1,10,1:0:0:0:
200,313,159338,1,10,1:0:0:0:
295,344,159654,2,0,L|366:334,1,50,10|2,1:0|1:0,0:0:0:0:
392,351,159969,6,0,P|463:359|505:335,1,99.9999999999999,14|8,1:0|1:0,0:0:0:0:
501,249,160601,1,10,1:0:0:0:
434,174,160917,1,10,1:0:0:0:
339,206,161233,2,0,L|234:195,1,99.9999999999999,10|10,1:0|1:0,0:0:0:0:
151,243,161864,2,0,P|78:251|39:228,1,99.9999999999999,10|10,1:0|1:0,0:0:0:0:
18,207,162338,6,0,L|11:68,1,99.9999999999999,6|0,1:0|1:0,0:0:0:0:
16,57,162811,1,10,1:0:0:0:
107,17,163127,2,0,P|162:12|210:35,1,99.9999999999999,2|8,1:0|1:0,0:0:0:0:
232,69,163601,2,0,L|219:181,1,99.9999999999999,2|0,1:0|1:0,0:0:0:0:
207,217,164075,1,10,1:0:0:0:
234,312,164390,1,2,1:0:0:0:
336,297,164706,1,8,1:0:0:0:
336,297,164864,6,0,L|490:277,1,150,6|8,1:0|1:0,2:2:0:0:
507,179,165654,2,0,P|510:126|492:82,1,99.9999999999999,2|8,1:0|1:0,0:0:0:0:
409,27,166285,2,0,L|278:37,1,99.9999999999999,2|8,0:0|1:0,0:0:0:0:
239,106,166917,2,0,P|219:167|227:216,1,99.9999999999999,2|8,1:0|1:0,0:0:0:0:
257,237,167390,6,0,P|243:333|197:388,1,150,6|8,1:0|1:0,0:0:0:0:
112,382,168180,1,0,1:0:0:0:
29,335,168496,1,8,1:0:0:0:
29,335,168654,2,0,P|16:274|51:187,1,150,6|10,1:0|1:0,0:0:0:0:
115,122,169443,2,0,L|221:139,1,99.9999999999999,2|8,1:0|1:0,0:0:0:0:
247,173,169917,6,0,B|330:165|321:204|412:193,1,150,4|8,1:0|1:0,0:0:0:0:
478,140,170706,2,0,P|493:86|474:28,1,99.9999999999999,2|8,1:0|1:0,0:0:0:0:
446,9,171180,2,0,L|287:18,1,150,6|8,1:0|1:0,0:0:0:0:
197,0,171969,1,2,1:0:0:0:
100,25,172285,1,8,1:0:0:0:
100,25,172443,6,0,P|85:92|97:166,1,99.9999999999999,6|0,1:0|1:0,0:0:0:0:
95,172,172917,1,8,1:0:0:0:
47,259,173233,1,8,1:0:0:0:
98,344,173548,1,8,1:0:0:0:
198,341,173864,2,0,L|214:234,1,99.9999999999999,10|8,1:0|1:0,0:0:0:0:
281,168,174496,2,0,P|338:165|397:181,1,99.9999999999999,10|8,1:0|1:0,0:0:0:0:
456,238,175127,5,14,1:0:0:0:
56,216,176390,6,0,L|47:283,1,50,8|0,1:0|1:0,0:0:0:0:
38,314,176706,1,8,3:0:0:0:
122,367,177022,1,8,1:0:0:0:
212,324,177338,1,8,1:0:0:0:
201,224,177654,6,0,P|190:159|220:105,1,99.9999999999999,6|8,1:2|1:0,0:0:0:0:
235,92,178127,1,2,1:2:0:0:
328,56,178443,1,2,1:2:0:0:
424,83,178759,2,0,L|435:198,1,99.9999999999999,2|0,1:2|1:0,0:0:0:0:
439,232,179233,1,10,1:0:0:0:
462,328,179548,1,2,1:2:0:0:
372,373,179864,1,10,1:0:0:0:
303,300,180180,6,0,P|265:284|198:295,1,99.9999999999999,2|8,1:2|1:0,0:0:0:0:
165,317,180654,1,2,1:2:0:0:
83,375,180969,1,2,1:2:0:0:
6,310,181285,1,2,1:2:0:0:
50,220,181601,2,0,L|39:93,1,99.9999999999999,2|0,1:2|1:0,0:0:0:0:
33,70,182075,1,0,1:0:0:0:
113,10,182390,1,10,1:0:0:0:
203,51,182706,6,0,P|256:57|305:31,1,99.9999999999999,6|8,1:2|1:0,0:0:0:0:
339,10,183180,2,0,L|349:118,1,99.9999999999999,2|0,1:2|1:0,0:0:0:0:
379,148,183654,2,0,L|369:256,1,99.9999999999999,10|0,1:0|1:0,0:0:0:0:
275,281,184285,1,10,1:0:0:0:
194,220,184601,1,2,1:2:0:0:
98,249,184917,1,10,1:0:0:0:
72,345,185233,6,0,P|130:364|199:340,1,99.9999999999999,14|0,1:0|1:0,0:0:0:0:
214,342,185706,1,10,1:0:0:0:
299,290,186022,2,0,L|310:223,1,50,2|8,1:2|1:0,0:0:0:0:
278,199,186338,2,0,L|268:82,1,99.9999999999999,2|8,1:2|1:0,0:0:0:0:
260,50,186811,1,8,1:0:0:0:
165,16,187127,2,0,L|107:26,1,50,8|8,1:0|3:0,0:0:0:0:
66,13,187443,2,0,L|22:61,1,50,4|0,3:0|1:0,0:0:0:0:
0,87,187759,6,0,L|17:212,1,99.9999999999999,6|8,1:2|1:0,0:0:0:0:
25,235,188233,1,2,1:2:0:0:
94,306,188548,1,2,1:2:0:0:
188,274,188864,1,2,1:2:0:0:
257,345,189180,2,0,P|325:363|378:338,1,99.9999999999999,2|0,1:2|1:0,0:0:0:0:
399,340,189654,1,0,0:0:0:0:
473,274,189969,1,10,1:0:0:0:
446,177,190285,6,0,L|460:56,1,99.9999999999999,2|8,1:2|1:0,0:0:0:0:
465,27,190759,1,2,1:2:0:0:
366,41,191075,2,0,L|290:32,1,50,2|8,1:2|1:0,0:0:0:0:
266,28,191390,2,0,P|246:98|257:141,1,99.9999999999999,2|0,1:2|1:0,0:0:0:0:
267,170,191864,1,10,1:0:0:0:
327,249,192180,1,0,1:0:0:0:
278,336,192496,1,10,1:0:0:0:
181,310,192811,6,0,P|130:297|65:315,1,99.9999999999999,6|8,1:2|1:0,0:0:0:0:
38,327,193285,2,0,L|30:223,1,99.9999999999999,2|0,1:2|1:0,0:0:0:0:
0,178,193759,2,0,L|20:45,1,99.9999999999999,10|0,1:0|0:0,0:0:0:0:
99,25,194390,1,10,1:0:0:0:
184,76,194706,1,2,1:2:0:0:
146,168,195022,1,10,1:0:0:0:
198,253,195338,6,0,P|263:259|308:233,1,99.9999999999999,6|8,1:2|1:0,0:0:0:0:
333,215,195811,1,2,1:2:0:0:
287,125,196127,1,2,1:2:0:0:
348,46,196443,2,0,P|404:43|466:69,1,99.9999999999999,2|0,1:2|1:0,0:0:0:0:
484,87,196917,1,8,1:0:0:0:
511,183,197233,1,0,1:0:0:0:
468,273,197548,1,10,1:0:0:0:
388,333,197864,6,0,B|307:320|319:360|236:352,2,150,4|0|0,1:0|0:0|0:0,0:0:0:0:
479,373,199127,1,8,1:0:0:0:
476,79,200390,6,0,P|412:84|371:57,1,99.9999999999999,6|8,1:0|1:0,0:0:0:0:
285,96,201022,2,0,L|277:145,1,50,2|0,1:0|0:0,0:0:0:0:
269,194,201337,1,8,1:0:0:0:
340,263,201653,1,2,1:0:0:0:
290,350,201969,1,8,1:0:0:0:
191,331,202285,2,0,P|137:338|87:314,1,99.9999999999999,2|8,1:0|1:0,0:0:0:0:
10,268,202917,6,0,L|1:168,1,99.9999999999999,2|8,1:0|1:0,0:0:0:0:
91,124,203548,2,0,L|101:55,1,50,2|0,1:0|0:0,0:0:0:0:
110,25,203864,1,8,1:0:0:0:
209,36,204180,2,0,P|257:15|314:29,1,99.9999999999999,2|8,1:0|1:0,0:0:0:0:
379,86,204811,1,2,1:0:0:0:
327,171,205127,2,0,L|334:245,1,50,8|0,1:0|1:0,0:0:0:0:
324,270,205443,6,0,L|438:256,1,99.9999999999999,6|8,1:0|1:0,0:0:0:0:
488,182,206075,2,0,L|495:132,1,50,2|0,1:0|1:0,0:0:0:0:
508,83,206390,1,8,1:0:0:0:
433,16,206706,1,2,1:0:0:0:
335,36,207022,1,8,1:0:0:0:
287,123,207338,2,0,L|174:113,1,99.9999999999999,2|8,1:0|1:0,0:0:0:0:
87,124,207969,6,0,P|69:176|87:232,1,99.9999999999999,12|8,1:0|1:0,0:0:0:0:
139,298,208601,1,8,1:0:0:0:
225,248,208916,1,8,1:0:0:0:
304,308,209232,2,0,L|309:368,2,50,8|8|8,1:0|1:0|1:0,0:0:0:0:
332,266,209706,1,2,1:0:0:0:
431,252,210022,1,2,1:0:0:0:
481,338,210338,1,2,1:0:0:0:
