osu file format v14

[General]
AudioFilename: audio.mp3
AudioLeadIn: 0
PreviewTime: 114180
Countdown: 0
SampleSet: Soft
StackLeniency: 0.7
Mode: 0
LetterboxInBreaks: 0
WidescreenStoryboard: 1

[Editor]
DistanceSpacing: 1
BeatDivisor: 4
GridSize: 32
TimelineZoom: 2.4

[Metadata]
Title:Just believe
TitleUnicode:Just believe
Artist:Imy
ArtistUnicode:Imy
Creator:Agatsu
Version:Easy
Source:
Tags:akito japanese rock jrock j-rock female vocals vocalist full version size beyond the despair みゅー miyu myu mirin
BeatmapID:2573906
BeatmapSetID:1237988

[Difficulty]
HPDrainRate:2
CircleSize:3.2
OverallDifficulty:3
ApproachRate:4
SliderMultiplier:0.899999999999999
SliderTickRate:1

[Events]
//Background and Video events
0,0,"bg.jpg",0,0
//Break Periods
2,71548,80176
//Storyboard Layer 0 (Background)
//Storyboard Layer 1 (Fail)
//Storyboard Layer 2 (Pass)
//Storyboard Layer 3 (Foreground)
//Storyboard Layer 4 (Overlay)
//Storyboard Sound Samples

[TimingPoints]
812,315.78947368421,4,2,1,60,1,0
5548,-100,4,2,1,80,0,0
15811,-111.111111111111,4,2,1,55,0,0
17548,-111.111111111111,4,2,1,55,0,0
20864,-100,4,2,1,80,0,0
25917,-100,4,2,1,60,0,0
36180,-100,4,2,1,65,0,0
40601,-100,4,2,1,65,0,0
41233,-100,4,2,1,65,0,0
43759,-100,4,2,1,65,0,0
48811,-100,4,2,1,80,0,1
69022,-100,4,2,1,80,0,1
70285,-100,4,2,1,80,0,0
81496,-111.111111111111,4,2,1,55,0,0
86548,-100,4,2,1,80,0,0
91601,-100,4,2,1,60,0,0
101864,-100,4,2,1,65,0,0
114496,-100,4,2,1,80,0,1
135969,-100,4,2,1,60,0,0
142127,-100,4,2,1,80,0,0
142496,-100,4,2,1,50,0,0
142601,-100,4,2,1,80,0,0
143022,-100,4,2,1,50,0,0
143233,-100,4,2,1,80,0,0
144075,-100,4,2,1,50,0,0
144180,-100,4,2,1,80,0,0
147338,-100,4,2,1,60,0,0
152233,-100,4,2,1,80,0,0
162338,-100,4,2,1,60,0,0
172917,-100,4,2,1,70,0,0
177654,-100,4,2,1,80,0,1
199127,-100,4,2,1,80,0,0
200390,-100,4,2,1,80,0,0

[Colours]
Combo1 : 98,126,223
Combo2 : 157,201,244
Combo3 : 232,192,134
Combo4 : 209,159,236

[HitObjects]
5,272,812,5,8,1:0:0:0:
329,29,2233,2,0,B|374:22|374:22|422:35,1,89.9999999999999,8|8,1:0|1:0,0:0:0:0:
479,97,2864,2,0,B|496:188|496:188|460:288,1,180,8|4,1:0|1:2,0:0:0:0:
205,365,4443,6,0,B|150:325|41:327|41:327|90:244|65:178,1,315,12|8,1:0|1:0,0:0:0:0:
18,115,5864,6,0,P|43:50|150:44,1,180,6|2,1:0|1:0,0:0:0:0:
217,89,6811,1,8,1:0:0:0:
301,58,7127,2,0,L|390:69,2,89.9999999999999,2|8|2,1:0|1:0|1:0,0:0:0:0:
217,89,8075,1,8,1:0:0:0:
142,39,8390,6,0,B|88:53|65:108|65:108|90:154|81:193,1,180,2|2,1:0|1:0,0:0:0:0:
38,256,9338,1,8,1:0:0:0:
70,340,9654,2,0,P|120:354|173:340,1,89.9999999999999,2|8,1:0|1:0,0:0:0:0:
236,305,10285,2,0,L|247:204,1,89.9999999999999,2|8,1:0|1:0,0:0:0:0:
235,125,10917,6,0,B|334:115|305:59|405:49,1,180,6|2,1:0|1:0,0:0:0:0:
468,101,11864,1,8,1:0:0:0:
419,176,12180,2,0,L|405:275,2,89.9999999999999,2|8|2,1:0|1:0|1:0,0:0:0:0:
468,101,13127,1,8,1:0:0:0:
394,50,13443,6,0,B|302:33|302:33|240:70|240:70|189:41|122:49,1,270,6|8,1:0|1:0,0:0:0:0:
51,65,14706,1,2,1:0:0:0:
119,181,15180,2,0,L|104:284,1,89.9999999999999,2|2,1:0|1:0,0:0:0:0:
42,320,15811,6,0,P|142:313|231:374,1,202.49999382019,6|0,1:0|0:0,0:0:0:0:
344,342,17075,2,0,P|359:280|338:210,1,121.499996292114,2|10,1:0|1:0,0:0:0:0:
253,146,18022,1,0,1:0:0:0:
148,208,18496,6,0,P|79:182|83:54,1,202.49999382019,2|0,0:0|0:0,0:0:0:0:
139,21,19601,2,0,B|204:4|249:57|249:57|252:107|286:129,1,202.49999382019,2|2,1:0|0:0,0:0:0:0:
398,57,20864,6,0,P|468:64|508:138,1,135,6|8,1:0|1:0,0:0:0:0:
473,197,21654,2,0,L|463:300,1,89.9999999999999,8|8,1:0|1:0,0:0:0:0:
390,338,22285,1,8,1:0:0:0:
306,304,22601,1,10,1:0:0:0:
227,348,22917,1,10,1:0:0:0:
104,291,23390,6,0,P|101:186|135:140,1,135,6|8,1:0|1:0,0:0:0:0:
175,96,24180,1,8,1:0:0:0:
263,79,24496,1,8,1:0:0:0:
334,133,24811,1,8,1:0:0:0:
398,251,25285,2,0,L|386:341,1,89.9999999999999,2|2,1:0|1:0,0:0:0:0:
473,378,25917,6,0,L|491:242,1,135,4|10,1:0|1:0,0:0:0:0:
501,154,26706,1,2,1:2:0:0:
442,35,27180,2,0,P|381:11|314:22,1,135,2|10,1:2|1:0,0:0:0:0:
187,68,28127,1,2,1:2:0:0:
66,7,28601,6,0,B|34:68|34:68|47:135,1,135,2|2,0:0|1:2,0:0:0:0:
69,220,29390,1,2,1:2:0:0:
99,304,29706,2,0,B|155:324|201:363|201:363|227:292|266:256,1,225,2|2,1:2|1:2,0:0:0:0:
278,137,30969,6,0,B|291:69|351:32|415:50|415:50|439:88,1,225,6|2,1:2|1:2,0:0:0:0:
507,209,32233,2,0,L|495:350,1,135,2|10,1:2|1:0,0:0:0:0:
410,373,33022,1,2,1:2:0:0:
278,343,33496,6,0,B|266:208|342:256|317:102,1,225,6|2,1:2|1:2,0:0:0:0:
238,19,34759,2,0,P|151:2|49:68,1,180,6|10,1:2|1:0,0:0:0:0:
17,170,35864,1,8,1:0:0:0:
24,259,36180,6,0,B|79:269|79:269|110:311|110:311|147:299|186:311,1,180,4|10,1:0|1:0,0:0:0:0:
274,212,37285,2,0,L|262:53,1,135,2|2,1:2|1:2,0:0:0:0:
314,2,38075,1,8,1:0:0:0:
403,2,38390,1,2,1:2:0:0:
464,67,38706,6,0,P|488:153|455:301,1,225,2|2,1:2|1:2,0:0:0:0:
397,344,39811,2,0,L|231:354,1,135,2|2,1:2|1:2,0:0:0:0:
172,364,40601,1,8,1:0:0:0:
249,201,41233,6,0,P|262:136|236:22,1,180,4|10,1:0|1:0,0:0:0:0:
103,13,42338,2,0,B|63:27|20:39|20:39|-15:103,1,135,2|2,1:2|1:2,0:0:0:0:
37,161,43127,1,8,1:0:0:0:
124,139,43443,1,4,3:0:0:0:
188,201,43759,6,0,P|199:275|179:371,2,135,14|2|10,1:0|1:2|1:0,0:0:0:0:
279,45,45338,1,10,1:0:0:0:
360,5,45654,1,10,1:0:0:0:
446,27,45969,1,10,1:0:0:0:
488,106,46285,6,0,B|462:169|469:244|469:244|417:252|365:294,1,225,10|2,1:0|1:2,0:0:0:0:
333,206,47390,2,0,B|279:197|279:197|253:209|253:209|184:199,1,135,8|10,3:0|1:0,0:0:0:0:
141,134,48180,1,8,1:0:0:0:
7,255,48811,6,0,P|-11:329|10:399,1,135,6|2,1:2|1:2,0:0:0:0:
91,372,49601,1,2,1:2:0:0:
177,348,49917,2,0,L|348:367,1,135,2|10,1:2|1:0,0:0:0:0:
400,374,50706,1,2,1:2:0:0:
472,321,51022,1,10,1:0:0:0:
476,231,51338,6,0,B|487:147|511:95|511:95|459:103|417:89,1,225,2|2,1:2|1:2,0:0:0:0:
371,22,52443,1,2,1:2:0:0:
281,31,52759,2,0,P|189:27|140:143,1,225,2|10,1:2|1:0,0:0:0:0:
198,201,53864,6,0,L|352:216,2,135,6|2|10,1:2|1:2|1:0,0:0:0:0:
93,347,55443,1,10,1:0:0:0:
16,299,55759,1,2,1:2:0:0:
22,209,56075,1,10,1:0:0:0:
87,148,56390,6,0,P|97:77|120:6,1,135,14|10,1:0|1:0,0:0:0:0:
205,8,57180,1,2,1:2:0:0:
285,49,57496,2,0,B|347:36|374:31|374:31|399:73|399:73|494:111|510:207,1,315,2|4,1:2|3:0,0:0:0:0:
495,288,58917,6,0,P|443:289|367:350,1,135,6|2,1:2|1:2,0:0:0:0:
290,362,59706,1,2,1:2:0:0:
230,294,60022,1,2,1:2:0:0:
262,210,60338,2,0,P|252:107|162:25,1,225,2|10,1:2|1:0,0:0:0:0:
77,15,61443,6,0,P|52:78|62:156,1,135,2|2,1:2|1:2,0:0:0:0:
109,217,62233,1,2,1:2:0:0:
197,201,62548,2,0,B|268:183|265:219|337:202,1,135,2|10,1:2|1:0,0:0:0:0:
437,348,63654,1,10,1:0:0:0:
495,279,63969,6,0,L|515:126,2,135,6|2|10,1:2|1:2|1:0,0:0:0:0:
340,370,65548,1,10,1:0:0:0:
254,340,65864,1,2,1:2:0:0:
258,250,66180,1,10,1:0:0:0:
184,198,66496,6,0,B|132:208|132:208|111:226|111:226|37:240,1,135,6|2,1:2|1:2,0:0:0:0:
9,160,67285,1,2,1:2:0:0:
27,71,67601,2,0,P|149:42|207:129,1,225,2|0,1:2|1:0,0:0:0:0:
282,153,68706,1,10,1:0:0:0:
360,108,69022,6,0,B|442:100|485:173|485:173|433:222|430:280|430:280|472:324|474:372,1,360,4|8,1:0|1:0,0:0:0:0:
0,46,81496,6,0,P|89:25|180:104,1,202.49999382019,6|2,1:0|0:0,0:0:0:0:
216,200,82759,2,0,L|202:324,1,121.499996292114,2|10,0:0|0:2,0:0:0:0:
354,377,83864,1,10,0:0:0:0:
431,353,84180,6,0,P|451:294|429:217,1,121.499996292114,2|2,1:2|0:0,0:0:0:0:
395,169,84969,1,2,0:0:0:0:
316,194,85285,2,0,B|252:189|201:223|201:223|164:177|117:169,1,202.49999382019,2|0,1:2|0:0,0:0:0:0:
1,171,86548,6,0,P|10:77|57:36,1,135,4|8,1:0|1:0,0:0:0:0:
119,17,87338,2,0,L|228:28,1,89.9999999999999,8|8,1:0|1:0,0:0:0:0:
293,54,87969,1,8,1:0:0:0:
372,11,88285,1,10,1:0:0:0:
460,27,88601,1,10,1:0:0:0:
509,152,89075,6,0,B|502:207|502:207|482:230|482:230|472:300,1,135,4|8,1:0|1:0,0:0:0:0:
445,363,89864,1,8,1:0:0:0:
357,383,90180,1,8,1:0:0:0:
271,355,90496,1,10,1:0:0:0:
270,220,90969,2,0,L|257:122,1,89.9999999999999,4|2,3:0|1:0,0:0:0:0:
236,43,91601,6,0,P|175:24|98:49,1,135,4|10,1:0|1:0,0:0:0:0:
25,76,92390,1,0,1:2:0:0:
19,214,92864,2,0,L|40:359,1,135,2|10,1:2|1:0,0:0:0:0:
170,374,93811,1,2,1:2:0:0:
249,264,94285,6,0,B|274:202|274:202|243:135,1,135,2|2,0:0|1:2,0:0:0:0:
265,52,95075,1,2,1:2:0:0:
340,2,95390,2,0,B|414:-2|455:63|455:63|426:122|437:165,1,225,2|2,1:2|1:2,0:0:0:0:
508,262,96654,6,0,B|395:236|413:348|281:319,1,225,6|2,1:2|1:2,0:0:0:0:
174,370,97917,2,0,P|104:374|41:327,1,135,2|10,1:2|1:0,0:0:0:0:
9,260,98706,1,2,1:2:0:0:
91,152,99180,6,0,B|57:107|71:36|132:12|132:12|165:25|180:47,1,225,6|2,1:2|1:2,0:0:0:0:
261,149,100443,2,0,B|243:214|204:274|204:274|233:304|251:350,1,225,6|8,1:2|1:0,0:0:0:0:
337,368,101548,1,8,1:0:0:0:
426,358,101864,6,0,B|436:303|436:303|478:272|478:272|466:235|478:196,1,180,4|10,1:0|1:0,0:0:0:0:
494,67,102969,2,0,P|437:40|361:49,1,135,2|2,1:2|1:2,0:0:0:0:
309,116,103759,1,8,1:0:0:0:
354,193,104075,1,2,1:2:0:0:
297,263,104390,6,0,P|211:287|90:220,1,225,2|2,1:2|1:2,0:0:0:0:
9,200,105495,2,0,P|-1:129|26:67,1,135,2|2,1:2|1:2,0:0:0:0:
88,10,106285,1,8,1:0:0:0:
267,27,106917,6,0,B|357:53|323:104|405:137,1,180,4|10,1:0|1:0,0:0:0:0:
489,241,108022,2,0,B|509:270|506:311|506:311|478:340|476:367,1,135,2|2,1:2|1:2,0:0:0:0:
387,379,108811,1,8,1:0:0:0:
310,331,109127,1,4,3:0:0:0:
310,240,109443,6,0,L|322:91,2,135,14|2|10,1:0|1:2|1:0,0:0:0:0:
451,351,111022,1,10,1:0:0:0:
510,283,111338,1,10,1:0:0:0:
490,195,111653,1,10,1:0:0:0:
412,149,111969,6,0,B|349:123|274:130|274:130|266:78|224:26,1,225,10|2,1:0|1:2,0:0:0:0:
159,19,113074,2,0,B|105:28|105:28|79:16|79:16|10:26,1,135,8|10,3:0|1:0,0:0:0:0:
1,109,113864,1,8,1:0:0:0:
140,222,114495,6,0,L|129:363,1,135,6|2,1:2|1:2,0:0:0:0:
215,382,115285,1,2,1:2:0:0:
297,346,115601,2,0,P|364:323|434:338,1,135,2|10,1:2|1:0,0:0:0:0:
496,278,116390,1,2,1:2:0:0:
493,187,116706,1,10,1:0:0:0:
413,140,117022,6,0,B|424:56|448:4|448:4|396:12|354:-2,1,225,2|2,1:2|1:2,0:0:0:0:
280,32,118127,2,0,L|143:17,1,135,2|8,1:2|1:0,0:0:0:0:
13,140,119233,1,10,1:0:0:0:
73,206,119548,6,0,P|87:279|62:356,2,135,6|2|10,1:2|1:2|1:0,0:0:0:0:
140,38,121127,1,10,1:0:0:0:
221,0,121443,1,2,1:2:0:0:
300,42,121759,1,10,1:0:0:0:
388,29,122074,6,0,P|464:35|505:98,1,135,14|10,1:0|1:0,0:0:0:0:
505,167,122864,1,2,1:2:0:0:
491,255,123180,2,0,B|453:239|415:240|415:240|380:223|380:223|287:300|190:236,1,315,2|4,1:2|3:0,0:0:0:0:
157,159,124601,6,0,L|173:23,1,135,6|2,1:2|1:2,0:0:0:0:
85,2,125390,1,2,1:2:0:0:
3,41,125706,2,0,L|18:175,1,135,2|8,1:2|1:0,0:0:0:0:
13,355,126811,1,10,1:0:0:0:
97,324,127127,6,0,P|163:318|225:343,1,135,2|2,1:2|1:2,0:0:0:0:
308,378,127917,1,2,1:2:0:0:
396,361,128233,1,2,1:2:0:0:
443,284,128548,2,0,P|455:196|522:61,1,225,0|10,1:0|1:0,0:0:0:0:
441,18,129653,6,0,B|385:11|385:11|361:24|361:24|293:15,2,135,6|2|10,1:2|1:2|1:0,0:0:0:0:
505,186,131232,1,10,1:0:0:0:
439,248,131548,1,2,1:2:0:0:
368,191,131864,1,10,1:0:0:0:
292,239,132180,6,0,L|270:379,1,135,6|2,1:2|1:2,0:0:0:0:
180,370,132969,1,2,1:2:0:0:
90,361,133285,2,0,B|104:229|30:278|46:145,1,225,2|0,1:2|1:0,0:0:0:0:
90,68,134390,1,10,1:0:0:0:
169,26,134706,6,0,B|223:34|294:77|294:77|334:22|398:7|398:7|417:52|395:106,1,360,4|8,1:0|1:0,0:0:0:0:
149,362,137233,5,8,1:0:0:0:
398,43,138654,2,0,B|352:36|352:36|311:68,1,89.9999999999999,8|8,1:0|1:0,0:0:0:0:
231,37,139285,2,0,B|148:1|148:1|82:80,1,180,8|4,1:0|1:2,0:0:0:0:
108,340,140864,6,0,B|171:333|222:353|222:353|259:309|321:295,1,225,6|8,1:0|1:0,0:0:0:0:
447,280,142127,6,0,P|477:197|434:108,1,180,6|0,1:0|0:0,0:0:0:0:
363,6,143233,2,0,P|300:65|201:58,1,180,10|10,1:0|1:0,0:0:0:0:
127,28,144180,1,2,1:0:0:0:
20,111,144654,6,0,B|137:142|90:207|197:246,1,225,6|2,1:0|1:0,0:0:0:0:
319,195,145917,2,0,P|295:108|334:17,1,180,2|2,1:0|1:0,0:0:0:0:
460,36,147022,1,8,1:0:0:0:
508,111,147338,1,4,1:0:0:0:
503,290,147969,6,0,B|440:280|356:335|356:335|382:257|349:178|257:190,1,360,10|2,1:0|1:0,0:0:0:0:
163,45,149864,6,0,P|113:34|57:59,1,89.9999999999999,2|2,1:0|1:0,0:0:0:0:
17,112,150496,1,10,1:0:0:0:
7,201,150811,1,2,1:0:0:0:
38,285,151127,2,0,B|111:273|111:273|144:291|144:291|222:278,1,180,2|8,1:0|1:0,0:0:0:0:
287,167,152233,6,0,P|308:68|423:51,1,225,6|10,1:0|1:0,0:0:0:0:
509,146,153496,2,0,L|494:288,1,135,2|10,1:0|1:0,0:0:0:0:
479,368,154285,1,10,1:0:0:0:
364,296,154759,6,0,B|245:299|280:374|140:383,1,225,6|2,1:0|1:0,0:0:0:0:
26,377,156022,1,2,1:0:0:0:
5,198,156654,2,0,B|12:161|12:161|10:145|10:145|21:96,1,89.9999999999999,2|0,1:0|1:0,0:0:0:0:
11,19,157285,6,0,P|92:20|151:49,1,135,2|10,1:0|1:0,0:0:0:0:
189,117,158075,2,0,B|185:172|160:216|160:216|201:223|233:243,1,180,10|10,1:0|1:0,0:0:0:0:
276,319,159022,1,10,1:0:0:0:
357,280,159338,2,0,L|459:292,1,89.9999999999999,10|10,1:0|1:0,0:0:0:0:
505,222,159969,6,0,P|502:133|406:100,1,180,14|10,1:0|1:0,0:0:0:0:
362,34,160917,1,10,1:0:0:0:
278,67,161233,2,0,P|258:115|269:171,1,89.9999999999999,10|10,1:0|1:0,0:0:0:0:
302,232,161864,1,10,1:0:0:0:
235,349,162338,6,0,B|171:313|96:345|96:345|48:331|36:288,1,225,6|2,1:0|1:0,0:0:0:0:
80,165,163601,2,0,P|70:93|103:33,1,135,2|10,1:0|1:0,0:0:0:0:
181,6,164390,1,2,1:0:0:0:
285,91,164864,6,0,P|305:190|248:339,1,225,6|2,1:0|1:0,0:0:0:0:
440,368,166285,2,0,P|463:318|463:257,1,89.9999999999999,2|8,0:0|1:0,0:0:0:0:
428,201,166917,1,2,1:0:0:0:
303,253,167390,6,0,B|188:235|208:327|86:312,1,225,6|0,1:0|1:0,0:0:0:0:
16,202,168654,2,0,P|10:144|38:62,1,135,6|10,1:0|1:0,0:0:0:0:
106,20,169443,1,2,1:0:0:0:
222,87,169917,6,0,B|242:220|163:169|185:324,1,225,4|2,1:0|1:0,0:0:0:0:
299,370,171180,2,0,P|390:354|428:236,1,225,6|2,1:0|1:0,0:0:0:0:
323,154,172443,2,0,L|156:165,1,135,6|8,1:0|1:0,0:0:0:0:
107,204,173233,1,8,1:0:0:0:
7,54,173864,6,0,P|43:18|110:9,1,89.9999999999999,10|8,1:0|1:0,0:0:0:0:
168,23,174496,1,10,1:0:0:0:
243,186,175127,2,0,P|250:298|392:333,1,270,14|0,1:0|0:0,0:0:0:0:
468,302,176390,6,0,B|463:245|463:245|478:213|478:213|470:178|470:178|484:122,1,180,8|8,1:0|1:0,0:0:0:0:
435,51,177338,1,8,1:0:0:0:
352,87,177654,6,0,B|300:77|300:77|274:87|274:87|213:76,1,135,6|2,1:2|1:2,0:0:0:0:
154,139,178444,1,2,1:2:0:0:
184,223,178759,2,0,B|236:233|236:233|262:223|262:223|323:234,1,135,2|10,1:2|1:0,0:0:0:0:
366,306,179549,1,2,1:2:0:0:
301,368,179865,1,10,1:0:0:0:
214,343,180180,6,0,B|149:342|79:361|79:361|61:322|23:292,1,225,2|2,1:2|1:2,0:0:0:0:
12,203,181285,1,2,1:2:0:0:
60,127,181601,2,0,P|141:120|191:79,1,135,2|0,1:2|1:0,0:0:0:0:
242,21,182390,1,10,1:0:0:0:
328,46,182707,6,0,P|342:119|317:196,2,135,6|2|10,1:2|1:2|1:0,0:0:0:0:
150,13,184286,1,10,1:0:0:0:
61,28,184602,1,2,1:2:0:0:
8,101,184918,1,10,1:0:0:0:
19,190,185233,6,0,L|-3:338,1,135,14|10,1:0|1:0,0:0:0:0:
75,371,186023,1,2,1:2:0:0:
159,339,186338,2,0,B|210:338|246:354|246:354|285:338|285:338|359:377|425:306|385:243,1,315,2|4,1:2|3:0,0:0:0:0:
311,206,187759,6,0,L|154:220,1,135,6|2,1:2|1:2,0:0:0:0:
95,258,188549,1,2,1:2:0:0:
15,216,188864,1,2,1:2:0:0:
12,125,189180,2,0,P|22:53|166:30,1,225,2|10,1:2|1:0,0:0:0:0:
226,73,190286,6,0,P|248:157|223:219,1,135,2|2,1:2|1:2,0:0:0:0:
175,269,191076,1,2,1:2:0:0:
213,349,191390,2,0,L|354:361,1,135,2|10,1:2|1:0,0:0:0:0:
486,245,192496,1,10,1:0:0:0:
434,171,192812,6,0,B|441:115|441:115|428:91|428:91|437:23,2,135,6|2|10,1:2|1:2|1:0,0:0:0:0:
465,348,194391,1,10,1:0:0:0:
376,364,194707,1,2,1:2:0:0:
295,324,195023,1,10,1:0:0:0:
260,240,195339,6,0,L|116:252,1,135,6|2,1:2|1:2,0:0:0:0:
44,291,196128,1,2,1:2:0:0:
6,209,196443,2,0,P|8:153|146:95,1,225,2|0,1:2|1:0,0:0:0:0:
211,155,197548,1,10,1:0:0:0:
193,243,197864,6,0,B|261:266|311:308|311:308|367:254|415:226|415:226|463:241|508:245,1,360,4|8,1:0|1:0,0:0:0:0:
170,111,200390,6,0,P|145:46|38:40,1,180,6|2,1:0|1:0,0:0:0:0:
2,114,201337,1,8,1:0:0:0:
32,198,201653,2,0,L|23:298,2,89.9999999999999,2|8|2,1:0|1:0|1:0,0:0:0:0:
117,170,202601,1,8,1:0:0:0:
201,201,202917,6,0,B|295:225|263:282|362:317,1,180,2|2,1:0|1:0,0:0:0:0:
424,341,203864,1,8,1:0:0:0:
494,284,204180,2,0,P|508:234|494:181,1,89.9999999999999,2|8,1:0|1:0,0:0:0:0:
493,107,204811,2,0,P|448:99|396:116,1,89.9999999999999,2|8,1:0|1:0,0:0:0:0:
358,187,205443,6,0,B|309:164|265:196|265:196|243:243|201:248,1,180,6|2,1:0|1:0,0:0:0:0:
118,227,206390,1,8,1:0:0:0:
39,270,206706,2,0,P|23:316|26:359,2,89.9999999999999,2|8|2,1:0|1:0|1:0,0:0:0:0:
118,227,207653,1,8,1:0:0:0:
81,144,207969,6,0,B|108:98|117:61|117:61|166:52|208:64|208:64|232:24|288:6,1,270,12|8,1:0|1:0,0:0:0:0:
365,13,209232,1,8,1:0:0:0:
477,88,209706,2,0,B|497:130|497:130|481:179,1,89.9999999999999,2|2,1:0|1:0,0:0:0:0:
440,250,210338,1,2,1:0:0:0:
