osu file format v14

[General]
AudioFilename: audio.mp3
AudioLeadIn: 0
PreviewTime: 114180
Countdown: 0
SampleSet: Soft
StackLeniency: 0.7
Mode: 0
LetterboxInBreaks: 0
WidescreenStoryboard: 1

[Editor]
DistanceSpacing: 0.8
BeatDivisor: 4
GridSize: 16
TimelineZoom: 1.9

[Metadata]
Title:Just believe
TitleUnicode:Just believe
Artist:Imy
ArtistUnicode:Imy
Creator:Agatsu
Version:Akito's Insane
Source:
Tags:akito japanese rock jrock j-rock female vocals vocalist full version size beyond the despair みゅー miyu myu mirin
BeatmapID:2573905
BeatmapSetID:1237988

[Difficulty]
HPDrainRate:6
CircleSize:4
OverallDifficulty:8
ApproachRate:9
SliderMultiplier:2
SliderTickRate:1

[Events]
//Background and Video events
0,0,"bg.jpg",0,0
//Break Periods
2,71748,80896
//Storyboard Layer 0 (Background)
//Storyboard Layer 1 (Fail)
//Storyboard Layer 2 (Pass)
//Storyboard Layer 3 (Foreground)
//Storyboard Layer 4 (Overlay)
//Storyboard Sound Samples

[TimingPoints]
812,315.78947368421,4,2,1,60,1,0
4443,-142.857142857143,4,2,1,60,0,0
5548,-142.857142857143,4,2,1,80,0,0
15811,-142.857142857143,4,2,1,55,0,0
20864,-142.857142857143,4,2,1,80,0,0
25917,-142.857142857143,4,2,1,60,0,0
36180,-142.857142857143,4,2,1,65,0,0
48811,-100,4,2,1,80,0,1
70285,-100,4,2,1,80,0,0
81496,-100,4,2,1,55,0,0
83627,-142.857142857143,4,2,1,55,0,0
86548,-142.857142857143,4,2,1,80,0,0
91601,-142.857142857143,4,2,1,60,0,0
101864,-142.857142857143,4,2,1,65,0,0
114496,-100,4,2,1,80,0,1
135969,-100,4,2,1,60,0,0
142127,-100,4,2,1,80,0,0
142496,-100,4,2,1,50,0,0
142601,-100,4,2,1,80,0,0
143022,-100,4,2,1,50,0,0
143233,-100,4,2,1,80,0,0
144075,-100,4,2,1,50,0,0
144180,-100,4,2,1,80,0,0
147338,-100,4,2,1,60,0,0
152233,-100,4,2,1,80,0,0
162338,-100,4,2,1,60,0,0
162811,-142.857142857143,4,2,1,60,0,0
172917,-142.857142857143,4,2,1,70,0,0
177654,-100,4,2,1,80,0,1
199127,-100,4,2,1,80,0,0

[Colours]
Combo1 : 98,126,223
Combo2 : 157,201,244
Combo3 : 232,192,134
Combo4 : 209,159,236

[HitObjects]
512,278,812,5,8,1:0:0:0:
512,278,969,1,8,1:0:0:0:
358,209,2233,5,8,1:0:0:0:
282,228,2390,1,8,1:0:0:0:
358,209,2548,1,8,1:0:0:0:
195,127,2864,5,8,1:0:0:0:
195,127,3180,1,4,1:2:0:0:
195,127,3496,1,4,1:2:0:0:
33,38,4443,6,0,P|42:98|44:177,1,139.999995727539,12|8,1:0|1:0,0:0:0:0:
103,245,4838,1,0,1:0:0:0:
103,245,4917,2,0,L|157:262,3,34.9999989318848,8|0|4|0,0:3|1:0|0:3|1:0,0:0:0:0:
35,307,5233,2,0,L|-19:324,3,34.9999989318848,8|0|0|0,1:0|1:0|1:0|1:0,0:0:0:0:
107,358,5548,1,8,1:0:0:0:
279,321,5864,6,0,P|261:255|248:176,1,139.999995727539,6|8,1:0|1:0,0:0:0:0:
176,129,6338,1,0,0:0:0:0:
355,188,6496,2,0,P|390:193|427:214,1,69.9999978637696,2|0,1:0|0:0,0:0:0:0:
328,34,6811,2,0,P|323:69|302:106,1,69.9999978637696,8|0,1:0|0:0,0:0:0:0:
429,93,7127,5,2,1:0:0:0:
429,93,7285,1,0,0:0:0:0:
365,205,7443,2,0,P|375:244|382:292,1,69.9999978637696,8|0,1:0|0:0,0:0:0:0:
225,378,7759,2,0,P|258:369|293:363,1,69.9999978637696,2|0,1:0|0:0,0:0:0:0:
257,180,8075,2,0,P|267:219|274:267,1,69.9999978637696,8|0,1:0|0:0,0:0:0:0:
65,326,8390,6,0,P|94:287|80:214,1,104.999996795654,2|0,1:0|0:0,0:0:0:0:
91,232,8706,2,0,P|81:198|75:163,1,69.9999978637696,8|0,1:0|0:0,0:0:0:0:
143,7,9022,2,0,P|158:89|181:169,1,139.999995727539,2|8,1:0|1:0,0:0:0:0:
51,69,9496,1,0,0:0:0:0:
258,56,9654,6,0,P|298:64|346:71,1,69.9999978637696,2|0,1:0|0:0,0:0:0:0:
434,178,9969,2,0,P|399:172|365:165,1,69.9999978637696,8|0,1:0|0:0,0:0:0:0:
346,232,10285,2,0,P|353:198|365:162,1,69.9999978637696,2|0,1:0|0:0,0:0:0:0:
236,218,10601,2,0,P|225:251|217:285,1,69.9999978637696,8|0,1:0|1:0,0:0:0:0:
217,285,10838,1,8,1:0:0:0:
217,285,10917,6,0,P|176:266|112:281,1,104.999996795654,6|0,1:0|0:0,0:0:0:0:
0,203,11233,2,0,L|88:188,1,69.9999978637696,8|0,1:0|0:0,0:0:0:0:
129,115,11548,1,2,1:0:0:0:
129,115,11706,1,0,0:0:0:0:
188,33,11864,2,0,L|276:18,1,69.9999978637696,8|0,1:0|0:0,0:0:0:0:
458,136,12180,6,0,B|372:118|372:118|354:144|316:155,1,139.999995727539,2|8,1:0|1:0,0:0:0:0:
458,136,12654,1,0,0:0:0:0:
379,242,12811,2,0,P|416:248|455:262,1,69.9999978637696,2|0,1:0|0:0,0:0:0:0:
260,344,13127,2,0,P|293:333|327:327,1,69.9999978637696,8|0,1:0|0:0,0:0:0:0:
210,219,13443,6,0,B|153:229|153:229|134:249|134:249|53:262,1,139.999995727539,6|8,1:0|1:0,0:0:0:0:
80,257,13917,1,2,0:0:0:0:
93,161,14075,1,0,1:0:0:0:
0,199,14233,1,2,0:0:0:0:
92,279,14390,2,0,L|105:353,1,69.9999978637696,8|2,1:0|0:0,0:0:0:0:
210,219,14706,6,0,L|221:150,1,69.9999978637696,2|8,1:0|1:0,0:0:0:0:
221,150,14943,1,8,1:0:0:0:
221,150,15022,1,8,1:0:0:0:
145,20,15180,2,0,L|198:64,1,69.9999978637696,2|0,1:0|0:0,0:0:0:0:
290,79,15496,2,0,L|355:54,1,69.9999978637696,2|0,1:0|0:0,0:0:0:0:
455,163,15811,6,0,B|432:212|432:212|470:323,1,139.999995727539,6|0,1:0|0:0,0:0:0:0:
398,354,16285,1,10,1:0:0:0:
286,338,16917,5,8,1:0:0:0:
231,287,17548,1,10,1:0:0:0:
161,323,18180,1,8,1:0:0:0:
207,127,18811,5,8,1:0:0:0:
207,127,19443,1,8,1:0:0:0:
207,127,20075,1,10,1:0:0:0:
380,164,20706,5,8,1:0:0:0:
357,300,20864,2,0,B|373:245|373:245|368:216|368:216|383:156,1,139.999995727539,6|0,1:0|1:0,0:0:0:0:
271,240,21338,2,0,P|237:254|196:255,1,69.9999978637696,8|0,1:0|1:0,0:0:0:0:
154,332,21654,2,0,P|118:323|84:300,1,69.9999978637696,8|0,1:0|1:0,0:0:0:0:
55,220,21969,1,8,1:0:0:0:
95,139,22127,1,0,1:0:0:0:
55,220,22285,5,8,1:0:0:0:
95,139,22443,1,0,1:0:0:0:
191,157,22601,2,0,L|276:145,1,69.9999978637696,10|0,1:0|1:0,0:0:0:0:
260,147,22838,1,0,1:0:0:0:
260,147,22917,1,10,1:0:0:0:
309,0,23075,2,0,L|321:85,1,69.9999978637696,0|8,1:0|1:0,0:0:0:0:
407,230,23390,6,0,P|413:161|427:91,1,139.999995727539,6|0,1:0|1:0,0:0:0:0:
411,234,23864,1,8,1:0:0:0:
469,293,24022,1,0,1:0:0:0:
411,234,24180,2,0,P|374:241|323:256,1,69.9999978637696,8|0,1:0|1:0,0:0:0:0:
209,180,24496,2,0,P|246:173|297:158,1,69.9999978637696,8|0,1:0|1:0,0:0:0:0:
171,285,24811,5,8,1:0:0:0:
200,359,24969,1,2,1:0:0:0:
250,296,25127,1,8,1:0:0:0:
85,343,25285,6,0,L|-5:366,1,69.9999978637696,2|8,1:0|1:0,0:0:0:0:
82,245,25601,1,2,1:0:0:0:
82,245,25680,1,8,1:0:0:0:
82,245,25759,1,8,1:0:0:0:
0,161,25917,6,0,B|84:146|48:122|131:108,1,139.999995727539,4|0,1:0|1:0,0:0:0:0:
329,41,26390,2,0,P|271:92|286:166,1,139.999995727539,10|2,1:0|1:2,0:0:0:0:
176,190,26864,1,0,1:0:0:0:
313,242,27022,2,0,P|348:234|387:231,1,69.9999978637696,8|2,1:0|1:2,0:0:0:0:
462,90,27338,6,0,L|448:171,1,69.9999978637696,0|0,1:0|1:0,0:0:0:0:
508,229,27654,2,0,L|494:310,1,69.9999978637696,10|0,1:0|0:0,0:0:0:0:
496,297,27890,1,8,1:0:0:0:
496,297,27969,1,0,1:0:0:0:
416,358,28127,2,0,P|391:348|346:348,1,69.9999978637696,2|8,1:2|1:0,0:0:0:0:
416,358,28443,1,0,1:0:0:0:
319,231,28601,6,0,P|254:267|175:257,1,139.999995727539,2|8,1:0|1:0,0:0:0:0:
237,171,29075,2,0,P|235:139|214:104,1,69.9999978637696,2|0,1:2|0:0,0:0:0:0:
47,173,29390,2,0,P|48:204|69:239,1,69.9999978637696,2|8,1:2|1:0,0:0:0:0:
143,171,29706,6,0,L|83:14,1,139.999995727539,2|0,1:2|1:0,0:0:0:0:
143,171,30180,2,0,L|116:257,1,69.9999978637696,10|0,1:0|0:0,0:0:0:0:
0,337,30496,2,0,L|87:317,1,69.9999978637696,2|0,1:2|1:0,0:0:0:0:
27,228,30811,1,8,1:0:0:0:
170,325,30969,6,0,P|259:323|306:374,1,139.999995727539,6|0,1:2|1:0,0:0:0:0:
383,309,31443,1,8,1:0:0:0:
383,309,31759,1,2,1:2:0:0:
464,257,31917,2,0,L|475:187,1,69.9999978637696,0|8,1:0|1:0,0:0:0:0:
399,69,32233,6,0,L|368:223,1,139.999995727539,2|0,1:2|1:0,0:0:0:0:
494,99,32706,1,10,1:0:0:0:
350,146,32864,1,0,1:0:0:0:
350,146,32943,1,8,1:0:0:0:
350,146,33022,2,0,P|314:132|265:141,1,69.9999978637696,2|0,1:2|1:0,0:0:0:0:
213,197,33338,1,8,1:0:0:0:
91,72,33496,6,0,B|125:114|125:114|106:218,1,139.999995727539,6|0,1:2|1:0,0:0:0:0:
0,303,33969,2,0,L|84:287,1,69.9999978637696,8|0,1:0|0:0,0:0:0:0:
8,197,34285,1,2,1:2:0:0:
57,359,34443,2,0,L|68:289,1,69.9999978637696,0|8,1:0|1:0,0:0:0:0:
226,211,34759,6,0,P|298:199|366:247,1,139.999995727539,6|8,1:2|1:0,0:0:0:0:
353,230,35154,1,8,1:0:0:0:
353,230,35233,1,8,1:0:0:0:
310,310,35390,1,10,1:0:0:0:
398,242,35548,1,8,1:0:0:0:
399,341,35706,1,8,1:0:0:0:
441,233,35864,2,0,L|423:146,1,69.9999978637696,8|8,1:0|1:0,0:0:0:0:
397,37,36180,5,4,1:0:0:0:
306,104,36338,1,0,1:0:0:0:
214,36,36496,2,0,P|134:26|67:71,1,139.999995727539,2|10,1:2|1:0,0:0:0:0:
83,52,36969,1,0,1:0:0:0:
42,143,37127,1,0,1:0:0:0:
161,140,37285,6,0,P|173:204|201:301,1,139.999995727539,2|0,1:2|1:0,0:0:0:0:
117,343,37759,2,0,P|67:327|1:380,1,139.999995727539,2|8,1:2|1:0,0:0:0:0:
274,346,38233,1,0,1:0:0:0:
274,346,38390,2,0,P|315:356|353:371,1,69.9999978637696,2|0,1:2|1:0,0:0:0:0:
462,153,38706,6,0,P|439:221|483:274,1,139.999995727539,2|0,1:2|1:0,0:0:0:0:
320,127,39180,1,2,1:2:0:0:
320,127,39338,2,0,P|334:206|340:282,1,139.999995727539,8|0,1:0|1:0,0:0:0:0:
339,344,39811,1,2,1:2:0:0:
239,242,39969,6,0,P|204:246|170:253,1,69.9999978637696,0|0,1:0|1:0,0:0:0:0:
224,86,40285,2,0,B|143:79|178:45|86:37,1,139.999995727539,2|8,1:2|1:0,0:0:0:0:
0,188,40838,1,8,1:0:0:0:
124,314,41075,1,8,1:0:0:0:
117,204,41233,6,0,P|186:196|259:177,1,139.999995727539,4|2,1:0|1:2,0:0:0:0:
358,308,41706,1,0,0:0:0:0:
452,234,41864,2,0,P|414:227|376:214,1,69.9999978637696,10|0,1:0|1:0,0:0:0:0:
244,282,42180,1,0,1:0:0:0:
269,148,42338,6,0,P|255:59|257:-6,1,139.999995727539,2|0,1:2|1:0,0:0:0:0:
144,93,42811,2,0,B|48:106|100:128|0:145,1,139.999995727539,2|8,1:2|1:0,0:0:0:0:
15,142,43206,1,8,1:0:0:0:
15,142,43285,1,8,3:0:0:0:
124,234,43443,1,4,3:0:0:0:
124,234,43522,1,0,1:0:0:0:
124,234,43601,1,8,1:0:0:0:
39,329,43759,6,0,L|23:260,1,69.9999978637696,14|0,1:0|1:0,0:0:0:0:
146,357,44075,1,8,1:0:0:0:
146,357,44233,1,2,1:2:0:0:
229,292,44390,2,0,P|265:290|321:315,1,69.9999978637696,8|0,1:0|1:0,0:0:0:0:
412,214,44706,2,0,P|376:216|320:191,1,69.9999978637696,10|0,1:0|1:0,0:0:0:0:
302,134,44943,1,0,1:0:0:0:
302,134,45022,6,0,L|289:65,1,69.9999978637696,8|0,1:0|1:0,0:0:0:0:
229,292,45338,2,0,L|209:182,1,104.999996795654,10|0,1:0|0:0,0:0:0:0:
137,116,45654,2,0,P|125:149|107:187,1,69.9999978637696,10|0,1:0|1:0,0:0:0:0:
26,250,45890,1,0,0:0:0:0:
26,250,45969,2,0,P|63:269|110:285,1,69.9999978637696,10|0,1:0|1:0,0:0:0:0:
314,223,46285,6,0,P|273:272|297:362,1,139.999995727539,10|8,1:0|1:0,0:0:0:0:
425,245,46759,1,2,1:2:0:0:
425,245,46917,2,0,L|407:149,1,69.9999978637696,8|2,1:0|1:2,0:0:0:0:
406,87,47233,1,8,1:0:0:0:
453,15,47390,1,8,3:0:0:0:
265,184,47706,5,8,1:0:0:0:
212,113,47864,2,0,L|73:136,1,139.999995727539,10|8,1:0|1:0,0:0:0:0:
73,136,48259,1,8,1:0:0:0:
73,136,48338,1,8,1:0:0:0:
73,136,48417,1,8,1:0:0:0:
73,136,48496,1,10,1:0:0:0:
24,298,48811,6,0,B|153:268|103:342|241:318,1,200,6|8,1:2|1:0,0:0:0:0:
271,155,49285,2,0,P|222:151|175:185,1,100,2|0,1:2|0:0,0:0:0:0:
332,253,49601,1,2,1:2:0:0:
332,253,49759,1,8,1:0:0:0:
402,143,49917,6,0,P|399:98|358:50,1,100,2|0,1:2|0:0,0:0:0:0:
367,55,50233,1,0,1:0:0:0:
499,205,50390,2,0,P|501:131|512:55,1,150,10|0,1:0|0:0,0:0:0:0:
512,55,50706,2,0,P|482:91|427:138,1,100,2|0,1:2|1:0,0:0:0:0:
270,18,51022,2,0,P|328:24|388:37,1,100,10|0,1:0|0:0,0:0:0:0:
353,242,51338,6,0,P|285:186|160:215,1,200,2|8,1:2|1:0,0:0:0:0:
71,263,51811,1,2,1:2:0:0:
35,353,51969,5,0,0:0:0:0:
91,169,52127,2,0,P|48:144|-3:149,1,100,2|8,1:2|1:0,0:0:0:0:
196,146,52443,6,0,P|177:88|96:39,1,150,2|0,1:2|0:0,0:0:0:0:
105,40,52759,1,2,1:2:0:0:
301,115,52917,2,0,P|307:67|322:7,1,100,8|0,1:0|1:0,0:0:0:0:
456,192,53233,2,0,P|403:212|355:197,1,100,0|0,1:0|1:0,0:0:0:0:
207,125,53548,2,0,P|259:104|307:119,1,100,10|0,1:0|0:0,0:0:0:0:
124,360,53864,6,0,P|142:267|67:181,1,200,6|8,1:2|1:0,0:0:0:0:
0,106,54338,2,0,P|-1:48|41:-5,1,100,2|0,1:2|1:0,0:0:0:0:
82,188,54654,1,0,1:0:0:0:
14,260,54811,5,10,1:0:0:0:
176,139,54969,2,0,P|221:128|277:147,1,100,0|0,1:0|0:0,0:0:0:0:
329,223,55285,1,0,1:0:0:0:
402,34,55443,2,0,P|419:90|426:147,1,100,10|0,1:0|0:0,0:0:0:0:
425,130,55759,1,2,1:2:0:0:
333,227,55917,1,0,1:0:0:0:
333,227,56075,2,0,P|346:280|354:335,1,100,10|0,1:0|1:0,0:0:0:0:
264,133,56390,6,0,P|186:94|115:121,1,150,14|0,1:0|0:0,0:0:0:0:
129,110,56706,1,0,1:0:0:0:
54,170,56864,1,10,1:0:0:0:
101,266,57022,1,0,1:0:0:0:
176,206,57180,1,2,1:2:0:0:
58,174,57338,1,8,1:0:0:0:
176,206,57496,6,0,P|221:229|246:276,1,100,2|0,1:2|0:0,0:0:0:0:
423,146,57811,1,8,1:0:0:0:
326,122,57969,2,0,L|342:237,1,100,8|0,1:0|0:0,0:0:0:0:
452,363,58285,5,8,1:0:0:0:
425,345,58363,1,8,1:0:0:0:
395,338,58442,1,8,3:0:0:0:
365,342,58521,1,8,3:0:0:0:
336,356,58600,1,4,3:0:0:0:
308,369,58679,1,4,3:0:0:0:
277,370,58758,1,0,1:0:0:0:
248,360,58837,1,0,1:0:0:0:
221,343,58917,6,0,B|108:307|108:307|88:350|49:373,1,200,6|8,1:2|1:0,0:0:0:0:
179,213,59390,2,0,P|204:169|198:122,1,100,2|0,1:2|0:0,0:0:0:0:
119,56,59706,1,2,1:2:0:0:
119,56,59864,1,8,1:0:0:0:
252,16,60022,6,0,P|311:92|303:168,1,150,2|0,1:2|0:0,0:0:0:0:
311,142,60338,1,2,1:2:0:0:
441,93,60496,1,8,1:0:0:0:
441,93,60654,2,0,B|388:210|469:178|412:306,1,200,0|0,1:0|1:0,0:0:0:0:
228,270,61127,2,0,P|269:246|331:251,1,100,10|0,1:0|1:0,0:0:0:0:
140,327,61443,6,0,P|77:312|41:318,1,100,2|0,1:2|0:0,0:0:0:0:
237,373,61759,1,8,1:0:0:0:
228,270,61917,2,0,P|197:212|168:191,1,100,2|0,1:2|0:0,0:0:0:0:
77,193,62233,1,2,1:2:0:0:
0,242,62390,1,8,1:0:0:0:
70,59,62548,6,0,P|142:97|236:67,1,150,2|0,1:2|0:0,0:0:0:0:
207,86,62864,1,0,1:0:0:0:
353,33,63022,2,0,B|327:102|327:102|338:143|338:143|309:238,1,200,10|0,1:0|1:0,0:0:0:0:
368,310,63496,1,0,1:0:0:0:
369,158,63654,2,0,P|411:134|463:138,1,100,10|0,1:0|0:0,0:0:0:0:
189,302,63969,6,0,P|185:254|216:206,1,100,6|0,1:2|0:0,0:0:0:0:
276,278,64285,1,8,1:0:0:0:
343,343,64443,2,0,P|368:300|365:251,1,100,2|0,1:2|0:0,0:0:0:0:
268,118,64759,1,0,1:0:0:0:
326,65,64917,1,10,1:0:0:0:
344,141,65075,1,0,1:0:0:0:
138,44,65390,5,0,1:0:0:0:
138,44,65548,2,0,P|123:95|115:164,1,100,10|0,1:0|1:0,0:0:0:0:
94,238,65864,2,0,P|109:187|117:118,1,100,2|0,1:2|1:0,0:0:0:0:
7,140,66180,1,10,1:0:0:0:
7,140,66338,1,0,0:0:0:0:
94,238,66496,6,0,P|136:264|218:245,1,100,6|0,1:2|1:0,0:0:0:0:
309,184,66811,1,8,1:0:0:0:
377,310,66969,2,0,P|441:348|532:320,1,150,2|0,1:2|0:0,0:0:0:0:
512,335,67285,1,2,1:2:0:0:
459,248,67443,1,8,1:0:0:0:
509,85,67601,6,0,P|441:153|463:253,1,200,2|0,1:2|1:0,0:0:0:0:
377,310,68075,1,8,1:0:0:0:
275,296,68233,1,0,1:0:0:0:
226,210,68390,1,0,1:0:0:0:
244,110,68548,1,0,1:0:0:0:
338,57,68706,2,0,P|282:64|236:49,1,100,10|0,1:0|0:0,0:0:0:0:
40,189,69022,6,0,P|147:178|233:252,1,200,4|0,1:0|0:0,0:0:0:0:
233,322,69496,1,2,0:0:0:0:
233,322,69969,2,0,P|273:299|332:296,1,100,2|0,0:0|0:0,0:0:0:0:
405,354,70285,5,8,1:0:0:0:
256,192,70364,12,6,71548,1:0:0:0:
256,192,81496,12,10,83233,0:2:0:0:
417,337,83706,6,0,P|409:309|404:265,1,69.9999978637696,0|10,0:0|0:0,0:0:0:0:
397,189,84022,1,0,1:0:0:0:
308,260,84180,6,0,P|252:226|170:235,1,139.999995727539,2|8,1:2|0:0,0:0:0:0:
94,323,84654,2,0,P|81:245|61:175,2,139.999995727539,2|2|2,0:0|0:0|1:2,0:0:0:0:
125,87,85759,6,0,P|126:52|140:20,1,69.9999978637696,2|0,0:0|0:0,0:0:0:0:
210,148,86075,2,0,P|280:155|323:162,1,104.999996795654,2|0,0:0|0:0,0:0:0:0:
314,160,86390,1,2,0:0:0:0:
363,64,86548,6,0,P|437:84|463:155,1,139.999995727539,4|0,1:0|1:0,0:0:0:0:
463,136,87022,1,8,1:0:0:0:
443,280,87180,1,0,1:0:0:0:
397,199,87338,1,8,1:0:0:0:
512,215,87496,1,0,1:0:0:0:
397,199,87654,2,0,L|327:210,1,69.9999978637696,8|0,1:0|1:0,0:0:0:0:
192,101,87969,6,0,P|229:181|203:250,1,139.999995727539,8|10,1:0|1:0,0:0:0:0:
155,306,88443,1,0,1:0:0:0:
155,306,88522,1,0,1:0:0:0:
155,306,88601,1,10,1:0:0:0:
3,201,88759,1,0,1:0:0:0:
85,147,88917,1,8,1:0:0:0:
172,186,89075,6,0,P|237:216|326:186,1,139.999995727539,6|0,1:0|1:0,0:0:0:0:
246,124,89548,2,0,P|231:86|232:52,1,69.9999978637696,8|0,1:0|1:0,0:0:0:0:
334,76,89864,1,8,1:0:0:0:
420,37,90022,1,0,1:0:0:0:
334,76,90180,1,8,1:0:0:0:
420,37,90338,1,0,1:0:0:0:
498,146,90496,5,10,1:0:0:0:
498,146,90575,1,0,1:0:0:0:
497,146,90654,1,8,3:0:0:0:
498,146,90733,1,4,3:0:0:0:
498,146,90811,2,0,L|493:204,3,34.9999989318848,4|4|4|0,3:0|3:0|3:0|1:0,0:0:0:0:
400,128,91127,1,8,1:0:0:0:
429,244,91364,5,8,1:0:0:0:
429,244,91443,1,8,1:0:0:0:
450,339,91601,6,0,P|380:324|311:325,1,139.999995727539,4|0,1:0|1:0,0:0:0:0:
182,245,92075,2,0,P|227:240|263:232,1,69.9999978637696,10|0,1:0|0:0,0:0:0:0:
141,348,92390,1,2,1:2:0:0:
141,348,92548,2,0,P|106:341|71:338,1,69.9999978637696,0|8,1:0|1:0,0:0:0:0:
0,134,92864,6,0,P|61:168|147:147,1,139.999995727539,2|0,1:2|1:0,0:0:0:0:
221,100,93338,2,0,P|257:89|311:99,1,69.9999978637696,10|0,1:0|0:0,0:0:0:0:
288,91,93575,1,8,1:0:0:0:
288,91,93654,1,0,1:0:0:0:
404,241,93811,1,2,1:2:0:0:
314,225,93969,1,8,1:0:0:0:
372,157,94127,1,0,1:0:0:0:
418,228,94285,6,0,P|405:309|400:373,1,139.999995727539,2|8,0:0|1:0,0:0:0:0:
489,159,94759,2,0,P|498:116|500:67,1,69.9999978637696,2|0,1:2|0:0,0:0:0:0:
431,75,95075,2,0,P|466:84|508:90,1,69.9999978637696,2|8,1:2|1:0,0:0:0:0:
351,152,95390,6,0,P|269:137|218:170,1,139.999995727539,2|0,1:2|1:0,0:0:0:0:
72,118,95864,2,0,P|97:141|130:153,1,69.9999978637696,10|0,1:0|0:0,0:0:0:0:
165,302,96180,2,0,P|172:267|166:233,1,69.9999978637696,2|0,1:2|1:0,0:0:0:0:
72,264,96496,1,8,1:0:0:0:
223,384,96654,6,0,P|259:336|256:240,1,139.999995727539,6|0,1:2|1:0,0:0:0:0:
353,205,97127,2,0,P|386:213|427:250,1,69.9999978637696,8|0,1:0|0:0,0:0:0:0:
279,136,97443,1,2,1:2:0:0:
279,136,97601,2,0,P|309:113|371:104,1,69.9999978637696,0|8,1:0|1:0,0:0:0:0:
215,216,97917,6,0,P|140:230|71:252,1,139.999995727539,2|0,1:2|1:0,0:0:0:0:
43,103,98390,2,0,P|80:93|122:76,1,69.9999978637696,10|0,1:0|1:0,0:0:0:0:
110,82,98627,1,8,1:0:0:0:
110,82,98706,2,0,P|140:86|197:101,1,69.9999978637696,2|0,1:2|1:0,0:0:0:0:
298,29,99022,1,8,1:0:0:0:
408,107,99180,6,0,B|421:188|384:164|400:256,1,139.999995727539,6|0,1:2|1:0,0:0:0:0:
512,305,99654,2,0,P|504:276|497:226,1,69.9999978637696,8|0,1:0|0:0,0:0:0:0:
367,333,99969,1,2,1:2:0:0:
300,257,100127,2,0,L|232:275,1,69.9999978637696,0|8,1:0|1:0,0:0:0:0:
42,125,100443,6,0,L|131:140,1,69.9999978637696,6|0,1:2|0:0,0:0:0:0:
247,40,100759,1,8,1:0:0:0:
247,40,100838,1,8,1:0:0:0:
247,40,100917,1,8,1:0:0:0:
118,9,101075,1,10,1:0:0:0:
213,133,101233,1,8,1:0:0:0:
213,133,101390,1,8,1:0:0:0:
340,83,101548,1,8,1:0:0:0:
340,83,101706,1,8,1:0:0:0:
440,207,101864,6,0,P|405:212|355:190,1,69.9999978637696,4|0,1:0|1:0,0:0:0:0:
255,311,102180,2,0,P|266:274|276:226,1,69.9999978637696,2|0,1:2|0:0,0:0:0:0:
189,384,102496,1,10,1:0:0:0:
189,384,102654,1,0,1:0:0:0:
138,306,102811,1,0,1:0:0:0:
60,191,102969,6,0,P|54:229|41:275,1,69.9999978637696,2|0,1:2|0:0,0:0:0:0:
141,126,103285,1,0,1:0:0:0:
141,126,103443,2,0,P|132:92|127:57,1,69.9999978637696,2|0,1:2|1:0,0:0:0:0:
111,247,103759,2,0,P|78:262|34:254,1,69.9999978637696,8|0,1:0|0:0,0:0:0:0:
141,126,104075,2,0,P|174:111|218:119,1,69.9999978637696,2|0,1:2|1:0,0:0:0:0:
286,36,104390,5,2,1:2:0:0:
286,36,104548,1,0,0:0:0:0:
380,147,104706,2,0,P|373:117|370:68,1,69.9999978637696,0|2,1:0|1:2,0:0:0:0:
482,127,105022,2,0,P|489:157|492:206,1,69.9999978637696,8|2,1:0|1:2,0:0:0:0:
332,335,105338,1,0,1:0:0:0:
375,265,105496,6,0,P|440:298|436:366,1,139.999995727539,2|0,1:2|1:0,0:0:0:0:
270,248,105969,1,2,1:2:0:0:
270,248,106127,1,0,0:0:0:0:
334,170,106285,5,8,1:0:0:0:
164,101,106522,1,8,1:0:0:0:
21,217,106759,1,8,1:0:0:0:
116,201,106917,6,0,B|200:216|164:243|259:259,1,139.999995727539,4|2,1:0|1:2,0:0:0:0:
242,255,107390,1,0,0:0:0:0:
105,346,107548,2,0,P|83:325|73:283,1,69.9999978637696,10|0,1:0|0:0,0:0:0:0:
249,164,107864,1,0,1:0:0:0:
249,164,108022,1,2,1:2:0:0:
166,97,108180,6,0,P|131:98|100:113,1,69.9999978637696,0|0,0:0|1:0,0:0:0:0:
264,41,108496,2,0,P|213:3|127:4,1,139.999995727539,2|8,1:2|1:0,0:0:0:0:
139,0,108890,1,8,1:0:0:0:
169,41,108969,1,8,3:0:0:0:
185,82,109048,1,4,3:0:0:0:
189,124,109127,1,4,3:0:0:0:
181,164,109206,1,8,3:0:0:0:
161,201,109285,1,8,1:0:0:0:
135,233,109364,1,4,3:0:0:0:
100,257,109443,5,14,1:0:0:0:
132,336,109601,1,0,1:0:0:0:
215,332,109759,1,8,1:0:0:0:
177,264,109917,1,2,1:2:0:0:
226,351,110075,2,0,P|266:355|293:368,1,69.9999978637696,8|0,1:0|1:0,0:0:0:0:
65,352,110390,2,0,P|96:337|131:335,1,69.9999978637696,10|0,1:0|0:0,0:0:0:0:
331,185,110706,5,8,1:0:0:0:
299,81,110864,1,0,1:0:0:0:
304,98,111022,1,10,1:0:0:0:
441,160,111180,5,0,1:0:0:0:
411,63,111338,1,10,1:0:0:0:
375,130,111496,5,0,1:0:0:0:
375,130,111575,1,0,1:0:0:0:
375,130,111654,2,0,L|367:206,1,69.9999978637696,10|0,1:0|1:0,0:0:0:0:
242,332,111969,5,10,1:0:0:0:
224,252,112127,1,0,0:0:0:0:
208,176,112285,1,8,1:0:0:0:
130,310,112443,2,0,P|105:320|61:322,1,69.9999978637696,2|8,1:2|1:0,0:0:0:0:
35,152,112759,1,2,1:2:0:0:
84,214,112917,1,8,1:0:0:0:
108,137,113075,1,8,3:0:0:0:
502,321,113390,5,8,1:0:0:0:
403,251,113548,1,10,1:0:0:0:
403,251,113627,1,0,1:0:0:0:
403,251,113706,1,0,1:0:0:0:
403,251,113785,1,0,1:0:0:0:
403,251,113864,2,0,L|448:238,3,34.9999989318848,8|8|8|8,1:0|1:0|1:0|1:0,0:0:0:0:
291,168,114180,2,0,L|246:155,3,34.9999989318848,10|0|0|0,1:0|0:0|0:0|0:0,0:0:0:0:
512,17,114496,6,0,P|405:33|307:41,1,200,6|8,1:2|1:0,0:0:0:0:
113,132,114970,2,0,B|175:105|164:128|209:102,1,100,2|0,1:2|0:0,0:0:0:0:
64,39,115286,1,2,1:2:0:0:
64,39,115444,1,8,1:0:0:0:
32,201,115602,6,0,P|70:231|119:236,1,100,2|0,1:2|0:0,0:0:0:0:
301,147,115918,1,0,1:0:0:0:
383,328,116075,2,0,P|313:285|240:300,1,150,10|0,1:0|0:0,0:0:0:0:
248,295,116391,2,0,P|302:277|341:260,1,100,2|0,1:2|1:0,0:0:0:0:
485,167,116707,2,0,P|457:221|475:282,1,100,10|0,1:0|0:0,0:0:0:0:
408,54,117023,6,0,P|330:9|223:39,1,200,2|8,1:2|1:0,0:0:0:0:
154,115,117496,1,2,1:2:0:0:
158,215,117654,5,0,0:0:0:0:
102,23,117812,2,0,P|52:18|8:44,1,100,2|8,1:2|1:0,0:0:0:0:
269,169,118128,6,0,B|331:181|331:181|349:200|349:200|418:212,1,150,2|0,1:2|0:0,0:0:0:0:
408,210,118444,1,2,1:2:0:0:
272,272,118602,2,0,P|240:310|234:359,1,100,8|0,1:0|1:0,0:0:0:0:
272,272,118918,2,0,P|223:281|168:287,1,100,0|0,1:0|1:0,0:0:0:0:
116,220,119233,2,0,P|67:229|12:235,1,100,10|0,1:0|0:0,0:0:0:0:
216,106,119549,6,0,P|285:91|378:174,1,200,6|8,1:2|1:0,0:0:0:0:
109,79,120023,2,0,P|135:27|197:0,1,100,2|0,1:2|1:0,0:0:0:0:
272,194,120339,1,0,1:0:0:0:
182,246,120496,5,10,1:0:0:0:
331,104,120654,2,0,P|376:93|432:112,1,100,0|0,1:0|1:0,0:0:0:0:
488,199,120970,1,0,0:0:0:0:
363,322,121128,2,0,P|296:323|261:345,1,100,10|0,1:0|0:0,0:0:0:0:
166,306,121444,1,2,1:2:0:0:
127,210,121602,1,0,0:0:0:0:
58,287,121760,2,0,P|71:340|79:395,1,100,10|0,1:0|1:0,0:0:0:0:
170,118,122075,6,0,P|232:80|304:95,1,150,14|0,1:0|0:0,0:0:0:0:
304,95,122391,1,0,1:0:0:0:
427,84,122549,1,10,1:0:0:0:
305,138,122707,1,0,1:0:0:0:
434,183,122865,1,2,1:2:0:0:
292,181,123023,1,8,1:0:0:0:
442,278,123181,6,0,P|438:227|465:181,1,100,2|0,1:2|0:0,0:0:0:0:
397,364,123496,1,8,1:0:0:0:
321,293,123654,2,0,P|271:290|226:310,1,100,8|0,1:0|0:0,0:0:0:0:
53,350,123970,5,8,1:0:0:0:
71,323,124048,1,8,1:0:0:0:
78,293,124127,1,8,3:0:0:0:
74,263,124206,1,8,3:0:0:0:
60,234,124285,1,4,3:0:0:0:
47,206,124364,1,4,3:0:0:0:
46,175,124443,1,0,1:0:0:0:
56,146,124522,1,0,1:0:0:0:
79,122,124602,6,0,B|141:81|141:81|267:122,1,200,6|8,1:2|1:0,0:0:0:0:
387,20,125075,2,0,P|362:64|368:111,1,100,2|0,1:2|0:0,0:0:0:0:
456,178,125391,1,2,1:2:0:0:
456,178,125549,1,8,1:0:0:0:
314,275,125707,6,0,B|216:290|257:320|147:338,1,150,2|0,1:2|0:0,0:0:0:0:
177,331,126023,1,2,1:2:0:0:
236,169,126181,1,8,1:0:0:0:
85,108,126338,2,0,P|102:181|113:268,1,150,0|0,1:0|0:0,0:0:0:0:
112,256,126654,1,0,1:0:0:0:
21,348,126812,2,0,P|11:298|0:250,1,100,10|0,1:0|1:0,0:0:0:0:
193,66,127128,6,0,P|248:72|291:50,1,100,2|0,1:2|0:0,0:0:0:0:
378,1,127444,1,8,1:0:0:0:
471,57,127602,2,0,P|501:108|497:151,1,100,2|0,1:2|0:0,0:0:0:0:
385,101,127918,1,2,1:2:0:0:
385,101,128075,1,8,1:0:0:0:
280,249,128233,6,0,P|352:211|446:241,1,150,2|0,1:2|0:0,0:0:0:0:
417,222,128549,1,0,1:0:0:0:
226,153,128707,2,0,B|109:127|149:184|33:177,1,200,10|0,1:0|1:0,0:0:0:0:
178,241,129181,1,0,1:0:0:0:
96,129,129339,2,0,P|72:87|76:35,1,100,10|0,1:0|0:0,0:0:0:0:
321,101,129654,6,0,P|381:91|436:133,1,100,6|0,1:2|0:0,0:0:0:0:
364,185,129970,1,8,1:0:0:0:
312,262,130127,2,0,P|357:279|405:268,1,100,2|0,1:2|0:0,0:0:0:0:
364,185,130444,1,0,1:0:0:0:
224,219,130602,1,10,1:0:0:0:
224,219,130760,1,0,0:0:0:0:
72,335,131075,5,0,1:0:0:0:
72,335,131233,2,0,P|104:302|90:218,1,100,10|0,1:0|1:0,0:0:0:0:
36,102,131548,2,0,P|4:135|18:219,1,100,2|0,1:2|1:0,0:0:0:0:
128,153,131864,1,10,1:0:0:0:
128,153,132023,1,0,0:0:0:0:
194,281,132181,6,0,P|236:307|318:288,1,100,6|0,1:2|0:0,0:0:0:0:
388,196,132496,1,8,1:0:0:0:
336,98,132654,2,0,P|408:85|471:123,1,150,2|0,1:2|0:0,0:0:0:0:
512,224,132970,1,2,1:2:0:0:
441,293,133128,1,8,1:0:0:0:
284,197,133286,6,0,P|170:171|75:233,1,200,2|0,1:2|1:0,0:0:0:0:
83,347,133760,1,8,1:0:0:0:
182,334,133918,1,0,1:0:0:0:
293,218,134075,1,0,1:0:0:0:
194,231,134233,1,0,1:0:0:0:
342,315,134391,2,0,P|389:327|439:320,1,100,10|0,1:0|0:0,0:0:0:0:
219,129,134707,6,0,P|136:75|39:89,1,200,4|0,1:0|0:0,0:0:0:0:
369,49,135181,1,2,0:0:0:0:
369,49,135654,2,0,P|346:89|343:148,1,100,2|0,0:0|0:0,0:0:0:0:
425,207,135970,5,8,1:0:0:0:
256,192,136049,12,8,137233,1:0:0:0:
255,202,137390,5,8,1:0:0:0:
334,217,138654,5,8,1:0:0:0:
334,217,138811,1,8,1:0:0:0:
334,217,138969,1,8,1:0:0:0:
208,270,139285,2,0,B|79:293|79:293|69:330|24:356,2,200,8|4|4,1:0|1:2|1:2,0:0:0:0:
27,113,140864,6,0,B|148:88|101:162|237:162,1,200,6|8,1:0|1:0,0:0:0:0:
332,68,141338,1,8,1:0:0:0:
233,32,141496,1,8,1:0:0:0:
327,178,141654,1,8,1:0:0:0:
327,178,141733,1,8,1:0:0:0:
327,178,141811,1,8,1:0:0:0:
327,178,141890,1,8,1:0:0:0:
327,178,141969,2,0,P|340:209|338:247,1,50,8|8,1:0|1:0,0:0:0:0:
366,316,142127,1,6,1:0:0:0:
366,316,142206,6,0,P|313:307|231:365,1,150,2|2,0:0|1:2,0:0:0:0:
156,309,142601,1,10,1:0:0:0:
42,239,142759,2,0,B|85:233|85:233|98:227|98:227|163:217,1,100,0|0,0:0|1:0,0:0:0:0:
201,137,143075,1,2,1:0:0:0:
325,236,143233,6,0,B|410:250|410:250|435:275|435:275|544:296,1,200,10|2,1:0|1:0,0:0:0:0:
512,289,143627,1,2,0:0:0:0:
512,289,143706,1,2,1:0:0:0:
458,160,143864,2,0,P|481:128|478:62,1,100,10|2,1:0|0:0,0:0:0:0:
327,25,144180,2,0,P|300:67|302:116,1,100,2|2,1:0|1:0,0:0:0:0:
395,93,144496,1,10,1:0:0:0:
341,206,144654,6,0,L|194:240,1,150,6|0,1:0|0:0,0:0:0:0:
194,239,144969,2,0,P|158:213|93:214,1,100,0|8,1:0|1:0,0:0:0:0:
7,3,145443,1,2,1:0:0:0:
88,40,145601,1,0,1:0:0:0:
10,94,145759,1,8,1:0:0:0:
189,67,145917,6,0,B|209:33|239:15|239:15|370:52,1,200,2|0,1:0|1:0,0:0:0:0:
447,123,146390,1,8,1:0:0:0:
389,244,146548,2,0,P|318:225|211:304,1,200,2|0,1:0|1:0,0:0:0:0:
35,320,147022,2,0,P|99:319|138:363,1,100,8|2,1:0|1:0,0:0:0:0:
0,214,147338,6,0,P|104:205|221:175,1,200,4|0,1:0|1:0,0:0:0:0:
438,54,147811,2,0,P|331:61|338:154,1,200,0|0,1:0|1:0,0:0:0:0:
501,269,148285,2,0,P|476:219|416:214,1,100,0|0,1:0|1:0,0:0:0:0:
226,368,148601,6,0,B|301:351|301:351|329:319|329:319|425:297,1,200,0|10,1:0|1:0,0:0:0:0:
135,315,149075,1,0,0:0:0:0:
202,235,149233,1,2,1:0:0:0:
202,235,149311,1,0,1:0:0:0:
202,235,149390,2,0,L|182:136,1,100,0|8,1:0|1:0,0:0:0:0:
92,81,149706,1,2,1:0:0:0:
268,66,149864,6,0,P|334:85|403:42,1,150,2|0,1:0|1:0,0:0:0:0:
400,45,150180,2,0,P|383:95|373:156,1,100,2|2,1:0|1:0,0:0:0:0:
512,333,150496,2,0,P|484:309|422:306,1,100,10|0,1:0|0:0,0:0:0:0:
329,353,150811,1,2,1:0:0:0:
329,353,150890,1,2,0:0:0:0:
329,353,150969,1,2,1:0:0:0:
221,145,151127,6,0,L|245:254,1,100,2|0,1:0|1:0,0:0:0:0:
155,282,151443,2,0,L|179:391,1,100,8|0,1:0|0:0,0:0:0:0:
341,187,151759,1,8,1:0:0:0:
341,187,151838,1,8,1:0:0:0:
341,187,151917,1,8,1:0:0:0:
434,233,152075,1,8,1:0:0:0:
470,68,152233,6,0,P|374:85|296:27,1,200,6|0,1:0|1:0,0:0:0:0:
86,152,152706,2,0,P|136:123|191:133,1,100,10|0,1:0|1:0,0:0:0:0:
0,115,153022,2,0,P|20:60|69:34,1,100,10|0,1:0|1:0,0:0:0:0:
3,221,153338,1,8,1:0:0:0:
86,152,153496,6,0,B|215:159|144:205|285:219,1,200,2|0,1:0|1:0,0:0:0:0:
369,266,153969,1,10,1:0:0:0:
409,357,154127,1,0,1:0:0:0:
404,166,154285,2,0,P|440:139|499:140,1,100,10|0,1:0|1:0,0:0:0:0:
305,119,154601,1,8,1:0:0:0:
234,196,154759,6,0,L|267:389,1,150,6|0,1:0|0:0,0:0:0:0:
259,343,155075,2,0,L|285:231,1,100,0|10,1:0|1:0,0:0:0:0:
141,221,155390,1,0,1:0:0:0:
304,148,155548,2,0,L|281:245,1,100,2|0,1:0|1:0,0:0:0:0:
167,42,155864,1,8,1:0:0:0:
61,49,156022,6,0,P|5:116|43:225,1,200,2|0,1:0|1:0,0:0:0:0:
61,49,156496,1,8,1:0:0:0:
162,140,156654,2,0,P|260:162|365:196,1,200,2|0,1:0|1:0,0:0:0:0:
454,234,157127,1,8,1:0:0:0:
260,264,157285,6,0,P|232:296|227:358,1,100,2|0,1:0|1:0,0:0:0:0:
354,192,157601,1,2,0:0:0:0:
354,192,157680,1,2,0:0:0:0:
354,192,157759,2,0,P|381:159|386:97,1,100,10|2,1:0|0:0,0:0:0:0:
309,18,158075,2,0,P|324:57|375:93,1,100,10|2,1:0|1:0,0:0:0:0:
490,66,158390,2,0,P|447:59|391:85,1,100,10|2,1:0|1:0,0:0:0:0:
190,223,158706,5,10,1:0:0:0:
107,266,158864,1,2,0:0:0:0:
64,183,159022,1,10,1:0:0:0:
147,140,159180,2,0,P|188:113|253:116,1,100,2|10,1:0|1:0,0:0:0:0:
324,175,159496,1,2,1:0:0:0:
270,267,159654,2,0,P|244:314|262:392,1,100,10|2,1:0|1:0,0:0:0:0:
413,227,159969,6,0,P|403:309|494:386,1,200,14|8,1:0|1:0,0:0:0:0:
501,173,160443,1,0,1:0:0:0:
358,93,160601,2,0,P|307:121|229:103,1,100,10|0,1:0|1:0,0:0:0:0:
163,66,160917,2,0,P|113:67|71:93,1,100,10|0,1:0|1:0,0:0:0:0:
266,120,161233,6,0,L|283:18,1,100,10|0,1:0|1:0,0:0:0:0:
163,66,161548,2,0,L|146:164,1,100,10|0,1:0|1:0,0:0:0:0:
146,164,161785,1,0,1:0:0:0:
146,164,161864,1,10,1:0:0:0:
146,164,161943,1,0,1:0:0:0:
146,164,162022,1,0,1:0:0:0:
74,238,162180,1,10,1:0:0:0:
157,307,162338,6,0,B|235:327|235:327|261:357|261:357|368:387,1,200,6|0,1:0|1:0,0:0:0:0:
418,263,162811,2,0,L|398:191,1,69.9999978637696,10|0,1:0|0:0,0:0:0:0:
455,108,163127,1,2,1:0:0:0:
455,108,163285,2,0,L|435:36,1,69.9999978637696,0|8,1:0|1:0,0:0:0:0:
315,132,163601,6,0,P|266:102|173:114,1,139.999995727539,2|0,1:0|1:0,0:0:0:0:
90,58,164075,2,0,P|55:59|19:78,1,69.9999978637696,10|0,1:0|0:0,0:0:0:0:
84,161,164390,2,0,P|128:218|117:309,1,139.999995727539,2|8,1:0|1:0,0:0:0:0:
250,247,164864,6,0,P|237:310|226:397,1,139.999995727539,6|0,1:0|1:0,0:0:0:0:
128,283,165338,1,8,1:0:0:0:
340,314,165654,2,0,P|379:310|431:339,1,69.9999978637696,2|0,1:0|1:0,0:0:0:0:
507,232,165969,2,0,P|468:236|416:207,1,69.9999978637696,8|0,1:0|1:0,0:0:0:0:
332,155,166285,6,0,P|348:83|358:-5,2,139.999995727539,2|8|2,0:0|1:0|1:0,0:0:0:0:
250,217,167075,1,0,1:0:0:0:
250,217,167233,1,8,1:0:0:0:
194,112,167390,6,0,P|116:82|52:103,1,139.999995727539,6|0,1:0|1:0,0:0:0:0:
19,195,167864,2,0,P|31:261|42:352,1,139.999995727539,8|0,1:0|1:0,0:0:0:0:
146,361,168338,1,0,1:0:0:0:
146,361,168496,1,8,1:0:0:0:
272,282,168654,6,0,B|328:273|328:273|350:256|350:256|436:242,1,139.999995727539,6|0,1:0|1:0,0:0:0:0:
275,183,169127,2,0,L|198:167,1,69.9999978637696,10|0,1:0|0:0,0:0:0:0:
341,101,169443,2,0,L|203:72,1,139.999995727539,2|8,1:0|1:0,0:0:0:0:
466,101,169917,6,0,P|425:159|437:238,1,139.999995727539,4|0,1:0|1:0,0:0:0:0:
497,302,170390,1,8,1:0:0:0:
284,263,170706,2,0,L|295:193,1,69.9999978637696,2|0,1:0|0:0,0:0:0:0:
282,95,171022,1,8,1:0:0:0:
185,173,171180,6,0,P|97:180|50:126,1,139.999995727539,6|0,1:0|1:0,0:0:0:0:
45,47,171654,1,8,1:0:0:0:
0,238,171969,2,0,L|10:320,1,69.9999978637696,2|0,1:0|1:0,0:0:0:0:
87,374,172285,1,8,1:0:0:0:
154,297,172443,6,0,P|225:263|303:284,1,139.999995727539,6|0,1:0|1:0,0:0:0:0:
365,369,172917,2,0,L|376:300,1,69.9999978637696,8|0,1:0|1:0,0:0:0:0:
458,260,173233,2,0,L|392:284,1,69.9999978637696,8|0,1:0|1:0,0:0:0:0:
314,234,173548,2,0,L|367:278,1,69.9999978637696,8|0,1:0|1:0,0:0:0:0:
330,117,173864,6,0,L|241:133,1,69.9999978637696,10|0,1:0|1:0,0:0:0:0:
192,69,174180,2,0,L|103:85,1,69.9999978637696,8|0,1:0|1:0,0:0:0:0:
318,48,174496,2,0,P|328:81|329:116,1,69.9999978637696,10|0,1:0|1:0,0:0:0:0:
192,69,174811,2,0,P|181:35|180:0,1,69.9999978637696,8|0,1:0|1:0,0:0:0:0:
222,162,175127,5,14,1:0:0:0:
455,203,176390,6,0,L|472:256,2,34.9999989318848,8|8|0,1:0|1:0|1:0,0:0:0:0:
397,137,176627,1,0,1:0:0:0:
397,137,176706,2,0,L|414:84,2,34.9999989318848,8|4|4,3:0|3:0|3:0,0:0:0:0:
335,201,176943,5,0,1:0:0:0:
311,204,177021,1,8,1:0:0:0:
288,208,177100,1,0,1:0:0:0:
265,212,177179,1,0,1:0:0:0:
242,216,177258,1,0,1:0:0:0:
219,220,177337,1,8,1:0:0:0:
196,223,177416,1,0,1:0:0:0:
173,227,177495,1,0,1:0:0:0:
150,231,177574,1,0,1:0:0:0:
130,236,177654,6,0,P|165:146|76:77,1,200,6|8,1:2|1:0,0:0:0:0:
181,102,178128,2,0,P|233:104|281:70,1,100,2|0,1:2|1:0,0:0:0:0:
325,0,178444,1,2,1:2:0:0:
325,0,178602,1,8,1:0:0:0:
426,87,178760,6,0,L|402:187,1,100,2|0,1:2|0:0,0:0:0:0:
314,224,179076,1,0,1:0:0:0:
416,364,179233,2,0,P|346:321|273:336,1,150,10|8,1:0|1:0,0:0:0:0:
282,330,179549,2,0,L|182:311,1,100,2|0,1:2|1:0,0:0:0:0:
34,263,179865,2,0,P|62:317|44:378,1,100,10|0,1:0|1:0,0:0:0:0:
87,174,180181,6,0,P|147:127|272:146,1,200,2|8,1:2|1:0,0:0:0:0:
337,209,180654,1,2,1:2:0:0:
297,293,180812,5,0,0:0:0:0:
414,154,180970,2,0,P|462:148|505:172,1,100,2|8,1:2|1:0,0:0:0:0:
353,41,181286,6,0,B|291:53|291:53|273:72|273:72|204:84,1,150,2|0,1:2|0:0,0:0:0:0:
214,82,181602,1,2,1:2:0:0:
52,61,181760,2,0,P|84:99|83:148,1,100,8|0,1:0|1:0,0:0:0:0:
12,234,182075,2,0,P|28:187|71:163,1,100,0|0,1:0|1:0,0:0:0:0:
177,191,182390,2,0,P|128:199|86:174,1,100,10|0,1:0|0:0,0:0:0:0:
214,82,182707,6,0,P|280:54|399:104,1,200,6|8,1:2|1:0,0:0:0:0:
477,263,183181,2,0,P|444:222|370:217,1,100,2|0,1:2|1:0,0:0:0:0:
306,247,183497,1,0,1:0:0:0:
228,314,183654,5,10,1:0:0:0:
228,314,183812,2,0,L|110:301,1,100,0|0,0:0|1:0,0:0:0:0:
42,355,184128,1,0,0:0:0:0:
129,204,184286,2,0,P|150:160|141:107,1,100,10|0,1:0|0:0,0:0:0:0:
68,38,184602,1,2,1:2:0:0:
68,38,184760,1,0,1:0:0:0:
170,118,184918,2,0,P|223:105|278:97,1,100,10|0,1:0|1:0,0:0:0:0:
432,19,185233,6,0,P|395:68|411:117,1,100,14|0,1:0|1:0,0:0:0:0:
401,102,185469,1,0,1:0:0:0:
401,102,185549,1,0,1:0:0:0:
486,168,185707,1,10,1:0:0:0:
332,224,185865,1,0,1:0:0:0:
332,224,185943,1,0,1:0:0:0:
332,224,186023,1,2,1:2:0:0:
382,301,186181,1,8,1:0:0:0:
295,353,186339,6,0,P|251:330|202:334,1,100,2|0,1:2|1:0,0:0:0:0:
56,303,186654,1,8,1:0:0:0:
66,209,186811,2,0,P|109:186|158:190,1,100,8|0,1:0|0:0,0:0:0:0:
358,52,187128,5,8,1:0:0:0:
331,34,187206,1,8,1:0:0:0:
301,27,187285,1,8,3:0:0:0:
271,31,187364,1,8,3:0:0:0:
242,45,187443,1,4,3:0:0:0:
214,58,187522,1,4,3:0:0:0:
183,59,187601,1,0,1:0:0:0:
154,49,187680,1,0,1:0:0:0:
122,30,187760,6,0,B|134:106|134:106|164:134|164:134|177:222,1,200,6|8,1:2|1:0,0:0:0:0:
51,285,188233,2,0,P|45:236|69:193,1,100,2|0,1:2|1:0,0:0:0:0:
257,286,188549,1,2,1:2:0:0:
257,286,188707,1,8,1:0:0:0:
318,203,188865,6,0,B|416:218|375:248|485:266,1,150,2|0,1:2|0:0,0:0:0:0:
455,259,189181,1,2,1:2:0:0:
349,109,189339,1,8,1:0:0:0:
349,109,189496,2,0,P|267:95|201:136,1,150,0|0,1:0|0:0,0:0:0:0:
126,191,189812,1,0,1:0:0:0:
91,65,189970,2,0,P|42:39|-17:54,1,100,10|0,1:0|1:0,0:0:0:0:
31,138,190286,6,0,P|50:183|43:232,1,100,2|0,1:2|0:0,0:0:0:0:
0,314,190602,1,8,1:0:0:0:
199,333,190760,2,0,P|148:303|105:307,1,100,2|0,1:2|0:0,0:0:0:0:
252,234,191076,1,2,1:2:0:0:
252,234,191233,1,8,1:0:0:0:
392,345,191391,6,0,P|354:273|384:179,1,150,2|0,1:2|0:0,0:0:0:0:
365,208,191707,1,0,1:0:0:0:
490,126,191865,2,0,B|455:117|430:90|430:90|294:125,1,200,10|0,1:0|1:0,0:0:0:0:
222,56,192339,1,0,1:0:0:0:
132,222,192497,2,0,P|158:184|148:130,1,100,10|0,1:0|0:0,0:0:0:0:
252,252,192812,6,0,P|312:242|367:284,1,100,6|0,1:2|0:0,0:0:0:0:
252,252,193128,1,8,1:0:0:0:
330,139,193285,2,0,P|340:79|298:24,1,100,2|0,1:2|1:0,0:0:0:0:
230,0,193602,1,0,1:0:0:0:
148,59,193760,1,10,1:0:0:0:
148,59,193918,1,0,1:0:0:0:
27,186,194233,5,0,1:0:0:0:
27,186,194391,2,0,P|66:162|142:171,1,100,10|0,1:0|1:0,0:0:0:0:
142,268,194706,2,0,P|103:292|27:283,1,100,2|0,1:2|1:0,0:0:0:0:
119,161,195022,1,10,1:0:0:0:
222,188,195181,1,0,0:0:0:0:
323,96,195339,6,0,L|453:80,1,100,6|0,1:2|1:0,0:0:0:0:
466,169,195654,1,8,1:0:0:0:
323,96,195812,2,0,P|260:57|187:70,1,150,2|0,1:2|0:0,0:0:0:0:
187,70,196128,1,2,1:2:0:0:
323,197,196286,1,8,1:0:0:0:
188,345,196444,6,0,P|278:308|372:336,1,200,2|0,1:2|1:0,0:0:0:0:
188,345,196918,1,8,1:0:0:0:
89,304,197075,1,0,1:0:0:0:
213,319,197233,1,0,1:0:0:0:
151,226,197391,1,0,1:0:0:0:
245,297,197549,2,0,P|292:309|342:302,1,100,10|0,1:0|0:0,0:0:0:0:
463,100,197865,6,0,P|371:139|269:101,1,200,4|0,1:0|0:0,0:0:0:0:
128,0,198339,1,2,0:0:0:0:
128,0,198812,2,0,P|151:40|154:99,1,100,2|0,0:0|0:0,0:0:0:0:
72,158,199128,5,8,1:0:0:0:
256,192,199207,12,6,200391,1:0:0:0:
