osu file format v14

[General]
AudioFilename: audio.mp3
AudioLeadIn: 0
PreviewTime: 57095
Countdown: 0
SampleSet: Soft
StackLeniency: 0.7
Mode: 0
LetterboxInBreaks: 0
WidescreenStoryboard: 0

[Editor]
DistanceSpacing: 1
BeatDivisor: 2
GridSize: 4
TimelineZoom: 1

[Metadata]
Title:Falldown
TitleUnicode:Falldown
Artist:Imy
ArtistUnicode:Imy
Creator:Garden
Version:Normal
Source:
Tags:アイミー みゅー miyu myu Meteora Japanese Rock J-Rock 藍月なくる Aitsuki Nakuru Featured Artist FA osu! Narcissu Karen doujin m3-44 mpg mappers' guild
BeatmapID:2620388
BeatmapSetID:1260515

[Difficulty]
HPDrainRate:3
CircleSize:3
OverallDifficulty:4
ApproachRate:5.5
SliderMultiplier:0.999999999999999
SliderTickRate:1

[Events]
//Background and Video events
0,0,"meteora.jpg",0,0
//Break Periods
2,26408,35574
2,91981,93279
2,136571,140492
2,152309,162132
//Storyboard Layer 0 (Background)
//Storyboard Layer 1 (Fail)
//Storyboard Layer 2 (Pass)
//Storyboard Layer 3 (Foreground)
//Storyboard Layer 4 (Overlay)
//Storyboard Sound Samples

[TimingPoints]
1290,327.868852459016,4,2,1,30,1,0
3912,-100,4,2,1,40,0,0
5880,-100,4,2,1,50,0,0
7847,-100,4,2,1,60,0,0
9158,-100,4,2,1,30,0,0
10306,-100,4,2,1,70,0,0
15388,-100,4,2,1,80,0,0
15716,-100,4,2,1,60,0,0
26208,-100,4,2,1,30,0,0
36699,-100,4,2,1,60,0,0
56208,-125,4,2,1,60,0,0
57519,-100,4,2,1,70,0,1
77191,-100,4,2,1,60,0,0
78503,-100,4,2,1,70,0,0
83585,-100,4,2,1,80,0,0
83912,-100,4,2,1,60,0,0
115224,-100,4,2,1,75,0,1
134896,-100,4,2,1,60,0,0
136371,-100,4,2,1,50,0,0
140306,-100,4,2,1,60,0,0
141617,-100,4,2,1,70,0,0
152109,-100,4,2,1,40,0,0
163257,-100,4,2,1,60,0,0
163749,-100,4,2,1,80,0,1
166044,-100,4,2,1,80,0,0
166371,-100,4,2,1,80,0,1
183421,-100,4,2,1,60,0,0
184732,-100,4,2,1,70,0,0
195470,-100,4,2,1,60,0,0
198011,-100,4,2,1,40,0,0

[Colours]
Combo1 : 188,41,214
Combo2 : 128,128,255
Combo3 : 172,89,255
Combo4 : 126,126,190

[HitObjects]
449,104,10306,6,0,B|466:153|466:153|438:192,1,99.9999999999999,12|8,0:0|0:0,0:0:0:0:
410,234,10798,1,2,1:2:0:0:
310,238,11126,2,0,L|317:288,2,50,2|10|2,1:2|0:0|1:2,0:0:0:0:
285,194,11617,6,0,P|240:172|191:180,1,99.9999999999999,10|8,0:0|0:0,0:0:0:0:
154,214,12109,1,2,1:2:0:0:
74,153,12437,2,0,L|69:103,1,50,2|2,1:2|1:2,0:0:0:0:
95,61,12765,1,2,1:2:0:0:
95,61,12929,6,0,B|144:73|144:73|201:46,1,99.9999999999999,12|8,0:0|0:0,0:0:0:0:
232,27,13421,1,2,1:2:0:0:
319,76,13749,2,0,L|312:125,2,50,2|8|2,1:2|0:0|1:2,0:0:0:0:
359,46,14240,6,0,P|407:37|453:59,1,99.9999999999999,10|8,0:0|0:0,0:0:0:0:
483,97,14732,1,2,1:2:0:0:
415,170,15060,1,8,3:0:0:0:
483,243,15388,2,0,L|475:292,1,50,2|10,1:2|0:0,0:0:0:0:
432,318,15716,6,0,B|322:331|365:250|224:279,1,200,12|0,0:0|1:0,0:0:0:0:
144,292,16699,2,0,L|133:361,1,50,8|8,0:0|0:0,0:0:0:0:
89,362,17027,2,0,P|25:290|39:195,1,200,2|2,0:0|1:2,0:0:0:0:
103,117,18011,2,0,L|162:125,1,50,8|8,0:0|0:0,0:0:0:0:
189,157,18339,6,0,B|244:166|244:166|315:119|279:41,1,200,10|0,0:0|1:0,0:0:0:0:
370,1,19322,2,0,P|376:32|383:57,1,50,8|8,0:0|0:0,0:0:0:0:
420,80,19650,2,0,L|485:88,2,50,2|0|0,1:2|1:2|0:0,0:0:0:0:
367,165,20306,2,0,P|373:209|381:250,2,74.9999999999999,2|2|2,1:2|1:2|1:2,0:0:0:0:
321,140,20962,6,0,P|226:123|149:182,1,200,12|0,0:0|1:0,0:0:0:0:
115,279,21945,1,8,0:0:0:0:
115,279,22109,2,0,P|170:284|228:297,1,99.9999999999999,10|8,0:0|0:0,0:0:0:0:
299,356,22765,1,8,0:0:0:0:
299,356,22929,2,0,P|355:356|399:314,1,99.9999999999999,0|8,1:0|0:0,0:0:0:0:
489,325,23585,6,0,P|476:252|457:115,1,200,10|0,0:0|1:0,0:0:0:0:
387,64,24568,1,8,0:0:0:0:
387,64,24732,2,0,P|338:62|292:93,1,99.9999999999999,10|8,0:0|0:0,0:0:0:0:
270,131,25224,1,0,1:0:0:0:
230,222,25552,2,0,L|241:272,2,50,8|0|8,3:3|1:0|0:0,0:0:0:0:
139,179,26208,5,12,0:0:0:0:
404,326,36699,6,0,L|417:220,1,99.9999999999999,12|0,0:0|1:0,0:0:0:0:
448,188,37191,2,0,L|511:180,2,50,2|8|2,0:0|0:0|0:0,0:0:0:0:
394,103,37847,2,0,P|332:62|255:75,1,150,2|2,1:2|1:2,0:0:0:0:
197,150,38667,1,10,0:0:0:0:
270,217,38994,1,2,1:2:0:0:
202,290,39322,6,0,P|157:284|87:277,1,99.9999999999999,10|0,0:0|1:0,0:0:0:0:
59,304,39814,2,0,L|62:365,2,50,0|2|10,3:0|0:0|0:0,0:0:0:0:
12,214,40470,2,0,P|9:136|57:84,1,150,2|2,1:2|1:2,0:0:0:0:
142,37,41289,1,10,0:0:0:0:
200,117,41617,2,0,P|256:111|312:106,1,99.9999999999999,2|12,1:2|0:0,0:0:0:0:
339,14,42273,5,2,0:0:0:0:
423,66,42601,2,0,P|409:125|401:188,1,99.9999999999999,2|10,1:2|0:0,0:0:0:0:
431,206,43093,2,0,P|440:277|389:328,1,150,0|2,3:0|1:2,0:0:0:0:
289,324,43912,1,10,0:0:0:0:
256,229,44240,1,2,1:2:0:0:
307,143,44568,6,0,P|252:89|118:104,1,200,12|0,0:0|1:0,0:0:0:0:
45,131,45552,1,10,0:0:0:0:
45,131,45716,2,0,P|37:86|24:24,2,99.9999999999999,0|8|8,3:0|0:0|0:0,0:0:0:0:
23,176,46535,2,0,P|26:238|73:276,1,99.9999999999999,2|10,1:2|0:0,0:0:0:0:
149,256,47191,5,12,0:0:0:0:
186,348,47519,2,0,L|112:364,2,50,10|4|4,0:0|0:3|0:3,0:0:0:0:
284,329,48175,1,4,0:3:0:0:
252,233,48503,2,0,P|258:185|272:126,1,99.9999999999999,10|10,0:0|0:0,0:0:0:0:
291,37,49158,2,0,P|254:45|205:52,2,74.9999999999999,2|2|2,1:2|1:2|1:2,0:0:0:0:
337,18,49814,6,0,P|385:13|430:43,1,99.9999999999999,12|10,0:0|0:0,0:0:0:0:
454,81,50306,1,4,0:3:0:0:
388,156,50634,1,2,0:0:0:0:
480,194,50962,2,0,P|468:262|457:354,1,150,10|8,0:0|0:0,0:0:0:0:
363,374,51781,1,10,0:0:0:0:
301,295,52109,2,0,P|256:273|207:277,1,99.9999999999999,2|12,1:2|0:0,0:0:0:0:
130,342,52765,5,2,1:2:0:0:
50,281,53093,2,0,P|57:228|69:164,1,99.9999999999999,2|10,1:2|0:0,0:0:0:0:
95,141,53585,1,2,0:0:0:0:
196,164,53912,1,8,0:0:0:0:
196,164,54076,2,0,P|202:113|214:53,1,99.9999999999999,2|10,1:2|0:0,0:0:0:0:
298,15,54732,1,2,1:2:0:0:
440,77,55224,5,10,0:0:0:0:
440,77,55388,2,0,B|467:120|467:120|437:186,1,99.9999999999999,2|2,1:2|1:2,0:0:0:0:
411,202,55880,2,0,L|420:267,1,50,2|2,1:2|1:2,0:0:0:0:
450,288,56208,2,0,P|353:284|275:344,1,200,12|0,0:0|1:0,0:0:0:0:
256,379,57191,1,10,0:0:0:0:
157,360,57519,6,0,P|160:316|172:250,1,99.9999999999999,12|10,0:0|0:0,0:0:0:0:
204,224,58011,1,2,1:2:0:0:
137,149,58339,2,0,P|89:155|24:167,1,99.9999999999999,2|2,3:2|1:2,0:0:0:0:
2,129,58830,2,0,P|6:84|19:21,1,99.9999999999999,10|8,0:0|0:0,0:0:0:0:
59,4,59322,1,2,1:2:0:0:
193,59,59814,2,0,P|232:54|275:51,1,50,10|2,0:0|1:2,0:0:0:0:
290,69,60142,6,0,P|317:116|303:164,1,99.9999999999999,10|10,0:0|0:0,0:0:0:0:
270,191,60634,1,0,1:0:0:0:
270,191,60798,2,0,P|263:245|258:299,1,99.9999999999999,2|2,0:0|0:0,0:0:0:0:
215,380,61453,2,0,P|274:335|347:343,1,150,2|0,3:2|1:0,0:0:0:0:
445,333,62273,2,0,P|439:370|435:402,2,50,12|0|2,0:3|1:0|1:2,0:0:0:0:
485,302,62765,6,0,P|496:254|474:210,1,99.9999999999999,12|8,0:0|0:0,0:0:0:0:
432,183,63257,1,2,1:2:0:0:
484,98,63585,1,8,0:0:0:0:
401,52,63912,1,2,1:2:0:0:
401,52,64076,2,0,P|343:58|236:64,1,150,12|2,0:0|1:2,0:0:0:0:
154,38,64896,1,10,0:0:0:0:
120,132,65224,1,2,1:2:0:0:
214,165,65552,6,0,P|242:205|226:273,1,99.9999999999999,12|2,0:0|1:2,0:0:0:0:
205,292,66044,2,0,P|153:299|106:272,1,99.9999999999999,2|2,0:0|1:2,0:0:0:0:
47,201,66699,1,12,0:0:0:0:
120,132,67027,2,0,P|126:82|136:26,1,99.9999999999999,10|0,0:0|3:0,0:0:0:0:
234,22,67683,2,0,P|230:46|227:71,1,50,2|2,1:2|1:2,0:0:0:0:
264,105,68011,6,0,P|313:109|355:84,1,99.9999999999999,12|8,0:0|0:0,0:0:0:0:
384,43,68503,1,2,1:2:0:0:
476,93,68830,1,10,0:0:0:0:
476,93,68994,1,8,0:0:0:0:
421,176,69322,2,0,P|413:232|412:290,1,99.9999999999999,12|8,0:0|0:0,0:0:0:0:
428,323,69814,1,2,1:2:0:0:
285,369,70306,2,0,P|256:367|218:368,1,50,10|2,0:0|1:2,0:0:0:0:
188,348,70634,6,0,P|190:292|200:229,1,99.9999999999999,12|8,0:0|0:0,0:0:0:0:
289,213,71289,1,10,0:0:0:0:
306,114,71617,1,10,0:0:0:0:
214,74,71945,2,0,P|140:73|85:122,1,150,12|0,0:0|1:0,0:0:0:0:
67,221,72765,2,0,L|17:211,2,50,10|2|2,0:0|1:2|1:2,0:0:0:0:
98,260,73257,6,0,P|153:266|197:275,1,99.9999999999999,12|10,0:0|0:0,0:0:0:0:
244,304,73749,1,0,1:0:0:0:
244,304,73912,2,0,P|298:305|341:270,1,99.9999999999999,12|10,0:0|0:0,0:0:0:0:
433,290,74568,2,0,P|427:243|422:176,1,99.9999999999999,12|10,0:0|0:0,0:0:0:0:
469,167,75060,1,0,1:0:0:0:
469,167,75224,2,0,P|499:121|486:72,1,99.9999999999999,12|10,0:0|0:0,0:0:0:0:
408,21,75880,6,0,P|368:24|306:36,1,99.9999999999999,12|10,0:0|0:0,0:0:0:0:
266,60,76371,2,0,L|256:120,1,50,0|10,1:0|0:0,0:0:0:0:
299,146,76699,1,2,1:2:0:0:
299,146,76863,1,8,0:0:0:0:
227,215,77191,6,0,P|221:263|217:320,1,99.9999999999999,12|10,0:0|0:0,0:0:0:0:
118,330,77847,2,0,P|124:282|128:225,1,99.9999999999999,10|0,0:0|1:0,0:0:0:0:
100,195,78339,1,0,1:0:0:0:
100,195,78503,6,0,B|74:150|74:150|103:86,1,99.9999999999999,12|8,0:0|0:0,0:0:0:0:
126,65,78994,1,2,1:2:0:0:
225,60,79322,2,0,L|215:11,2,50,2|10|2,1:2|0:0|1:2,0:0:0:0:
259,96,79814,6,0,P|308:87|357:81,1,99.9999999999999,10|8,0:0|0:0,0:0:0:0:
405,97,80306,1,2,1:2:0:0:
457,182,80634,2,0,L|451:235,1,50,2|2,1:2|1:2,0:0:0:0:
473,282,80962,1,2,1:2:0:0:
473,282,81126,6,0,B|422:271|422:271|357:301,1,99.9999999999999,12|8,0:0|0:0,0:0:0:0:
336,318,81617,1,2,1:2:0:0:
236,320,81945,2,0,L|228:373,2,50,2|8|2,1:2|0:0|1:2,0:0:0:0:
202,282,82437,2,0,P|186:237|205:182,1,99.9999999999999,10|8,0:0|0:0,0:0:0:0:
233,150,82929,1,2,1:2:0:0:
328,180,83257,1,8,3:0:0:0:
383,96,83585,2,0,L|376:47,1,50,2|10,1:2|0:0,0:0:0:0:
330,26,83912,6,0,P|283:32|229:43,1,99.9999999999999,12|0,0:0|0:0,0:0:0:0:
131,29,84568,2,0,P|189:87|159:194,1,200,2|0,1:2|0:0,0:0:0:0:
74,242,85552,1,2,1:2:0:0:
141,316,85880,2,0,P|205:323|261:333,1,99.9999999999999,2|0,1:2|0:0,0:0:0:0:
325,277,86535,6,0,P|347:225|323:176,1,99.9999999999999,10|0,0:0|0:0,0:0:0:0:
297,151,87027,2,0,P|302:124|309:99,2,50,8|2|0,0:0|1:2|0:0,0:0:0:0:
218,213,87683,2,0,P|168:207|118:203,1,99.9999999999999,2|8,3:2|0:0,0:0:0:0:
78,172,88175,1,2,1:2:0:0:
100,74,88503,2,0,P|56:72|3:65,2,74.9999999999999,2|2|2,1:2|1:2|1:2,0:0:0:0:
138,42,89158,6,0,P|182:20|234:30,1,99.9999999999999,12|0,0:0|0:0,0:0:0:0:
265,64,89650,2,0,L|259:116,2,50,8|2|0,0:0|1:2|0:0,0:0:0:0:
364,55,90306,2,0,P|357:108|353:159,1,99.9999999999999,2|8,3:2|0:0,0:0:0:0:
325,196,90798,1,2,1:2:0:0:
395,266,91126,2,0,P|434:261|486:257,2,74.9999999999999,2|2|2,1:2|1:2|1:2,0:0:0:0:
367,308,91781,5,10,0:0:0:0:
367,308,94404,6,0,P|317:312|260:318,1,99.9999999999999,10|0,0:0|1:0,0:0:0:0:
217,323,94896,2,0,L|209:372,2,50,0|10|10,0:0|0:0|0:0,0:0:0:0:
130,271,95552,2,0,P|87:211|96:138,1,150,2|2,1:2|1:2,0:0:0:0:
154,57,96371,1,10,0:0:0:0:
249,85,96699,2,0,P|243:130|235:193,1,99.9999999999999,2|10,1:2|0:0,0:0:0:0:
330,232,97355,5,0,1:0:0:0:
330,232,97519,2,0,L|321:310,2,50,0|10|8,3:0|0:0|0:0,0:0:0:0:
393,154,98175,2,0,P|465:150|511:94,1,150,2|2,1:2|1:2,0:0:0:0:
453,12,98994,1,10,0:0:0:0:
364,58,99322,2,0,P|318:56|257:51,1,99.9999999999999,2|12,1:2|0:0,0:0:0:0:
172,10,99978,5,10,0:0:0:0:
99,78,100306,2,0,P|98:136|128:169,1,99.9999999999999,2|10,1:2|0:0,0:0:0:0:
171,180,100798,2,0,P|157:262|151:330,1,150,2|2,3:2|1:2,0:0:0:0:
239,375,101617,1,10,0:0:0:0:
316,311,101945,1,2,1:2:0:0:
274,219,102273,6,0,P|279:172|290:102,1,99.9999999999999,12|0,0:0|0:0,0:0:0:0:
345,38,102929,1,0,1:0:0:0:
446,65,103257,1,10,0:0:0:0:
446,65,103421,2,0,P|469:112|449:168,1,99.9999999999999,10|10,0:0|0:0,0:0:0:0:
428,196,103912,1,2,1:2:0:0:
457,291,104240,2,0,P|409:296|349:305,1,99.9999999999999,2|10,1:2|0:0,0:0:0:0:
320,335,104732,1,10,0:0:0:0:
320,335,104896,6,0,P|262:344|216:306,1,99.9999999999999,12|10,0:0|0:0,0:0:0:0:
190,290,105388,2,0,L|199:241,1,50,4|4,0:3|0:3,0:0:0:0:
113,188,105880,2,0,L|122:139,1,50,4|0,0:3|1:0,0:0:0:0:
99,93,106208,2,0,P|151:86|213:76,1,99.9999999999999,10|10,0:0|0:0,0:0:0:0:
268,7,106863,1,2,1:2:0:0:
367,41,107191,1,2,0:0:0:0:
367,41,107355,6,0,P|378:94|351:141,1,99.9999999999999,2|0,1:2|0:0,0:0:0:0:
278,194,108011,1,4,0:3:0:0:
355,257,108339,1,4,0:3:0:0:
276,319,108667,2,0,P|217:312|119:308,1,150,10|8,0:0|0:0,0:0:0:0:
54,239,109486,1,10,0:0:0:0:
130,174,109814,2,0,P|187:177|236:177,1,99.9999999999999,2|12,1:2|0:0,0:0:0:0:
315,229,110470,5,2,1:2:0:0:
401,179,110798,2,0,P|422:134|412:86,1,99.9999999999999,2|10,1:2|0:0,0:0:0:0:
380,47,111289,1,2,0:0:0:0:
292,91,111617,1,10,0:0:0:0:
292,91,111781,2,0,P|244:87|173:80,1,99.9999999999999,2|10,1:2|0:0,0:0:0:0:
117,15,112437,1,2,1:2:0:0:
50,151,112929,5,10,0:0:0:0:
50,151,113093,2,0,B|38:197|38:197|81:245,1,99.9999999999999,2|2,1:2|1:2,0:0:0:0:
117,259,113585,2,0,L|100:329,1,50,2|2,1:2|1:2,0:0:0:0:
151,327,113912,2,0,P|210:319|280:314,1,99.9999999999999,10|8,0:0|0:0,0:0:0:0:
298,330,114404,1,10,0:0:0:0:
371,262,114732,1,0,1:0:0:0:
371,262,114896,2,0,L|382:213,1,50,10|2,0:0|1:2,0:0:0:0:
424,186,115224,6,0,P|439:130|419:90,1,99.9999999999999,12|10,0:0|0:0,0:0:0:0:
382,63,115716,1,2,1:2:0:0:
310,132,116044,1,2,3:2:0:0:
310,132,116208,1,8,0:0:0:0:
235,65,116535,2,0,P|193:57|125:48,1,99.9999999999999,10|8,0:0|0:0,0:0:0:0:
86,56,117027,1,2,1:2:0:0:
157,188,117519,2,0,P|204:194|237:201,1,50,10|2,0:0|1:2,0:0:0:0:
254,210,117847,6,0,P|281:257|267:305,1,99.9999999999999,10|10,0:0|0:0,0:0:0:0:
243,342,118339,1,0,1:0:0:0:
243,342,118503,2,0,P|203:334|137:326,1,99.9999999999999,2|2,0:0|0:0,0:0:0:0:
57,376,119158,2,0,P|102:319|85:249,1,150,2|0,3:2|1:0,0:0:0:0:
59,152,119978,2,0,P|34:160|7:167,2,50,12|0|2,0:3|1:0|1:2,0:0:0:0:
92,114,120470,6,0,P|147:122|200:127,1,99.9999999999999,12|8,0:0|0:0,0:0:0:0:
238,144,120962,1,2,1:2:0:0:
308,73,121289,1,8,0:0:0:0:
404,114,121617,1,2,1:2:0:0:
404,114,121781,2,0,P|454:172|420:262,1,150,12|2,0:0|1:2,0:0:0:0:
376,315,122601,1,10,0:0:0:0:
298,252,122929,1,2,1:2:0:0:
241,334,123257,6,0,P|193:328|136:321,1,99.9999999999999,12|2,0:0|1:2,0:0:0:0:
99,293,123749,2,0,P|87:249|115:195,1,99.9999999999999,2|2,0:0|1:2,0:0:0:0:
151,173,124240,1,0,1:0:0:0:
151,173,124404,1,12,0:0:0:0:
140,73,124732,2,0,P|191:83|256:95,1,99.9999999999999,10|0,0:0|3:0,0:0:0:0:
329,134,125388,2,0,P|325:158|322:183,1,50,2|2,1:2|1:2,0:0:0:0:
293,224,125716,6,0,P|283:269|314:316,1,99.9999999999999,12|8,0:0|0:0,0:0:0:0:
357,328,126208,1,2,1:2:0:0:
453,295,126535,1,10,0:0:0:0:
453,295,126699,1,8,0:0:0:0:
418,200,127027,2,0,P|421:150|428:100,1,99.9999999999999,12|8,0:0|0:0,0:0:0:0:
449,54,127519,1,2,1:2:0:0:
305,10,128011,2,0,P|299:41|294:73,1,50,10|2,0:0|1:2,0:0:0:0:
266,100,128339,6,0,P|213:106|161:73,1,99.9999999999999,12|8,0:0|0:0,0:0:0:0:
144,51,128830,1,0,1:0:0:0:
144,51,128994,1,10,0:0:0:0:
48,82,129322,1,10,0:0:0:0:
101,166,129650,2,0,P|87:240|77:321,1,150,12|0,0:0|1:0,0:0:0:0:
176,329,130470,2,0,P|168:363|165:399,2,50,10|2|2,0:0|1:2|1:2,0:0:0:0:
211,292,130962,6,0,P|259:282|305:302,1,99.9999999999999,12|10,0:0|0:0,0:0:0:0:
345,340,131453,1,0,1:0:0:0:
345,340,131617,2,0,P|399:328|445:321,1,99.9999999999999,12|10,0:0|0:0,0:0:0:0:
490,232,132273,2,0,P|482:182|472:133,1,99.9999999999999,12|10,0:0|0:0,0:0:0:0:
438,105,132765,1,0,1:0:0:0:
438,105,132929,2,0,P|383:112|334:80,1,99.9999999999999,12|10,0:0|0:0,0:0:0:0:
279,15,133585,6,0,P|239:18|177:30,1,99.9999999999999,12|10,0:0|0:0,0:0:0:0:
137,55,134076,2,0,P|131:88|127:115,1,50,0|10,1:0|0:0,0:0:0:0:
165,146,134404,1,2,1:2:0:0:
165,146,134568,1,8,0:0:0:0:
248,201,134896,6,0,P|305:192|356:188,1,99.9999999999999,12|10,0:0|0:0,0:0:0:0:
446,203,135552,2,0,P|461:254|436:302,1,99.9999999999999,10|0,0:0|1:0,0:0:0:0:
404,327,136044,2,0,P|369:331|335:336,1,50,0|0,1:0|1:0,0:0:0:0:
312,360,136371,5,10,0:0:0:0:
59,303,141617,6,0,P|21:259|54:160,1,150,12|8,0:0|0:0,0:0:0:0:
77,144,142273,2,0,P|64:99|54:46,1,99.9999999999999,0|2,1:0|0:0,0:0:0:0:
156,26,142929,1,10,0:0:0:0:
156,26,143093,2,0,P|169:76|180:144,1,99.9999999999999,0|2,0:0|0:0,0:0:0:0:
185,173,143585,1,2,1:2:0:0:
279,204,143912,1,10,0:0:0:0:
355,139,144240,6,0,P|402:127|448:146,1,99.9999999999999,10|10,3:2|3:2,0:0:0:0:
492,181,144732,1,0,3:0:0:0:
492,181,144896,2,0,P|481:238|476:287,1,99.9999999999999,2|10,1:2|3:2,0:0:0:0:
477,330,145388,1,0,3:0:0:0:
394,384,145716,1,2,1:2:0:0:
394,384,145880,1,10,0:0:0:0:
312,325,146208,2,0,P|272:328|221:339,2,74.9999999999999,2|2|2,1:2|1:2|1:2,0:0:0:0:
349,292,146863,6,0,P|379:226|340:165,1,150,12|8,0:0|0:0,0:0:0:0:
297,139,147519,1,0,1:0:0:0:
327,46,147847,1,8,0:0:0:0:
327,46,148011,2,0,P|386:49|439:55,2,99.9999999999999,10|10|8,0:0|0:0|0:0,0:0:0:0:
284,19,148830,1,2,1:2:0:0:
187,44,149158,2,0,P|182:77|179:106,1,50,8|0,0:0|1:0,0:0:0:0:
146,131,149486,6,0,P|128:205|193:264,1,150,10|8,0:0|0:0,0:0:0:0:
220,272,150142,1,2,1:2:0:0:
294,204,150470,1,8,0:0:0:0:
294,204,150634,2,0,P|350:186|399:203,1,99.9999999999999,2|8,0:0|0:0,0:0:0:0:
427,227,151126,1,0,1:0:0:0:
463,320,151453,2,0,L|512:329,2,50,8|8|10,0:3|0:0|0:0,0:0:0:0:
379,376,152109,5,12,0:0:0:0:
424,78,163257,6,0,L|416:126,1,50,10|0,0:0|1:0,0:0:0:0:
438,178,163585,1,8,0:0:0:0:
438,178,163749,6,0,P|389:175|335:218,1,99.9999999999999,12|2,0:0|1:2,0:0:0:0:
322,244,164240,1,2,1:2:0:0:
279,336,164568,1,10,0:0:0:0:
279,336,164732,2,0,L|221:329,1,50,0|0,1:0|1:0,0:0:0:0:
183,351,165060,2,0,P|134:360|91:337,1,99.9999999999999,12|8,0:0|0:0,0:0:0:0:
62,296,165552,1,2,1:2:0:0:
131,224,165880,1,2,1:2:0:0:
131,224,166044,1,10,0:0:0:0:
54,159,166371,6,0,P|59:114|69:60,1,99.9999999999999,12|10,0:0|0:0,0:0:0:0:
109,30,166863,1,2,1:2:0:0:
193,83,167191,2,0,L|251:75,1,50,10|0,0:0|3:0,0:0:0:0:
282,44,167519,1,0,1:0:0:0:
282,44,167683,2,0,P|348:44|382:75,1,99.9999999999999,2|0,0:0|0:0,0:0:0:0:
392,109,168175,1,0,1:0:0:0:
309,162,168503,1,8,0:3:0:0:
309,162,168667,2,0,L|251:169,1,50,0|2,1:0|1:2,0:0:0:0:
210,179,168994,6,0,P|185:218|194:272,1,99.9999999999999,12|10,0:0|0:0,0:0:0:0:
234,296,169486,1,2,1:2:0:0:
324,253,169814,1,8,0:0:0:0:
405,319,170142,1,2,1:2:0:0:
405,319,170306,2,0,P|463:318|499:286,1,99.9999999999999,12|8,0:0|0:0,0:0:0:0:
508,244,170798,1,2,1:2:0:0:
422,191,171126,2,0,L|429:138,1,50,10|8,0:0|0:0,0:0:0:0:
465,107,171453,1,2,1:2:0:0:
393,36,171781,6,0,P|347:38|286:44,1,99.9999999999999,12|0,0:0|1:0,0:0:0:0:
244,57,172273,1,0,3:0:0:0:
192,142,172601,2,0,L|127:145,1,50,8|2,0:0|1:2,0:0:0:0:
96,164,172929,2,0,P|72:212|88:263,1,99.9999999999999,12|8,0:0|0:0,0:0:0:0:
120,287,173421,1,8,0:0:0:0:
222,275,173749,1,0,0:0:0:0:
222,275,173912,2,0,L|227:342,1,50,2|2,1:2|1:2,0:0:0:0:
265,355,174240,6,0,P|316:360|364:325,1,99.9999999999999,12|8,0:0|0:0,0:0:0:0:
384,294,174732,1,2,1:2:0:0:
320,217,175060,2,0,L|314:165,1,50,10|8,0:0|0:0,0:0:0:0:
275,144,175388,1,2,1:2:0:0:
275,144,175552,2,0,P|225:140|170:132,1,99.9999999999999,12|8,0:0|0:0,0:0:0:0:
126,120,176044,1,2,1:2:0:0:
124,24,176371,1,8,0:0:0:0:
124,24,176535,2,0,L|187:34,1,50,10|2,0:0|1:2,0:0:0:0:
221,47,176863,6,0,P|262:20|313:22,1,99.9999999999999,12|8,0:0|0:0,0:0:0:0:
380,95,177519,1,10,0:0:0:0:
449,22,177847,1,10,0:0:0:0:
509,96,178175,2,0,P|500:157|496:209,1,99.9999999999999,12|8,0:0|0:0,0:0:0:0:
501,245,178667,1,0,1:0:0:0:
402,262,178994,2,0,L|396:311,1,50,10|2,0:0|1:2,0:0:0:0:
359,344,179322,1,2,1:2:0:0:
359,344,179486,6,0,P|310:356|261:329,1,99.9999999999999,12|10,0:0|0:0,0:0:0:0:
236,303,179978,1,0,1:0:0:0:
236,303,180142,2,0,P|240:263|253:192,1,99.9999999999999,12|10,0:0|0:0,0:0:0:0:
341,162,180798,2,0,P|362:118|350:69,1,99.9999999999999,12|10,0:0|0:0,0:0:0:0:
317,40,181289,1,0,1:0:0:0:
317,40,181453,2,0,P|267:35|212:31,1,99.9999999999999,12|10,0:0|0:0,0:0:0:0:
166,117,182109,6,0,P|111:112|55:106,1,99.9999999999999,12|10,0:0|0:0,0:0:0:0:
20,128,182601,2,0,L|24:186,1,50,0|10,1:0|0:0,0:0:0:0:
69,210,182929,1,2,1:2:0:0:
69,210,183093,2,0,L|73:268,1,50,8|0,0:0|1:0,0:0:0:0:
37,297,183421,6,0,P|39:345|73:380,1,99.9999999999999,12|10,0:0|0:0,0:0:0:0:
169,344,184076,1,10,0:0:0:0:
169,344,184240,2,0,P|214:335|270:328,1,99.9999999999999,0|0,1:0|1:0,0:0:0:0:
317,319,184732,6,0,B|333:271|333:271|305:226,1,99.9999999999999,12|8,0:0|0:0,0:0:0:0:
276,189,185224,1,2,1:2:0:0:
177,173,185552,2,0,L|183:123,1,50,2|10,1:2|0:0,0:0:0:0:
214,84,185880,1,2,1:2:0:0:
214,84,186044,2,0,L|330:73,1,99.9999999999999,10|8,0:0|0:0,0:0:0:0:
353,44,186535,1,2,1:2:0:0:
450,84,186863,1,2,1:2:0:0:
450,84,187027,2,0,L|442:144,1,50,2|2,1:2|1:2,0:0:0:0:
469,176,187355,6,0,B|491:221|491:221|457:284,1,99.9999999999999,12|8,0:0|0:0,0:0:0:0:
439,306,187847,1,2,1:2:0:0:
348,264,188175,2,0,L|282:271,1,50,2|8,1:2|0:0,0:0:0:0:
269,311,188503,1,2,1:2:0:0:
269,311,188667,2,0,L|156:320,1,99.9999999999999,10|8,0:0|0:0,0:0:0:0:
127,291,189158,1,2,1:2:0:0:
185,211,189486,1,8,0:3:0:0:
185,211,189650,2,0,L|194:151,1,50,2|2,1:2|1:2,0:0:0:0:
236,137,189978,6,0,B|259:91|259:91|236:31,1,99.9999999999999,12|8,0:0|0:0,0:0:0:0:
205,10,190470,1,2,1:2:0:0:
114,53,190798,2,0,L|107:117,1,50,2|8,1:2|0:0,0:0:0:0:
73,137,191126,1,0,1:0:0:0:
73,137,191289,2,0,L|62:244,1,99.9999999999999,2|8,1:2|0:0,0:0:0:0:
100,270,191781,1,2,1:2:0:0:
188,328,192109,1,2,1:2:0:0:
188,328,192273,2,0,L|247:316,1,50,2|10,1:2|0:0,0:0:0:0:
286,329,192601,6,0,B|337:336|337:336|377:308,1,99.9999999999999,12|10,0:0|0:0,0:0:0:0:
418,279,193093,1,0,1:0:0:0:
494,215,193421,2,0,L|485:165,1,50,8|10,0:3|0:0,0:0:0:0:
512,125,193749,1,2,1:2:0:0:
512,125,193912,2,0,L|390:105,1,99.9999999999999,12|10,0:0|0:0,0:0:0:0:
372,79,194404,1,2,1:2:0:0:
285,31,194732,2,0,L|270:96,1,50,2|8,1:2|0:0,0:0:0:0:
232,107,195060,2,0,L|217:172,1,50,2|2,1:2|1:2,0:0:0:0:
256,192,195388,5,4,1:0:0:0:
256,192,195552,12,0,198011,0:0:0:0:
