osu file format v14

[General]
AudioFilename: audio.mp3
AudioLeadIn: 0
PreviewTime: 57095
Countdown: 0
SampleSet: Soft
StackLeniency: 0.7
Mode: 0
LetterboxInBreaks: 0
WidescreenStoryboard: 0

[Editor]
DistanceSpacing: 1.2
BeatDivisor: 2
GridSize: 4
TimelineZoom: 1

[Metadata]
Title:Falldown
TitleUnicode:Falldown
Artist:Imy
ArtistUnicode:Imy
Creator:Garden
Version:Easy
Source:
Tags:アイミー みゅー miyu myu Meteora Japanese Rock J-Rock 藍月なくる Aitsuki Nakuru Featured Artist FA osu! Narcissu Karen doujin m3-44 mpg mappers' guild
BeatmapID:2620386
BeatmapSetID:1260515

[Difficulty]
HPDrainRate:2
CircleSize:2
OverallDifficulty:2
ApproachRate:3
SliderMultiplier:0.799999999999999
SliderTickRate:1

[Events]
//Background and Video events
0,0,"meteora.jpg",0,0
//Break Periods
2,26408,35259
2,55224,56079
2,91981,92964
2,112929,113784
2,136571,140177
2,152309,162309
//Storyboard Layer 0 (Background)
//Storyboard Layer 1 (Fail)
//Storyboard Layer 2 (Pass)
//Storyboard Layer 3 (Foreground)
//Storyboard Layer 4 (Overlay)
//Storyboard Sound Samples

[TimingPoints]
1290,327.868852459016,4,2,1,30,1,0
3912,-100,4,2,1,40,0,0
5880,-100,4,2,1,50,0,0
7847,-100,4,2,1,60,0,0
9158,-100,4,2,1,30,0,0
10306,-100,4,2,1,70,0,0
15716,-100,4,2,1,60,0,0
26208,-100,4,2,1,30,0,0
36699,-100,4,2,1,60,0,0
57519,-100,4,2,1,70,0,1
77191,-100,4,2,1,60,0,0
78503,-100,4,2,1,70,0,0
83912,-100,4,2,1,60,0,0
115224,-100,4,2,1,75,0,1
134896,-100,4,2,1,60,0,0
136371,-100,4,2,1,50,0,0
140306,-100,4,2,1,60,0,0
141617,-100,4,2,1,70,0,0
152109,-100,4,2,1,40,0,0
163257,-100,4,2,1,60,0,0
163749,-100,4,2,1,80,0,1
166044,-100,4,2,1,80,0,0
166371,-100,4,2,1,80,0,1
183421,-100,4,2,1,60,0,0
184732,-100,4,2,1,70,0,0
195470,-100,4,2,1,60,0,0
198011,-100,4,2,1,40,0,0

[Colours]
Combo1 : 188,41,214
Combo2 : 128,128,255
Combo3 : 172,89,255
Combo4 : 126,126,190

[HitObjects]
164,227,10306,6,0,P|211:193|269:198,1,120,12|2,0:0|1:2,0:0:0:0:
352,248,11126,2,0,P|340:313|336:381,2,120,2|10|2,1:2|0:0|1:2,0:0:0:0:
427,189,12437,1,2,1:2:0:0:
349,67,12929,6,0,P|289:77|230:85,1,120,12|2,0:0|1:2,0:0:0:0:
144,41,13749,2,0,P|85:36|40:74,2,120,2|10|2,1:2|0:0|1:2,0:0:0:0:
230,85,15060,2,0,P|223:130|220:180,1,79.9999999999999,8|2,3:0|1:2,0:0:0:0:
300,217,15716,5,12,0:0:0:0:
159,347,16371,1,0,1:0:0:0:
12,222,17027,2,0,P|21:142|40:49,1,160,2|2,0:0|1:2,0:0:0:0:
225,27,18339,6,0,P|302:21|359:75,1,160,10|0,0:0|1:0,0:0:0:0:
436,250,19650,1,2,1:2:0:0:
280,362,20306,2,0,P|293:286|314:205,1,160,2|12,1:2|0:0,0:0:0:0:
151,104,21617,6,0,P|107:143|49:144,2,120,0|10|0,1:0|0:0|3:0,0:0:0:0:
196,19,22929,2,0,P|235:24|275:27,1,79.9999999999999,0|8,1:0|0:0,0:0:0:0:
370,14,23585,5,10,0:0:0:0:
438,193,24240,2,0,P|383:184|320:233,2,120,0|10|0,1:0|0:0|1:0,0:0:0:0:
504,262,25552,2,0,P|501:302|494:350,1,79.9999999999999,8|8,3:3|0:0,0:0:0:0:
406,377,26208,5,12,0:0:0:0:
86,357,36699,6,0,L|98:278,1,79.9999999999999,12|0,0:0|1:0,0:0:0:0:
127,186,37355,2,0,P|68:183|16:226,2,120,8|2|2,0:0|1:2|1:2,0:0:0:0:
195,254,38667,2,0,P|233:249|273:239,1,79.9999999999999,10|2,0:0|1:2,0:0:0:0:
317,153,39322,5,10,0:0:0:0:
486,242,39978,2,0,P|498:299|451:355,2,120,2|2|2,0:0|1:2|1:2,0:0:0:0:
406,188,41289,2,0,P|409:149|418:108,1,79.9999999999999,10|2,0:0|1:2,0:0:0:0:
468,26,41945,5,12,0:0:0:0:
373,7,42273,2,0,P|331:12|285:23,1,79.9999999999999,2|2,0:0|1:2,0:0:0:0:
257,109,42929,2,0,B|221:120|175:124|175:124|154:86|105:81,1,160,10|2,0:0|1:2,0:0:0:0:
30,129,43912,2,0,P|24:180|23:230,1,79.9999999999999,10|2,0:0|1:2,0:0:0:0:
104,259,44568,6,0,B|145:267|184:249|184:249|222:274|245:304,1,160,12|0,0:0|1:0,0:0:0:0:
303,374,45552,2,0,P|343:364|391:359,1,79.9999999999999,10|0,0:0|0:0,0:0:0:0:
462,307,46208,1,2,1:2:0:0:
403,231,46535,2,0,P|408:190|420:142,1,79.9999999999999,2|10,1:2|0:0,0:0:0:0:
342,91,47191,6,0,P|420:92|477:39,2,160,12|4|10,0:0|0:3|0:0,0:0:0:0:
283,274,49158,2,0,P|245:267|195:261,1,79.9999999999999,2|2,1:2|0:0,0:0:0:0:
119,307,49814,5,12,0:0:0:0:
17,143,50470,1,8,0:3:0:0:
156,11,51126,1,10,0:0:0:0:
313,120,51781,2,0,P|362:121|405:127,1,79.9999999999999,10|2,0:0|1:2,0:0:0:0:
478,169,52437,5,12,0:0:0:0:
413,239,52765,2,0,P|408:288|404:333,1,79.9999999999999,2|2,1:2|1:2,0:0:0:0:
316,356,53421,2,0,P|239:372|174:329,1,160,10|2,0:0|1:2,0:0:0:0:
127,245,54404,1,10,0:0:0:0:
200,183,54732,1,2,1:2:0:0:
200,183,57519,6,0,P|246:218|304:213,1,120,12|2,0:0|1:2,0:0:0:0:
394,177,58339,2,0,P|403:252|412:303,2,120,2|10|2,3:2|0:0|1:2,0:0:0:0:
432,88,59650,1,0,3:0:0:0:
301,26,60142,6,0,P|225:20|160:75,1,160,10|2,0:0|0:0,0:0:0:0:
192,161,61126,1,2,0:0:0:0:
104,200,61453,2,0,P|93:263|88:330,1,120,2|0,3:2|1:0,0:0:0:0:
165,377,62273,1,12,0:3:0:0:
276,286,62765,6,0,B|322:260|322:260|372:269|410:286,1,120,12|2,0:0|1:2,0:0:0:0:
469,326,63585,1,8,0:0:0:0:
500,185,64076,2,0,P|442:173|371:157,1,120,12|2,0:0|1:2,0:0:0:0:
292,124,64896,1,10,0:0:0:0:
347,45,65224,1,2,1:2:0:0:
254,17,65552,6,0,P|197:16|136:70,1,120,12|2,0:0|0:0,0:0:0:0:
122,143,66371,1,2,1:2:0:0:
203,193,66699,2,0,P|196:254|191:328,1,120,12|8,0:0|0:0,0:0:0:0:
103,350,67519,1,0,1:0:0:0:
31,224,68011,6,0,P|37:164|42:104,1,120,12|2,0:0|1:2,0:0:0:0:
116,43,68830,2,0,P|57:48|8:16,2,120,10|12|2,0:0|0:0|1:2,0:0:0:0:
207,12,70142,1,8,0:0:0:0:
282,134,70634,6,0,B|326:118|351:98|351:98|404:112|433:137,1,160,12|10,0:0|0:0,0:0:0:0:
503,186,71617,1,10,0:0:0:0:
418,230,71945,2,0,P|404:287|394:359,1,120,12|0,0:0|1:0,0:0:0:0:
303,378,72765,1,10,0:0:0:0:
192,286,73257,6,0,P|146:290|102:297,1,79.9999999999999,12|10,0:0|0:0,0:0:0:0:
29,246,73912,2,0,P|24:206|17:166,1,79.9999999999999,12|10,0:0|0:0,0:0:0:0:
87,101,74568,2,0,P|133:97|177:90,1,79.9999999999999,12|10,0:0|0:0,0:0:0:0:
249,140,75224,2,0,P|253:179|260:219,1,79.9999999999999,12|10,0:0|0:0,0:0:0:0:
347,261,75880,6,0,P|413:263|455:228,1,120,12|0,0:0|1:0,0:0:0:0:
481,139,76699,1,2,1:2:0:0:
348,82,77191,2,0,P|352:43|360:2,2,79.9999999999999,12|10|10,0:0|0:0|0:0,0:0:0:0:
383,171,78175,1,0,1:0:0:0:
307,229,78503,6,0,B|264:251|264:251|229:242|175:219,1,120,12|2,0:0|1:2,0:0:0:0:
100,227,79322,2,0,P|91:168|79:94,2,120,2|10|2,1:2|0:0|1:2,0:0:0:0:
52,310,80634,1,2,1:2:0:0:
190,350,81126,6,0,B|237:364|237:364|277:353|326:329,1,120,12|2,0:0|1:2,0:0:0:0:
378,278,81945,2,0,P|437:292|504:313,2,120,2|10|2,1:2|0:0|1:2,0:0:0:0:
311,207,83257,1,8,3:0:0:0:
381,142,83585,1,2,1:2:0:0:
324,64,83912,6,0,P|268:29|171:47,2,160,12|2|0,0:0|1:2|0:0,0:0:0:0:
381,142,85552,1,2,1:2:0:0:
476,145,85880,2,0,P|493:186|495:244,1,79.9999999999999,2|0,1:2|0:0,0:0:0:0:
471,313,86535,5,10,0:0:0:0:
283,269,87191,2,0,P|222:276|178:325,2,120,2|2|2,1:2|3:2|1:2,0:0:0:0:
367,222,88503,2,0,B|395:168|353:125|353:125|389:51,1,160,2|12,1:2|0:0,0:0:0:0:
195,12,89814,6,0,P|201:50|207:91,1,79.9999999999999,2|8,1:2|0:0,0:0:0:0:
128,146,90470,2,0,P|83:210|107:288,1,160,2|2,0:0|1:2,0:0:0:0:
178,344,91453,1,0,1:0:0:0:
261,296,91781,1,10,0:0:0:0:
261,296,94404,6,0,L|340:284,1,79.9999999999999,10|0,0:0|1:0,0:0:0:0:
422,233,95060,2,0,P|439:288|417:343,2,120,10|2|2,0:0|1:2|1:2,0:0:0:0:
338,186,96371,2,0,P|341:146|354:92,1,79.9999999999999,10|2,0:0|1:2,0:0:0:0:
433,59,97027,5,10,0:0:0:0:
244,22,97683,2,0,P|179:25|136:71,2,120,10|2|2,0:0|1:2|1:2,0:0:0:0:
321,79,98994,1,10,0:0:0:0:
253,147,99322,2,0,P|246:196|243:254,1,79.9999999999999,2|12,1:2|0:0,0:0:0:0:
317,288,99978,5,10,0:0:0:0:
394,231,100306,2,0,P|452:225|502:261,2,120,2|2|2,1:2|3:2|1:2,0:0:0:0:
317,288,101617,1,10,0:0:0:0:
243,226,101945,1,2,1:2:0:0:
169,288,102273,6,0,P|93:303|28:260,1,160,12|0,0:0|1:0,0:0:0:0:
19,164,103257,2,0,P|55:151|104:139,1,79.9999999999999,10|0,0:0|0:0,0:0:0:0:
158,68,103912,1,2,1:2:0:0:
248,101,104240,2,0,P|254:140|262:183,1,79.9999999999999,2|10,1:2|0:0,0:0:0:0:
341,232,104896,6,0,P|353:308|303:367,2,160,12|4|10,0:0|0:3|0:0,0:0:0:0:
430,62,106863,2,0,P|396:57|342:48,1,79.9999999999999,2|2,1:2|0:0,0:0:0:0:
261,15,107519,5,12,0:0:0:0:
78,73,108175,1,4,0:3:0:0:
223,197,108830,1,10,0:0:0:0:
39,255,109486,2,0,P|32:296|31:335,1,79.9999999999999,10|2,0:0|1:2,0:0:0:0:
117,376,110142,5,12,0:0:0:0:
195,321,110470,2,0,P|234:315|274:316,1,79.9999999999999,2|2,1:2|1:2,0:0:0:0:
362,356,111126,2,0,P|439:362|499:307,1,160,10|2,0:0|1:2,0:0:0:0:
506,215,112109,1,10,0:0:0:0:
421,168,112437,1,2,1:2:0:0:
420,167,115224,6,0,P|371:136|313:143,1,120,12|2,0:0|1:2,0:0:0:0:
216,141,116044,2,0,P|230:199|234:258,2,120,2|10|2,3:2|0:0|1:2,0:0:0:0:
165,59,117355,1,0,3:0:0:0:
34,119,117847,6,0,P|17:185|72:259,1,160,10|2,0:0|0:0,0:0:0:0:
146,309,118830,1,2,0:0:0:0:
226,257,119158,2,0,P|289:261|353:276,1,120,2|0,3:2|1:0,0:0:0:0:
408,344,119978,1,12,0:3:0:0:
489,225,120470,6,0,B|504:186|504:186|486:149|457:110,1,120,12|2,0:0|1:2,0:0:0:0:
382,70,121289,1,8,0:0:0:0:
284,176,121781,2,0,P|225:168|138:156,1,120,12|2,0:0|1:2,0:0:0:0:
82,109,122601,1,10,0:0:0:0:
19,182,122929,1,2,1:2:0:0:
81,254,123257,6,0,P|155:263|206:271,1,120,12|2,0:0|0:0,0:0:0:0:
266,338,124076,1,2,1:2:0:0:
338,275,124404,2,0,P|364:222|348:166,1,120,12|8,0:0|0:0,0:0:0:0:
285,92,125224,1,0,1:0:0:0:
405,13,125716,6,0,P|480:27|511:83,1,120,12|2,0:0|1:2,0:0:0:0:
465,146,126535,2,0,P|405:152|347:165,2,120,10|12|2,0:0|0:0|1:2,0:0:0:0:
511,230,127847,1,8,0:0:0:0:
427,347,128339,6,0,B|394:328|363:298|363:298|321:302|285:326,1,160,12|10,0:0|0:0,0:0:0:0:
209,377,129322,1,8,0:0:0:0:
125,330,129650,2,0,P|113:277|106:194,1,120,12|0,0:0|1:0,0:0:0:0:
171,140,130470,1,10,0:0:0:0:
297,208,130962,6,0,P|343:212|387:219,1,79.9999999999999,12|10,0:0|0:0,0:0:0:0:
460,168,131617,2,0,P|465:128|472:88,1,79.9999999999999,12|10,0:0|0:0,0:0:0:0:
402,23,132273,2,0,P|356:19|312:12,1,79.9999999999999,12|10,0:0|0:0,0:0:0:0:
240,62,132929,2,0,P|236:101|229:141,1,79.9999999999999,12|10,0:0|0:0,0:0:0:0:
297,208,133585,6,0,P|331:256|321:313,1,120,12|0,0:0|1:0,0:0:0:0:
247,374,134404,1,2,1:2:0:0:
127,294,134896,2,0,P|88:298|43:306,2,79.9999999999999,12|10|10,0:0|0:0|0:0,0:0:0:0:
276,106,136371,1,10,0:0:0:0:
276,105,141617,6,0,P|353:96|413:146,1,160,12|0,0:0|1:0,0:0:0:0:
474,328,142929,1,10,0:0:0:0:
285,364,143585,2,0,P|287:328|300:275,1,79.9999999999999,2|10,1:2|0:0,0:0:0:0:
377,232,144240,6,0,P|385:151|318:91,1,160,10|2,3:2|1:2,0:0:0:0:
241,121,145224,1,10,3:2:0:0:
172,54,145552,2,0,B|145:39|110:35|110:35|84:59|84:59|55:49|7:53,2,160,10|2|12,0:0|1:2|0:0,0:0:0:0:
359,11,147519,6,0,B|403:40|403:40|412:136,1,120,0|10,1:0|0:0,0:0:0:0:
479,172,148339,2,0,P|421:161|369:190,1,120,10|2,0:0|1:2,0:0:0:0:
314,268,149158,1,8,0:0:0:0:
227,226,149486,6,0,P|187:221|145:220,1,79.9999999999999,10|0,0:0|3:0,0:0:0:0:
61,176,150142,2,0,P|28:127|45:64,2,120,2|2|0,1:2|0:0|1:0,0:0:0:0:
147,219,151453,2,0,P|139:258|134:298,1,79.9999999999999,8|10,0:3|0:0,0:0:0:0:
42,326,152109,5,12,0:0:0:0:
446,321,163749,6,0,P|460:264|430:214,1,120,12|2,0:0|1:2,0:0:0:0:
348,164,164568,1,10,0:0:0:0:
392,27,165060,2,0,L|274:49,1,120,12|2,0:0|1:2,0:0:0:0:
185,11,165880,1,2,1:2:0:0:
81,111,166371,6,0,B|50:151|50:151|71:216,1,120,12|2,0:0|1:2,0:0:0:0:
152,269,167191,2,0,P|93:269|48:308,2,120,10|2|0,0:0|0:0|1:0,0:0:0:0:
237,313,168503,1,8,0:3:0:0:
367,253,168994,6,0,P|374:193|387:134,1,120,12|2,0:0|1:2,0:0:0:0:
466,80,169814,1,8,0:0:0:0:
337,14,170306,2,0,B|295:19|258:25|258:25|234:57,1,120,12|2,0:0|1:2,0:0:0:0:
206,149,171126,1,10,0:0:0:0:
118,109,171453,1,2,1:2:0:0:
82,198,171781,6,0,P|70:265|66:331,1,120,12|2,0:0|3:2,0:0:0:0:
142,376,172601,1,8,0:0:0:0:
205,303,172929,2,0,P|258:277|325:290,1,120,12|8,0:0|0:0,0:0:0:0:
394,342,173749,1,0,1:0:0:0:
501,246,174240,6,0,P|493:191|480:127,1,120,12|2,0:0|1:2,0:0:0:0:
402,70,175060,2,0,B|446:76|446:76|474:61|511:39,2,120,10|12|2,0:0|0:0|1:2,0:0:0:0:
307,55,176371,1,8,0:0:0:0:
247,186,176863,6,0,P|292:194|348:200,1,79.9999999999999,12|8,0:0|0:0,0:0:0:0:
422,195,177519,1,10,0:0:0:0:
444,288,177847,1,8,0:0:0:0:
355,325,178175,2,0,P|302:316|218:305,1,120,12|0,0:0|1:0,0:0:0:0:
157,361,178994,1,10,0:0:0:0:
52,262,179486,6,0,P|50:223|44:171,1,79.9999999999999,12|10,0:0|0:0,0:0:0:0:
106,107,180142,2,0,P|145:104|185:100,1,79.9999999999999,12|10,0:0|0:0,0:0:0:0:
254,167,180798,2,0,P|256:206|262:258,1,79.9999999999999,12|10,0:0|0:0,0:0:0:0:
337,303,181453,2,0,P|376:298|416:296,1,79.9999999999999,12|10,0:0|0:0,0:0:0:0:
489,233,182109,6,0,P|505:176|475:126,1,120,12|0,0:0|1:0,0:0:0:0:
400,66,182929,1,2,1:2:0:0:
325,189,183421,2,0,L|245:195,2,79.9999999999999,12|10|10,0:0|0:0|0:0,0:0:0:0:
395,254,184404,1,0,1:0:0:0:
323,317,184732,6,0,P|268:323|198:329,1,120,12|2,0:0|1:2,0:0:0:0:
135,260,185552,2,0,B|149:301|149:301|139:328|116:370,2,120,2|10|2,1:2|0:0|1:2,0:0:0:0:
75,185,186863,1,2,1:2:0:0:
152,63,187355,6,0,P|201:76|281:92,1,120,12|2,0:0|1:2,0:0:0:0:
349,37,188175,2,0,B|390:8|390:8|437:16|469:25,2,120,2|10|2,1:2|0:0|1:2,0:0:0:0:
357,132,189486,1,8,0:3:0:0:
499,155,189978,6,0,P|485:213|475:276,1,120,12|2,0:0|1:2,0:0:0:0:
402,335,190798,2,0,B|458:331|458:331|500:350|526:383,2,120,2|2|2,1:2|1:2|1:2,0:0:0:0:
314,374,192109,1,2,1:2:0:0:
178,323,192601,6,0,P|169:264|158:204,1,120,12|0,0:0|1:0,0:0:0:0:
127,113,193421,2,0,B|78:98|78:98|48:109|3:116,2,120,8|12|2,0:3|0:0|1:2,0:0:0:0:
200,51,194732,1,2,1:2:0:0:
283,99,195060,1,2,1:2:0:0:
256,192,195388,1,4,1:0:0:0:
256,192,195552,12,0,198011,0:0:0:0:
