osu file format v14

[General]
AudioFilename: audio.mp3
AudioLeadIn: 0
PreviewTime: 51435
Countdown: 0
SampleSet: Soft
StackLeniency: 0.7
Mode: 0
LetterboxInBreaks: 0
WidescreenStoryboard: 0

[Editor]
Bookmarks: 21435,77014,142698,170488
DistanceSpacing: 1
BeatDivisor: 2
GridSize: 32
TimelineZoom: 2.3

[Metadata]
Title:Fake
TitleUnicode:Fake
Artist:Imy
ArtistUnicode:Imy
Creator:Bellicose
Version:Normal
Source:
Tags:みゅー miyu myu mirin Beyond the despair Rock Japanese jrock featured artist fa mpg mappers' guild garden dored
BeatmapID:2629631
BeatmapSetID:1261105

[Difficulty]
HPDrainRate:3
CircleSize:3.2
OverallDifficulty:4
ApproachRate:5.5
SliderMultiplier:0.999999999999999
SliderTickRate:1

[Events]
//Background and Video events
0,0,"79639012_p0.jpg",0,0
//Break Periods
2,76740,85994
2,163109,169363
//Storyboard Layer 0 (Background)
//Storyboard Layer 1 (Fail)
//Storyboard Layer 2 (Pass)
//Storyboard Layer 3 (Foreground)
//Storyboard Layer 4 (Overlay)
//Storyboard Sound Samples

[TimingPoints]
1225,315.789473684211,4,2,1,40,1,0
1225,-100,4,2,1,40,0,0
10382,-100,4,2,1,50,0,0
11330,-100,4,2,1,60,0,0
30119,-100,4,2,1,60,0,0
30435,-100,4,2,1,60,0,0
40225,-100,4,2,1,65,0,0
40540,-100,4,2,1,65,0,0
42593,-100,4,2,1,50,0,0
42909,-100,4,2,1,35,0,0
43540,-100,4,2,1,40,0,0
44172,-100,4,2,1,45,0,0
44803,-100,4,2,1,50,0,0
45119,-100,4,2,1,50,0,0
45435,-100,4,2,1,55,0,0
46067,-100,4,2,1,60,0,0
46698,-100,4,2,1,65,0,0
51435,-100,4,2,1,40,0,0
51672,-100,4,2,1,5,0,0
51751,-95.2380952380952,4,2,1,70,0,1
59330,-95.2380952380952,4,2,1,75,0,1
60435,-95.2380952380952,4,2,1,70,0,1
61540,-95.2380952380952,4,2,1,70,0,1
61856,-95.2380952380952,4,2,1,70,0,1
66909,-100,4,2,1,60,0,1
71330,-100,4,2,1,70,0,1
71961,-100,4,2,1,70,0,1
73856,-95.2380952380952,4,2,1,70,0,1
74488,-95.2380952380952,4,2,1,75,0,1
76540,-95.2380952380952,4,2,1,75,0,0
77014,-100,4,2,1,60,0,0
87119,-105.263157894737,4,2,1,50,0,0
92172,-100,4,2,1,50,0,0
92251,-100,4,2,2,50,0,0
92646,-100,4,2,1,50,0,0
92725,-100,4,2,2,50,0,0
93119,-100,4,2,1,50,0,0
93198,-100,4,2,2,50,0,0
93593,-100,4,2,1,50,0,0
93672,-100,4,2,2,50,0,0
94067,-100,4,2,1,50,0,0
94146,-100,4,2,2,50,0,0
94382,-100,4,2,1,50,0,0
94461,-100,4,2,2,50,0,0
94698,-100,4,2,1,50,0,0
96593,-100,4,2,1,60,0,0
105909,-100,4,2,1,65,0,0
106225,-100,4,2,1,65,0,0
107646,-100,4,2,1,40,0,0
108119,-100,4,2,2,35,0,0
108277,-100,4,2,1,35,0,0
108435,-100,4,2,2,35,0,0
108593,-100,4,2,1,35,0,0
108751,-100,4,2,2,35,0,0
108909,-100,4,2,1,35,0,0
108988,-100,4,2,2,35,0,0
109225,-100,4,2,1,40,0,0
109303,-100,4,2,2,40,0,0
109540,-100,4,2,1,40,0,0
109619,-100,4,2,2,40,0,0
109856,-100,4,2,1,45,0,0
109935,-100,4,2,2,45,0,0
110172,-100,4,2,1,45,0,0
110251,-100,4,2,2,45,0,0
110488,-100,4,2,1,50,0,0
110567,-100,4,2,2,50,0,0
110803,-100,4,2,1,50,0,0
110882,-100,4,2,2,50,0,0
111119,-100,4,2,1,55,0,0
111198,-100,4,2,2,55,0,0
111435,-100,4,2,1,55,0,0
111514,-100,4,2,2,55,0,0
111751,-100,4,2,1,60,0,0
111830,-100,4,2,2,60,0,0
112067,-100,4,2,1,60,0,0
112146,-100,4,2,2,60,0,0
112382,-100,4,2,1,65,0,0
117435,-95.2380952380952,4,2,1,70,0,1
125014,-95.2380952380952,4,2,1,70,0,1
126119,-95.2380952380952,4,2,1,70,0,1
127225,-95.2380952380952,4,2,1,70,0,1
127540,-95.2380952380952,4,2,1,70,0,1
132593,-100,4,2,1,60,0,1
137014,-100,4,2,1,70,0,1
137646,-100,4,2,1,70,0,1
139540,-95.2380952380952,4,2,1,70,0,1
140172,-95.2380952380952,4,2,1,75,0,1
142619,-95.2380952380952,4,2,1,75,0,0
142698,-95.2380952380952,4,2,1,70,0,1
149961,-95.2380952380952,4,2,1,70,0,1
150277,-95.2380952380952,4,2,1,70,0,1
151540,-95.2380952380952,4,2,1,70,0,1
152803,-95.2380952380952,4,2,1,70,0,1
153119,-95.2380952380952,4,2,1,70,0,1
154067,-95.2380952380952,4,2,1,70,0,1
154382,-95.2380952380952,4,2,1,70,0,1
157856,-95.2380952380952,4,2,1,70,0,1
160382,-95.2380952380952,4,2,1,75,0,1
162909,-95.2380952380952,4,2,1,70,0,0
173014,-95.2380952380952,4,2,1,70,0,1
177751,-95.2380952380952,4,2,1,70,0,1
178067,-95.2380952380952,4,2,1,70,0,1
185646,-95.2380952380952,4,2,1,75,0,1
188172,-100,4,2,1,60,0,0

[Colours]
Combo1 : 227,139,243
Combo2 : 154,209,254
Combo3 : 100,128,255
Combo4 : 235,186,254

[HitObjects]
92,67,10382,6,0,P|108:123|118:172,1,99.9999999999999,6|10,0:1|0:2,0:0:0:0:
121,213,10856,1,2,1:2:0:0:
143,361,11330,6,0,P|67:346|32:343,2,99.9999999999999,6|10|2,1:2|0:0|1:2,0:0:0:0:
192,353,12119,1,2,1:2:0:0:
287,321,12435,2,0,P|333:296|345:241,1,99.9999999999999,10|0,0:0|1:0,0:0:0:0:
329,205,12909,1,10,0:0:0:0:
333,105,13225,2,0,P|292:113|218:123,2,99.9999999999999,2|10|0,1:2|0:2|1:0,0:0:0:0:
362,65,14014,1,2,1:2:0:0:
362,65,14172,2,0,P|418:55|460:99,1,99.9999999999999,10|10,0:0|0:2,0:0:0:0:
475,122,14646,1,2,1:2:0:0:
485,221,14961,6,0,B|454:234|454:234|443:261|443:261|394:280,1,99.9999999999999,10|0,0:0|1:0,0:0:0:0:
370,307,15435,2,0,P|268:292|250:292,1,99.9999999999999,10|2,0:0|1:2,0:0:0:0:
225,313,15909,1,2,1:2:0:0:
225,313,16067,2,0,P|184:358|138:336,1,99.9999999999999,10|4,0:2|1:2,0:0:0:0:
59,310,16698,6,0,P|72:220|75:194,1,99.9999999999999,10|2,0:2|1:2,0:0:0:0:
77,160,17172,1,2,1:2:0:0:
87,60,17488,2,0,P|139:85|194:81,1,99.9999999999999,10|0,0:0|1:0,0:0:0:0:
223,59,17961,1,10,0:0:0:0:
314,98,18277,2,0,P|327:19|332:-6,2,99.9999999999999,2|10|0,1:2|0:2|1:0,0:0:0:0:
306,147,19067,1,2,1:2:0:0:
306,147,19225,2,0,P|241:156|220:198,1,99.9999999999999,10|10,0:0|0:2,0:0:0:0:
219,230,19698,1,2,1:2:0:0:
127,269,20014,6,0,B|98:312|98:312|122:365,1,99.9999999999999,10|0,0:0|1:0,0:0:0:0:
165,371,20488,2,0,P|213:364|270:355,1,99.9999999999999,10|0,0:0|1:0,0:0:0:0:
317,353,20961,1,0,1:0:0:0:
317,353,21119,1,8,0:0:0:0:
417,355,21435,6,0,P|487:354|507:325,1,99.9999999999999,6|8,1:2|0:0,0:0:0:0:
493,290,21909,1,2,0:0:0:0:
493,290,22067,2,0,P|480:193|480:132,1,150,2|10,1:2|0:0,0:0:0:0:
464,93,22698,2,0,B|399:101|442:128|364:140,1,99.9999999999999,2|8,0:0|0:0,0:0:0:0:
331,138,23172,1,2,0:0:0:0:
331,138,23330,1,2,1:2:0:0:
331,37,23646,1,8,0:0:0:0:
227,18,23961,6,0,P|194:12|147:60,2,99.9999999999999,2|8|2,1:2|0:0|1:2,0:0:0:0:
236,67,24751,1,0,1:0:0:0:
199,162,25067,1,10,0:0:0:0:
199,162,25225,2,0,P|206:211|211:261,1,99.9999999999999,2|8,0:0|0:0,0:0:0:0:
217,310,25698,1,2,0:0:0:0:
217,310,25856,2,0,P|199:342|126:343,1,99.9999999999999,2|8,1:2|0:0,0:0:0:0:
64,286,26488,6,0,P|51:348|48:394,2,99.9999999999999,6|8|2,1:2|0:0|1:2,0:0:0:0:
79,238,27277,2,0,P|39:195|49:139,1,99.9999999999999,0|10,1:0|0:0,0:0:0:0:
61,111,27751,1,2,0:0:0:0:
126,35,28067,2,0,P|197:50|229:52,1,99.9999999999999,8|2,0:0|1:2,0:0:0:0:
271,35,28540,2,0,P|248:99|256:142,1,99.9999999999999,0|2,1:0|0:0,0:0:0:0:
271,175,29014,5,2,1:2:0:0:
206,251,29330,2,0,L|194:320,1,50,10|2,0:0|1:2,0:0:0:0:
269,369,29803,1,2,1:2:0:0:
368,356,30119,2,0,B|422:346|422:346|433:328|439:303,1,99.9999999999999,10|0,0:0|1:0,0:0:0:0:
446,254,30593,1,8,0:0:0:0:
464,155,30909,1,10,0:2:0:0:
464,155,31067,1,6,1:0:0:0:
377,32,31540,6,0,B|306:46|358:73|274:88,1,99.9999999999999,6|8,1:2|0:0,0:0:0:0:
244,79,32014,1,2,0:0:0:0:
244,79,32172,2,0,P|260:154|267:248,1,150,2|10,1:2|0:0,0:0:0:0:
247,273,32803,2,0,P|187:280|158:255,1,99.9999999999999,2|8,0:0|0:0,0:0:0:0:
149,212,33277,1,2,0:0:0:0:
149,212,33435,1,2,1:2:0:0:
55,246,33751,1,8,0:0:0:0:
98,336,34067,6,0,P|37:341|-3:348,2,99.9999999999999,2|8|2,1:2|0:0|1:2,0:0:0:0:
146,347,34856,1,0,1:0:0:0:
244,365,35172,1,10,0:0:0:0:
244,365,35330,2,0,P|249:285|257:242,1,99.9999999999999,2|8,0:0|0:0,0:0:0:0:
276,221,35803,1,2,0:0:0:0:
276,221,35961,2,0,P|299:163|281:128,1,99.9999999999999,2|8,1:2|0:0,0:0:0:0:
251,37,36593,6,0,P|312:44|361:49,2,99.9999999999999,6|8|2,1:2|0:0|1:2,0:0:0:0:
201,30,37382,2,0,B|139:34|185:67|100:78,1,99.9999999999999,0|10,1:0|0:0,0:0:0:0:
66,77,37856,1,2,0:0:0:0:
30,170,38172,2,0,P|122:186|147:191,1,99.9999999999999,8|2,0:0|1:2,0:0:0:0:
178,190,38646,2,0,P|158:241|178:297,1,99.9999999999999,0|2,1:0|0:0,0:0:0:0:
200,321,39119,5,2,1:2:0:0:
291,361,39435,2,0,P|309:265|316:242,1,99.9999999999999,8|10,0:0|0:2,0:0:0:0:
322,214,39909,1,2,1:2:0:0:
421,205,40225,2,0,B|450:161|450:161|433:104,1,99.9999999999999,10|0,0:0|1:0,0:0:0:0:
424,67,40698,1,10,0:0:0:0:
334,21,41014,1,2,1:2:0:0:
275,102,41330,1,10,0:0:0:0:
184,58,41646,6,0,B|129:56|84:67|84:67|50:110|42:174,2,200,6|0|8,1:2|1:0|1:2,0:0:0:0:
270,108,43225,1,10,1:2:0:0:
349,168,43540,2,0,P|332:245|331:271,1,99.9999999999999,10|10,1:2|1:2,0:0:0:0:
327,366,44172,2,0,B|228:343|289:308|190:286,1,150,10|10,1:2|0:0,0:0:0:0:
155,304,44803,1,8,1:2:0:0:
54,302,45119,2,0,P|70:212|72:138,1,150,10|8,1:2|0:0,0:0:0:0:
72,103,45751,1,10,1:2:0:0:
153,45,46067,1,10,1:2:0:0:
238,96,46382,1,8,1:2:0:0:
219,194,46698,6,0,P|291:198|338:205,1,99.9999999999999,12|0,0:1|1:0,0:0:0:0:
365,219,47172,2,0,B|336:267|336:267|349:329,1,99.9999999999999,12|0,0:2|1:0,0:0:0:0:
369,353,47646,2,0,P|432:368|459:346,1,99.9999999999999,12|0,0:1|1:0,0:0:0:0:
485,308,48119,2,0,P|470:216|467:186,1,99.9999999999999,12|0,0:2|1:0,0:0:0:0:
469,158,48593,1,12,0:1:0:0:
382,107,48909,1,12,0:1:0:0:
285,134,49225,6,0,P|297:58|302:23,1,99.9999999999999,12|8,0:2|0:0,0:0:0:0:
201,21,49856,2,0,P|189:97|184:132,1,99.9999999999999,8|8,0:0|0:0,0:0:0:0:
171,170,50330,1,0,1:0:0:0:
171,170,50488,2,0,L|180:236,1,50,0|2,1:0|1:0,0:0:0:0:
253,284,50961,1,2,1:0:0:0:
42,126,51751,6,0,P|9:157|5:221,1,104.999996795654,4|8,1:2|0:0,0:0:0:0:
25,261,52225,1,2,0:2:0:0:
122,223,52540,1,2,0:2:0:0:
175,313,52856,2,0,P|247:313|288:315,1,104.999996795654,2|0,0:0|0:0,0:0:0:0:
324,343,53330,2,0,P|388:339|410:300,1,104.999996795654,8|2,0:0|1:2,0:0:0:0:
375,209,53961,1,10,0:0:0:0:
466,157,54277,6,0,P|455:75|451:39,1,104.999996795654,2|10,1:2|0:0,0:0:0:0:
442,1,54751,1,2,0:2:0:0:
336,2,55067,1,2,0:2:0:0:
289,96,55382,1,2,0:2:0:0:
349,182,55698,2,0,P|298:186|240:194,1,104.999996795654,2|0,0:2|0:0,0:0:0:0:
192,198,56172,2,0,L|190:264,1,52.4999983978271,0|0,1:0|0:0,0:0:0:0:
187,303,56488,1,10,0:0:0:0:
103,365,56803,6,0,P|68:353|54:289,1,104.999996795654,6|10,1:2|0:0,0:0:0:0:
74,243,57277,1,2,0:2:0:0:
21,151,57593,1,2,0:2:0:0:
74,60,57909,2,0,P|144:65|186:69,1,104.999996795654,2|0,0:2|0:0,0:0:0:0:
229,53,58382,2,0,B|209:89|209:89|233:172,1,104.999996795654,10|2,0:0|1:2,0:0:0:0:
331,140,59014,1,10,0:0:0:0:
370,237,59330,5,6,1:2:0:0:
475,233,59646,1,10,0:0:0:0:
475,233,59803,2,0,P|492:298|461:345,1,104.999996795654,2|0,1:2|0:0,0:0:0:0:
447,373,60277,1,8,0:0:0:0:
447,373,60435,1,6,1:0:0:0:
347,340,60751,1,6,1:0:0:0:
244,363,61067,2,0,B|241:318|241:318|253:298|253:298|252:242,1,104.999996795654,6|4,1:0|1:2,0:0:0:0:
248,209,61540,1,8,0:0:0:0:
339,157,61856,6,0,P|330:78|328:36,1,104.999996795654,6|10,1:2|0:0,0:0:0:0:
321,0,62330,1,2,0:0:0:0:
217,19,62646,1,2,0:0:0:0:
204,122,62961,2,0,P|150:127|114:88,1,104.999996795654,2|0,0:0|0:0,0:0:0:0:
66,112,63435,2,0,P|51:187|40:234,1,104.999996795654,10|2,0:0|1:2,0:0:0:0:
10,314,64067,1,10,0:0:0:0:
100,366,64382,6,0,B|148:353|148:353|171:284,1,104.999996795654,2|10,1:2|0:0,0:0:0:0:
175,248,64856,1,2,0:0:0:0:
256,181,65172,1,2,0:0:0:0:
333,251,65488,1,2,0:0:0:0:
333,251,65646,6,0,P|306:315|332:353,1,104.999996795654,6|8,1:2|0:0,0:0:0:0:
368,361,66119,1,8,0:0:0:0:
368,361,66277,2,0,L|442:350,1,52.4999983978271,8|8,0:0|0:0,0:0:0:0:
472,344,66593,2,0,L|483:277,1,52.4999983978271,8|8,0:0|0:0,0:0:0:0:
502,246,66909,6,0,B|509:106|426:213|440:44,1,200,6|10,1:2|0:0,0:0:0:0:
349,23,67856,1,0,1:0:0:0:
349,23,68014,2,0,P|340:88|326:186,1,150,2|2,1:2|0:0,0:0:0:0:
370,262,68803,1,10,0:0:0:0:
293,326,69119,1,2,1:2:0:0:
204,279,69435,6,0,P|185:337|62:334,1,200,2|10,1:2|0:0,0:0:0:0:
31,241,70382,1,2,0:0:0:0:
31,241,70540,2,0,P|49:147|61:70,1,150,2|2,1:2|0:0,0:0:0:0:
140,36,71330,1,10,0:1:0:0:
220,95,71646,1,14,0:1:0:0:
317,74,71961,1,12,0:0:0:0:
256,192,72040,12,8,73225,0:0:0:0:
355,280,73856,6,0,P|368:193|376:156,1,104.999996795654,8|8,0:0|0:0,0:0:0:0:
353,72,74488,1,12,0:0:0:0:
256,192,74567,12,2,76540,0:0:0:0:
472,36,87119,6,0,P|392:48|311:59,1,142.499996194839,6|2,1:2|0:0,0:0:0:0:
284,45,87751,2,0,B|279:141|319:89|322:199,1,142.499996194839,2|2,1:2|0:0,0:0:0:0:
323,226,88382,2,0,P|391:220|452:258,1,142.499996194839,2|2,1:2|0:0,0:0:0:0:
465,303,89014,1,2,1:2:0:0:
336,364,89488,1,10,0:0:0:0:
336,364,89646,6,0,P|253:345|183:335,1,142.499996194839,2|2,1:2|0:0,0:0:0:0:
149,344,90277,2,0,B|157:291|157:291|184:263|184:263|198:203,1,142.499996194839,2|2,1:2|0:0,0:0:0:0:
213,170,90909,2,0,P|215:93|150:75,1,142.499996194839,2|2,1:2|0:0,0:0:0:0:
118,88,91540,1,2,1:2:0:0:
26,197,92014,1,2,0:0:0:0:
26,197,92172,6,0,P|35:272|44:362,1,150,6|0,1:0|1:0,0:0:0:0:
86,369,92803,2,0,B|155:362|155:362|175:321|178:266,1,150,0|0,1:2|1:0,0:0:0:0:
202,241,93435,2,0,P|190:177|171:78,1,150,0|0,1:2|1:0,0:0:0:0:
162,44,94067,1,2,1:2:0:0:
260,59,94382,1,0,1:0:0:0:
356,34,94698,6,0,B|349:73|349:73|364:100|364:100|358:144,1,99.9999999999999,10|4,0:0|0:3,0:0:0:0:
359,179,95172,1,10,0:0:0:0:
444,230,95488,1,4,0:3:0:0:
465,327,95803,2,0,P|389:314|297:306,1,150,8|8,0:3|0:3,0:0:0:0:
226,345,96593,1,10,0:1:0:0:
226,345,96751,1,14,0:1:0:0:
121,237,97225,6,0,P|180:222|197:174,2,99.9999999999999,6|8|2,1:2|0:0|1:2,0:0:0:0:
71,233,98014,1,0,1:0:0:0:
11,159,98330,1,10,0:0:0:0:
11,159,98488,2,0,P|27:77|32:44,1,99.9999999999999,2|8,0:0|0:0,0:0:0:0:
54,17,98961,1,2,0:0:0:0:
54,17,99119,2,0,B|100:19|95:64|158:55,1,99.9999999999999,2|8,1:2|0:0,0:0:0:0:
230,105,99751,6,0,P|298:91|347:86,1,99.9999999999999,2|8,1:2|0:0,0:0:0:0:
379,74,100225,1,2,0:0:0:0:
379,74,100382,2,0,P|419:79|435:178,1,150,2|10,1:2|0:0,0:0:0:0:
390,181,101014,2,0,P|405:249|412:296,1,99.9999999999999,2|8,0:0|0:0,0:0:0:0:
416,328,101488,1,2,0:0:0:0:
416,328,101646,1,2,1:2:0:0:
325,369,101961,1,8,0:0:0:0:
230,336,102277,6,0,P|249:256|252:225,1,99.9999999999999,6|8,1:2|0:0,0:0:0:0:
256,188,102751,1,2,0:0:0:0:
256,188,102909,2,0,B|194:188|194:188|169:217|169:217|108:226,1,150,2|10,1:2|0:0,0:0:0:0:
72,208,103540,2,0,P|78:300|80:330,2,99.9999999999999,2|8|2,0:0|0:0|1:2,0:0:0:0:
51,161,104330,1,0,1:0:0:0:
51,161,104488,1,8,0:0:0:0:
94,71,104803,6,0,P|47:61|32:9,2,99.9999999999999,2|8|10,1:2|0:0|0:2,0:0:0:0:
143,61,105593,1,2,1:2:0:0:
240,40,105909,2,0,B|228:90|251:81|241:140,1,99.9999999999999,10|0,0:0|1:0,0:0:0:0:
229,187,106382,1,10,0:0:0:0:
148,245,106698,1,2,1:2:0:0:
172,341,107014,1,10,0:0:0:0:
269,361,107330,6,0,P|351:335|467:309,2,200,6|8|8,1:2|0:0|0:0,0:0:0:0:
172,341,108909,1,10,0:0:0:0:
108,263,109225,2,0,P|115:181|137:173,1,99.9999999999999,10|10,0:0|0:0,0:0:0:0:
219,169,109856,2,0,B|282:180|282:180|321:158|337:90,1,150,10|2,0:0|1:2,0:0:0:0:
340,62,110488,1,8,0:0:0:0:
436,35,110803,2,0,P|442:109|450:191,1,150,10|0,0:0|1:0,0:0:0:0:
453,234,111435,1,10,0:0:0:0:
479,330,111751,1,10,0:0:0:0:
383,360,112067,1,8,0:0:0:0:
349,265,112382,6,0,P|292:274|238:279,1,99.9999999999999,12|0,0:1|1:0,0:0:0:0:
202,261,112856,2,0,P|192:173|205:164,1,99.9999999999999,12|0,0:0|1:0,0:0:0:0:
235,153,113330,2,0,B|231:112|231:112|243:90|243:90|241:41,1,99.9999999999999,12|0,0:1|1:0,0:0:0:0:
215,13,113803,2,0,B|164:27|107:35,1,99.9999999999999,12|0,0:0|1:0,0:0:0:0:
66,35,114277,1,12,0:1:0:0:
20,124,114593,1,12,0:1:0:0:
86,198,114909,6,0,P|78:267|70:319,1,99.9999999999999,12|8,0:0|0:0,0:0:0:0:
69,347,115382,1,0,1:0:0:0:
69,347,115540,2,0,P|134:366|165:338,1,99.9999999999999,8|8,0:0|0:0,0:0:0:0:
255,332,116172,5,2,1:0:0:0:
255,332,116330,2,0,P|243:238|240:213,2,99.9999999999999,6|6|6,1:0|1:0|1:0,0:0:0:0:
353,352,117277,1,6,1:0:0:0:
353,352,117435,6,0,P|342:243|341:225,1,104.999996795654,4|8,1:2|0:0,0:0:0:0:
344,194,117909,1,2,0:2:0:0:
441,153,118225,1,2,0:2:0:0:
497,65,118540,2,0,P|464:26|412:42,1,104.999996795654,2|0,0:0|0:0,0:0:0:0:
368,60,119014,2,0,P|297:44|245:34,1,104.999996795654,8|2,0:0|1:2,0:0:0:0:
175,93,119646,1,10,0:0:0:0:
191,196,119961,6,0,P|262:180|314:170,1,104.999996795654,2|10,1:2|0:0,0:0:0:0:
346,169,120435,1,2,0:2:0:0:
439,217,120751,1,2,0:2:0:0:
432,321,121067,1,2,0:2:0:0:
334,358,121382,2,0,B|292:328|292:328|236:344,1,104.999996795654,2|0,0:2|0:0,0:0:0:0:
189,356,121856,2,0,L|198:291,1,52.4999983978271,0|0,1:0|0:0,0:0:0:0:
205,251,122172,1,10,0:0:0:0:
101,268,122488,6,0,P|56:254|40:202,1,104.999996795654,6|10,1:2|0:0,0:0:0:0:
63,155,122961,1,2,0:2:0:0:
166,136,123277,1,2,0:2:0:0:
266,166,123593,2,0,P|254:76|252:50,1,104.999996795654,2|0,0:2|0:0,0:0:0:0:
243,9,124067,2,0,B|197:17|204:44|147:51,1,104.999996795654,10|2,0:0|1:2,0:0:0:0:
45,28,124698,1,10,0:0:0:0:
3,124,125014,5,6,1:2:0:0:
104,166,125330,1,10,0:0:0:0:
104,166,125488,2,0,B|91:202|91:202|74:217|74:217|58:277,1,104.999996795654,2|0,1:2|0:0,0:0:0:0:
60,315,125961,1,8,0:0:0:0:
60,315,126119,1,6,1:0:0:0:
151,367,126435,1,6,1:0:0:0:
245,320,126751,2,0,P|315:326|360:329,1,104.999996795654,6|4,1:0|1:2,0:0:0:0:
402,334,127225,1,8,0:0:0:0:
414,229,127540,6,0,P|344:223|299:220,1,104.999996795654,6|10,1:2|0:0,0:0:0:0:
256,216,128014,1,2,0:0:0:0:
191,133,128330,1,2,0:0:0:0:
239,39,128646,2,0,P|289:4|336:21,1,104.999996795654,2|0,0:0|0:0,0:0:0:0:
380,19,129119,2,0,P|367:89|360:142,1,104.999996795654,10|2,0:0|1:2,0:0:0:0:
445,187,129751,1,10,0:0:0:0:
446,292,130067,6,0,B|423:321|423:321|337:301,1,104.999996795654,2|10,1:2|0:0,0:0:0:0:
305,294,130540,1,2,0:0:0:0:
209,338,130856,1,2,0:0:0:0:
111,298,131172,1,2,0:0:0:0:
111,298,131330,6,0,P|90:245|135:197,1,104.999996795654,6|8,1:2|0:0,0:0:0:0:
160,185,131803,1,8,0:0:0:0:
160,185,131961,2,0,L|155:112,1,52.4999983978271,8|8,0:0|0:0,0:0:0:0:
193,94,132277,2,0,L|187:24,1,52.4999983978271,8|8,0:0|0:0,0:0:0:0:
144,16,132593,6,0,B|77:3|77:3|6:33|20:129,1,200,6|10,1:2|0:0,0:0:0:0:
17,214,133540,1,0,1:0:0:0:
17,214,133698,2,0,B|103:207|59:167|163:165,1,150,2|2,1:2|0:0,0:0:0:0:
248,201,134488,1,10,0:0:0:0:
237,300,134803,1,2,1:2:0:0:
328,341,135119,6,0,P|414:355|465:263,1,200,2|10,1:2|0:0,0:0:0:0:
500,174,136067,1,2,0:0:0:0:
500,174,136225,2,0,P|483:94|463:5,1,150,2|2,1:2|0:0,0:0:0:0:
393,93,137014,1,10,0:1:0:0:
302,49,137330,1,14,0:1:0:0:
224,111,137646,1,12,0:0:0:0:
256,192,137725,12,8,138909,0:0:0:0:
105,122,139540,6,0,P|119:201|125:248,1,104.999996795654,8|8,0:0|0:0,0:0:0:0:
181,312,140172,1,12,0:0:0:0:
256,192,140251,12,8,142067,0:0:0:0:
120,130,142698,6,0,P|113:51|101:4,2,104.999996795654,6|10|0,1:2|0:0|1:0,0:0:0:0:
34,191,143646,1,8,0:0:0:0:
49,294,143961,2,0,L|122:280,1,52.4999983978271,0|2,1:0|0:0,0:0:0:0:
178,354,144435,1,2,0:0:0:0:
270,303,144751,1,2,0:0:0:0:
358,360,145067,6,0,B|364:325|364:325|384:310|384:310|396:245,1,104.999996795654,2|0,0:0|0:0,0:0:0:0:
388,213,145540,1,8,0:0:0:0:
477,157,145856,1,2,1:2:0:0:
455,54,146172,1,10,0:0:0:0:
355,19,146488,6,0,L|289:30,1,52.4999983978271,2|2,1:2|0:0,0:0:0:0:
199,44,146961,2,0,B|207:113|234:74|242:148,1,104.999996795654,2|0,0:0|0:0,0:0:0:0:
246,190,147435,1,10,0:0:0:0:
259,294,147751,6,0,B|332:274|332:274|367:291,2,104.999996795654,6|10|2,1:2|0:0|1:2,0:0:0:0:
176,358,148698,1,10,0:0:0:0:
176,358,148856,2,0,P|144:312|87:317,1,104.999996795654,2|0,0:0|0:0,0:0:0:0:
52,336,149330,1,10,0:0:0:0:
0,243,149646,1,2,1:2:0:0:
66,162,149961,1,10,0:0:0:0:
168,186,150277,6,0,P|162:106|158:77,1,104.999996795654,6|8,1:2|0:0,0:0:0:0:
167,32,150751,1,2,0:0:0:0:
167,32,150909,2,0,B|235:33|198:62|273:64,2,104.999996795654,2|8|0,1:2|0:0|1:0,0:0:0:0:
66,61,151856,1,8,0:0:0:0:
51,165,152172,2,0,L|-8:159,2,52.4999983978271,2|2|10,1:2|0:0|0:0,0:0:0:0:
118,245,152803,6,0,P|70:295|87:345,1,104.999996795654,6|8,1:2|0:0,0:0:0:0:
103,369,153277,2,0,P|173:353|231:348,1,104.999996795654,2|0,0:0|0:0,0:0:0:0:
258,351,153751,1,8,0:0:0:0:
359,322,154067,2,0,B|350:282|350:282|330:272|330:272|314:218,1,104.999996795654,2|8,1:2|0:0,0:0:0:0:
224,184,154698,2,0,L|206:250,2,52.4999983978271,2|2|10,1:2|0:0|0:0,0:0:0:0:
171,92,155330,6,0,P|194:29|245:26,1,104.999996795654,2|8,1:2|0:0,0:0:0:0:
277,18,155803,1,2,0:0:0:0:
353,90,156119,1,2,0:0:0:0:
445,39,156435,2,0,B|484:59|484:59|467:128,1,104.999996795654,2|2,0:0|0:0,0:0:0:0:
488,167,156909,2,0,B|430:168|461:203|385:210,1,104.999996795654,10|0,0:0|1:0,0:0:0:0:
290,208,157540,1,8,0:0:0:0:
200,263,157856,6,0,P|210:329|212:383,2,104.999996795654,6|8|0,1:2|0:0|1:0,0:0:0:0:
290,208,158803,2,0,L|297:133,1,52.4999983978271,8|0,0:0|0:0,0:0:0:0:
291,102,159119,2,0,P|355:95|369:49,2,104.999996795654,2|8|0,1:2|0:0|1:0,0:0:0:0:
208,36,160067,1,8,0:0:0:0:
127,102,160382,6,0,B|105:149|105:149|128:204,1,104.999996795654,6|10,1:2|0:0,0:0:0:0:
226,227,161014,2,0,L|217:298,1,52.4999983978271,2|2,1:2|0:0,0:0:0:0:
212,331,161330,2,0,L|151:327,1,52.4999983978271,10|2,0:0|0:0,0:0:0:0:
106,324,161646,1,6,1:2:0:0:
256,192,161725,12,4,162909,0:0:0:0:
455,64,170488,6,0,P|384:78|337:81,1,104.999996795654,12|0,0:1|1:0,0:0:0:0:
306,108,170961,2,0,B|310:143|310:143|329:159|329:159|339:218,1,104.999996795654,12|0,0:0|1:0,0:0:0:0:
363,248,171435,2,0,P|348:292|285:305,1,104.999996795654,12|0,0:1|1:0,0:0:0:0:
246,327,171909,2,0,P|233:245|226:209,1,104.999996795654,12|0,0:0|1:0,0:0:0:0:
214,172,172382,1,8,0:0:0:0:
115,208,172698,2,0,L|49:201,1,52.4999983978271,0|8,1:0|0:0,0:0:0:0:
10,196,173014,6,0,P|2:130|36:82,1,104.999996795654,6|10,1:2|0:0,0:0:0:0:
49,54,173488,1,2,0:0:0:0:
150,80,173803,1,2,0:0:0:0:
239,24,174119,2,0,P|318:33|347:36,1,104.999996795654,2|0,0:0|0:0,0:0:0:0:
396,33,174593,2,0,P|382:115|381:149,1,104.999996795654,10|2,0:0|1:2,0:0:0:0:
463,202,175225,1,10,0:0:0:0:
438,303,175540,6,0,P|384:288|336:312,1,104.999996795654,2|10,1:2|0:0,0:0:0:0:
311,351,176014,1,2,0:0:0:0:
212,313,176330,1,2,0:0:0:0:
246,213,176646,2,0,B|243:172|243:172|259:142|259:142|259:110,1,104.999996795654,2|0,0:0|0:0,0:0:0:0:
265,59,177119,2,0,P|231:21|169:42,1,104.999996795654,8|0,0:0|1:0,0:0:0:0:
102,98,177751,1,10,0:0:0:0:
108,202,178067,6,0,P|33:187|-5:184,2,104.999996795654,14|8|8,0:0|0:0|0:0,0:0:0:0:
135,308,179014,1,8,0:0:0:0:
135,308,179172,2,0,P|186:274|240:288,1,104.999996795654,0|0,1:0|1:0,0:0:0:0:
270,308,179646,1,8,0:0:0:0:
363,356,179961,1,8,0:0:0:0:
423,269,180277,1,8,0:0:0:0:
331,217,180593,6,0,P|347:115|350:101,1,104.999996795654,14|8,0:0|0:0,0:0:0:0:
390,17,181225,2,0,P|458:19|486:59,1,104.999996795654,8|8,0:0|0:0,0:0:0:0:
490,95,181698,1,0,1:0:0:0:
490,95,181856,2,0,P|474:197|471:211,1,104.999996795654,14|8,0:1|0:0,0:0:0:0:
478,303,182488,1,14,0:1:0:0:
378,269,182803,1,10,0:1:0:0:
289,326,183119,6,0,P|235:363|185:337,1,104.999996795654,12|0,0:1|1:0,0:0:0:0:
153,329,183593,2,0,P|173:235|177:202,1,104.999996795654,12|0,0:0|1:0,0:0:0:0:
177,173,184067,2,0,P|265:188|298:194,1,104.999996795654,12|0,0:1|1:0,0:0:0:0:
332,187,184540,2,0,P|360:137|345:76,1,104.999996795654,12|0,0:0|1:0,0:0:0:0:
336,41,185014,1,12,0:1:0:0:
235,10,185330,1,12,0:0:0:0:
132,34,185646,6,0,B|141:96|172:66|181:143,1,104.999996795654,12|0,0:1|1:0,0:0:0:0:
167,177,186119,2,0,P|88:165|56:161,1,104.999996795654,12|0,0:0|1:0,0:0:0:0:
22,196,186593,2,0,P|3:237|21:294,1,104.999996795654,12|0,0:1|1:0,0:0:0:0:
59,326,187067,2,0,P|126:312|166:304,1,104.999996795654,12|0,0:0|1:0,0:0:0:0:
214,310,187540,1,12,0:0:0:0:
310,351,187856,1,12,0:0:0:0:
394,296,188172,6,0,B|438:324|438:324|491:321,2,99.9999999999999,6|10|2,1:2|0:0|1:2,0:0:0:0:
397,246,188961,1,2,1:2:0:0:
488,205,189277,2,0,P|475:116|470:89,1,99.9999999999999,10|0,0:0|1:0,0:0:0:0:
460,57,189751,1,10,0:0:0:0:
368,98,190067,2,0,P|359:48|353:0,2,99.9999999999999,2|10|0,1:2|0:2|1:0,0:0:0:0:
375,147,190856,1,2,1:2:0:0:
375,147,191014,2,0,B|338:156|338:156|327:175|327:175|283:191,1,99.9999999999999,10|10,0:0|0:2,0:0:0:0:
239,190,191488,1,2,1:2:0:0:
242,90,191803,6,0,P|230:15|201:2,1,99.9999999999999,10|0,0:0|1:0,0:0:0:0:
165,15,192277,2,0,P|116:24|49:40,1,99.9999999999999,10|2,0:0|1:2,0:0:0:0:
21,55,192751,1,2,1:2:0:0:
21,55,192909,2,0,B|27:117|46:78|54:171,1,99.9999999999999,10|4,0:2|1:2,0:0:0:0:
44,248,193540,6,0,P|139:226|161:222,1,99.9999999999999,10|2,0:2|1:2,0:0:0:0:
190,214,194014,1,2,1:2:0:0:
287,238,194330,2,0,B|276:279|276:279|259:288|259:288|248:340,1,99.9999999999999,10|0,0:0|1:0,0:0:0:0:
244,375,194803,1,10,0:0:0:0:
152,334,195119,2,0,P|101:360|46:342,2,99.9999999999999,2|10|0,1:2|0:2|1:0,0:0:0:0:
154,283,195909,1,2,1:2:0:0:
154,283,196067,2,0,P|138:193|133:166,1,99.9999999999999,10|10,0:0|0:2,0:0:0:0:
124,135,196540,1,2,1:2:0:0:
28,106,196856,6,0,B|9:61|9:61|37:15,1,99.9999999999999,10|0,0:0|1:0,0:0:0:0:
85,13,197330,2,0,P|141:17|188:24,1,99.9999999999999,10|0,0:0|1:0,0:0:0:0:
220,57,197803,1,0,1:0:0:0:
220,57,197961,2,0,P|258:33|321:53,1,99.9999999999999,8|6,0:0|1:2,0:0:0:0:
310,143,198593,6,0,P|293:226|287:261,1,99.9999999999999,10|2,0:0|1:2,0:0:0:0:
282,290,199067,1,2,1:2:0:0:
353,359,199382,2,0,P|393:369|445:335,1,99.9999999999999,10|0,0:0|1:0,0:0:0:0:
462,295,199856,1,10,0:0:0:0:
427,201,200172,2,0,B|467:190|467:190|476:172|476:172|522:155,2,99.9999999999999,2|10|0,1:2|0:0|1:0,0:0:0:0:
377,196,200961,1,2,1:2:0:0:
377,196,201119,2,0,P|391:104|393:86,1,99.9999999999999,10|10,0:0|0:0,0:0:0:0:
397,47,201593,1,2,1:0:0:0:
302,12,201909,6,0,P|253:47|260:103,1,99.9999999999999,10|0,0:0|1:0,0:0:0:0:
262,131,202382,2,0,P|186:121|147:117,1,99.9999999999999,10|2,0:0|1:2,0:0:0:0:
113,110,202856,1,2,1:2:0:0:
113,110,203014,2,0,P|112:179|103:224,1,99.9999999999999,10|4,0:0|1:2,0:0:0:0:
20,260,203646,6,0,B|-4:298|-4:298|29:358,1,99.9999999999999,10|2,0:0|1:2,0:0:0:0:
72,348,204119,1,2,1:2:0:0:
170,366,204435,2,0,P|191:278|195:264,1,99.9999999999999,10|0,0:0|1:0,0:0:0:0:
209,220,204909,1,10,0:0:0:0:
239,124,205225,2,0,P|198:96|145:115,2,99.9999999999999,2|10|4,1:2|0:0|1:0,0:0:0:0:
287,136,206014,1,2,1:2:0:0:
287,136,206172,2,0,P|354:128|394:122,1,99.9999999999999,14|14,0:0|0:0,0:0:0:0:
436,123,206646,2,0,L|428:189,1,50,2|12,1:2|0:0,0:0:0:0:
423,222,206961,5,6,1:0:0:0:
486,299,207277,1,6,1:0:0:0:
431,382,207593,1,6,1:0:0:0:
333,358,207909,1,6,1:0:0:0:
331,257,208225,2,0,B|223:255|280:331|135:328,1,200,6|0,1:2|0:0,0:0:0:0:
